osu file format v14

[General]
AudioFilename: audio.mp3
AudioLeadIn: 0
PreviewTime: 34874
Countdown: 0
SampleSet: Soft
StackLeniency: 0.4
Mode: 0
LetterboxInBreaks: 0
WidescreenStoryboard: 1

[Editor]
Bookmarks: 2731,24674,35646,46617,57589,68560,90503,101474,112446,123417,134389
DistanceSpacing: 1
BeatDivisor: 4
GridSize: 32
TimelineZoom: 1.500001

[Metadata]
Title:MONONOKE
TitleUnicode:MONONOKE
Artist:seatrus
ArtistUnicode:seatrus
Creator:Realazy
Version:Normal
Source:
Tags:fa featured artist owc 2020 qualifiers nomod nm4 agatsu zelq cubby eiri- ayyri neurofunk oriental drum n bass dnb drumstep lanota electronic instrumental
BeatmapID:3117301
BeatmapSetID:1280194

[Difficulty]
HPDrainRate:3
CircleSize:3
OverallDifficulty:4
ApproachRate:6
SliderMultiplier:1.2
SliderTickRate:1

[Events]
//Background and Video events
0,0,"mononoke.jpg",0,0
//Break Periods
2,68759,78482
//Storyboard Layer 0 (Background)
//Storyboard Layer 1 (Fail)
//Storyboard Layer 2 (Pass)
//Storyboard Layer 3 (Foreground)
//Storyboard Layer 4 (Overlay)
//Storyboard Sound Samples

[TimingPoints]
2732,342.857142857143,4,2,1,70,1,0
2732,-125,4,2,1,70,0,0
13703,-111.111111111111,4,2,1,70,0,0
24332,-100,4,2,1,70,0,0
79532,-111.111111111111,4,2,1,70,0,0
90161,-100,4,2,1,70,0,0
90503,-111.111111111111,4,2,1,70,0,0
112446,-100,4,2,1,70,0,0

[Colours]
Combo1 : 237,134,58
Combo2 : 245,75,46

[HitObjects]
68,310,2731,6,0,B|120:321|153:282|142:276|177:236|234:253,1,180,10|8,0:0|0:0,0:0:0:0:
275,263,3417,1,2,0:0:0:0:
340,333,3760,1,2,3:3:0:0:
404,262,4103,2,0,P|414:190|426:119,1,144,10|10,0:0|0:0,0:0:0:0:
432,72,4789,2,0,P|384:79|336:84,1,96,2|8,0:0|0:0,0:0:0:0:
256,31,5474,6,0,P|189:95|96:88,1,192,10|0,0:0|3:0,0:0:0:0:
20,148,6503,1,10,0:0:0:0:
80,222,6846,2,0,P|92:255|103:290,2,72,10|0|10,0:2|0:0|0:0,0:0:0:0:
153,160,7703,2,0,L|162:109,2,48,2|10|2,0:0|0:0|3:3,0:0:0:0:
183,196,8217,6,0,P|204:260|224:339,1,144,10|10,0:0|0:0,0:0:0:0:
260,365,8903,1,0,3:0:0:0:
355,369,9246,1,10,0:0:0:0:
407,287,9589,2,0,P|374:227|305:224,1,144,10|10,0:0|0:0,0:0:0:0:
264,248,10274,2,0,P|217:238|169:230,1,96,2|8,0:0|0:0,0:0:0:0:
93,170,10960,6,0,P|95:95|201:101,1,192,10|0,0:0|3:0,0:0:0:0:
263,156,11989,1,10,0:0:0:0:
322,80,12332,2,0,P|393:89|464:98,1,144,10|0,0:0|3:0,0:0:0:0:
499,131,13017,1,2,3:2:0:0:
481,225,13360,1,2,3:2:0:0:
429,320,13703,6,0,P|378:335|326:350,1,107.999996704102,14|2,0:0|1:2,0:0:0:0:
244,279,14389,2,0,P|250:239|254:197,2,80.9999975280762,10|8|2,0:0|0:0|1:2,0:0:0:0:
214,323,15074,2,0,P|162:338|110:352,1,107.999996704102,10|2,0:0|1:2,0:0:0:0:
71,250,15760,2,0,P|110:239|149:229,2,80.9999975280762,10|8|2,0:0|0:0|1:2,0:0:0:0:
30,214,16446,6,0,P|22:164|53:111,1,107.999996704102,10|2,0:0|1:2,0:0:0:0:
150,79,17132,2,0,P|153:46|162:-3,2,80.9999975280762,10|8|2,0:0|0:0|1:2,0:0:0:0:
190,114,17817,2,0,P|197:153|202:193,2,80.9999975280762,10|8|2,0:0|0:0|1:2,0:0:0:0:
233,81,18503,1,10,0:0:0:0:
330,34,18846,1,2,1:2:0:0:
427,79,19189,6,0,P|434:132|440:186,1,107.999996704102,14|2,0:0|1:2,0:0:0:0:
353,249,19874,2,0,P|346:195|339:141,1,107.999996704102,10|2,0:0|1:2,0:0:0:0:
236,106,20560,2,0,P|243:159|249:213,1,107.999996704102,14|2,0:0|1:2,0:0:0:0:
162,276,21246,2,0,P|155:222|148:168,1,107.999996704102,10|2,0:0|1:2,0:0:0:0:
119,64,21932,1,14,0:0:0:0:
256,192,22017,12,6,23303,1:1:0:0:
399,12,24332,5,6,1:1:0:0:
505,67,24674,6,0,P|496:126|489:185,1,120,14|2,0:0|1:2,0:0:0:0:
413,279,25360,2,0,P|407:308|403:337,2,60,10|2|2,0:0|0:0|1:2,0:0:0:0:
382,227,25874,1,2,0:0:0:0:
381,227,26046,2,0,P|324:243|265:257,1,120,10|2,0:0|1:2,0:0:0:0:
182,344,26732,1,10,0:0:0:0:
84,274,27074,1,6,1:2:0:0:
128,162,27417,5,14,0:0:0:0:
127,161,27589,2,0,P|110:121|113:76,2,90,10|10|10,0:0|0:0|0:0,0:0:0:0:
217,241,28446,1,2,1:2:0:0:
306,162,28789,1,14,0:0:0:0:
306,162,28961,2,0,P|323:121|320:76,2,90,10|2|10,0:0|0:2|0:0,0:0:0:0:
217,241,29818,1,2,1:2:0:0:
289,336,30160,6,0,P|347:321|405:309,1,120,14|2,0:0|1:2,0:0:0:0:
458,339,30674,1,2,0:0:0:0:
458,339,30846,1,10,0:0:0:0:
500,226,31189,1,2,1:2:0:0:
406,151,31532,2,0,P|404:121|408:91,2,60,14|2|2,0:0|0:0|1:2,0:0:0:0:
370,199,32046,1,2,0:0:0:0:
370,199,32217,2,0,P|313:209|271:168,1,120,10|2,0:0|1:2,0:0:0:0:
203,76,32903,5,14,0:0:0:0:
203,76,33074,1,2,1:2:0:0:
92,115,33417,1,14,0:0:0:0:
92,115,33589,1,2,1:2:0:0:
94,232,33932,1,14,0:0:0:0:
94,232,34103,1,2,1:2:0:0:
206,265,34446,1,14,0:0:0:0:
206,265,34617,1,2,1:2:0:0:
272,168,34960,1,14,0:0:0:0:
446,332,35646,6,0,P|483:288|477:230,1,120,14|2,0:0|1:2,0:0:0:0:
410,130,36332,2,0,L|416:70,2,60,10|10|2,0:0|0:0|1:2,0:0:0:0:
367,172,36846,1,2,0:0:0:0:
367,172,37017,2,0,P|317:141|258:139,1,120,10|2,0:0|1:2,0:0:0:0:
141,171,37703,1,10,3:2:0:0:
112,54,38046,1,2,1:2:0:0:
228,23,38389,6,0,P|286:34|345:46,1,120,10|2,0:0|1:2,0:0:0:0:
396,14,38903,2,0,P|457:25|467:132,1,180,10|2,0:0|1:2,0:0:0:0:
364,183,39760,2,0,P|334:175|305:170,2,60,10|0|2,0:0|0:0|1:2,0:0:0:0:
410,221,40274,1,10,0:0:0:0:
410,221,40446,2,0,P|420:280|430:339,1,120,10|2,0:0|1:2,0:0:0:0:
315,377,41132,6,0,B|259:366|259:366|257:361|257:361|201:351,1,120,10|2,3:2|1:2,0:0:0:0:
159,316,41646,1,2,0:0:0:0:
159,316,41817,2,0,P|129:320|99:325,2,60,8|8|2,0:0|0:0|1:2,0:0:0:0:
246,237,42503,2,0,P|254:177|268:119,1,120,10|2,0:0|1:2,0:0:0:0:
303,71,43017,1,0,0:0:0:0:
303,70,43189,2,0,P|277:19|220:15,1,120,10|2,0:0|1:2,0:0:0:0:
114,71,43874,5,14,0:0:0:0:
114,71,44046,1,2,1:2:0:0:
80,189,44389,1,14,0:0:0:0:
80,189,44560,1,2,1:2:0:0:
198,230,44903,1,14,0:0:0:0:
198,230,45074,1,2,1:2:0:0:
168,346,45417,1,14,0:0:0:0:
168,346,45589,1,2,1:2:0:0:
52,314,45932,1,14,0:0:0:0:
220,147,46617,6,0,L|229:87,1,60,14|10,0:0|0:0,0:0:0:0:
339,36,47132,2,0,L|401:26,2,60,10|2|10,0:0|1:2|0:0,0:0:0:0:
363,153,47817,2,0,L|425:143,2,60,10|2|10,0:0|1:2|0:0,0:0:0:0:
387,270,48503,2,0,L|449:260,2,60,10|2|10,0:0|1:2|0:0,0:0:0:0:
364,325,49017,1,2,1:2:0:0:
249,359,49360,6,0,L|182:348,1,60,14|10,0:0|0:0,0:0:0:0:
128,245,49874,2,0,L|119:185,2,60,10|2|10,0:0|1:2|0:0,0:0:0:0:
247,229,50560,2,0,L|238:169,2,60,10|2|10,0:0|1:2|0:0,0:0:0:0:
366,213,51246,2,0,L|357:153,2,60,10|2|10,0:0|1:2|0:0,0:0:0:0:
418,241,51760,1,2,1:2:0:0:
485,141,52103,6,0,L|475:75,1,60,14|10,0:0|0:0,0:0:0:0:
369,25,52617,2,0,L|307:15,2,60,10|2|10,0:0|1:2|0:0,0:0:0:0:
345,142,53303,2,0,L|283:132,2,60,10|2|10,0:0|1:2|0:0,0:0:0:0:
321,259,53989,2,0,L|259:249,2,60,10|2|10,0:0|1:2|0:0,0:0:0:0:
344,314,54502,1,2,1:2:0:0:
246,384,54846,6,0,P|186:373|127:362,1,120,14|0,0:0|0:0,0:0:0:0:
126,242,55532,2,0,P|185:252|244:263,1,120,6|2,1:2|0:1,0:0:0:0:
242,142,56217,2,0,P|182:131|123:120,1,120,6|2,1:2|0:1,0:0:0:0:
20,58,56903,2,0,L|26:-4,2,60,2|2|14,1:2|1:2|0:0,0:0:0:0:
9,177,57589,5,14,0:0:0:0:
9,176,57760,2,0,P|66:176|99:224,1,120,2|2,0:0|0:0,0:0:0:0:
84,282,58274,1,10,0:0:0:0:
177,357,58617,1,2,1:2:0:0:
255,266,58960,2,0,P|251:236|248:206,2,60,10|2|2,0:0|0:0|1:2,0:0:0:0:
349,339,59646,2,0,P|408:331|468:324,1,120,10|2,0:0|1:1,0:0:0:0:
509,210,60332,5,10,0:0:0:0:
509,210,60503,2,0,B|495:151|495:151|491:149|491:149|481:95,1,120,2|10,0:0|0:0,0:0:0:0:
457,39,61017,1,10,0:0:0:0:
341,7,61360,1,2,1:2:0:0:
264,99,61703,2,0,L|205:86,2,60,2|8|2,1:2|0:0|1:2,0:0:0:0:
386,142,62389,1,10,0:0:0:0:
370,261,62732,1,2,1:1:0:0:
252,283,63074,5,14,0:0:0:0:
252,283,63246,2,0,L|116:313,1,120,2|2,0:0|0:0,0:0:0:0:
97,355,63760,1,10,0:0:0:0:
16,265,64103,1,2,1:2:0:0:
115,197,64446,2,0,L|179:183,2,60,10|2|2,0:0|0:0|1:2,0:0:0:0:
10,137,65132,2,0,B|-20:87|-20:87|14:36,1,120,10|2,0:0|1:1,0:0:0:0:
130,5,65817,5,14,0:0:0:0:
130,5,65989,2,0,B|187:14|187:14|191:19|191:19|246:26,1,120,2|14,1:2|0:0,0:0:0:0:
289,69,66503,1,2,1:2:0:0:
403,34,66846,1,14,0:0:0:0:
403,34,67017,1,2,1:2:0:0:
441,152,67360,1,14,0:0:0:0:
441,152,67532,1,2,1:2:0:0:
327,190,67874,2,0,B|251:214|214:165|223:152|185:100|112:121,1,240,14|14,0:0|0:0,0:0:0:0:
78,334,79532,5,14,0:0:0:0:
58,228,79874,1,2,1:2:0:0:
137,155,80217,2,0,L|123:62,2,80.9999975280762,10|8|2,0:0|0:0|1:2,0:0:0:0:
184,180,80903,2,0,P|189:206|183:234,2,53.9999983520508,10|10|2,0:0|0:0|1:2,0:0:0:0:
256,99,81589,2,0,L|242:6,2,80.9999975280762,10|8|2,0:0|0:0|1:2,0:0:0:0:
295,135,82274,5,10,0:0:0:0:
325,238,82617,1,2,1:2:0:0:
418,184,82960,2,0,L|500:200,2,80.9999975280762,10|8|2,0:0|0:0|1:2,0:0:0:0:
383,141,83646,2,0,L|399:59,2,80.9999975280762,10|8|2,0:0|0:0|1:2,0:0:0:0:
333,163,84332,1,10,0:0:0:0:
378,260,84674,1,2,1:2:0:0:
305,341,85017,6,0,P|255:330|199:321,1,107.999996704102,14|2,0:0|1:2,0:0:0:0:
96,355,85703,2,0,P|90:303|81:248,1,107.999996704102,10|2,0:0|1:2,0:0:0:0:
18,160,86389,2,0,P|65:138|115:113,1,107.999996704102,14|2,0:0|1:2,0:0:0:0:
179,26,87074,2,0,P|213:64|253:104,1,107.999996704102,10|2,0:0|1:2,0:0:0:0:
356,137,87760,1,14,0:0:0:0:
256,192,87846,12,6,89132,1:1:0:0:
370,337,90160,5,6,1:2:0:0:
444,259,90503,6,0,B|468:211|468:211|439:165,1,107.999996704102,14|2,0:0|1:2,0:0:0:0:
374,77,91189,1,10,0:0:0:0:
267,96,91532,1,2,1:2:0:0:
222,194,91874,2,0,B|212:246|212:246|216:250|216:250|207:299,1,107.999996704102,14|2,0:0|1:2,0:0:0:0:
123,367,92560,2,0,L|70:378,2,53.9999983520508,2|2|2,1:2|1:2|1:1,0:0:0:0:
206,299,93246,6,0,P|258:292|294:330,1,107.999996704102,10|2,0:0|1:2,0:0:0:0:
338,362,93760,2,0,P|411:348|415:273,1,161.999995056152,10|2,0:0|1:2,0:0:0:0:
349,188,94617,2,0,L|295:181,2,53.9999983520508,10|10|2,0:0|0:0|1:1,0:0:0:0:
394,158,95132,1,10,0:0:0:0:
394,158,95303,2,0,P|416:124|418:84,2,80.9999975280762,10|10|10,0:0|0:0|0:0,0:0:0:0:
416,207,95989,6,0,P|416:259|436:319,1,107.999996704102,14|2,0:0|1:1,0:0:0:0:
345,376,96674,2,0,P|299:346|247:335,1,107.999996704102,2|2,0:0|1:1,0:0:0:0:
203,303,97189,1,2,0:0:0:0:
203,303,97360,2,0,P|210:250|218:197,1,107.999996704102,10|2,0:0|1:1,0:0:0:0:
111,180,98046,2,0,P|103:233|95:286,1,107.999996704102,2|2,0:0|1:2,0:0:0:0:
169,365,98732,5,14,0:0:0:0:
169,365,98903,1,2,1:2:0:0:
266,317,99246,1,14,0:0:0:0:
266,317,99417,1,2,1:2:0:0:
284,210,99760,1,14,0:0:0:0:
284,210,99932,1,2,1:2:0:0:
383,164,100274,1,14,0:0:0:0:
383,164,100446,1,2,1:2:0:0:
374,271,100789,1,14,0:0:0:0:
463,74,101474,5,2,3:1:0:0:
368,21,101817,5,6,1:2:0:0:
368,21,101989,2,0,B|317:29|317:29|313:36|313:36|265:43,1,107.999996704102,2|10,0:0|0:0,0:0:0:0:
226,81,102503,1,2,1:2:0:0:
123,47,102846,2,0,B|86:87|86:87|113:133,1,107.999996704102,14|2,0:0|1:2,0:0:0:0:
183,216,103532,2,0,B|177:266|177:266|172:270|172:270|165:321,1,107.999996704102,2|2,1:2|1:1,0:0:0:0:
262,367,104217,5,2,3:1:0:0:
333,286,104560,1,6,1:2:0:0:
431,330,104903,1,8,0:0:0:0:
431,330,105074,2,0,L|486:339,2,53.9999983520508,10|2|2,0:0|1:2|1:2,0:0:0:0:
414,222,105760,2,0,L|469:231,2,53.9999983520508,10|2|10,0:0|1:2|0:0,0:0:0:0:
397,114,106446,2,0,L|452:123,2,53.9999983520508,10|2|10,0:0|1:2|0:0,0:0:0:0:
361,73,106960,5,14,0:0:0:0:
361,73,107132,2,0,P|305:75|277:128,1,107.999996704102,14|10,0:0|0:0,0:0:0:0:
286,168,107646,1,2,1:2:0:0:
344,258,107989,1,2,1:2:0:0:
263,330,108332,2,0,P|209:320|156:310,1,107.999996704102,14|2,0:0|1:2,0:0:0:0:
71,244,109017,2,0,P|46:196|56:144,1,107.999996704102,10|2,0:0|1:1,0:0:0:0:
113,54,109703,5,14,0:0:0:0:
113,54,109874,1,2,1:2:0:0:
199,128,110217,1,14,0:0:0:0:
199,128,110389,1,2,1:2:0:0:
263,42,110732,1,14,0:0:0:0:
263,42,110903,1,2,1:2:0:0:
345,120,111246,1,14,0:0:0:0:
345,120,111417,1,2,1:2:0:0:
396,25,111760,1,14,0:0:0:0:
503,212,112446,6,0,P|489:270|479:329,1,120,14|2,0:0|1:2,0:0:0:0:
433,369,112960,2,0,P|378:356|364:301,1,120,2|10,1:2|0:0,0:0:0:0:
392,247,113474,1,2,1:2:0:0:
296,173,113817,6,0,P|244:170|220:231,1,120,14|2,0:0|1:2,0:0:0:0:
239,283,114332,2,0,P|179:290|120:302,1,120,10|10,0:0|0:0,0:0:0:0:
74,340,114846,1,2,1:1:0:0:
44,228,115189,5,14,0:0:0:0:
44,228,115360,2,0,P|53:184|58:139,2,90,10|10|10,0:0|0:0|0:0,0:0:0:0:
130,310,116217,1,2,1:2:0:0:
216,228,116560,1,14,0:0:0:0:
216,228,116731,2,0,P|225:184|230:139,2,90,10|2|10,0:0|0:0|0:0,0:0:0:0:
130,310,117588,1,2,1:2:0:0:
227,381,117932,6,0,B|283:372|283:372|287:366|287:366|342:356,1,120,14|2,0:0|1:2,0:0:0:0:
438,284,118617,2,0,L|496:297,2,60,10|0|2,0:0|0:0|1:2,0:0:0:0:
394,242,119132,1,2,1:2:0:0:
394,242,119303,2,0,B|371:191|371:191|406:137,1,120,14|2,0:0|1:2,0:0:0:0:
484,45,119989,2,0,L|364:29,1,120,10|2,0:0|1:1,0:0:0:0:
249,23,120674,5,14,0:0:0:0:
249,23,120845,1,2,1:2:0:0:
140,68,121188,1,14,0:0:0:0:
140,68,121360,1,2,1:2:0:0:
148,185,121703,1,14,0:0:0:0:
148,185,121874,1,2,1:2:0:0:
262,212,122217,1,14,0:0:0:0:
262,212,122388,1,2,1:2:0:0:
323,112,122731,1,2,0:1:0:0:
91,44,123417,6,0,P|43:76|40:134,1,120,14|2,0:0|1:2,0:0:0:0:
80,179,123932,2,0,P|137:196|193:216,1,120,0|10,0:0|0:0,0:0:0:0:
215,273,124446,1,2,1:2:0:0:
314,205,124789,6,0,P|362:237|365:295,1,120,14|2,0:0|1:2,0:0:0:0:
328,342,125303,2,0,P|269:355|211:369,1,120,10|10,0:0|0:0,0:0:0:0:
151,380,125817,1,2,1:1:0:0:
54,308,126160,6,0,B|50:252|50:252|54:245|54:245|50:189,1,120,14|10,0:0|0:0,0:0:0:0:
62,130,126674,2,0,B|117:107|117:107|159:159,1,120,14|2,0:0|1:2,0:0:0:0:
185,205,127189,1,6,1:2:0:0:
275,125,127532,2,0,L|266:65,2,60,10|14|2,0:0|0:0|1:2,0:0:0:0:
320,163,128046,1,10,0:0:0:0:
320,163,128217,2,0,B|377:174|377:174|381:181|381:181|437:192,1,120,14|2,0:0|1:2,0:0:0:0:
500,91,128903,6,0,P|465:38|412:41,1,120,2|6,0:1|1:2,0:0:0:0:
365,76,129417,1,2,1:2:0:0:
365,76,129589,2,0,P|306:62|247:52,1,120,10|10,0:0|0:0,0:0:0:0:
142,110,130274,2,0,P|112:106|82:102,2,60,10|10|2,0:0|0:0|1:2,0:0:0:0:
188,148,130789,1,0,0:0:0:0:
188,147,130960,2,0,P|193:207|200:267,1,120,10|2,0:0|1:1,0:0:0:0:
135,368,131646,5,14,0:0:0:0:
135,368,131817,1,2,1:2:0:0:
252,345,132160,1,14,0:0:0:0:
252,345,132332,1,2,1:2:0:0:
369,322,132675,1,14,0:0:0:0:
369,322,132846,1,2,1:2:0:0:
346,205,133189,1,14,0:0:0:0:
346,205,133360,2,0,L|332:146,1,60,2|2,1:2|1:2,0:0:0:0:
298,95,133703,2,0,P|240:83|181:71,2,120,14|2|14,0:0|1:2|0:0,0:0:0:0:
256,192,134474,12,0,139702,0:0:0:0:
