osu file format v14

[General]
AudioFilename: audio.mp3
AudioLeadIn: 0
PreviewTime: 96974
Countdown: 0
SampleSet: Normal
StackLeniency: 0.7
Mode: 1
LetterboxInBreaks: 0
WidescreenStoryboard: 0

[Editor]
Bookmarks: 22641,43974,54641,118641
DistanceSpacing: 3.3
BeatDivisor: 4
GridSize: 32
TimelineZoom: 3.199999

[Metadata]
Title:ILLEGAL LEGACY
TitleUnicode:ILLEGAL LEGACY
Artist:seatrus
ArtistUnicode:seatrus
Creator:[Zeth]
Version:BEQUEST
Source:
Tags:electronic instrumental drum and & bass dnb hardcore neurofunk featured artist fa ler1211 rinze zth
BeatmapID:3998518
BeatmapSetID:1934878

[Difficulty]
HPDrainRate:5
CircleSize:2
OverallDifficulty:7
ApproachRate:10
SliderMultiplier:1.4
SliderTickRate:1

[Events]
//Background and Video events
0,0,"104867866_p0.jpg",0,0
//Break Periods
//Storyboard Layer 0 (Background)
//Storyboard Layer 1 (Fail)
//Storyboard Layer 2 (Pass)
//Storyboard Layer 3 (Foreground)
//Storyboard Layer 4 (Overlay)
//Storyboard Sound Samples

[TimingPoints]
1308,333.333333333333,4,1,0,90,1,0
1308,-100,4,1,0,90,0,0
1641,-133.333333333333,4,1,0,90,0,0
6641,-86.9565217391304,4,1,0,90,0,0
6974,-111.111111111111,4,1,0,90,0,0
11974,-76.9230769230769,4,1,0,90,0,0
12141,-100,4,1,0,90,0,0
16307,-99.995995,4,1,0,90,0,0
16640,-98.68161,4,1,0,90,0,0
16807,-98.03538,4,1,0,90,0,0
16890,-97.71732,4,1,0,90,0,0
16973,-97.40134,4,1,0,90,0,0
17140,-96.7717,4,1,0,90,0,0
17223,-96.461784,4,1,0,90,0,0
17306,-96.15385,4,1,0,90,0,0
17473,-95.540184,4,1,0,90,0,0
17640,-94.9343,4,1,0,90,0,0
17806,-94.339615,4,1,0,90,0,0
17973,-93.74883,4,1,0,90,0,0
18140,-93.16539,4,1,0,90,0,0
18306,-92.5926,4,1,0,90,0,0
18473,-92.02341,4,1,0,90,0,0
18556,-91.74312,4,1,0,90,0,0
18640,-91.46119,4,1,0,90,0,0
18806,-90.90909,4,1,0,90,0,0
18973,-90.36037,4,1,0,90,0,0
19140,-89.81821,4,1,0,90,0,0
19223,-89.55117,4,1,0,90,0,0
19306,-89.28571,4,1,0,90,0,0
19473,-88.75635,4,1,0,90,0,0
19640,-88.23322,4,1,0,90,0,0
19806,-87.7193,4,1,0,90,0,0
19890,-87.46152,4,1,0,90,0,0
19973,-87.20829,4,1,0,90,0,0
20056,-86.95652,4,1,0,90,0,0
20140,-86.70319,4,1,0,90,0,0
20223,-86.45434,4,1,0,90,0,0
20306,-86.2069,4,1,0,90,0,0
20390,-85.95792,4,1,0,90,0,0
20473,-85.71331,4,1,0,90,0,0
20556,-85.47008,4,1,0,90,0,0
20640,-85.225334,4,1,0,90,0,0
20723,-84.98488,4,1,0,90,0,0
20806,-84.745766,4,1,0,90,0,0
20890,-84.50514,4,1,0,90,0,0
20973,-84.26872,4,1,0,90,0,0
21056,-84.033615,4,1,0,90,0,0
21140,-83.79701,4,1,0,90,0,0
21223,-83.56452,4,1,0,90,0,0
21306,-74.09327,4,1,0,90,0,0
21362,-75.18402,4,1,0,90,0,0
21418,-76.307365,4,1,0,90,0,0
21473,-77.44382,4,1,0,90,0,0
21556,-79.22438,4,1,0,90,0,0
21640,-81.11174,4,1,0,90,0,0
21723,-83.06709,4,1,0,90,0,0
21806,-85.11905,4,1,0,90,0,0
21890,-87.30159,4,1,0,90,0,0
21973,-89.57094,4,1,0,90,0,0
22056,-91.96141,4,1,0,90,0,0
22140,-94.51421,4,1,0,90,0,0
22223,-97.179756,4,1,0,90,0,0
22306,-66.6666666666667,4,1,0,90,0,0
22640,-76.92308,4,1,0,90,0,0
22695,-77.29105,4,1,0,90,0,0
22751,-77.66934,4,1,0,90,0,0
22806,-78.044495,4,1,0,90,0,0
22890,-78.62452,4,1,0,90,0,0
22973,-79.20616,4,1,0,90,0,0
23140,-80.40293,4,1,0,90,0,0
23223,-81.011284,4,1,0,90,0,0
23306,-81.62891,4,1,0,90,0,0
23390,-82.26364,4,1,0,90,0,0
23473,-82.90059,4,1,0,90,0,0
23556,-83.54748,4,1,0,90,0,0
23640,-84.212524,4,1,0,90,0,0
23806,-85.55841,4,1,0,90,0,0
23890,-86.25599,4,1,0,90,0,0
23973,-86.95652,4,1,0,90,0,0
24056,-87.66854,4,1,0,90,0,0
24112,-88.15555,4,1,0,90,0,0
24168,-88.648,4,1,0,90,0,0
24223,-89.13705,4,1,0,90,0,0
24306,-89.88537,4,1,0,90,0,0
24390,-90.65561,4,1,0,90,0,0
24473,-91.42975,4,1,0,90,0,0
24556,-92.217224,4,1,0,90,0,0
24640,-93.02813,4,1,0,90,0,0
24723,-93.843506,4,1,0,90,0,0
24806,-94.673294,4,1,0,90,0,0
24890,-95.52817,4,1,0,90,0,0
24973,-96.38815,4,1,0,90,0,0
25140,-98.16629,4,1,0,90,0,0
25306,-76.93069,4,1,0,90,0,0
25362,-77.35887,4,1,0,90,0,0
25418,-77.79185,4,1,0,90,0,0
25473,-78.22184,4,1,0,90,0,0
25556,-78.87981,4,1,0,90,0,0
25640,-79.55707,4,1,0,90,0,0
25806,-80.93027,4,1,0,90,0,0
25890,-81.643364,4,1,0,90,0,0
25973,-82.36042,4,1,0,90,0,0
26056,-83.09018,4,1,0,90,0,0
26140,-83.84201,4,1,0,90,0,0
26223,-84.59838,4,1,0,90,0,0
26306,-85.36853,4,1,0,90,0,0
26473,-86.96138,4,1,0,90,0,0
26556,-87.77536,4,1,0,90,0,0
26640,-88.61481,4,1,0,90,0,0
26695,-89.173195,4,1,0,90,0,0
26751,-89.749016,4,1,0,90,0,0
26806,-90.32184,4,1,0,90,0,0
26862,-90.912636,4,1,0,90,0,0
26918,-91.511215,4,1,0,90,0,0
26973,-92.10683,4,1,0,90,0,0
27056,-93.020485,4,1,0,90,0,0
27140,-93.96378,4,1,0,90,0,0
27223,-94.91484,4,1,0,90,0,0
27306,-95.885345,4,1,0,90,0,0
27390,-96.88797,4,1,0,90,0,0
27473,-97.89947,4,1,0,90,0,0
27556,-98.9323,4,1,0,90,0,0
27640,-80,4,1,0,90,0,0
27973,-66.6666666666667,4,1,0,90,0,0
28223,-78.62386,4,1,0,90,0,0
28306,-79.20528,4,1,0,90,0,0
28473,-80.40156,4,1,0,90,0,0
28555,-81.0110174983798,4,1,0,90,0,0
28640,-81.63453,4,1,0,90,0,0
28723,-82.2615,4,1,0,90,0,0
28806,-82.89817,4,1,0,90,0,0
28890,-83.552635,4,1,0,90,0,0
28973,-84.20953,4,1,0,90,0,0
29140,-85.56304,4,1,0,90,0,0
29223,-86.25206,4,1,0,90,0,0
29306,-86.95227,4,1,0,90,0,0
29362,-87.43116,4,1,0,90,0,0
29418,-87.91535,4,1,0,90,0,0
29473,-88.39615,4,1,0,90,0,0
29556,-89.13175,4,1,0,90,0,0
29640,-89.88878,4,1,0,90,0,0
29723,-90.64954,4,1,0,90,0,0
29806,-91.423294,4,1,0,90,0,0
29890,-92.21992,4,1,0,90,0,0
29973,-93.02082,4,1,0,90,0,0
30056,-93.835754,4,1,0,90,0,0
30140,-94.675186,4,1,0,90,0,0
30223,-95.51951,4,1,0,90,0,0
30306,-96.37902,4,1,0,90,0,0
30473,-98.15611,4,1,0,90,0,0
30640,-76.93195,4,1,0,90,0,0
30695,-77.4231,4,1,0,90,0,0
30751,-77.92967,4,1,0,90,0,0
30806,-78.433685,4,1,0,90,0,0
30890,-79.216156,4,1,0,90,0,0
30973,-80.0048,4,1,0,90,0,0
31140,-81.64015,4,1,0,90,0,0
31223,-82.47806,4,1,0,90,0,0
31306,-83.33333,4,1,0,90,0,0
31390,-84.21717,4,1,0,90,0,0
31473,-85.1091,4,1,0,90,0,0
31556,-86.02012,4,1,0,90,0,0
31640,-86.96218,4,1,0,90,0,0
31695,-87.59028,4,1,0,90,0,0
31751,-88.23918,4,1,0,90,0,0
31806,-88.88593,4,1,0,90,0,0
31890,-89.89218,4,1,0,90,0,0
31973,-80,4,1,0,90,0,0
32306,-100,4,1,0,90,0,0
32390,-96.94768,4,1,0,90,0,0
32473,-94.109344,4,1,0,90,0,0
32556,-91.43249,4,1,0,90,0,0
32640,-88.874084,4,1,0,90,0,0
32723,-86.48298,4,1,0,90,0,0
32806,-84.21717,4,1,0,90,0,0
32890,-82.041824,4,1,0,90,0,0
32973,-66.6666666666667,4,1,0,90,0,0
33306,-76.92308,4,1,0,90,0,0
33362,-77.12928,4,1,0,90,0,0
33418,-77.336586,4,1,0,90,0,0
33473,-77.541275,4,1,0,90,0,0
33556,-77.85223,4,1,0,90,0,0
33640,-78.16947,4,1,0,90,0,0
33806,-78.804085,4,1,0,90,0,0
33890,-79.12916,4,1,0,90,0,0
33973,-79.45301,4,1,0,90,0,0
34056,-79.77952,4,1,0,90,0,0
34140,-80.1127,4,1,0,90,0,0
34223,-80.444664,4,1,0,90,0,0
34306,-80.77939,4,1,0,90,0,0
34473,-81.46139,4,1,0,90,0,0
34556,-81.80465,4,1,0,90,0,0
34640,-82.155,4,1,0,90,0,0
34723,-82.50414,4,1,0,90,0,0
34806,-82.85627,4,1,0,90,0,0
34890,-83.215706,4,1,0,90,0,0
34973,-83.57394,4,1,0,90,0,0
35140,-84.30415,4,1,0,90,0,0
35223,-84.671844,4,1,0,90,0,0
35306,-85.042755,4,1,0,90,0,0
35390,-85.421455,4,1,0,90,0,0
35473,-85.79897,4,1,0,90,0,0
35556,-86.179855,4,1,0,90,0,0
35640,-86.56878,4,1,0,90,0,0
35806,-87.34777,4,1,0,90,0,0
35890,-87.74732,4,1,0,90,0,0
35973,-88.14573,4,1,0,90,0,0
36029,-88.41659,4,1,0,90,0,0
36084,-88.684235,4,1,0,90,0,0
36140,-88.95842,4,1,0,90,0,0
36223,-89.36793,4,1,0,90,0,0
36306,-89.78121,4,1,0,90,0,0
36473,-90.62447,4,1,0,90,0,0
36556,-91.0495,4,1,0,90,0,0
36640,-91.483734,4,1,0,90,0,0
36723,-91.91686,4,1,0,90,0,0
36806,-92.35413,4,1,0,90,0,0
36890,-92.80092,4,1,0,90,0,0
36973,-93.24666,4,1,0,90,0,0
37056,-93.69669,4,1,0,90,0,0
37140,-94.15661,4,1,0,90,0,0
37223,-94.61549,4,1,0,90,0,0
37306,-95.07888,4,1,0,90,0,0
37362,-95.39409,4,1,0,90,0,0
37418,-95.7114,4,1,0,90,0,0
37473,-96.0251,4,1,0,90,0,0
37556,-96.50243,4,1,0,90,0,0
37640,-96.99037,4,1,0,90,0,0
37723,-97.47737,4,1,0,90,0,0
37806,-97.96927,4,1,0,90,0,0
37890,-98.4722,4,1,0,90,0,0
37973,-98.97423,4,1,0,90,0,0
38056,-99.4814,4,1,0,90,0,0
38140,-100,4,1,0,90,0,0
38306,-83.33333,4,1,0,90,0,0
38348,-82.46914,4,1,0,90,0,0
38390,-81.62267,4,1,0,90,0,0
38473,-80,4,1,0,90,0,0
38556,-78.44058,4,1,0,90,0,0
38640,-66.6666666666667,4,1,0,90,0,0
38806,-90.90909,4,1,0,90,0,0
38890,-90.54839,4,1,0,90,0,0
38973,-90.19479,4,1,0,90,0,0
39140,-89.49162,4,1,0,90,0,0
39224,-89.14206,4,1,0,90,0,0
39307,-88.79933,4,1,0,90,0,0
39390,-88.45923,4,1,0,90,0,0
39474,-88.117676,4,1,0,90,0,0
39557,-87.78277,4,1,0,90,0,0
39640,-87.45039,4,1,0,90,0,0
39807,-86.78921,4,1,0,90,0,0
39890,-86.4643,4,1,0,90,0,0
39974,-86.13795,4,1,0,90,0,0
40140,-85.500206,4,1,0,90,0,0
40224,-85.18107,4,1,0,90,0,0
40307,-84.86807,4,1,0,90,0,0
40474,-84.24522,4,1,0,90,0,0
40557,-83.93905,4,1,0,90,0,0
40640,-83.63509,4,1,0,90,0,0
40724,-83.32971,4,1,0,90,0,0
40807,-83.03014,4,1,0,90,0,0
40890,-82.73273,4,1,0,90,0,0
40974,-82.43389,4,1,0,90,0,0
41140,-81.84963,4,1,0,90,0,0
41224,-81.55712,4,1,0,90,0,0
41307,-81.27014,4,1,0,90,0,0
41363,-81.07765,4,1,0,90,0,0
41418,-80.88949,4,1,0,90,0,0
41474,-80.6988,4,1,0,90,0,0
41557,-80.41782,4,1,0,90,0,0
41640,-80.138794,4,1,0,90,0,0
41807,-79.5832,4,1,0,90,0,0
41890,-79.30992,4,1,0,90,0,0
41973,-79.03851,4,1,0,90,0,0
42057,-78.76572,4,1,0,90,0,0
42140,-78.498024,4,1,0,90,0,0
42224,-78.228935,4,1,0,90,0,0
42307,-77.96487,4,1,0,90,0,0
42390,-77.70257,4,1,0,90,0,0
42474,-77.4389,4,1,0,90,0,0
42557,-77.18013,4,1,0,90,0,0
42640,-66.68887,4,1,0,90,0,0
42723,-68.58514,4,1,0,90,0,0
42806,-70.592384,4,1,0,90,0,0
42890,-72.747086,4,1,0,90,0,0
42973,-75.00937,4,1,0,90,0,0
43056,-77.41686,4,1,0,90,0,0
43140,-80.01598,4,1,0,90,0,0
43223,-82.76147,4,1,0,90,0,0
43306,-85.70206,4,1,0,90,0,0
43390,-88.89875,4,1,0,90,0,0
43473,-92.3006,4,1,0,90,0,0
43556,-95.97316,4,1,0,90,0,0
43640,-57.1428571428571,4,1,0,90,0,0
43974,-66.6666666666667,4,1,0,90,0,0
44306,-111.111115,4,1,0,90,0,0
44362,-110.424034,4,1,0,90,0,0
44418,-109.745384,4,1,0,90,0,0
44473,-109.086945,4,1,0,90,0,0
44556,-108.10811,4,1,0,90,0,0
44640,-107.13521,4,1,0,90,0,0
44723,-106.19093,4,1,0,90,0,0
44806,-105.26316,4,1,0,90,0,0
44890,-104.340576,4,1,0,90,0,0
44973,-103.44471,4,1,0,90,0,0
45140,-101.68802,4,1,0,90,0,0
45306,-100,4,1,0,90,0,0
45473,-80,4,1,0,90,0,0
45556,-81.15438,4,1,0,90,0,0
45640,-82.35709,4,1,0,90,0,0
45695,-83.164085,4,1,0,90,0,0
45751,-84.00215,4,1,0,90,0,0
45806,-84.84187,4,1,0,90,0,0
45890,-86.15726,4,1,0,90,0,0
45973,-87.49766,4,1,0,90,0,0
46056,-88.880424,4,1,0,90,0,0
46112,-89.83834,4,1,0,90,0,0
46168,-90.817116,4,1,0,90,0,0
46223,-91.79941,4,1,0,90,0,0
46279,-92.82164,4,1,0,90,0,0
46334,-93.84801,4,1,0,90,0,0
46390,-94.916626,4,1,0,90,0,0
46473,-96.54601,4,1,0,90,0,0
46640,-80.00686,4,1,0,90,0,0
46806,-81.16143,4,1,0,90,0,0
46890,-81.75847,4,1,0,90,0,0
46973,-82.35709,4,1,0,90,0,0
47029,-82.76596,4,1,0,90,0,0
47084,-83.17149,4,1,0,90,0,0
47140,-83.58851,4,1,0,90,0,0
47306,-84.84958,4,1,0,90,0,0
47362,-85.28364,4,1,0,90,0,0
47418,-85.72216,4,1,0,90,0,0
47473,-86.15726,4,1,0,90,0,0
47640,-87.50586,4,1,0,90,0,0
47695,-87.9593,4,1,0,90,0,0
47751,-88.425835,4,1,0,90,0,0
47806,-88.888885,4,1,0,90,0,0
47890,-89.60553,4,1,0,90,0,0
47973,-90.32507,4,1,0,90,0,0
48056,-91.05628,4,1,0,90,0,0
48140,-91.80844,4,1,0,90,0,0
48223,-92.56395,4,1,0,90,0,0
48306,-93.33201,4,1,0,90,0,0
48362,-93.85744,4,1,0,90,0,0
48418,-94.38884,4,1,0,90,0,0
48473,-94.916626,4,1,0,90,0,0
48556,-95.724396,4,1,0,90,0,0
48640,-96.55601,4,1,0,90,0,0
48723,-97.39203,4,1,0,90,0,0
48806,-98.24266,4,1,0,90,0,0
48890,-99.118805,4,1,0,90,0,0
48973,-100,4,1,0,90,0,0
49307,-66.6666666666667,4,1,0,90,0,0
49640,-90.90909,4,1,0,90,0,0
49696,-90.44862,4,1,0,90,0,0
49752,-89.99279,4,1,0,90,0,0
49807,-89.54957,4,1,0,90,0,0
49890,-88.888885,4,1,0,90,0,0
49974,-88.23011,4,1,0,90,0,0
50057,-87.588684,4,1,0,90,0,0
50140,-86.95652,4,1,0,90,0,0
50224,-86.32597,4,1,0,90,0,0
50307,-85.71184,4,1,0,90,0,0
50474,-84.50229,4,1,0,90,0,0
50556,-83.92078,4,1,0,90,0,0
50640,-83.33333,4,1,0,90,0,0
50807,-66.67302,4,1,0,90,0,0
50890,-67.2043,4,1,0,90,0,0
50974,-67.75068,4,1,0,90,0,0
51029,-68.11326,4,1,0,90,0,0
51085,-68.48645,4,1,0,90,0,0
51140,-68.85697,4,1,0,90,0,0
51224,-69.430664,4,1,0,90,0,0
51307,-70.006996,4,1,0,90,0,0
51390,-70.59299,4,1,0,90,0,0
51446,-70.99391,4,1,0,90,0,0
51502,-71.39943,4,1,0,90,0,0
51557,-71.80224,4,1,0,90,0,0
51613,-72.217064,4,1,0,90,0,0
51668,-72.62917,4,1,0,90,0,0
51724,-73.05364,4,1,0,90,0,0
51807,-73.69197,4,1,0,90,0,0
51890,-74.341545,4,1,0,90,0,0
51974,-69.7767094804107,4,1,0,90,0,0
52140,-76.369194,4,1,0,90,0,0
52224,-77.07553,4,1,0,90,0,0
52307,-77.78642,4,1,0,90,0,0
52390,-78.510544,4,1,0,90,0,0
52474,-73.4368474244672,4,1,0,90,0,0
52640,-80.775444,4,1,0,90,0,0
52696,-81.30081,4,1,0,90,0,0
52752,-81.83306,4,1,0,90,0,0
52807,-82.362625,4,1,0,90,0,0
52974,-77.5022082636827,4,1,0,90,0,0
53140,-85.72129,4,1,0,90,0,0
53224,-86.61223,4,1,0,90,0,0
53307,-87.51094,4,1,0,90,0,0
53390,-88.42849,4,1,0,90,0,0
53474,-89.376915,4,1,0,90,0,0
53557,-90.33423,4,1,0,90,0,0
53640,-91.31229,4,1,0,90,0,0
53723,-92.31175,4,1,0,90,0,0
53807,-93.34578,4,1,0,90,0,0
53862,-94.03546,4,1,0,90,0,0
53918,-94.74824,4,1,0,90,0,0
53974,-95.4719,4,1,0,90,0,0
54057,-96.56504,4,1,0,90,0,0
54140,-97.6835,4,1,0,90,0,0
54223,-98.82818,4,1,0,90,0,0
54307,-100.01428,4,1,0,90,0,0
54474,-80,4,1,0,90,0,0
54641,-66.6666666666667,4,1,0,90,0,0
54807,-133.333333333333,4,1,0,90,0,0
59974,-66.6666666666667,4,1,0,90,0,0
60141,-133.333333333333,4,1,0,90,0,0
65305,-76.9230769230769,4,1,0,90,0,0
65472,-100,4,1,0,90,0,0
69638,-99.995995,4,1,0,90,0,0
69971,-98.68161,4,1,0,90,0,0
70138,-98.03538,4,1,0,90,0,0
70221,-97.71732,4,1,0,90,0,0
70304,-97.40134,4,1,0,90,0,0
70471,-96.7717,4,1,0,90,0,0
70554,-96.461784,4,1,0,90,0,0
70637,-96.15385,4,1,0,90,0,0
70804,-95.540184,4,1,0,90,0,0
70971,-94.9343,4,1,0,90,0,0
71137,-94.339615,4,1,0,90,0,0
71304,-93.74883,4,1,0,90,0,0
71471,-93.16539,4,1,0,90,0,0
71637,-92.5926,4,1,0,90,0,0
71804,-92.02341,4,1,0,90,0,0
71887,-91.74312,4,1,0,90,0,0
71971,-91.46119,4,1,0,90,0,0
72137,-90.90909,4,1,0,90,0,0
72304,-90.36037,4,1,0,90,0,0
72471,-89.81821,4,1,0,90,0,0
72554,-89.55117,4,1,0,90,0,0
72637,-89.28571,4,1,0,90,0,0
72804,-88.75635,4,1,0,90,0,0
72971,-88.23322,4,1,0,90,0,0
73137,-87.7193,4,1,0,90,0,0
73221,-87.46152,4,1,0,90,0,0
73304,-87.20829,4,1,0,90,0,0
73387,-86.95652,4,1,0,90,0,0
73471,-86.70319,4,1,0,90,0,0
73554,-86.45434,4,1,0,90,0,0
73637,-86.2069,4,1,0,90,0,0
73721,-85.95792,4,1,0,90,0,0
73804,-85.71331,4,1,0,90,0,0
73887,-85.47008,4,1,0,90,0,0
73971,-85.225334,4,1,0,90,0,0
74054,-84.98488,4,1,0,90,0,0
74137,-84.745766,4,1,0,90,0,0
74221,-84.50514,4,1,0,90,0,0
74304,-84.26872,4,1,0,90,0,0
74387,-84.033615,4,1,0,90,0,0
74471,-83.79701,4,1,0,90,0,0
74554,-83.56452,4,1,0,90,0,0
74637,-74.09327,4,1,0,90,0,0
74693,-75.18402,4,1,0,90,0,0
74749,-76.307365,4,1,0,90,0,0
74804,-77.44382,4,1,0,90,0,0
74887,-79.22438,4,1,0,90,0,0
74971,-81.11174,4,1,0,90,0,0
75054,-83.06709,4,1,0,90,0,0
75137,-85.11905,4,1,0,90,0,0
75221,-87.30159,4,1,0,90,0,0
75304,-89.57094,4,1,0,90,0,0
75387,-91.96141,4,1,0,90,0,0
75471,-94.51421,4,1,0,90,0,0
75554,-97.179756,4,1,0,90,0,0
75637,-66.6666666666667,4,1,0,90,0,0
75974,-57.1428571428571,4,1,0,90,0,1
76140,-66.666664,4,1,0,90,0,1
76223,-66.85162,4,1,0,90,0,1
76306,-67.037605,4,1,0,90,0,1
76390,-67.22689,4,1,0,90,0,1
76473,-67.41498,4,1,0,90,0,1
76556,-67.6041,4,1,0,90,0,1
76640,-67.79661,4,1,0,90,0,1
76723,-67.9879,4,1,0,90,0,1
76806,-68.18027,4,1,0,90,0,1
76890,-68.37607,4,1,0,90,0,1
76973,-68.57065,4,1,0,90,0,1
77056,-68.76633,4,1,0,90,0,1
77140,-68.965515,4,1,0,90,0,1
77223,-69.163475,4,1,0,90,0,1
77306,-69.36256,4,1,0,90,0,1
77390,-69.565216,4,1,0,90,0,1
77473,-69.76663,4,1,0,90,0,1
77556,-69.96921,4,1,0,90,0,1
77640,-70.17544,4,1,0,90,0,1
77806,-70.58657,4,1,0,90,0,1
77890,-70.796455,4,1,0,90,0,1
77973,-71.00507,4,1,0,90,0,1
78056,-71.21493,4,1,0,90,0,1
78140,-71.42857,4,1,0,90,0,1
78223,-71.64093,4,1,0,90,0,1
78306,-71.85457,4,1,0,90,0,1
78362,-71.99942,4,1,0,90,0,1
78418,-72.14487,4,1,0,90,0,1
78473,-72.288284,4,1,0,90,0,1
78640,-72.72727,4,1,0,90,0,1
78723,-72.94743,4,1,0,90,0,1
78806,-73.16895,4,1,0,90,0,1
78862,-73.31916,4,1,0,90,0,1
78918,-73.469986,4,1,0,90,0,1
78973,-73.61873,4,1,0,90,0,1
79140,-74.07407,4,1,0,90,0,1
79223,-74.30248,4,1,0,90,0,1
79306,-74.53231,4,1,0,90,0,1
79390,-74.76636,4,1,0,90,0,1
79473,-74.99906,4,1,0,90,0,1
79556,-75.23322,4,1,0,90,0,1
79640,-75.471695,4,1,0,90,0,1
79695,-75.62866,4,1,0,90,0,1
79751,-75.789154,4,1,0,90,0,1
79806,-75.94745,4,1,0,90,0,1
79890,-76.190475,4,1,0,90,0,1
79973,-76.432144,4,1,0,90,0,1
80140,-76.92308,4,1,0,90,0,1
80223,-77.169426,4,1,0,90,0,1
80306,-77.41736,4,1,0,90,0,1
80473,-77.92107,4,1,0,90,0,1
80556,-78.17386,4,1,0,90,0,1
80640,-78.43137,4,1,0,90,0,1
80723,-78.68749,4,1,0,90,0,1
80806,-78.94529,4,1,0,90,0,1
80890,-79.20792,4,1,0,90,0,1
80973,-79.46915,4,1,0,90,0,1
81140,-80,4,1,0,90,0,1
81307,-57.1428571428571,4,1,0,90,0,1
81473,-66.666664,4,1,0,90,0,1
81556,-66.85162,4,1,0,90,0,1
81640,-67.03985,4,1,0,90,0,1
81723,-67.22689,4,1,0,90,0,1
81806,-67.41498,4,1,0,90,0,1
81890,-67.60639,4,1,0,90,0,1
81973,-67.79661,4,1,0,90,0,1
82056,-67.9879,4,1,0,90,0,1
82140,-68.182594,4,1,0,90,0,1
82306,-68.57065,4,1,0,90,0,1
82390,-68.76869,4,1,0,90,0,1
82473,-68.965515,4,1,0,90,0,1
82556,-69.163475,4,1,0,90,0,1
82640,-69.36496,4,1,0,90,0,1
82723,-69.565216,4,1,0,90,0,1
82806,-69.76663,4,1,0,90,0,1
82890,-69.97166,4,1,0,90,0,1
82973,-70.17544,4,1,0,90,0,1
83029,-70.3136,4,1,0,90,0,1
83084,-70.44982,4,1,0,90,0,1
83140,-70.589066,4,1,0,90,0,1
83223,-70.796455,4,1,0,90,0,1
83306,-71.00507,4,1,0,90,0,1
83473,-71.42857,4,1,0,90,0,1
83556,-71.64093,4,1,0,90,0,1
83640,-71.85715,4,1,0,90,0,1
83723,-72.07207,4,1,0,90,0,1
83806,-72.288284,4,1,0,90,0,1
83890,-72.50843,4,1,0,90,0,1
83973,-72.72727,4,1,0,90,0,1
84029,-72.87567,4,1,0,90,0,1
84084,-73.02201,4,1,0,90,0,1
84140,-73.171616,4,1,0,90,0,1
84306,-73.61873,4,1,0,90,0,1
84362,-73.7708,4,1,0,90,0,1
84418,-73.92349,4,1,0,90,0,1
84473,-74.07407,4,1,0,90,0,1
84556,-74.30248,4,1,0,90,0,1
84640,-74.53509,4,1,0,90,0,1
84723,-74.76636,4,1,0,90,0,1
84806,-74.99906,4,1,0,90,0,1
84973,-75.471695,4,1,0,90,0,1
85056,-75.708824,4,1,0,90,0,1
85140,-75.950325,4,1,0,90,0,1
85223,-76.190475,4,1,0,90,0,1
85306,-76.432144,4,1,0,90,0,1
85390,-76.67829,4,1,0,90,0,1
85473,-76.92308,4,1,0,90,0,1
85556,-77.169426,4,1,0,90,0,1
85640,-77.42035,4,1,0,90,0,1
85723,-77.6699,4,1,0,90,0,1
85806,-77.92107,4,1,0,90,0,1
85973,-78.43137,4,1,0,90,0,1
86056,-78.68749,4,1,0,90,0,1
86140,-78.9484,4,1,0,90,0,1
86223,-79.20792,4,1,0,90,0,1
86307,-62.5,4,1,0,90,0,0
86362,-63.161877,4,1,0,90,0,0
86418,-63.837917,4,1,0,90,0,0
86473,-64.51613,4,1,0,90,0,0
86641,-66.666664,4,1,0,90,0,1
86807,-80,4,1,0,90,0,1
86890,-80.279,4,1,0,90,0,1
86973,-80.556595,4,1,0,90,0,1
87056,-80.83613,4,1,0,90,0,1
87140,-81.12099,4,1,0,90,0,1
87223,-81.40446,4,1,0,90,0,1
87306,-81.6899,4,1,0,90,0,1
87473,-82.27035,4,1,0,90,0,1
87556,-82.56191,4,1,0,90,0,1
87640,-82.85911,4,1,0,90,0,1
87723,-83.15486,4,1,0,90,0,1
87806,-83.45274,4,1,0,90,0,1
87890,-83.75639,4,1,0,90,0,1
87973,-84.0586,4,1,0,90,0,1
88029,-84.26373,4,1,0,90,0,1
88084,-84.46619,4,1,0,90,0,1
88140,-84.673325,4,1,0,90,0,1
88223,-84.9822,4,1,0,90,0,1
88306,-85.29334,4,1,0,90,0,1
88473,-85.92632,4,1,0,90,0,1
88556,-86.24442,4,1,0,90,0,1
88640,-86.56877,4,1,0,90,0,1
88806,-87.21696,4,1,0,90,0,1
88862,-87.43782,4,1,0,90,0,1
88918,-87.659805,4,1,0,90,0,1
88973,-87.87892,4,1,0,90,0,1
89056,-88.21168,4,1,0,90,0,1
89140,-88.55102,4,1,0,90,0,1
89223,-88.888885,4,1,0,90,0,1
89306,-89.22935,4,1,0,90,0,1
89362,-89.46053,4,1,0,90,0,1
89418,-89.69292,4,1,0,90,0,1
89473,-89.92234,4,1,0,90,0,1
89640,-90.626175,4,1,0,90,0,1
89723,-90.980095,4,1,0,90,0,1
89806,-91.3368,4,1,0,90,0,1
89890,-91.70065,4,1,0,90,0,1
89973,-92.063034,4,1,0,90,0,1
90140,-92.80092,4,1,0,90,0,1
90223,-93.17207,4,1,0,90,0,1
90306,-93.5462,4,1,0,90,0,1
90390,-93.92791,4,1,0,90,0,1
90473,-94.30815,4,1,0,90,0,1
90640,-95.08262,4,1,0,90,0,1
90695,-95.34046,4,1,0,90,0,1
90751,-95.604454,4,1,0,90,0,1
90806,-95.865135,4,1,0,90,0,1
90890,-96.26606,4,1,0,90,0,1
90973,-96.665504,4,1,0,90,0,1
91056,-97.06827,4,1,0,90,0,1
91140,-97.47933,4,1,0,90,0,1
91306,-98.30199,4,1,0,90,0,1
91390,-98.72357,4,1,0,90,0,1
91473,-99.14372,4,1,0,90,0,1
91556,-99.56746,4,1,0,90,0,1
91641,-74.07407,4,1,0,90,0,0
91695,-74.991554,4,1,0,90,0,0
91751,-75.94936,4,1,0,90,0,0
91806,-76.91419,4,1,0,90,0,0
91973,-80,4,1,0,90,0,0
92223,-100,4,1,0,90,0,0
92306,-99.34037,4,1,0,90,0,0
92473,-98.039215,4,1,0,90,0,0
92640,-96.7717,4,1,0,90,0,0
92806,-95.54383,4,1,0,90,0,0
92973,-94.339615,4,1,0,90,0,0
93140,-93.16539,4,1,0,90,0,0
93223,-92.5926,4,1,0,90,0,0
93306,-92.026794,4,1,0,90,0,0
93390,-91.46119,4,1,0,90,0,0
93473,-90.90909,4,1,0,90,0,0
93556,-90.363625,4,1,0,90,0,0
93640,-89.81821,4,1,0,90,0,0
93806,-88.7595,4,1,0,90,0,0
93890,-88.23322,4,1,0,90,0,0
93973,-87.7193,4,1,0,90,0,0
94056,-87.211334,4,1,0,90,0,0
94140,-86.70319,4,1,0,90,0,0
94306,-85.71625,4,1,0,90,0,0
94390,-85.225334,4,1,0,90,0,0
94473,-84.745766,4,1,0,90,0,0
94556,-84.27156,4,1,0,90,0,0
94640,-83.79701,4,1,0,90,0,0
94723,-83.333336,4,1,0,90,0,0
94806,-82.874756,4,1,0,90,0,0
94890,-82.41577,4,1,0,90,0,0
94973,-81.96722,4,1,0,90,0,0
95056,-81.52351,4,1,0,90,0,0
95140,-81.07933,4,1,0,90,0,0
95223,-80.64517,4,1,0,90,0,0
95306,-80.21562,4,1,0,90,0,0
95390,-79.785545,4,1,0,90,0,0
95473,-79.36508,4,1,0,90,0,0
95556,-78.94904,4,1,0,90,0,0
95640,-78.532394,4,1,0,90,0,0
95723,-78.125,4,1,0,90,0,0
95806,-77.721825,4,1,0,90,0,0
95890,-77.318,4,1,0,90,0,0
95972,-66.68887,4,1,0,90,0,0
96055,-68.58514,4,1,0,90,0,0
96138,-70.592384,4,1,0,90,0,0
96222,-72.747086,4,1,0,90,0,0
96305,-75.00937,4,1,0,90,0,0
96388,-77.41686,4,1,0,90,0,0
96472,-80.01598,4,1,0,90,0,0
96555,-82.76147,4,1,0,90,0,0
96638,-85.70206,4,1,0,90,0,0
96722,-88.89875,4,1,0,90,0,0
96805,-92.3006,4,1,0,90,0,0
96888,-95.97316,4,1,0,90,0,0
96972,-57.1428571428571,4,1,0,90,0,0
97307,-66.6666666666667,4,1,0,90,0,1
97474,-80,4,1,0,90,0,1
102641,-66.6666666666667,4,1,0,90,0,1
102807,-80,4,1,0,90,0,1
105307,-80,4,1,0,90,0,0
105473,-100,4,1,0,90,0,0
105556,-99.05154,4,1,0,90,0,0
105639,-98.1209,4,1,0,90,0,0
105723,-97.19668,4,1,0,90,0,0
105806,-96.300415,4,1,0,90,0,0
105889,-95.420525,4,1,0,90,0,0
105973,-94.54624,4,1,0,90,0,0
106139,-92.8648,4,1,0,90,0,0
106223,-92.03653,4,1,0,90,0,0
106306,-91.232506,4,1,0,90,0,0
106389,-90.442406,4,1,0,90,0,0
106473,-89.6566,4,1,0,90,0,0
106556,-88.89345,4,1,0,90,0,0
106639,-88.14317,4,1,0,90,0,0
106806,-86.67133,4,1,0,90,0,0
106862,-86.18872,4,1,0,90,0,0
106918,-85.71146,4,1,0,90,0,0
106973,-85.24784,4,1,0,90,0,0
107056,-84.5576,4,1,0,90,0,0
107140,-83.870346,4,1,0,90,0,0
107195,-83.42638,4,1,0,90,0,0
107251,-82.97913,4,1,0,90,0,0
107306,-82.54452,4,1,0,90,0,0
107389,-81.89721,4,1,0,90,0,0
107473,-81.25234,4,1,0,90,0,0
107556,-80.62506,4,1,0,90,0,0
107639,-57.1428571428571,4,1,0,90,0,0
107974,-66.6666666666667,4,1,0,90,0,1
108140,-80,4,1,0,90,0,1
108223,-80.27573,4,1,0,90,0,1
108307,-80.55671,4,1,0,90,0,1
108473,-81.11782,4,1,0,90,0,1
108557,-81.40475,4,1,0,90,0,1
108723,-81.977776,4,1,0,90,0,1
108807,-82.270836,4,1,0,90,0,1
108890,-82.56246,4,1,0,90,0,1
108973,-82.85616,4,1,0,90,0,1
109057,-83.15554,4,1,0,90,0,1
109140,-83.45349,4,1,0,90,0,1
109223,-83.75357,4,1,0,90,0,1
109307,-84.05949,4,1,0,90,0,1
109473,-84.67064,4,1,0,90,0,1
109556,-84.97956,4,1,0,90,0,1
109640,-85.2945,4,1,0,90,0,1
109807,-85.927635,4,1,0,90,0,1
109890,-86.24582,4,1,0,90,0,1
110057,-86.8932,4,1,0,90,0,1
110140,-87.21859,4,1,0,90,0,1
110223,-87.546425,4,1,0,90,0,1
110307,-87.880714,4,1,0,90,0,1
110390,-88.213554,4,1,0,90,0,1
110473,-88.54891,4,1,0,90,0,1
110556,-88.88685,4,1,0,90,0,1
110640,-89.23148,4,1,0,90,0,1
110807,-89.924644,4,1,0,90,0,1
110890,-90.27317,4,1,0,90,0,1
110973,-90.62441,4,1,0,90,0,1
111140,-91.33947,4,1,0,90,0,1
111223,-91.69908,4,1,0,90,0,1
111390,-92.43127,4,1,0,90,0,1
111473,-92.79954,4,1,0,90,0,1
111557,-93.17524,4,1,0,90,0,1
111640,-93.54948,4,1,0,90,0,1
111723,-93.926735,4,1,0,90,0,1
111807,-94.31164,4,1,0,90,0,1
111890,-94.695076,4,1,0,90,0,1
111973,-95.08164,4,1,0,90,0,1
112140,-95.86908,4,1,0,90,0,1
112223,-96.265305,4,1,0,90,0,1
112306,-96.66483,4,1,0,90,0,1
112473,-97.47883,4,1,0,90,0,1
112557,-97.893456,4,1,0,90,0,1
112723,-98.72331,4,1,0,90,0,1
112806,-99.14355,4,1,0,90,0,1
112890,-99.572495,4,1,0,90,0,1
112973,-100,4,1,0,90,0,1
113140,-90.90909,4,1,0,90,0,1
113223,-90.58096,4,1,0,90,0,1
113307,-90.2513,4,1,0,90,0,1
113473,-89.60681,4,1,0,90,0,1
113556,-89.28802,4,1,0,90,0,1
113640,-88.96767,4,1,0,90,0,1
113806,-88.34132,4,1,0,90,0,1
113890,-88.027725,4,1,0,90,0,1
113973,-87.72003,4,1,0,90,0,1
114140,-87.10744,4,1,0,90,0,1
114223,-86.80614,4,1,0,90,0,1
114306,-86.50691,4,1,0,90,0,1
114390,-86.206184,4,1,0,90,0,1
114473,-85.91108,4,1,0,90,0,1
114556,-85.61799,4,1,0,90,0,1
114640,-85.323395,4,1,0,90,0,1
114806,-84.74715,4,1,0,90,0,1
114890,-84.4585,4,1,0,90,0,1
114973,-84.175224,4,1,0,90,0,1
115140,-83.61097,4,1,0,90,0,1
115223,-83.33333,4,1,0,90,0,1
115306,-83.05754,4,1,0,90,0,1
115473,-82.50812,4,1,0,90,0,1
115556,-82.237755,4,1,0,90,0,1
115640,-81.96592,4,1,0,90,0,1
115723,-81.6991,4,1,0,90,0,1
115806,-81.43399,4,1,0,90,0,1
115890,-81.16744,4,1,0,90,0,1
115973,-80.90578,4,1,0,90,0,1
116056,-80.64579,4,1,0,90,0,1
116140,-80.38437,4,1,0,90,0,1
116223,-80.127716,4,1,0,90,0,1
116306,-79.872696,4,1,0,90,0,1
116390,-79.61625,4,1,0,90,0,1
116473,-79.36448,4,1,0,90,0,1
116556,-79.11429,4,1,0,90,0,1
116640,-78.862686,4,1,0,90,0,1
116723,-78.61564,4,1,0,90,0,1
116806,-78.37015,4,1,0,90,0,1
116890,-78.123245,4,1,0,90,0,1
116973,-77.880806,4,1,0,90,0,1
117056,-77.63987,4,1,0,90,0,1
117140,-77.397545,4,1,0,90,0,1
117223,-77.159584,4,1,0,90,0,1
117307,-66.6666666666667,4,1,0,90,0,0
117419,-68.9655172413793,4,1,0,90,0,0
117530,-71.4285714285714,4,1,0,90,0,0
117641,-74.0740740740741,4,1,0,90,0,0
117752,-76.9230769230769,4,1,0,90,0,0
117863,-80,4,1,0,90,0,0
117974,-83.3333333333333,4,1,0,90,0,0
118307,-57.1428571428571,4,1,0,90,0,0
118641,-66.6666666666667,4,1,0,90,0,0
118807,-80.00331,4,1,0,90,0,0
118890,-80.279,4,1,0,90,0,0
118973,-80.556595,4,1,0,90,0,0
119057,-80.8395,4,1,0,90,0,0
119140,-81.12099,4,1,0,90,0,0
119223,-81.40446,4,1,0,90,0,0
119307,-81.69335,4,1,0,90,0,0
119390,-81.980835,4,1,0,90,0,0
119473,-82.27035,4,1,0,90,0,0
119557,-82.56544,4,1,0,90,0,0
119640,-82.85911,4,1,0,90,0,0
119723,-83.15486,4,1,0,90,0,0
119807,-83.456345,4,1,0,90,0,0
119890,-83.75639,4,1,0,90,0,0
119973,-84.0586,4,1,0,90,0,0
120140,-84.673325,4,1,0,90,0,0
120223,-84.9822,4,1,0,90,0,0
120307,-85.2971,4,1,0,90,0,0
120390,-85.61055,4,1,0,90,0,0
120473,-85.92632,4,1,0,90,0,0
120557,-86.248276,4,1,0,90,0,0
120640,-86.56877,4,1,0,90,0,0
120723,-86.891655,4,1,0,90,0,0
120807,-87.220894,4,1,0,90,0,0
120890,-87.548676,4,1,0,90,0,0
120973,-87.87892,4,1,0,90,0,0
121029,-88.10316,4,1,0,90,0,0
121085,-88.32854,4,1,0,90,0,0
121140,-88.55102,4,1,0,90,0,0
121307,-89.23347,4,1,0,90,0,0
121390,-89.57658,4,1,0,90,0,0
121473,-89.92234,4,1,0,90,0,0
121529,-90.15713,4,1,0,90,0,0
121585,-90.39315,4,1,0,90,0,0
121640,-90.626175,4,1,0,90,0,0
121807,-91.34111,4,1,0,90,0,0
121890,-91.70065,4,1,0,90,0,0
121973,-92.063034,4,1,0,90,0,0
122029,-92.30916,4,1,0,90,0,0
122084,-92.55218,4,1,0,90,0,0
122140,-92.80092,4,1,0,90,0,0
122223,-93.17207,4,1,0,90,0,0
122307,-93.55073,4,1,0,90,0,0
122362,-93.80033,4,1,0,90,0,0
122418,-94.05584,4,1,0,90,0,0
122473,-94.30815,4,1,0,90,0,0
122557,-94.69611,4,1,0,90,0,0
122640,-95.08262,4,1,0,90,0,0
122807,-95.869896,4,1,0,90,0,0
122890,-96.26606,4,1,0,90,0,0
122973,-96.665504,4,1,0,90,0,0
123140,-97.47933,4,1,0,90,0,0
123223,-97.88892,4,1,0,90,0,0
123307,-98.306984,4,1,0,90,0,0
123390,-98.72357,4,1,0,90,0,0
123473,-99.14372,4,1,0,90,0,0
123557,-99.572586,4,1,0,90,0,0
123640,-74.09051,4,1,0,90,0,0
123695,-75.00561,4,1,0,90,0,0
123751,-75.960884,4,1,0,90,0,0
123806,-76.92308,4,1,0,90,0,0
123973,-80,4,1,0,90,0,0
124140,-90.90225,4,1,0,90,0,0
124223,-90.338135,4,1,0,90,0,0
124307,-89.774315,4,1,0,90,0,0
124390,-89.22407,4,1,0,90,0,0
124473,-88.680534,4,1,0,90,0,0
124557,-88.13714,4,1,0,90,0,0
124640,-87.60672,4,1,0,90,0,0
124695,-87.25874,4,1,0,90,0,0
124751,-86.907265,4,1,0,90,0,0
124806,-86.56481,4,1,0,90,0,0
124973,-85.541336,4,1,0,90,0,0
125057,-85.03563,4,1,0,90,0,0
125140,-84.54178,4,1,0,90,0,0
125223,-84.05364,4,1,0,90,0,0
125307,-83.565315,4,1,0,90,0,0
125473,-82.6168,4,1,0,90,0,0
125557,-82.14498,4,1,0,90,0,0
125640,-81.68405,4,1,0,90,0,0
125696,-81.37596,4,1,0,90,0,0
125751,-81.07564,4,1,0,90,0,0
125807,-80.77212,4,1,0,90,0,0
125890,-80.32642,4,1,0,90,0,0
125973,-79.88561,4,1,0,90,0,0
126140,-79.01319,4,1,0,90,0,0
126223,-78.58665,4,1,0,90,0,0
126307,-78.15962,4,1,0,90,0,0
126390,-77.74221,4,1,0,90,0,0
126473,-77.32923,4,1,0,90,0,0
126557,-76.91574,4,1,0,90,0,0
126640,-76.51147,4,1,0,90,0,0
126806,-75.71556,4,1,0,90,0,0
126890,-75.31909,4,1,0,90,0,0
126973,-74.9314,4,1,0,90,0,0
127056,-74.54767,4,1,0,90,0,0
127140,-74.1633,4,1,0,90,0,0
127223,-73.787384,4,1,0,90,0,0
127306,-73.41526,4,1,0,90,0,0
127473,-72.67779,4,1,0,90,0,0
127556,-72.31674,4,1,0,90,0,0
127640,-71.95497,4,1,0,90,0,0
127723,-71.60106,4,1,0,90,0,0
127806,-71.2506,4,1,0,90,0,0
127890,-70.89941,4,1,0,90,0,0
127973,-70.55577,4,1,0,90,0,0
128140,-69.87436,4,1,0,90,0,0
128223,-69.54057,4,1,0,90,0,0
128307,-69.205986,4,1,0,90,0,0
128390,-68.87853,4,1,0,90,0,0
128473,-68.55417,4,1,0,90,0,0
128556,-68.232834,4,1,0,90,0,0
128640,-67.91069,4,1,0,90,0,0
128723,-67.59535,4,1,0,90,0,0
128807,-67.27918,4,1,0,90,0,0
128890,-66.96967,4,1,0,90,0,0
128973,-57.152637,4,1,0,90,0,0
129029,-57.705597,4,1,0,90,0,0
129085,-58.269363,4,1,0,90,0,0
129140,-58.833893,4,1,0,90,0,0
129307,-50,4,1,0,90,0,0

[HitObjects]
256,192,1308,5,4,0:0:0:0:
256,192,1807,1,0,0:0:0:0:
256,192,1974,1,2,0:0:0:0:
256,192,2141,1,2,0:0:0:0:
256,192,2474,1,0,0:0:0:0:
256,192,2641,1,2,0:0:0:0:
256,192,3141,1,0,0:0:0:0:
256,192,3307,1,2,0:0:0:0:
256,192,3474,1,2,0:0:0:0:
256,192,3807,1,0,0:0:0:0:
256,192,3974,1,2,0:0:0:0:
256,192,4474,1,0,0:0:0:0:
256,192,4641,1,2,0:0:0:0:
256,192,4807,1,2,0:0:0:0:
256,192,5141,1,0,0:0:0:0:
256,192,5307,1,0,0:0:0:0:
256,192,5641,1,2,0:0:0:0:
256,192,5807,1,0,0:0:0:0:
256,192,5891,1,0,0:0:0:0:
256,192,5974,1,0,0:0:0:0:
256,192,6141,1,2,0:0:0:0:
256,192,6307,1,2,0:0:0:0:
256,192,6641,1,4,0:0:0:0:
256,192,6974,1,2,0:0:0:0:
256,192,7141,1,0,0:0:0:0:
256,192,7307,1,0,0:0:0:0:
256,192,7474,1,2,0:0:0:0:
256,192,7641,1,0,0:0:0:0:
256,192,7974,1,2,0:0:0:0:
256,192,8057,1,2,0:0:0:0:
256,192,8141,1,2,0:0:0:0:
256,192,8307,1,0,0:0:0:0:
256,192,8474,1,2,0:0:0:0:
256,192,8641,1,0,0:0:0:0:
256,192,8724,1,0,0:0:0:0:
256,192,8807,1,2,0:0:0:0:
256,192,8974,1,0,0:0:0:0:
256,192,9057,1,2,0:0:0:0:
256,192,9141,1,0,0:0:0:0:
256,192,9224,1,2,0:0:0:0:
256,192,9307,1,0,0:0:0:0:
256,192,9641,1,2,0:0:0:0:
256,192,9807,1,0,0:0:0:0:
256,192,9974,1,0,0:0:0:0:
256,192,10141,1,2,0:0:0:0:
256,192,10307,1,0,0:0:0:0:
256,192,10474,1,0,0:0:0:0:
256,192,10641,1,2,0:0:0:0:
256,192,10807,1,0,0:0:0:0:
256,192,10891,1,0,0:0:0:0:
256,192,10974,1,0,0:0:0:0:
256,192,11141,1,2,0:0:0:0:
256,192,11224,1,2,0:0:0:0:
256,192,11307,1,0,0:0:0:0:
256,192,11474,1,2,0:0:0:0:
256,192,11641,1,2,0:0:0:0:
256,192,11974,1,4,0:0:0:0:
256,192,12307,1,2,0:0:0:0:
256,192,12474,1,0,0:0:0:0:
256,192,12641,1,2,0:0:0:0:
256,192,12891,1,2,0:0:0:0:
256,192,12974,1,0,0:0:0:0:
256,192,13141,1,2,0:0:0:0:
256,192,13307,1,0,0:0:0:0:
256,192,13474,1,0,0:0:0:0:
256,192,13641,1,2,0:0:0:0:
256,192,13807,1,0,0:0:0:0:
256,192,13974,1,2,0:0:0:0:
256,192,14141,1,0,0:0:0:0:
256,192,14224,1,2,0:0:0:0:
256,192,14307,1,0,0:0:0:0:
256,192,14474,1,2,0:0:0:0:
256,192,14641,1,0,0:0:0:0:
256,192,14974,1,2,0:0:0:0:
256,192,15141,1,0,0:0:0:0:
256,192,15308,1,2,0:0:0:0:
256,192,15558,1,2,0:0:0:0:
256,192,15641,1,0,0:0:0:0:
256,192,15808,1,2,0:0:0:0:
256,192,15974,1,2,0:0:0:0:
256,192,16141,1,0,0:0:0:0:
256,192,16308,1,2,0:0:0:0:
256,192,16641,1,2,0:0:0:0:
256,192,16808,1,0,0:0:0:0:
256,192,16891,1,2,0:0:0:0:
256,192,16974,1,0,0:0:0:0:
256,192,17141,1,2,0:0:0:0:
256,192,17224,1,2,0:0:0:0:
256,192,17307,1,4,0:0:0:0:
256,192,17474,1,0,0:0:0:0:
256,192,17641,1,2,0:0:0:0:
256,192,17807,1,2,0:0:0:0:
256,192,17974,1,0,0:0:0:0:
256,192,18141,1,0,0:0:0:0:
256,192,18307,1,2,0:0:0:0:
256,192,18474,1,2,0:0:0:0:
256,192,18557,1,2,0:0:0:0:
256,192,18641,1,4,0:0:0:0:
256,192,18807,1,0,0:0:0:0:
256,192,18974,1,2,0:0:0:0:
256,192,19141,1,2,0:0:0:0:
256,192,19224,1,2,0:0:0:0:
256,192,19307,1,0,0:0:0:0:
256,192,19474,1,0,0:0:0:0:
256,192,19641,1,2,0:0:0:0:
256,192,19807,1,0,0:0:0:0:
256,192,19891,1,0,0:0:0:0:
256,192,19974,5,2,0:0:0:0:
256,192,20057,1,0,0:0:0:0:
256,192,20141,1,0,0:0:0:0:
256,192,20224,1,0,0:0:0:0:
256,192,20307,1,2,0:0:0:0:
256,192,20391,1,2,0:0:0:0:
256,192,20474,1,0,0:0:0:0:
256,192,20557,1,0,0:0:0:0:
256,192,20641,1,2,0:0:0:0:
256,192,20724,1,2,0:0:0:0:
256,192,20807,1,2,0:0:0:0:
256,192,20891,1,2,0:0:0:0:
256,192,20974,1,0,0:0:0:0:
256,192,21057,1,0,0:0:0:0:
256,192,21141,1,0,0:0:0:0:
256,192,21224,1,0,0:0:0:0:
256,192,21307,1,2,0:0:0:0:
256,192,21363,1,0,0:0:0:0:
256,192,21419,1,0,0:0:0:0:
256,192,21474,1,2,0:0:0:0:
256,192,21557,1,0,0:0:0:0:
256,192,21641,1,2,0:0:0:0:
256,192,21724,1,2,0:0:0:0:
256,192,21807,1,0,0:0:0:0:
256,192,21891,1,2,0:0:0:0:
256,192,21974,1,0,0:0:0:0:
256,192,22057,1,0,0:0:0:0:
256,192,22141,1,2,0:0:0:0:
256,192,22224,1,0,0:0:0:0:
256,192,22307,1,6,0:0:0:0:
256,192,22641,1,0,0:0:0:0:
256,192,22696,1,2,0:0:0:0:
256,192,22752,1,2,0:0:0:0:
256,192,22807,1,0,0:0:0:0:
256,192,22891,1,0,0:0:0:0:
256,192,22974,1,2,0:0:0:0:
256,192,23141,1,2,0:0:0:0:
256,192,23224,1,0,0:0:0:0:
256,192,23307,1,2,0:0:0:0:
256,192,23391,1,2,0:0:0:0:
256,192,23474,1,0,0:0:0:0:
256,192,23557,1,0,0:0:0:0:
256,192,23641,1,2,0:0:0:0:
256,192,23807,1,0,0:0:0:0:
256,192,23891,1,2,0:0:0:0:
256,192,23974,1,0,0:0:0:0:
256,192,24057,1,2,0:0:0:0:
256,192,24113,1,2,0:0:0:0:
256,192,24169,1,0,0:0:0:0:
256,192,24224,1,0,0:0:0:0:
256,192,24307,1,2,0:0:0:0:
256,192,24391,1,2,0:0:0:0:
256,192,24474,1,0,0:0:0:0:
256,192,24557,1,2,0:0:0:0:
256,192,24641,1,2,0:0:0:0:
256,192,24724,1,0,0:0:0:0:
256,192,24807,1,0,0:0:0:0:
256,192,24891,1,0,0:0:0:0:
256,192,24974,1,2,0:0:0:0:
256,192,25141,1,0,0:0:0:0:
256,192,25307,1,2,0:0:0:0:
256,192,25363,1,0,0:0:0:0:
256,192,25419,1,2,0:0:0:0:
256,192,25474,1,2,0:0:0:0:
256,192,25557,1,0,0:0:0:0:
256,192,25641,1,2,0:0:0:0:
256,192,25807,1,0,0:0:0:0:
256,192,25891,1,2,0:0:0:0:
256,192,25974,1,0,0:0:0:0:
256,192,26057,1,0,0:0:0:0:
256,192,26141,1,2,0:0:0:0:
256,192,26224,1,0,0:0:0:0:
256,192,26307,1,2,0:0:0:0:
256,192,26474,1,0,0:0:0:0:
256,192,26557,1,0,0:0:0:0:
256,192,26641,1,2,0:0:0:0:
256,192,26696,1,2,0:0:0:0:
256,192,26752,1,2,0:0:0:0:
256,192,26807,1,0,0:0:0:0:
256,192,26863,1,0,0:0:0:0:
256,192,26919,1,0,0:0:0:0:
256,192,26974,1,2,0:0:0:0:
256,192,27057,1,0,0:0:0:0:
256,192,27141,1,2,0:0:0:0:
256,192,27224,1,2,0:0:0:0:
256,192,27307,1,0,0:0:0:0:
256,192,27391,1,2,0:0:0:0:
256,192,27474,1,0,0:0:0:0:
256,192,27557,1,0,0:0:0:0:
256,192,27641,1,2,0:0:0:0:
256,192,27974,1,6,0:0:0:0:
256,192,28224,1,0,0:0:0:0:
256,192,28307,1,2,0:0:0:0:
256,192,28474,1,0,0:0:0:0:
256,192,28557,1,0,0:0:0:0:
256,192,28641,1,2,0:0:0:0:
256,192,28724,1,2,0:0:0:0:
256,192,28807,1,0,0:0:0:0:
256,192,28891,1,0,0:0:0:0:
256,192,28974,1,2,0:0:0:0:
256,192,29141,1,2,0:0:0:0:
256,192,29224,1,2,0:0:0:0:
256,192,29307,1,0,0:0:0:0:
256,192,29363,1,2,0:0:0:0:
256,192,29419,1,2,0:0:0:0:
256,192,29474,1,2,0:0:0:0:
256,192,29557,1,0,0:0:0:0:
256,192,29641,1,2,0:0:0:0:
256,192,29724,1,2,0:0:0:0:
256,192,29807,1,0,0:0:0:0:
256,192,29891,1,0,0:0:0:0:
256,192,29974,1,2,0:0:0:0:
256,192,30057,1,0,0:0:0:0:
256,192,30141,1,2,0:0:0:0:
256,192,30224,1,2,0:0:0:0:
256,192,30307,1,0,0:0:0:0:
256,192,30474,1,0,0:0:0:0:
256,192,30641,1,2,0:0:0:0:
256,192,30696,1,0,0:0:0:0:
256,192,30752,1,0,0:0:0:0:
256,192,30807,1,2,0:0:0:0:
256,192,30891,1,0,0:0:0:0:
256,192,30974,1,2,0:0:0:0:
256,192,31141,1,0,0:0:0:0:
256,192,31224,1,2,0:0:0:0:
256,192,31307,1,0,0:0:0:0:
256,192,31391,1,0,0:0:0:0:
256,192,31474,1,2,0:0:0:0:
256,192,31557,1,0,0:0:0:0:
256,192,31641,1,2,0:0:0:0:
256,192,31696,1,2,0:0:0:0:
256,192,31752,1,2,0:0:0:0:
256,192,31807,1,0,0:0:0:0:
256,192,31891,1,0,0:0:0:0:
256,192,31974,1,2,0:0:0:0:
256,192,32307,1,2,0:0:0:0:
256,192,32391,1,0,0:0:0:0:
256,192,32474,1,0,0:0:0:0:
256,192,32557,1,2,0:0:0:0:
256,192,32641,1,0,0:0:0:0:
256,192,32724,1,2,0:0:0:0:
256,192,32807,1,0,0:0:0:0:
256,192,32891,1,0,0:0:0:0:
256,192,32974,1,6,0:0:0:0:
256,192,33307,1,0,0:0:0:0:
256,192,33363,1,0,0:0:0:0:
256,192,33419,1,2,0:0:0:0:
256,192,33474,1,2,0:0:0:0:
256,192,33557,1,0,0:0:0:0:
256,192,33641,1,2,0:0:0:0:
256,192,33807,1,0,0:0:0:0:
256,192,33891,1,2,0:0:0:0:
256,192,33974,1,0,0:0:0:0:
256,192,34057,1,0,0:0:0:0:
256,192,34141,1,0,0:0:0:0:
256,192,34224,1,0,0:0:0:0:
256,192,34307,1,2,0:0:0:0:
256,192,34474,1,0,0:0:0:0:
256,192,34557,1,0,0:0:0:0:
256,192,34641,1,2,0:0:0:0:
256,192,34724,1,2,0:0:0:0:
256,192,34807,1,0,0:0:0:0:
256,192,34891,1,0,0:0:0:0:
256,192,34974,1,2,0:0:0:0:
256,192,35141,1,0,0:0:0:0:
256,192,35224,1,2,0:0:0:0:
256,192,35307,1,2,0:0:0:0:
256,192,35391,1,0,0:0:0:0:
256,192,35474,1,0,0:0:0:0:
256,192,35557,1,0,0:0:0:0:
256,192,35641,1,2,0:0:0:0:
256,192,35807,1,0,0:0:0:0:
256,192,35891,1,0,0:0:0:0:
256,192,35974,1,2,0:0:0:0:
256,192,36030,1,0,0:0:0:0:
256,192,36085,1,0,0:0:0:0:
256,192,36141,1,2,0:0:0:0:
256,192,36224,1,0,0:0:0:0:
256,192,36307,1,2,0:0:0:0:
256,192,36474,1,0,0:0:0:0:
256,192,36557,1,2,0:0:0:0:
256,192,36641,1,0,0:0:0:0:
256,192,36724,1,0,0:0:0:0:
256,192,36807,1,2,0:0:0:0:
256,192,36891,1,0,0:0:0:0:
256,192,36974,1,2,0:0:0:0:
256,192,37057,1,2,0:0:0:0:
256,192,37141,1,0,0:0:0:0:
256,192,37224,1,0,0:0:0:0:
256,192,37307,1,2,0:0:0:0:
256,192,37363,1,2,0:0:0:0:
256,192,37419,1,2,0:0:0:0:
256,192,37474,1,0,0:0:0:0:
256,192,37557,1,2,0:0:0:0:
256,192,37641,1,0,0:0:0:0:
256,192,37724,1,0,0:0:0:0:
256,192,37807,1,2,0:0:0:0:
256,192,37891,1,2,0:0:0:0:
256,192,37974,1,0,0:0:0:0:
256,192,38057,1,2,0:0:0:0:
256,192,38141,1,0,0:0:0:0:
256,192,38307,1,2,0:0:0:0:
256,192,38349,1,2,0:0:0:0:
256,192,38391,1,2,0:0:0:0:
256,192,38474,1,2,0:0:0:0:
256,192,38557,1,2,0:0:0:0:
256,192,38641,1,4,0:0:0:0:
256,192,38891,1,0,0:0:0:0:
256,192,38974,1,2,0:0:0:0:
256,192,39141,1,0,0:0:0:0:
256,192,39225,1,2,0:0:0:0:
256,192,39308,1,0,0:0:0:0:
256,192,39391,1,0,0:0:0:0:
256,192,39475,1,2,0:0:0:0:
256,192,39558,1,0,0:0:0:0:
256,192,39641,1,2,0:0:0:0:
256,192,39808,1,0,0:0:0:0:
256,192,39891,1,0,0:0:0:0:
256,192,39975,1,2,0:0:0:0:
256,192,40141,1,2,0:0:0:0:
256,192,40225,1,0,0:0:0:0:
256,192,40308,1,2,0:0:0:0:
256,192,40475,1,0,0:0:0:0:
256,192,40558,1,2,0:0:0:0:
256,192,40641,1,2,0:0:0:0:
256,192,40725,1,0,0:0:0:0:
256,192,40808,1,0,0:0:0:0:
256,192,40891,1,0,0:0:0:0:
256,192,40975,1,2,0:0:0:0:
256,192,41141,1,0,0:0:0:0:
256,192,41225,1,0,0:0:0:0:
256,192,41308,1,2,0:0:0:0:
256,192,41364,1,0,0:0:0:0:
256,192,41419,1,0,0:0:0:0:
256,192,41475,1,2,0:0:0:0:
256,192,41558,1,0,0:0:0:0:
256,192,41641,1,2,0:0:0:0:
256,192,41808,1,0,0:0:0:0:
256,192,41891,1,0,0:0:0:0:
256,192,41974,1,2,0:0:0:0:
256,192,42058,1,0,0:0:0:0:
256,192,42141,1,2,0:0:0:0:
256,192,42225,1,2,0:0:0:0:
256,192,42308,1,0,0:0:0:0:
256,192,42391,1,2,0:0:0:0:
256,192,42475,1,0,0:0:0:0:
256,192,42558,1,0,0:0:0:0:
256,192,42641,1,2,0:0:0:0:
256,192,42724,1,2,0:0:0:0:
256,192,42807,1,2,0:0:0:0:
256,192,42891,1,2,0:0:0:0:
256,192,42974,1,2,0:0:0:0:
256,192,43057,1,2,0:0:0:0:
256,192,43141,1,2,0:0:0:0:
256,192,43224,1,2,0:0:0:0:
256,192,43307,1,2,0:0:0:0:
256,192,43391,1,2,0:0:0:0:
256,192,43474,1,2,0:0:0:0:
256,192,43557,1,2,0:0:0:0:
256,192,43641,1,4,0:0:0:0:
256,192,43974,1,4,0:0:0:0:
256,192,44307,1,2,0:0:0:0:
256,192,44363,1,2,0:0:0:0:
256,192,44419,1,2,0:0:0:0:
256,192,44474,1,0,0:0:0:0:
256,192,44557,1,0,0:0:0:0:
256,192,44641,1,2,0:0:0:0:
256,192,44724,1,2,0:0:0:0:
256,192,44807,1,0,0:0:0:0:
256,192,44891,1,2,0:0:0:0:
256,192,44974,1,2,0:0:0:0:
256,192,45141,1,2,0:0:0:0:
256,192,45307,1,0,0:0:0:0:
256,192,45474,1,2,0:0:0:0:
256,192,45557,1,0,0:0:0:0:
256,192,45641,1,2,0:0:0:0:
256,192,45696,1,0,0:0:0:0:
256,192,45752,1,0,0:0:0:0:
256,192,45807,1,2,0:0:0:0:
256,192,45891,1,0,0:0:0:0:
256,192,45974,1,2,0:0:0:0:
256,192,46057,1,0,0:0:0:0:
256,192,46113,1,2,0:0:0:0:
256,192,46169,1,2,0:0:0:0:
256,192,46224,1,0,0:0:0:0:
256,192,46280,1,2,0:0:0:0:
256,192,46335,1,2,0:0:0:0:
256,192,46391,1,0,0:0:0:0:
256,192,46474,1,2,0:0:0:0:
256,192,46641,1,0,0:0:0:0:
256,192,46807,1,0,0:0:0:0:
256,192,46891,1,0,0:0:0:0:
256,192,46974,1,2,0:0:0:0:
256,192,47030,1,2,0:0:0:0:
256,192,47085,1,0,0:0:0:0:
256,192,47141,1,0,0:0:0:0:
256,192,47307,1,2,0:0:0:0:
256,192,47363,1,2,0:0:0:0:
256,192,47419,1,2,0:0:0:0:
256,192,47474,1,2,0:0:0:0:
256,192,47641,1,0,0:0:0:0:
256,192,47696,1,0,0:0:0:0:
256,192,47752,1,2,0:0:0:0:
256,192,47807,1,2,0:0:0:0:
256,192,47891,1,0,0:0:0:0:
256,192,47974,1,2,0:0:0:0:
256,192,48057,1,2,0:0:0:0:
256,192,48141,1,0,0:0:0:0:
256,192,48224,1,2,0:0:0:0:
256,192,48307,1,0,0:0:0:0:
256,192,48363,1,2,0:0:0:0:
256,192,48419,1,2,0:0:0:0:
256,192,48474,1,0,0:0:0:0:
256,192,48557,1,0,0:0:0:0:
256,192,48641,1,2,0:0:0:0:
256,192,48724,1,0,0:0:0:0:
256,192,48807,1,2,0:0:0:0:
256,192,48891,1,2,0:0:0:0:
256,192,48974,1,0,0:0:0:0:
256,192,49307,1,4,0:0:0:0:
256,192,49641,1,2,0:0:0:0:
256,192,49697,1,0,0:0:0:0:
256,192,49753,1,0,0:0:0:0:
256,192,49808,1,2,0:0:0:0:
256,192,49891,1,0,0:0:0:0:
256,192,49975,1,2,0:0:0:0:
256,192,50058,1,2,0:0:0:0:
256,192,50141,1,0,0:0:0:0:
256,192,50225,1,0,0:0:0:0:
256,192,50308,1,2,0:0:0:0:
256,192,50475,1,2,0:0:0:0:
256,192,50557,1,0,0:0:0:0:
256,192,50641,1,0,0:0:0:0:
256,192,50808,1,2,0:0:0:0:
256,192,50891,1,0,0:0:0:0:
256,192,50975,1,2,0:0:0:0:
256,192,51030,1,2,0:0:0:0:
256,192,51086,1,2,0:0:0:0:
256,192,51141,1,0,0:0:0:0:
256,192,51225,1,2,0:0:0:0:
256,192,51308,1,0,0:0:0:0:
256,192,51391,1,2,0:0:0:0:
256,192,51447,1,0,0:0:0:0:
256,192,51503,1,0,0:0:0:0:
256,192,51558,1,2,0:0:0:0:
256,192,51614,1,0,0:0:0:0:
256,192,51669,1,0,0:0:0:0:
256,192,51725,1,2,0:0:0:0:
256,192,51808,1,0,0:0:0:0:
256,192,51891,1,0,0:0:0:0:
256,192,51975,1,6,0:0:0:0:
256,192,52141,1,0,0:0:0:0:
256,192,52225,1,0,0:0:0:0:
256,192,52308,1,2,0:0:0:0:
256,192,52391,1,0,0:0:0:0:
256,192,52475,1,6,0:0:0:0:
256,192,52641,1,2,0:0:0:0:
256,192,52697,1,2,0:0:0:0:
256,192,52753,1,2,0:0:0:0:
256,192,52808,1,0,0:0:0:0:
256,192,52975,1,6,0:0:0:0:
256,192,53141,1,0,0:0:0:0:
256,192,53225,1,0,0:0:0:0:
256,192,53308,1,2,0:0:0:0:
256,192,53391,1,0,0:0:0:0:
256,192,53475,1,0,0:0:0:0:
256,192,53558,1,0,0:0:0:0:
256,192,53641,1,2,0:0:0:0:
256,192,53724,1,2,0:0:0:0:
256,192,53808,1,0,0:0:0:0:
256,192,53863,1,0,0:0:0:0:
256,192,53919,1,0,0:0:0:0:
256,192,53975,1,2,0:0:0:0:
256,192,54058,1,0,0:0:0:0:
256,192,54141,1,0,0:0:0:0:
256,192,54224,1,2,0:0:0:0:
256,192,54308,1,0,0:0:0:0:
256,192,54474,1,6,0:0:0:0:
256,192,54641,1,4,0:0:0:0:
256,192,55141,1,0,0:0:0:0:
256,192,55308,1,2,0:0:0:0:
256,192,55475,1,2,0:0:0:0:
256,192,55808,1,0,0:0:0:0:
256,192,55975,1,2,0:0:0:0:
256,192,56475,1,0,0:0:0:0:
256,192,56641,1,2,0:0:0:0:
256,192,56808,1,0,0:0:0:0:
256,192,57141,1,2,0:0:0:0:
256,192,57308,1,0,0:0:0:0:
256,192,57808,1,0,0:0:0:0:
256,192,57975,1,2,0:0:0:0:
256,192,58141,1,2,0:0:0:0:
256,192,58475,1,0,0:0:0:0:
256,192,58641,1,0,0:0:0:0:
256,192,58975,1,2,0:0:0:0:
256,192,59141,1,0,0:0:0:0:
256,192,59308,1,0,0:0:0:0:
256,192,59475,1,2,0:0:0:0:
256,192,59641,1,2,0:0:0:0:
256,192,59975,1,4,0:0:0:0:
256,192,60474,1,0,0:0:0:0:
256,192,60641,1,2,0:0:0:0:
256,192,60808,1,2,0:0:0:0:
256,192,61141,1,0,0:0:0:0:
256,192,61308,1,2,0:0:0:0:
256,192,61808,1,0,0:0:0:0:
256,192,61974,1,2,0:0:0:0:
256,192,62141,1,0,0:0:0:0:
256,192,62474,1,2,0:0:0:0:
256,192,62641,1,0,0:0:0:0:
256,192,63141,1,0,0:0:0:0:
256,192,63308,1,2,0:0:0:0:
256,192,63474,1,2,0:0:0:0:
256,192,63808,1,0,0:0:0:0:
256,192,63974,1,0,0:0:0:0:
256,192,64308,1,2,0:0:0:0:
256,192,64474,1,0,0:0:0:0:
256,192,64641,1,0,0:0:0:0:
256,192,64808,1,2,0:0:0:0:
256,192,64974,5,2,0:0:0:0:
256,192,65308,5,4,0:0:0:0:
256,192,65641,1,2,0:0:0:0:
256,192,65808,1,0,0:0:0:0:
256,192,65975,1,2,0:0:0:0:
256,192,66225,1,2,0:0:0:0:
256,192,66308,1,0,0:0:0:0:
256,192,66475,1,2,0:0:0:0:
256,192,66641,1,0,0:0:0:0:
256,192,66808,1,0,0:0:0:0:
256,192,66975,1,2,0:0:0:0:
256,192,67141,1,0,0:0:0:0:
256,192,67308,1,2,0:0:0:0:
256,192,67475,1,0,0:0:0:0:
256,192,67558,1,2,0:0:0:0:
256,192,67641,1,0,0:0:0:0:
256,192,67808,1,2,0:0:0:0:
256,192,67975,1,0,0:0:0:0:
256,192,68308,1,2,0:0:0:0:
256,192,68475,1,0,0:0:0:0:
256,192,68642,1,2,0:0:0:0:
256,192,68892,1,2,0:0:0:0:
256,192,68975,1,0,0:0:0:0:
256,192,69142,1,2,0:0:0:0:
256,192,69308,1,2,0:0:0:0:
256,192,69475,1,0,0:0:0:0:
256,192,69642,1,2,0:0:0:0:
256,192,69975,1,2,0:0:0:0:
256,192,70142,1,0,0:0:0:0:
256,192,70225,1,2,0:0:0:0:
256,192,70308,1,0,0:0:0:0:
256,192,70475,1,2,0:0:0:0:
256,192,70558,1,2,0:0:0:0:
256,192,70641,1,4,0:0:0:0:
256,192,70808,1,0,0:0:0:0:
256,192,70975,1,2,0:0:0:0:
256,192,71141,1,2,0:0:0:0:
256,192,71308,1,0,0:0:0:0:
256,192,71475,1,0,0:0:0:0:
256,192,71641,1,2,0:0:0:0:
256,192,71808,1,2,0:0:0:0:
256,192,71891,1,2,0:0:0:0:
256,192,71975,1,4,0:0:0:0:
256,192,72141,1,0,0:0:0:0:
256,192,72308,1,2,0:0:0:0:
256,192,72475,1,2,0:0:0:0:
256,192,72558,1,2,0:0:0:0:
256,192,72641,1,0,0:0:0:0:
256,192,72808,1,0,0:0:0:0:
256,192,72975,1,2,0:0:0:0:
256,192,73141,1,0,0:0:0:0:
256,192,73225,1,0,0:0:0:0:
256,192,73308,5,2,0:0:0:0:
256,192,73391,1,0,0:0:0:0:
256,192,73475,1,0,0:0:0:0:
256,192,73558,1,0,0:0:0:0:
256,192,73641,1,2,0:0:0:0:
256,192,73725,1,2,0:0:0:0:
256,192,73808,1,0,0:0:0:0:
256,192,73891,1,0,0:0:0:0:
256,192,73975,1,2,0:0:0:0:
256,192,74058,1,2,0:0:0:0:
256,192,74141,1,2,0:0:0:0:
256,192,74225,1,2,0:0:0:0:
256,192,74308,1,0,0:0:0:0:
256,192,74391,1,0,0:0:0:0:
256,192,74475,1,0,0:0:0:0:
256,192,74558,1,0,0:0:0:0:
256,192,74641,1,2,0:0:0:0:
256,192,74697,1,2,0:0:0:0:
256,192,74753,1,2,0:0:0:0:
256,192,74808,1,0,0:0:0:0:
256,192,74891,1,2,0:0:0:0:
256,192,74975,1,0,0:0:0:0:
256,192,75058,1,0,0:0:0:0:
256,192,75141,1,2,0:0:0:0:
256,192,75225,1,0,0:0:0:0:
256,192,75308,1,2,0:0:0:0:
256,192,75391,1,2,0:0:0:0:
256,192,75474,1,0,0:0:0:0:
256,192,75558,1,0,0:0:0:0:
256,192,75641,1,6,0:0:0:0:
256,192,75974,1,4,0:0:0:0:
256,192,76141,1,2,0:0:0:0:
256,192,76224,1,2,0:0:0:0:
256,192,76307,1,0,0:0:0:0:
256,192,76391,1,2,0:0:0:0:
256,192,76474,1,2,0:0:0:0:
256,192,76557,1,0,0:0:0:0:
256,192,76641,1,2,0:0:0:0:
256,192,76724,1,2,0:0:0:0:
256,192,76807,1,2,0:0:0:0:
256,192,76891,1,2,0:0:0:0:
256,192,76974,1,0,0:0:0:0:
256,192,77057,1,0,0:0:0:0:
256,192,77141,1,2,0:0:0:0:
256,192,77224,1,2,0:0:0:0:
256,192,77307,1,0,0:0:0:0:
256,192,77391,1,2,0:0:0:0:
256,192,77474,1,0,0:0:0:0:
256,192,77557,1,0,0:0:0:0:
256,192,77641,1,2,0:0:0:0:
256,192,77807,1,2,0:0:0:0:
256,192,77891,1,2,0:0:0:0:
256,192,77974,1,0,0:0:0:0:
256,192,78057,1,2,0:0:0:0:
256,192,78141,1,2,0:0:0:0:
256,192,78224,1,2,0:0:0:0:
256,192,78307,1,0,0:0:0:0:
256,192,78363,1,2,0:0:0:0:
256,192,78419,1,2,0:0:0:0:
256,192,78474,1,0,0:0:0:0:
256,192,78641,1,2,0:0:0:0:
256,192,78724,1,0,0:0:0:0:
256,192,78807,1,2,0:0:0:0:
256,192,78863,1,2,0:0:0:0:
256,192,78919,1,2,0:0:0:0:
256,192,78974,1,0,0:0:0:0:
256,192,79141,1,0,0:0:0:0:
256,192,79224,1,0,0:0:0:0:
256,192,79307,1,2,0:0:0:0:
256,192,79391,1,2,0:0:0:0:
256,192,79474,1,0,0:0:0:0:
256,192,79557,1,2,0:0:0:0:
256,192,79641,1,0,0:0:0:0:
256,192,79696,1,0,0:0:0:0:
256,192,79752,1,0,0:0:0:0:
256,192,79807,1,2,0:0:0:0:
256,192,79891,1,2,0:0:0:0:
256,192,79974,1,0,0:0:0:0:
256,192,80141,1,2,0:0:0:0:
256,192,80224,1,0,0:0:0:0:
256,192,80307,1,2,0:0:0:0:
256,192,80474,1,0,0:0:0:0:
256,192,80557,1,0,0:0:0:0:
256,192,80641,1,0,0:0:0:0:
256,192,80724,1,2,0:0:0:0:
256,192,80807,1,2,0:0:0:0:
256,192,80891,1,2,0:0:0:0:
256,192,80974,1,0,0:0:0:0:
256,192,81141,1,2,0:0:0:0:
256,192,81307,1,4,0:0:0:0:
256,192,81474,1,2,0:0:0:0:
256,192,81557,1,0,0:0:0:0:
256,192,81641,1,2,0:0:0:0:
256,192,81724,1,2,0:0:0:0:
256,192,81807,1,0,0:0:0:0:
256,192,81891,1,2,0:0:0:0:
256,192,81974,1,0,0:0:0:0:
256,192,82057,1,0,0:0:0:0:
256,192,82141,1,2,0:0:0:0:
256,192,82307,1,0,0:0:0:0:
256,192,82391,1,2,0:0:0:0:
256,192,82474,1,2,0:0:0:0:
256,192,82557,1,2,0:0:0:0:
256,192,82641,1,0,0:0:0:0:
256,192,82724,1,2,0:0:0:0:
256,192,82807,1,0,0:0:0:0:
256,192,82891,1,0,0:0:0:0:
256,192,82974,1,2,0:0:0:0:
256,192,83030,1,0,0:0:0:0:
256,192,83085,1,0,0:0:0:0:
256,192,83141,1,2,0:0:0:0:
256,192,83224,1,0,0:0:0:0:
256,192,83307,1,2,0:0:0:0:
256,192,83474,1,0,0:0:0:0:
256,192,83557,1,2,0:0:0:0:
256,192,83641,1,0,0:0:0:0:
256,192,83724,1,2,0:0:0:0:
256,192,83807,1,2,0:0:0:0:
256,192,83891,1,2,0:0:0:0:
256,192,83974,1,0,0:0:0:0:
256,192,84030,1,2,0:0:0:0:
256,192,84085,1,2,0:0:0:0:
256,192,84141,1,0,0:0:0:0:
256,192,84307,1,2,0:0:0:0:
256,192,84363,1,0,0:0:0:0:
256,192,84419,1,2,0:0:0:0:
256,192,84474,1,2,0:0:0:0:
256,192,84557,1,0,0:0:0:0:
256,192,84641,1,2,0:0:0:0:
256,192,84724,1,0,0:0:0:0:
256,192,84807,1,0,0:0:0:0:
256,192,84974,1,2,0:0:0:0:
256,192,85057,1,2,0:0:0:0:
256,192,85141,1,2,0:0:0:0:
256,192,85224,1,0,0:0:0:0:
256,192,85307,1,2,0:0:0:0:
256,192,85391,1,0,0:0:0:0:
256,192,85474,1,2,0:0:0:0:
256,192,85557,1,2,0:0:0:0:
256,192,85641,1,0,0:0:0:0:
256,192,85724,1,0,0:0:0:0:
256,192,85807,1,2,0:0:0:0:
256,192,85974,1,0,0:0:0:0:
256,192,86057,1,2,0:0:0:0:
256,192,86141,1,2,0:0:0:0:
256,192,86224,1,0,0:0:0:0:
256,192,86307,1,2,0:0:0:0:
256,192,86363,1,2,0:0:0:0:
256,192,86419,1,0,0:0:0:0:
256,192,86474,1,0,0:0:0:0:
256,192,86641,1,6,0:0:0:0:
256,192,86807,1,0,0:0:0:0:
256,192,86891,1,0,0:0:0:0:
256,192,86974,1,2,0:0:0:0:
256,192,87057,1,0,0:0:0:0:
256,192,87141,1,2,0:0:0:0:
256,192,87224,1,0,0:0:0:0:
256,192,87307,1,2,0:0:0:0:
256,192,87474,1,2,0:0:0:0:
256,192,87557,1,0,0:0:0:0:
256,192,87641,1,2,0:0:0:0:
256,192,87724,1,2,0:0:0:0:
256,192,87807,1,0,0:0:0:0:
256,192,87891,1,2,0:0:0:0:
256,192,87974,1,0,0:0:0:0:
256,192,88030,1,2,0:0:0:0:
256,192,88085,1,2,0:0:0:0:
256,192,88141,1,0,0:0:0:0:
256,192,88224,1,0,0:0:0:0:
256,192,88307,1,2,0:0:0:0:
256,192,88474,1,0,0:0:0:0:
256,192,88557,1,2,0:0:0:0:
256,192,88641,1,0,0:0:0:0:
256,192,88807,1,2,0:0:0:0:
256,192,88863,1,0,0:0:0:0:
256,192,88919,1,0,0:0:0:0:
256,192,88974,1,2,0:0:0:0:
256,192,89057,1,2,0:0:0:0:
256,192,89141,1,0,0:0:0:0:
256,192,89224,1,2,0:0:0:0:
256,192,89307,1,0,0:0:0:0:
256,192,89363,1,0,0:0:0:0:
256,192,89419,1,2,0:0:0:0:
256,192,89474,1,2,0:0:0:0:
256,192,89641,1,2,0:0:0:0:
256,192,89724,1,0,0:0:0:0:
256,192,89807,1,2,0:0:0:0:
256,192,89891,1,2,0:0:0:0:
256,192,89974,1,0,0:0:0:0:
256,192,90141,1,2,0:0:0:0:
256,192,90224,1,2,0:0:0:0:
256,192,90307,1,0,0:0:0:0:
256,192,90391,1,0,0:0:0:0:
256,192,90474,1,2,0:0:0:0:
256,192,90641,1,2,0:0:0:0:
256,192,90696,1,2,0:0:0:0:
256,192,90752,1,2,0:0:0:0:
256,192,90807,1,0,0:0:0:0:
256,192,90891,1,0,0:0:0:0:
256,192,90974,1,2,0:0:0:0:
256,192,91057,1,0,0:0:0:0:
256,192,91141,1,2,0:0:0:0:
256,192,91307,1,2,0:0:0:0:
256,192,91391,1,2,0:0:0:0:
256,192,91474,1,0,0:0:0:0:
256,192,91557,1,2,0:0:0:0:
256,192,91641,1,0,0:0:0:0:
256,192,91696,1,0,0:0:0:0:
256,192,91752,1,0,0:0:0:0:
256,192,91807,1,2,0:0:0:0:
256,192,91974,1,4,0:0:0:0:
256,192,92224,1,2,0:0:0:0:
256,192,92307,1,0,0:0:0:0:
256,192,92474,1,0,0:0:0:0:
256,192,92641,1,2,0:0:0:0:
256,192,92807,1,0,0:0:0:0:
256,192,92974,1,2,0:0:0:0:
256,192,93141,1,2,0:0:0:0:
256,192,93224,1,2,0:0:0:0:
256,192,93307,1,0,0:0:0:0:
256,192,93391,1,2,0:0:0:0:
256,192,93474,1,0,0:0:0:0:
256,192,93557,1,0,0:0:0:0:
256,192,93641,1,2,0:0:0:0:
256,192,93807,1,0,0:0:0:0:
256,192,93891,1,0,0:0:0:0:
256,192,93974,1,2,0:0:0:0:
256,192,94057,1,0,0:0:0:0:
256,192,94141,1,0,0:0:0:0:
256,192,94307,1,2,0:0:0:0:
256,192,94391,1,0,0:0:0:0:
256,192,94474,1,2,0:0:0:0:
256,192,94557,1,2,0:0:0:0:
256,192,94641,5,2,0:0:0:0:
256,192,94724,1,0,0:0:0:0:
256,192,94807,1,0,0:0:0:0:
256,192,94891,1,0,0:0:0:0:
256,192,94974,1,2,0:0:0:0:
256,192,95057,1,2,0:0:0:0:
256,192,95141,1,0,0:0:0:0:
256,192,95224,1,0,0:0:0:0:
256,192,95307,1,2,0:0:0:0:
256,192,95391,1,0,0:0:0:0:
256,192,95474,1,2,0:0:0:0:
256,192,95557,1,0,0:0:0:0:
256,192,95641,1,2,0:0:0:0:
256,192,95724,1,0,0:0:0:0:
256,192,95807,1,2,0:0:0:0:
256,192,95891,1,0,0:0:0:0:
256,192,95974,1,2,0:0:0:0:
256,192,96057,1,2,0:0:0:0:
256,192,96141,1,2,0:0:0:0:
256,192,96224,1,2,0:0:0:0:
256,192,96307,1,2,0:0:0:0:
256,192,96391,1,2,0:0:0:0:
256,192,96474,1,2,0:0:0:0:
256,192,96557,1,2,0:0:0:0:
256,192,96641,1,2,0:0:0:0:
256,192,96724,1,2,0:0:0:0:
256,192,96807,1,2,0:0:0:0:
256,192,96891,1,2,0:0:0:0:
256,192,96974,1,4,0:0:0:0:
256,192,97307,1,6,0:0:0:0:
256,192,97474,1,0,0:0:0:0:
256,192,97557,1,2,0:0:0:0:
256,192,97641,1,0,0:0:0:0:
256,192,97807,1,2,0:0:0:0:
256,192,97891,1,2,0:0:0:0:
256,192,98057,1,0,0:0:0:0:
256,192,98141,1,2,0:0:0:0:
256,192,98224,1,0,0:0:0:0:
256,192,98307,1,0,0:0:0:0:
256,192,98391,1,2,0:0:0:0:
256,192,98474,1,2,0:0:0:0:
256,192,98557,1,0,0:0:0:0:
256,192,98641,1,2,0:0:0:0:
256,192,98807,1,0,0:0:0:0:
256,192,98891,1,2,0:0:0:0:
256,192,98974,1,0,0:0:0:0:
256,192,99141,1,2,0:0:0:0:
256,192,99224,1,2,0:0:0:0:
256,192,99391,1,0,0:0:0:0:
256,192,99474,1,0,0:0:0:0:
256,192,99557,1,2,0:0:0:0:
256,192,99641,1,0,0:0:0:0:
256,192,99724,1,2,0:0:0:0:
256,192,99807,1,2,0:0:0:0:
256,192,99891,1,0,0:0:0:0:
256,192,99974,1,0,0:0:0:0:
256,192,100141,1,2,0:0:0:0:
256,192,100224,1,2,0:0:0:0:
256,192,100307,1,0,0:0:0:0:
256,192,100474,1,0,0:0:0:0:
256,192,100557,1,2,0:0:0:0:
256,192,100724,1,0,0:0:0:0:
256,192,100807,1,2,0:0:0:0:
256,192,100891,1,0,0:0:0:0:
256,192,100974,1,2,0:0:0:0:
256,192,101057,1,2,0:0:0:0:
256,192,101141,1,0,0:0:0:0:
256,192,101224,1,0,0:0:0:0:
256,192,101307,1,2,0:0:0:0:
256,192,101474,1,2,0:0:0:0:
256,192,101557,1,2,0:0:0:0:
256,192,101641,1,0,0:0:0:0:
256,192,101807,1,0,0:0:0:0:
256,192,101891,1,2,0:0:0:0:
256,192,102057,1,0,0:0:0:0:
256,192,102224,1,2,0:0:0:0:
256,192,102307,1,0,0:0:0:0:
256,192,102391,1,2,0:0:0:0:
256,192,102474,1,2,0:0:0:0:
256,192,102557,1,0,0:0:0:0:
256,192,102641,1,6,0:0:0:0:
256,192,102807,1,0,0:0:0:0:
256,192,102890,1,2,0:0:0:0:
256,192,102974,1,0,0:0:0:0:
256,192,103140,1,2,0:0:0:0:
256,192,103224,1,2,0:0:0:0:
256,192,103390,1,0,0:0:0:0:
256,192,103474,1,0,0:0:0:0:
256,192,103557,1,2,0:0:0:0:
256,192,103640,1,0,0:0:0:0:
256,192,103724,1,2,0:0:0:0:
256,192,103807,1,2,0:0:0:0:
256,192,103890,1,0,0:0:0:0:
256,192,103974,1,2,0:0:0:0:
256,192,104140,1,0,0:0:0:0:
256,192,104224,1,2,0:0:0:0:
256,192,104307,1,0,0:0:0:0:
256,192,104474,1,2,0:0:0:0:
256,192,104557,1,2,0:0:0:0:
256,192,104724,1,0,0:0:0:0:
256,192,104807,1,2,0:0:0:0:
256,192,104890,1,0,0:0:0:0:
256,192,104974,1,0,0:0:0:0:
256,192,105057,1,2,0:0:0:0:
256,192,105140,1,2,0:0:0:0:
256,192,105307,1,4,0:0:0:0:
256,192,105474,1,2,0:0:0:0:
256,192,105557,1,2,0:0:0:0:
256,192,105640,1,0,0:0:0:0:
256,192,105724,1,2,0:0:0:0:
256,192,105807,1,0,0:0:0:0:
256,192,105890,1,0,0:0:0:0:
256,192,105974,1,2,0:0:0:0:
256,192,106140,1,0,0:0:0:0:
256,192,106224,1,0,0:0:0:0:
256,192,106307,1,2,0:0:0:0:
256,192,106390,1,2,0:0:0:0:
256,192,106474,1,2,0:0:0:0:
256,192,106557,1,2,0:0:0:0:
256,192,106640,1,0,0:0:0:0:
256,192,106807,1,2,0:0:0:0:
256,192,106863,1,0,0:0:0:0:
256,192,106919,1,0,0:0:0:0:
256,192,106974,1,2,0:0:0:0:
256,192,107057,1,0,0:0:0:0:
256,192,107141,1,2,0:0:0:0:
256,192,107196,1,2,0:0:0:0:
256,192,107252,1,2,0:0:0:0:
256,192,107307,1,0,0:0:0:0:
256,192,107390,1,0,0:0:0:0:
256,192,107474,1,2,0:0:0:0:
256,192,107557,1,0,0:0:0:0:
256,192,107640,1,6,0:0:0:0:
256,192,107974,1,4,0:0:0:0:
256,192,108141,1,2,0:0:0:0:
256,192,108224,1,0,0:0:0:0:
256,192,108308,1,2,0:0:0:0:
256,192,108474,1,0,0:0:0:0:
256,192,108558,1,2,0:0:0:0:
256,192,108724,1,0,0:0:0:0:
256,192,108808,1,2,0:0:0:0:
256,192,108891,1,0,0:0:0:0:
256,192,108974,1,0,0:0:0:0:
256,192,109058,1,2,0:0:0:0:
256,192,109141,1,2,0:0:0:0:
256,192,109224,1,0,0:0:0:0:
256,192,109308,1,2,0:0:0:0:
256,192,109474,1,0,0:0:0:0:
256,192,109557,1,0,0:0:0:0:
256,192,109641,1,2,0:0:0:0:
256,192,109808,1,2,0:0:0:0:
256,192,109891,1,0,0:0:0:0:
256,192,110058,1,2,0:0:0:0:
256,192,110141,1,0,0:0:0:0:
256,192,110224,1,0,0:0:0:0:
256,192,110308,1,2,0:0:0:0:
256,192,110391,1,0,0:0:0:0:
256,192,110474,1,2,0:0:0:0:
256,192,110557,1,2,0:0:0:0:
256,192,110641,1,0,0:0:0:0:
256,192,110808,1,2,0:0:0:0:
256,192,110891,1,0,0:0:0:0:
256,192,110974,1,2,0:0:0:0:
256,192,111141,1,0,0:0:0:0:
256,192,111224,1,0,0:0:0:0:
256,192,111391,1,2,0:0:0:0:
256,192,111474,1,0,0:0:0:0:
256,192,111558,1,0,0:0:0:0:
256,192,111641,1,2,0:0:0:0:
256,192,111724,1,2,0:0:0:0:
256,192,111808,1,0,0:0:0:0:
256,192,111891,1,2,0:0:0:0:
256,192,111974,1,0,0:0:0:0:
256,192,112141,1,2,0:0:0:0:
256,192,112224,1,0,0:0:0:0:
256,192,112307,1,2,0:0:0:0:
256,192,112474,1,0,0:0:0:0:
256,192,112558,1,2,0:0:0:0:
256,192,112724,1,0,0:0:0:0:
256,192,112807,1,0,0:0:0:0:
256,192,112891,1,2,0:0:0:0:
256,192,112974,1,0,0:0:0:0:
256,192,113141,1,2,0:0:0:0:
256,192,113224,1,0,0:0:0:0:
256,192,113308,1,6,0:0:0:0:
256,192,113474,1,0,0:0:0:0:
256,192,113557,1,2,0:0:0:0:
256,192,113641,1,0,0:0:0:0:
256,192,113807,1,2,0:0:0:0:
256,192,113891,1,0,0:0:0:0:
256,192,113974,1,2,0:0:0:0:
256,192,114141,1,0,0:0:0:0:
256,192,114224,1,2,0:0:0:0:
256,192,114307,1,0,0:0:0:0:
256,192,114391,1,0,0:0:0:0:
256,192,114474,1,2,0:0:0:0:
256,192,114557,1,0,0:0:0:0:
256,192,114641,1,2,0:0:0:0:
256,192,114807,1,0,0:0:0:0:
256,192,114891,1,2,0:0:0:0:
256,192,114974,1,0,0:0:0:0:
256,192,115141,1,2,0:0:0:0:
256,192,115224,1,2,0:0:0:0:
256,192,115307,1,0,0:0:0:0:
256,192,115474,1,2,0:0:0:0:
256,192,115557,1,0,0:0:0:0:
256,192,115641,1,0,0:0:0:0:
256,192,115724,1,2,0:0:0:0:
256,192,115807,1,2,0:0:0:0:
256,192,115891,1,2,0:0:0:0:
256,192,115974,1,0,0:0:0:0:
256,192,116057,1,0,0:0:0:0:
256,192,116141,1,2,0:0:0:0:
256,192,116224,1,0,0:0:0:0:
256,192,116307,1,2,0:0:0:0:
256,192,116391,1,2,0:0:0:0:
256,192,116474,1,0,0:0:0:0:
256,192,116557,1,0,0:0:0:0:
256,192,116641,1,2,0:0:0:0:
256,192,116724,1,2,0:0:0:0:
256,192,116807,1,0,0:0:0:0:
256,192,116891,1,2,0:0:0:0:
256,192,116974,1,0,0:0:0:0:
256,192,117057,1,0,0:0:0:0:
256,192,117141,1,2,0:0:0:0:
256,192,117224,1,2,0:0:0:0:
256,192,117307,1,0,0:0:0:0:
256,192,117419,1,0,0:0:0:0:
256,192,117530,1,2,0:0:0:0:
256,192,117641,1,0,0:0:0:0:
256,192,117752,1,2,0:0:0:0:
256,192,117863,1,2,0:0:0:0:
256,192,117974,1,0,0:0:0:0:
256,192,118307,1,6,0:0:0:0:
256,192,118641,1,4,0:0:0:0:
256,192,118808,1,2,0:0:0:0:
256,192,118891,1,0,0:0:0:0:
256,192,118974,1,0,0:0:0:0:
256,192,119058,1,2,0:0:0:0:
256,192,119141,1,2,0:0:0:0:
256,192,119224,1,0,0:0:0:0:
256,192,119308,1,2,0:0:0:0:
256,192,119391,1,2,0:0:0:0:
256,192,119474,1,2,0:0:0:0:
256,192,119558,1,2,0:0:0:0:
256,192,119641,1,0,0:0:0:0:
256,192,119724,1,2,0:0:0:0:
256,192,119808,1,0,0:0:0:0:
256,192,119891,1,0,0:0:0:0:
256,192,119974,1,2,0:0:0:0:
256,192,120141,1,0,0:0:0:0:
256,192,120224,1,0,0:0:0:0:
256,192,120308,1,2,0:0:0:0:
256,192,120391,1,2,0:0:0:0:
256,192,120474,1,0,0:0:0:0:
256,192,120558,1,2,0:0:0:0:
256,192,120641,1,2,0:0:0:0:
256,192,120724,1,0,0:0:0:0:
256,192,120808,1,2,0:0:0:0:
256,192,120891,1,0,0:0:0:0:
256,192,120974,1,2,0:0:0:0:
256,192,121030,1,2,0:0:0:0:
256,192,121086,1,2,0:0:0:0:
256,192,121141,1,0,0:0:0:0:
256,192,121308,1,2,0:0:0:0:
256,192,121391,1,2,0:0:0:0:
256,192,121474,1,0,0:0:0:0:
256,192,121530,1,2,0:0:0:0:
256,192,121586,1,2,0:0:0:0:
256,192,121641,1,0,0:0:0:0:
256,192,121808,1,2,0:0:0:0:
256,192,121891,1,0,0:0:0:0:
256,192,121974,1,2,0:0:0:0:
256,192,122030,1,2,0:0:0:0:
256,192,122085,1,2,0:0:0:0:
256,192,122141,1,0,0:0:0:0:
256,192,122224,1,2,0:0:0:0:
256,192,122308,1,0,0:0:0:0:
256,192,122363,1,0,0:0:0:0:
256,192,122419,1,0,0:0:0:0:
256,192,122474,1,2,0:0:0:0:
256,192,122558,1,2,0:0:0:0:
256,192,122641,1,0,0:0:0:0:
256,192,122808,1,2,0:0:0:0:
256,192,122891,1,0,0:0:0:0:
256,192,122974,1,2,0:0:0:0:
256,192,123141,1,2,0:0:0:0:
256,192,123224,1,2,0:0:0:0:
256,192,123308,1,0,0:0:0:0:
256,192,123391,1,2,0:0:0:0:
256,192,123474,1,2,0:0:0:0:
256,192,123558,1,2,0:0:0:0:
256,192,123641,1,0,0:0:0:0:
256,192,123696,1,2,0:0:0:0:
256,192,123752,1,2,0:0:0:0:
256,192,123807,1,0,0:0:0:0:
256,192,123974,1,6,0:0:0:0:
256,192,124141,1,0,0:0:0:0:
256,192,124224,1,2,0:0:0:0:
256,192,124308,1,0,0:0:0:0:
256,192,124391,1,0,0:0:0:0:
256,192,124474,1,2,0:0:0:0:
256,192,124558,1,0,0:0:0:0:
256,192,124641,1,2,0:0:0:0:
256,192,124696,1,2,0:0:0:0:
256,192,124752,1,2,0:0:0:0:
256,192,124807,1,0,0:0:0:0:
256,192,124974,1,2,0:0:0:0:
256,192,125058,1,2,0:0:0:0:
256,192,125141,1,2,0:0:0:0:
256,192,125224,1,2,0:0:0:0:
256,192,125308,1,4,0:0:0:0:
256,192,125474,1,2,0:0:0:0:
256,192,125558,1,0,0:0:0:0:
256,192,125641,1,2,0:0:0:0:
256,192,125697,1,2,0:0:0:0:
256,192,125752,1,2,0:0:0:0:
256,192,125808,1,0,0:0:0:0:
256,192,125891,1,0,0:0:0:0:
256,192,125974,1,2,0:0:0:0:
256,192,126141,1,0,0:0:0:0:
256,192,126224,1,2,0:0:0:0:
256,192,126308,1,0,0:0:0:0:
256,192,126391,1,2,0:0:0:0:
256,192,126474,1,2,0:0:0:0:
256,192,126558,1,2,0:0:0:0:
256,192,126641,1,4,0:0:0:0:
256,192,126807,1,2,0:0:0:0:
256,192,126891,1,0,0:0:0:0:
256,192,126974,1,2,0:0:0:0:
256,192,127057,1,0,0:0:0:0:
256,192,127141,1,0,0:0:0:0:
256,192,127224,1,0,0:0:0:0:
256,192,127307,1,6,0:0:0:0:
256,192,127474,1,0,0:0:0:0:
256,192,127557,1,2,0:0:0:0:
256,192,127641,1,0,0:0:0:0:
256,192,127724,1,0,0:0:0:0:
256,192,127807,1,2,0:0:0:0:
256,192,127891,1,2,0:0:0:0:
256,192,127974,1,4,0:0:0:0:
256,192,128141,1,2,0:0:0:0:
256,192,128224,1,2,0:0:0:0:
256,192,128308,1,0,0:0:0:0:
256,192,128391,1,0,0:0:0:0:
256,192,128474,1,2,0:0:0:0:
256,192,128557,1,2,0:0:0:0:
256,192,128641,1,0,0:0:0:0:
256,192,128724,1,2,0:0:0:0:
256,192,128808,1,2,0:0:0:0:
256,192,128891,1,2,0:0:0:0:
256,192,128974,1,0,0:0:0:0:
256,192,129030,1,2,0:0:0:0:
256,192,129086,1,2,0:0:0:0:
256,192,129141,1,0,0:0:0:0:
256,192,129308,1,6,0:0:0:0:
