osu file format v14

[General]
AudioFilename: audio.mp3
AudioLeadIn: 0
PreviewTime: 74550
Countdown: 0
SampleSet: Normal
StackLeniency: 0.7
Mode: 1
LetterboxInBreaks: 0
WidescreenStoryboard: 0

[Editor]
DistanceSpacing: 0.4
BeatDivisor: 4
GridSize: 32
TimelineZoom: 2.3

[Metadata]
Title:EXXTRA JUDGEMENT
TitleUnicode:EXXTRA JUDGEMENT
Artist:seatrus
ArtistUnicode:seatrus
Creator:Nifty
Version:FINAL VERDICT
Source:osu! World Cup 2022
Tags:extra owc2022 owc featured artist fa electronic instrumental jazz hardcore hardstyle piano breakcore psytrance osu!original grand finals tiebreaker dubstep sv
BeatmapID:3894756
BeatmapSetID:1890521

[Difficulty]
HPDrainRate:4.5
CircleSize:2
OverallDifficulty:6.5
ApproachRate:10
SliderMultiplier:1.4
SliderTickRate:1

[Events]
//Background and Video events
0,0,"feat camellia.png",0,-20
//Break Periods
//Storyboard Layer 0 (Background)
//Storyboard Layer 1 (Fail)
//Storyboard Layer 2 (Pass)
//Storyboard Layer 3 (Foreground)
//Storyboard Layer 4 (Overlay)
//Storyboard Sound Samples

[TimingPoints]
1062,319.148936170213,8,1,0,20,1,0
1062,-200,4,1,0,20,0,0
3230,-50,4,1,0,20,0,0
3464,-50,4,1,0,50,0,0
3615,600.000000000001,4,1,0,50,1,0
18014,-100,4,1,0,50,0,0
18164,-99.210434,4,1,0,50,0,0
18314,-98.4271,4,1,0,50,0,0
18464,-97.64995,4,1,0,50,0,0
18764,-96.11401,4,1,0,50,0,0
18914,-95.35512,4,1,0,50,0,0
19064,-94.60222,4,1,0,50,0,0
19214,-93.85528,4,1,0,50,0,0
19664,-91.64963,4,1,0,50,0,0
20114,-89.49581,4,1,0,50,0,0
20414,-88.08813,4,1,0,50,0,0
20564,-87.39261,4,1,0,50,0,0
20714,-86.70259,4,1,0,50,0,0
20864,-86.01801,4,1,0,50,0,0
21014,-85.33884,4,1,0,50,0,0
21164,-84.66503,4,1,0,50,0,0
21314,-83.996544,4,1,0,50,0,0
21464,-83.33333,4,1,0,50,0,0
21615,-76.9230740828403,4,1,0,70,0,0
22214,-71.428566,4,1,0,70,0,0
22289,-72.76425,4,1,0,70,0,0
22364,-74.12493,4,1,0,70,0,0
22439,-75.51104,4,1,0,70,0,0
22514,-76.92308,4,1,0,70,0,0
22815,300,4,1,0,100,1,0
22815,-71.4285714285714,4,1,0,100,0,0
23265,-62.5,4,1,0,100,0,0
23714,-100,4,1,0,100,0,0
23764,-103.574425,4,1,0,100,0,0
23814,-107.2766,4,1,0,100,0,0
23864,-111.111115,4,1,0,100,0,0
24015,-66.6666666666667,4,1,0,100,0,0
24465,-58.8235294117647,4,1,0,100,0,0
24839,-90.90909,4,1,0,100,0,0
24914,-93.10124,4,1,0,100,0,0
24989,-95.34625,4,1,0,100,0,0
25064,-97.64541,4,1,0,100,0,0
25139,-100,4,1,0,100,0,0
25215,-71.4285714285714,4,1,0,100,0,0
25665,-58.8235294117647,4,1,0,100,0,0
25964,-83.33333,4,1,0,100,0,0
26114,-91.28709,4,1,0,100,0,0
26264,-100,4,1,0,100,0,0
26415,-66.6666666666667,4,1,0,100,0,0
26865,-58.8235294117647,4,1,0,100,0,0
27164,-83.33333,4,1,0,100,0,0
27289,-80.06408,4,1,0,100,0,0
27414,-76.92308,4,1,0,100,0,0
27615,-62.5,4,1,0,100,0,0
28065,-71.4285714285714,4,1,0,100,0,0
28364,-83.33333,4,1,0,100,0,0
28514,-91.28709,4,1,0,100,0,0
28564,-94.10361,4,1,0,100,0,0
28614,-97.007,4,1,0,100,0,0
28664,-100,4,1,0,100,0,0
28815,-71.4285714285714,4,1,0,100,0,0
29265,-62.5,4,1,0,100,0,0
29714,-100,4,1,0,100,0,0
29789,-95.34626,4,1,0,100,0,0
29864,-90.90909,4,1,0,100,0,0
30015,-62.4999995703125,4,1,0,100,0,0
30465,-71.4285708673469,4,1,0,100,0,0
30764,-83.33333,4,1,0,100,0,0
30914,-91.28709,4,1,0,100,0,0
31064,-100,4,1,0,100,0,0
31215,-71.4285714285714,4,1,0,100,0,0
31665,-62.5,4,1,0,100,0,0
32115,-50,4,1,0,100,0,0
32415,-100,4,1,0,100,0,0
37214,-100,4,1,0,100,0,0
37364,-98.60781,4,1,0,100,0,0
37514,-97.23501,4,1,0,100,0,0
37664,-95.881325,4,1,0,100,0,0
37739,-95.21155,4,1,0,100,0,0
37814,-94.54647,4,1,0,100,0,0
37964,-93.23021,4,1,0,100,0,0
38114,-91.93227,4,1,0,100,0,0
38189,-91.2901,4,1,0,100,0,0
38264,-90.652405,4,1,0,100,0,0
38414,-89.39035,4,1,0,100,0,0
38564,-88.14588,4,1,0,100,0,0
38714,-86.91872,4,1,0,100,0,0
38864,-85.70865,4,1,0,100,0,0
38939,-85.10995,4,1,0,100,0,0
39014,-84.51543,4,1,0,100,0,0
39164,-83.33882,4,1,0,100,0,0
39314,-82.17858,4,1,0,100,0,0
39389,-81.60454,4,1,0,100,0,0
39464,-81.03451,4,1,0,100,0,0
39614,-79.90635,4,1,0,100,0,0
39689,-79.34818,4,1,0,100,0,0
39764,-78.79391,4,1,0,100,0,0
39839,-78.24351,4,1,0,100,0,0
39914,-77.69695,4,1,0,100,0,0
39989,-77.15421,4,1,0,100,0,0
40064,-76.61526,4,1,0,100,0,0
40139,-76.08008,4,1,0,100,0,0
40214,-75.54863,4,1,0,100,0,0
40289,-75.02091,4,1,0,100,0,0
40364,-74.496864,4,1,0,100,0,0
40439,-73.97647,4,1,0,100,0,0
40514,-73.459724,4,1,0,100,0,0
40589,-72.94659,4,1,0,100,0,0
40664,-72.43703,4,1,0,100,0,0
40739,-71.93104,4,1,0,100,0,0
40814,-71.42857,4,1,0,100,0,0
41111,-83.19645,4,1,0,100,0,0
41261,-90.32368,4,1,0,100,0,0
41336,-94.113075,4,1,0,100,0,0
41411,-98.06146,4,1,0,100,0,0
41486,-102.17549,4,1,0,100,0,0
41561,-106.462135,4,1,0,100,0,0
41636,-110.928604,4,1,0,100,0,0
41715,-66.6666666666667,4,1,0,100,0,0
42015,-71.4285714285714,4,1,0,100,0,0
42165,-83.3333333333333,4,1,0,100,0,0
43813,-83.33333,4,1,0,100,0,0
43888,-81.68235,4,1,0,100,0,0
43963,-80.06408,4,1,0,100,0,0
44038,-78.47787,4,1,0,100,0,0
44113,-76.92308,4,1,0,100,0,0
44415,-71.4285740816327,4,1,0,100,0,0
44490,-83.3333369444446,4,1,0,100,0,0
48914,-83.33333,4,1,0,100,0,0
48964,-85.03871,4,1,0,100,0,0
49014,-86.778984,4,1,0,100,0,0
49064,-88.554886,4,1,0,100,0,0
49139,-91.28709,4,1,0,100,0,0
49214,-94.10361,4,1,0,100,0,0
49364,-100.00001,4,1,0,100,0,0
49515,-71.4285765306121,4,1,0,100,0,0
49590,-83.3333402777777,4,1,0,100,0,0
52815,-71.4285765306121,4,1,0,100,0,0
52965,-83.3333402777777,4,1,0,100,0,0
53115,-90.9090991735536,4,1,0,100,0,0
53265,-71.4285765306121,4,1,0,100,0,0
53414,-83.33334,4,1,0,100,0,0
53489,-80.18296,4,1,0,100,0,0
53564,-77.15168,4,1,0,100,0,0
53639,-74.23499,4,1,0,100,0,0
53714,-66.6666654222222,4,1,0,100,0,0
54015,-71.42857,4,1,0,100,0,0
54090,-83.3333313888889,4,1,0,100,0,0
61214,-83.33333,4,1,0,100,0,0
61289,-82.53432,4,1,0,100,0,0
61364,-81.742966,4,1,0,100,0,0
61439,-80.9592,4,1,0,100,0,0
61514,-80.18295,4,1,0,100,0,0
61589,-79.41414,4,1,0,100,0,0
61664,-78.65271,4,1,0,100,0,0
61739,-77.898575,4,1,0,100,0,0
61814,-77.15167,4,1,0,100,0,0
61889,-76.411934,4,1,0,100,0,0
61964,-75.679276,4,1,0,100,0,0
62039,-74.95366,4,1,0,100,0,0
62114,-74.23499,4,1,0,100,0,0
62189,-73.52322,4,1,0,100,0,0
62264,-72.81826,4,1,0,100,0,0
62339,-72.12006,4,1,0,100,0,0
62414,-71.42857,4,1,0,100,0,0
62514,-74.83851,4,1,0,100,0,0
62614,-78.41123,4,1,0,100,0,0
62714,-82.15452,4,1,0,100,0,0
62814,-86.076515,4,1,0,100,0,0
62914,-90.18572,4,1,0,100,0,0
63014,-94.49111,4,1,0,100,0,0
63114,-99.00204,4,1,0,100,0,0
63214,-103.72832,4,1,0,100,0,0
63314,-108.680214,4,1,0,100,0,0
63414,-113.86851,4,1,0,100,0,0
63514,-119.30451,4,1,0,100,0,0
63614,-125,4,1,0,100,0,0
63915,-83.3333333333333,4,1,0,100,0,0
63989,-100,4,1,0,100,0,0
64064,-100.23101,4,1,0,100,0,0
64139,-100.462555,4,1,0,100,0,0
64214,-100.69464,4,1,0,100,0,0
64364,-101.16041,4,1,0,100,0,0
64514,-101.628334,4,1,0,100,0,0
64664,-102.09842,4,1,0,100,0,0
64739,-102.33428,4,1,0,100,0,0
64814,-102.57068,4,1,0,100,0,0
64964,-103.04513,4,1,0,100,0,0
65114,-103.521774,4,1,0,100,0,0
65264,-104.00062,4,1,0,100,0,0
65339,-104.240875,4,1,0,100,0,0
65414,-104.481674,4,1,0,100,0,0
65564,-104.964966,4,1,0,100,0,0
65714,-105.450485,4,1,0,100,0,0
65789,-105.69409,4,1,0,100,0,0
65864,-105.938255,4,1,0,100,0,0
66015,315.789473684211,4,1,0,100,1,0
66015,-101.10687,4,1,0,100,0,0
66171,-101.59643,4,1,0,100,0,0
66329,-102.09149,4,1,0,100,0,0
66408,-102.33992,4,1,0,100,0,0
66487,-102.588974,4,1,0,100,0,0
66645,-103.08887,4,1,0,100,0,0
66724,-103.33973,4,1,0,100,0,0
66882,-103.84329,4,1,0,100,0,0
66961,-104.09599,4,1,0,100,0,0
67119,-104.60324,4,1,0,100,0,0
67277,-105.11296,4,1,0,100,0,0
67356,-105.368744,4,1,0,100,0,0
67435,-105.62515,4,1,0,100,0,0
67514,-105.88219,4,1,0,100,0,0
67592,-106.13659,4,1,0,100,0,0
67750,-106.65378,4,1,0,100,0,0
67829,-106.913315,4,1,0,100,0,0
67908,-107.173485,4,1,0,100,0,0
67987,-107.43428,4,1,0,100,0,0
68145,-107.9578,4,1,0,100,0,0
68224,-108.22051,4,1,0,100,0,0
68303,-108.48386,4,1,0,100,0,0
68382,-108.74785,4,1,0,100,0,0
68461,-109.0125,4,1,0,100,0,0
68541,333.333333333334,4,1,0,100,1,0
68541,-103.5263,4,1,0,100,0,0
68706,-104.05639,4,1,0,100,0,0
68790,-104.325645,4,1,0,100,0,0
68873,-104.59238,4,1,0,100,0,0
69040,-105.13116,4,1,0,100,0,0
69206,-105.66945,4,1,0,100,0,0
69373,-106.21376,4,1,0,100,0,0
69456,-106.485344,4,1,0,100,0,0
69540,-106.760895,4,1,0,100,0,0
69706,-107.30753,4,1,0,100,0,0
69874,352.941176470588,4,1,0,100,1,0
69874,-101.86805,4,1,0,100,0,0
70108,-102.60722,4,1,0,100,0,0
70225,-102.97724,4,1,0,100,0,0
70343,-103.35177,4,1,0,100,0,0
70461,-103.727646,4,1,0,100,0,0
70578,-104.10171,4,1,0,100,0,0
70696,-104.48032,4,1,0,100,0,0
70814,-104.86031,4,1,0,100,0,0
70931,-105.23845,4,1,0,100,0,0
71049,-105.6212,4,1,0,100,0,0
71167,-106.00534,4,1,0,100,0,0
71284,-106.3876,4,1,0,100,0,0
71373,-106.67932,4,1,0,100,0,0
71461,-106.96854,4,1,0,100,0,0
71549,-107.25854,4,1,0,100,0,0
71637,-107.54932,4,1,0,100,0,0
71725,-107.84089,4,1,0,100,0,0
71814,-108.13658,4,1,0,100,0,0
71902,-108.42975,4,1,0,100,0,0
71990,-108.72372,4,1,0,100,0,0
72049,-108.92124,4,1,0,100,0,0
72108,-109.11914,4,1,0,100,0,0
72167,-109.3174,4,1,0,100,0,0
72255,-109.613754,4,1,0,100,0,0
72343,-109.91094,4,1,0,100,0,0
72431,-110.20891,4,1,0,100,0,0
72520,-110.5111,4,1,0,100,0,0
72608,-110.8107,4,1,0,100,0,0
72695,-111.111115,4,1,0,100,0,0
72873,-105.87105,4,1,0,100,0,0
73049,-100.93288,4,1,0,100,0,0
73225,-96.225044,4,1,0,100,0,0
73314,-93.92862,4,1,0,100,0,0
73402,-91.71189,4,1,0,100,0,0
73490,-89.54749,4,1,0,100,0,0
73578,-87.43416,4,1,0,100,0,0
73667,-85.34755,4,1,0,100,0,0
73755,-66.6666645333334,4,1,0,100,0,0
74109,-71.4285689795919,4,1,0,100,0,0
74285,-83.3333300000001,4,1,0,100,0,0
75696,-76.92307,4,1,0,100,0,0
75814,-78.16073,4,1,0,100,0,0
75873,-78.78701,4,1,0,100,0,0
75990,-80.043816,4,1,0,100,0,0
76049,-80.68519,4,1,0,100,0,0
76167,-81.98336,4,1,0,100,0,0
76225,-82.629105,4,1,0,100,0,0
76343,-83.95855,4,1,0,100,0,0
76402,-84.63129,4,1,0,100,0,0
76520,-85.99296,4,1,0,100,0,0
76578,-86.670265,4,1,0,100,0,0
76696,-88.06476,4,1,0,100,0,0
76755,-88.770386,4,1,0,100,0,0
76873,-90.19866,4,1,0,100,0,0
76931,-90.90909,4,1,0,100,0,0
77010,-83.3333325694445,4,1,0,100,0,0
79756,-71.4285689795919,4,1,0,100,0,0
80108,-90.90909,4,1,0,100,0,0
80225,-88.91667,4,1,0,100,0,0
80284,-87.92858,4,1,0,100,0,0
80402,-85.9852,4,1,0,100,0,0
80461,-85.029686,4,1,0,100,0,0
80578,-83.16613,4,1,0,100,0,0
80637,-82.24194,4,1,0,100,0,0
80755,-80.42424,4,1,0,100,0,0
80814,-79.530525,4,1,0,100,0,0
80990,-76.92307,4,1,0,100,0,0
81079,-83.3333252083334,4,1,0,100,0,0
82225,-76.92307,4,1,0,100,0,0
82284,-77.53751,4,1,0,100,0,0
82343,-78.15687,4,1,0,100,0,0
82402,-78.78117,4,1,0,100,0,0
82461,-79.41045,4,1,0,100,0,0
82520,-80.04477,4,1,0,100,0,0
82578,-80.67327,4,1,0,100,0,0
82696,-81.96722,4,1,0,100,0,0
82931,-83.33333,4,1,0,100,0,0
83049,-85.04358,4,1,0,100,0,0
83167,-86.78895,4,1,0,100,0,0
83284,-88.55487,4,1,0,100,0,0
83402,-90.3723,4,1,0,100,0,0
83520,-92.227005,4,1,0,100,0,0
83637,-94.10359,4,1,0,100,0,0
83755,-96.03489,4,1,0,100,0,0
83872,-97.988945,4,1,0,100,0,0
83990,-99.999985,4,1,0,100,0,0
84344,-83.3333229166666,4,1,0,100,0,0
84697,-71.42856377551,4,1,0,100,0,0
85050,-62.4999941406248,4,1,0,100,0,0
85403,-55.5555509259257,4,1,0,100,0,0
85491,-76.9230680473371,4,1,0,100,0,0
86990,-66.66666,4,1,0,100,0,0
87108,-67.584435,4,1,0,100,0,0
87167,-68.04805,4,1,0,100,0,0
87284,-68.97685,4,1,0,100,0,0
87343,-69.45003,4,1,0,100,0,0
87461,-70.40612,4,1,0,100,0,0
87520,-70.8891,4,1,0,100,0,0
87637,-71.856674,4,1,0,100,0,0
87696,-72.3496,4,1,0,100,0,0
87814,-73.34562,4,1,0,100,0,0
87872,-73.840195,4,1,0,100,0,0
87990,-74.856735,4,1,0,100,0,0
88049,-75.37024,4,1,0,100,0,0
88167,-76.40784,4,1,0,100,0,0
88224,-76.923065,4,1,0,100,0,0
88343,-75.883286,4,1,0,100,0,0
88402,-75.37299,4,1,0,100,0,0
88520,-74.36266,4,1,0,100,0,0
88578,-73.87103,4,1,0,100,0,0
88755,-72.39074,4,1,0,100,0,0
88872,-71.42856,4,1,0,100,0,0
89047,-66.63422,4,1,0,100,0,0
89106,-67.5979,4,1,0,100,0,0
89223,-69.55036,4,1,0,100,0,0
89282,-70.55622,4,1,0,100,0,0
89400,-72.61179,4,1,0,100,0,0
89459,-73.661934,4,1,0,100,0,0
89576,-75.789536,4,1,0,100,0,0
89635,-76.885635,4,1,0,100,0,0
89812,-71.38695,4,1,0,100,0,0
89929,-73.86276,4,1,0,100,0,0
89988,-75.14364,4,1,0,100,0,0
90106,-77.77241,4,1,0,100,0,0
90165,-79.12107,4,1,0,100,0,0
90282,-81.86513,4,1,0,100,0,0
90341,-83.284775,4,1,0,100,0,0
90518,-66.63046,4,1,0,100,0,0
90635,-68.781296,4,1,0,100,0,0
90694,-69.892105,4,1,0,100,0,0
90812,-72.167816,4,1,0,100,0,0
90870,-73.31341,4,1,0,100,0,0
90988,-75.700516,4,1,0,100,0,0
91045,-76.8813,4,1,0,100,0,0
91049,-76.96484,4,1,0,100,0,0
91225,-78.114426,4,1,0,100,0,0
91314,-78.72042,4,1,0,100,0,0
91402,-79.32423,4,1,0,100,0,0
91490,-79.93266,4,1,0,100,0,0
91578,-80.54578,4,1,0,100,0,0
91667,-81.17063,4,1,0,100,0,0
91755,-81.793236,4,1,0,100,0,0
91843,-82.420616,4,1,0,100,0,0
91931,-83.0528,4,1,0,100,0,0
92020,-83.697105,4,1,0,100,0,0
92108,-84.33909,4,1,0,100,0,0
92196,-84.986,4,1,0,100,0,0
92284,-85.63787,4,1,0,100,0,0
92372,-86.29474,4,1,0,100,0,0
92460,-80.00649,4,1,0,100,0,0
92636,-82.4162,4,1,0,100,0,0
92724,-83.64813,4,1,0,100,0,0
92813,-84.912796,4,1,0,100,0,0
92901,-86.182045,4,1,0,100,0,0
92989,-87.47027,4,1,0,100,0,0
93077,-88.77775,4,1,0,100,0,0
93166,-90.11998,4,1,0,100,0,0
93254,-91.467064,4,1,0,100,0,0
93342,-92.83428,4,1,0,100,0,0
93430,-94.221954,4,1,0,100,0,0
93519,-95.646484,4,1,0,100,0,0
93607,-97.07618,4,1,0,100,0,0
93695,-98.52725,4,1,0,100,0,0
93783,-100,4,1,0,100,0,0
93871,-90.90909,4,1,0,100,0,0
93960,-92.1655,4,1,0,100,0,0
94048,-93.42487,4,1,0,100,0,0
94136,-94.70144,4,1,0,100,0,0
94224,-95.99547,4,1,0,100,0,0
94313,-97.322174,4,1,0,100,0,0
94401,-98.65201,4,1,0,100,0,0
94489,-100,4,1,0,100,0,0
94577,-95.2381,4,1,0,100,0,0
94666,-97.109604,4,1,0,100,0,0
94754,-98.99621,4,1,0,100,0,0
94842,-100.9195,4,1,0,100,0,0
94930,-102.88014,4,1,0,100,0,0
95019,-104.9018,4,1,0,100,0,0
95107,-106.93981,4,1,0,100,0,0
95195,-109.01742,4,1,0,100,0,0
95282,-111.11109,4,1,0,100,0,0
95637,-83.33332,4,1,0,100,0,0
95814,-90.49031,4,1,0,100,0,0
95902,-94.27417,4,1,0,100,0,0
95990,-98.216255,4,1,0,100,0,0
96078,-102.32317,4,1,0,100,0,0
96167,-106.65145,4,1,0,100,0,0
96255,-111.11109,4,1,0,100,0,0
96344,-66.6666666666667,4,1,0,100,0,0
96609,-100,4,1,0,100,0,0
100931,-100,4,1,0,100,0,0
101049,-92.943665,4,1,0,100,0,0
101167,-86.38524,4,1,0,100,0,0
101225,-83.33333,4,1,0,100,0,0
101285,-66.6666666666667,4,1,0,100,0,0
102521,-100,4,1,0,100,0,0
105167,-100,4,1,0,100,0,0
105255,-98.869354,4,1,0,100,0,0
105343,-97.751495,4,1,0,100,0,0
105431,-96.64627,4,1,0,100,0,0
105520,-95.54119,4,1,0,100,0,0
105608,-94.46095,4,1,0,100,0,0
105696,-93.39294,4,1,0,100,0,0
105784,-92.33699,4,1,0,100,0,0
105872,-91.29299,4,1,0,100,0,0
105961,-90.24912,4,1,0,100,0,0
106049,-89.22873,4,1,0,100,0,0
106137,-88.219864,4,1,0,100,0,0
106225,-87.222404,4,1,0,100,0,0
106314,-86.22509,4,1,0,100,0,0
106402,-85.25019,4,1,0,100,0,0
106490,-84.286316,4,1,0,100,0,0
106578,-83.33333,4,1,0,100,0,0
106930,-90.90909,4,1,0,100,0,0
107283,-111.26394,4,1,0,100,0,0
107371,-117.01164,4,1,0,100,0,0
107460,-123.12672,4,1,0,100,0,0
107636,-136.17633,4,1,0,100,0,0
107813,-150.6952,4,1,0,100,0,0
107989,-166.66666,4,1,0,50,0,0
108344,-249.999960000003,4,1,0,50,0,0
108432,-232.558139534884,4,1,0,50,0,0
108521,-238.095238095238,4,1,0,50,0,0
108609,-243.90243902439,4,1,0,50,0,0
108675,-249.999960000003,4,1,0,50,0,0
108763,-232.558139534884,4,1,0,50,0,0
108852,-238.095238095238,4,1,0,50,0,0
108940,-243.90243902439,4,1,0,50,0,0
109028,-249.999960000003,4,1,0,50,0,0
109116,-232.558139534884,4,1,0,50,0,0
109205,-238.095238095238,4,1,0,50,0,0
109293,-243.90243902439,4,1,0,50,0,0
109381,-249.999960000003,4,1,0,50,0,0
109469,-232.558139534884,4,1,0,50,0,0
109558,-238.095238095238,4,1,0,50,0,0
109646,-243.90243902439,4,1,0,50,0,0
109734,-249.999960000003,4,1,0,50,0,0
109822,-232.558139534884,4,1,0,50,0,0
109911,-238.095238095238,4,1,0,50,0,0
109999,-243.90243902439,4,1,0,50,0,0
110087,-249.999960000003,4,1,0,50,0,0
110175,-232.558139534884,4,1,0,50,0,0
110264,-238.095238095238,4,1,0,50,0,0
110352,-243.90243902439,4,1,0,50,0,0
110438,-249.999960000003,4,1,0,50,0,0
110815,-232.558139534884,4,1,0,50,0,0
110903,-250,4,1,0,50,0,0
110991,-243.90243902439,4,1,0,50,0,0
111079,-238.095238095238,4,1,0,50,0,0
111146,-232.558139534884,4,1,0,50,0,0
111234,-250,4,1,0,50,0,0
111322,-243.90243902439,4,1,0,50,0,0
111410,-238.095238095238,4,1,0,50,0,0
111498,-232.558139534884,4,1,0,50,0,0
111586,-250,4,1,0,50,0,0
111674,-243.90243902439,4,1,0,50,0,0
111762,-238.095238095238,4,1,0,50,0,0
111851,-232.558139534884,4,1,0,50,0,0
111939,-250,4,1,0,50,0,0
112027,-243.90243902439,4,1,0,50,0,0
112115,-238.095238095238,4,1,0,50,0,0
112204,-232.558139534884,4,1,0,50,0,0
112292,-250,4,1,0,50,0,0
112380,-243.90243902439,4,1,0,50,0,0
112468,-238.095238095238,4,1,0,50,0,0
112557,-232.558139534884,4,1,0,50,0,0
112645,-250,4,1,0,50,0,0
112733,-243.90243902439,4,1,0,50,0,0
112821,-238.095238095238,4,1,0,50,0,0
112910,-232.558139534884,4,1,0,50,0,0
112998,-250,4,1,0,50,0,0
113086,-243.90243902439,4,1,0,50,0,0
113174,-238.095238095238,4,1,0,50,0,0
113284,-222.22223,4,1,0,50,0,0
113355,-227.54953,4,1,0,50,0,0
113425,-232.92683,4,1,0,50,0,0
113496,-238.51076,4,1,0,50,0,0
113567,-244.22855,4,1,0,50,0,0
113637,-250,4,1,0,50,0,0
113990,-166.66666,4,1,0,60,0,0
114078,-171.55264,4,1,0,60,0,0
114167,-176.63983,4,1,0,60,0,0
114255,-181.81818,4,1,0,60,0,0
114322,-166.66666,4,1,0,60,0,0
114410,-171.55264,4,1,0,60,0,0
114499,-176.63983,4,1,0,60,0,0
114587,-181.81818,4,1,0,60,0,0
114675,-166.66666,4,1,0,60,0,0
114763,-171.55264,4,1,0,60,0,0
114852,-176.63983,4,1,0,60,0,0
114940,-181.81818,4,1,0,60,0,0
115028,-166.66666,4,1,0,60,0,0
115116,-171.55264,4,1,0,60,0,0
115205,-176.63983,4,1,0,60,0,0
115293,-181.81818,4,1,0,60,0,0
115381,-166.66666,4,1,0,60,0,0
115469,-171.55264,4,1,0,60,0,0
115558,-176.63983,4,1,0,60,0,0
115646,-181.81818,4,1,0,60,0,0
115734,-166.66666,4,1,0,60,0,0
115822,-171.55264,4,1,0,60,0,0
115911,-176.63983,4,1,0,60,0,0
115999,-181.81818,4,1,0,60,0,0
116285,-200,4,1,0,60,0,0
116307,-196.078431372549,4,1,0,60,0,0
116439,-138.88887,4,1,0,60,0,0
116527,-142.96054,4,1,0,60,0,0
116616,-147.19984,4,1,0,60,0,0
116704,-151.51515,4,1,0,60,0,0
116792,-119.047615,4,1,0,60,0,0
116880,-122.53762,4,1,0,60,0,0
116969,-126.17131,4,1,0,60,0,0
117057,-129.87013,4,1,0,60,0,0
117145,-104.16666,4,1,0,60,0,0
117233,-107.220406,4,1,0,60,0,0
117322,-110.399895,4,1,0,60,0,0
117410,-113.63636,4,1,0,60,0,0
117497,-92.59259,4,1,0,60,0,0
117585,-95.30704,4,1,0,60,0,0
117674,-98.13324,4,1,0,60,0,0
117762,-101.0101,4,1,0,60,0,0
117850,-83.33333,4,1,0,80,0,0
117938,-85.77632,4,1,0,80,0,0
118027,-88.319916,4,1,0,80,0,0
118115,-90.90909,4,1,0,80,0,0
118203,-75.75757,4,1,0,80,0,0
118291,-77.97848,4,1,0,80,0,0
118380,-80.290825,4,1,0,80,0,0
118468,-82.64462,4,1,0,80,0,0
118556,-69.444435,4,1,0,80,0,0
118644,-71.48027,4,1,0,80,0,0
118733,-73.59992,4,1,0,80,0,0
118821,-75.757576,4,1,0,80,0,0
118932,-55.5555555555556,4,1,0,80,0,0
119263,-66.6666666666667,4,1,0,100,0,0
124579,-55.5555555555556,4,1,0,100,0,0
124932,-71.4285714285714,4,1,0,100,0,0
125197,-83.3333333333333,4,1,0,100,0,0
127754,-83.33333,4,1,0,100,0,0
127930,-81.58067,4,1,0,100,0,0
128019,-80.70848,4,1,0,100,0,0
128107,-79.85525,4,1,0,100,0,0
128283,-78.17575,4,1,0,100,0,0
128371,-77.3493,4,1,0,100,0,0
128460,-76.52233,4,1,0,100,0,0
128548,-75.71336,4,1,0,100,0,0
128636,-74.91293,4,1,0,100,0,0
128724,-74.120964,4,1,0,100,0,0
128813,-73.32852,4,1,0,100,0,0
128989,-71.78629,4,1,0,100,0,0
129077,-71.02739,4,1,0,100,0,0
129166,-70.268005,4,1,0,100,0,0
129254,-69.52516,4,1,0,100,0,0
129342,-68.79015,4,1,0,100,0,0
129430,-68.06292,4,1,0,100,0,0
129519,-67.33524,4,1,0,100,0,0
129695,-65.91906,4,1,0,100,0,0
129783,-65.222176,4,1,0,100,0,0
129871,-64.53267,4,1,0,100,0,0
129960,-63.842728,4,1,0,100,0,0
130048,-63.1678,4,1,0,100,0,0
130136,-62.500008,4,1,0,100,0,0
130226,-55.5555607407406,4,1,0,100,0,0
130579,300,4,1,0,100,1,0
131704,-111.111111111111,4,1,0,70,0,0
132828,-133.33333,4,1,0,70,0,0
132903,-129.09946,4,1,0,70,0,0
132978,-124.99999,4,1,0,70,0,0
134124,-142.857129795919,4,1,0,70,0,0
135228,-153.846149408284,4,1,0,70,0,0
135303,-148.148148148148,4,1,0,70,0,0
135378,-142.85715,4,1,0,70,0,0
136559,-153.846153846154,4,1,0,70,0,0
137704,-166.666676388889,4,1,0,70,0,0
138900,-181.818181818182,4,1,0,70,0,0
139577,-142.85716,4,1,0,70,0,0
139652,-146.03798,4,1,0,70,0,0
139727,-149.28964,4,1,0,70,0,0
139802,-152.61368,4,1,0,70,0,0
139877,-156.01175,4,1,0,70,0,0
139952,-159.48546,4,1,0,70,0,0
140027,-163.03651,4,1,0,70,0,0
140102,-166.66666,4,1,0,70,0,0
140179,-100,4,1,0,70,0,0
140424,-142.857142857143,4,1,0,70,0,0
149328,-142.85715,4,1,0,80,0,0
149403,-136.99706,4,1,0,80,0,0
149478,-131.37733,4,1,0,80,0,0
149553,-125.98816,4,1,0,80,0,0
149628,-120.820045,4,1,0,80,0,0
149703,-115.86392,4,1,0,80,0,0
149778,-111.111115,4,1,0,80,0,0
150004,-125.000004921875,4,1,0,80,0,0
158178,-125.00001,4,1,0,90,0,0
158328,-120.43658,4,1,0,90,0,0
158478,-116.03974,4,1,0,90,0,0
158628,-111.803406,4,1,0,90,0,0
158778,-107.72174,4,1,0,90,0,0
158853,-105.73713,4,1,0,90,0,0
158928,-103.78908,4,1,0,90,0,0
159003,-101.87692,4,1,0,90,0,0
159078,-100,4,1,0,90,0,0
159379,-76.9230769230769,4,1,0,100,0,0
159737,-66.6666666666667,4,1,0,100,0,0
160279,-90.9090909090909,4,1,0,100,0,0
160297,-92.5925925925926,4,1,0,100,0,0
160429,-83.3333333333333,4,1,0,100,0,0
160447,-84.7457627118644,4,1,0,100,0,0
160579,-71.4285714285714,4,1,0,100,0,0
160954,-62.5,4,1,0,100,0,0
161403,-90.90909,4,1,0,100,0,0
161478,-93.10124,4,1,0,100,0,0
161553,-95.34625,4,1,0,100,0,0
161628,-97.64541,4,1,0,100,0,0
161703,-100,4,1,0,100,0,0
161779,-62.5,4,1,0,100,0,0
162177,-71.4285714285714,4,1,0,100,0,0
162529,-83.3333333333333,4,1,0,100,0,0
162679,-90.9090909090909,4,1,0,100,0,0
162829,-100,4,1,0,100,0,0
162979,-66.6666666666667,4,1,0,100,0,0
163354,-76.9230769230769,4,1,0,100,0,0
163728,-100,4,1,0,100,0,0
163878,-91.28709,4,1,0,100,0,0
163928,-88.55488,4,1,0,100,0,0
163978,-85.90444,4,1,0,100,0,0
164028,-83.33333,4,1,0,100,0,0
164179,-62.499998125,4,1,0,100,0,0
164587,-71.4285689795919,4,1,0,100,0,0
164928,-83.33333,4,1,0,100,0,0
165078,-87.038826,4,1,0,100,0,0
165128,-88.31025,4,1,0,100,0,0
165178,-89.60024,4,1,0,100,0,0
165228,-90.90909,4,1,0,100,0,0
165379,-71.4285708673469,4,1,0,100,0,0
165754,-62.4999995703125,4,1,0,100,0,0
166278,-100,4,1,0,100,0,0
166353,-94.10361,4,1,0,100,0,0
166428,-88.55488,4,1,0,100,0,0
166503,-83.33333,4,1,0,100,0,0
166579,-71.4285689795919,4,1,0,100,0,0
167329,-99.9999952000002,4,1,0,100,0,0
167479,-90.9090869421489,4,1,0,100,0,0
167629,-83.3333300000001,4,1,0,100,0,0
167779,-62.499998125,4,1,0,100,0,0
168229,-58.8235277508651,4,1,0,100,0,0
168604,-55.5555540740741,4,1,0,100,0,0
168904,-71.4285689795919,4,1,0,100,0,0
169279,-62.499998125,4,1,0,100,0,0
169879,-90.9090909090909,4,1,0,100,0,0
169897,-92.5925925925926,4,1,0,100,0,0
170029,-83.3333333333333,4,1,0,100,0,0
170047,-84.7457627118644,4,1,0,100,0,0
170179,-71.4285714285714,4,1,0,100,0,0
170554,-62.5,4,1,0,100,0,0
171003,-90.90909,4,1,0,100,0,0
171078,-93.10124,4,1,0,100,0,0
171153,-95.34625,4,1,0,100,0,0
171228,-97.64541,4,1,0,100,0,0
171303,-100,4,1,0,100,0,0
171379,-62.5,4,1,0,100,0,0
171727,-71.4285714285714,4,1,0,100,0,0
172129,-83.3333333333333,4,1,0,100,0,0
172279,-90.9090909090909,4,1,0,100,0,0
172429,-100,4,1,0,100,0,0
172579,-71.4285714285714,4,1,0,100,0,0
172954,-66.6666666666667,4,1,0,100,0,0
173282,-62.5,4,1,0,100,0,0
173569,-58.8235294117647,4,1,0,100,0,0
173704,-55.5555555555556,4,1,0,100,0,0
174154,-62.5,4,1,0,100,0,0
174528,-83.33333,4,1,0,100,0,0
174678,-91.28709,4,1,0,100,0,0
174728,-94.10361,4,1,0,100,0,0
174778,-97.007,4,1,0,100,0,0
174828,-100,4,1,0,100,0,0
174979,-71.4285714285714,4,1,0,100,0,0
175327,-62.5,4,1,0,100,0,0
175878,-100,4,1,0,100,0,0
175953,-94.10361,4,1,0,100,0,0
176028,-88.55488,4,1,0,100,0,0
176103,-83.33333,4,1,0,100,0,0
176179,-71.4285689795919,4,1,0,100,0,0
176929,-99.9999952000002,4,1,0,100,0,0
177079,-90.9090869421489,4,1,0,100,0,0
177229,-83.3333300000001,4,1,0,100,0,0
177378,-62.499998125,4,1,0,100,0,0
177754,-58.8235277508651,4,1,0,100,0,0
178169,-55.5555540740741,4,1,0,100,0,0
178503,-99.999985,4,1,0,100,0,0
178578,-99.99996,4,1,0,100,0,0
178728,-99.99925,4,1,0,100,0,0
178803,-99.998215,4,1,0,100,0,0
178953,-99.994,4,1,0,100,0,0
179028,-99.990486,4,1,0,100,0,0
179178,-99.97979,4,1,0,100,0,0
179328,-99.963104,4,1,0,100,0,0
179403,-99.95211,4,1,0,100,0,0
179553,-99.92398,4,1,0,100,0,0
179628,-99.90652,4,1,0,100,0,0
179778,-99.863976,4,1,0,100,0,0
179928,-99.81021,4,1,0,100,0,0
180003,-99.7787,4,1,0,100,0,0
180153,-99.70568,4,1,0,100,0,0
180228,-99.66383,4,1,0,100,0,0
180378,-99.568695,4,1,0,100,0,0
180528,-99.457306,4,1,0,100,0,0
180603,-99.39512,4,1,0,100,0,0
180678,-99.32842,4,1,0,100,0,0
180753,-99.25706,4,1,0,100,0,0
180828,-99.18089,4,1,0,100,0,0
180903,-99.09978,4,1,0,100,0,0
180978,-99.01357,4,1,0,100,0,0
181128,-98.82537,4,1,0,100,0,0
181203,-98.72311,4,1,0,100,0,0
181353,-98.501625,4,1,0,100,0,0
181428,-98.38216,4,1,0,100,0,0
181578,-98.12518,4,1,0,100,0,0
181728,-97.84344,4,1,0,100,0,0
181803,-97.693,4,1,0,100,0,0
181953,-97.372536,4,1,0,100,0,0
182028,-97.20233,4,1,0,100,0,0
182178,-96.841545,4,1,0,100,0,0
182328,-96.45308,4,1,0,100,0,0
182403,-96.2483,4,1,0,100,0,0
182553,-95.81735,4,1,0,100,0,0
182628,-95.591095,4,1,0,100,0,0
182703,-95.357574,4,1,0,100,0,0
182778,-95.116776,4,1,0,100,0,0
182853,-94.868645,4,1,0,100,0,0
183003,-94.350334,4,1,0,100,0,0
183078,-94.080124,4,1,0,100,0,0
183153,-93.80253,4,1,0,100,0,0
183228,-93.51753,4,1,0,100,0,0
183378,-92.92543,4,1,0,100,0,0
183528,-92.30392,4,1,0,100,0,0
183603,-91.982185,4,1,0,100,0,0
183678,-91.65319,4,1,0,100,0,0
183828,-90.97359,4,1,0,100,0,0
183903,-90.623055,4,1,0,100,0,0
183978,-90.265465,4,1,0,100,0,0
184053,-89.90087,4,1,0,100,0,0
184203,-89.150955,4,1,0,100,0,0
184278,-88.765785,4,1,0,100,0,0
184353,-88.37393,4,1,0,100,0,0
184428,-87.97548,4,1,0,100,0,0
184578,-87.15917,4,1,0,100,0,0
184728,-86.3177,4,1,0,100,0,0
184803,-85.88782,4,1,0,100,0,0
184878,-85.45198,4,1,0,100,0,0
184953,-85.01033,4,1,0,100,0,0
185028,-84.562996,4,1,0,100,0,0
185103,-84.1101,4,1,0,100,0,0
185178,-83.65179,4,1,0,100,0,0
185253,-83.18821,4,1,0,100,0,0
185403,-82.245766,4,1,0,100,0,0
185478,-81.76722,4,1,0,100,0,0
185553,-81.28398,4,1,0,100,0,0
185628,-80.79622,4,1,0,100,0,0
185778,-79.80774,4,1,0,100,0,0
185853,-79.307335,4,1,0,100,0,0
185928,-78.80305,4,1,0,100,0,0
186003,-78.29503,4,1,0,100,0,0
186078,-77.78347,4,1,0,100,0,0
186153,-77.26851,4,1,0,100,0,0
186228,-76.75033,4,1,0,100,0,0
186303,-76.229095,4,1,0,100,0,0
186378,-75.70499,4,1,0,100,0,0
186453,-75.178154,4,1,0,100,0,0
186528,-74.64878,4,1,0,100,0,0
186603,-74.117035,4,1,0,100,0,0
186678,-73.58308,4,1,0,100,0,0
186753,-73.04708,4,1,0,100,0,0
186828,-72.50923,4,1,0,100,0,0
186903,-71.96966,4,1,0,100,0,0
186978,-71.428566,4,1,0,100,0,0
187278,-99.999985,4,1,0,100,0,0
187428,-90.83414,4,1,0,100,0,0
187503,-86.57124,4,1,0,100,0,0
187578,-82.508415,4,1,0,100,0,0
187653,-78.636246,4,1,0,100,0,0
187728,-74.945816,4,1,0,100,0,0
187803,-71.428566,4,1,0,100,0,0
187879,-62.4999958437499,4,1,0,100,0,0
188179,-76.9230706272189,4,1,0,100,0,1
188254,-90.9090821157025,4,1,0,100,0,1
197179,-71.4285659999999,4,1,0,100,0,1
197329,-76.9230706272189,4,1,0,100,0,1
197629,-66.6666619377777,4,1,0,100,0,1
197779,-100,4,1,0,100,0,0
197929,-90.9090909090909,4,1,0,100,0,0
198079,-90.9090909090909,4,1,0,100,0,0
198379,-62.5,4,1,0,100,0,1
198604,-66.6666666666667,4,1,0,100,0,1
198829,-71.4285714285714,4,1,0,100,0,1
198979,-100,4,1,0,100,0,1
199129,-100,4,1,0,100,0,0
200329,-90.9090909090909,4,1,0,100,0,0
200779,-76.9230769230769,4,1,0,100,0,1
201004,-71.4285714285714,4,1,0,100,0,1
201229,-66.6666666666667,4,1,0,100,0,1
201379,-100,4,1,0,100,0,0
201978,-100,4,1,0,100,0,0
202053,-98.81569,4,1,0,100,0,0
202128,-97.64541,4,1,0,100,0,0
202203,-96.48899,4,1,0,100,0,0
202278,-95.34626,4,1,0,100,0,0
202353,-94.217064,4,1,0,100,0,0
202428,-93.10124,4,1,0,100,0,0
202503,-91.99864,4,1,0,100,0,0
202579,-90.90909,4,1,0,100,0,1
204978,-90.90909,4,1,0,100,0,1
205128,-89.263985,4,1,0,100,0,1
205203,-88.45264,4,1,0,100,0,1
205278,-87.64865,4,1,0,100,0,1
205353,-86.85198,4,1,0,100,0,1
205428,-86.06254,4,1,0,100,0,1
205503,-85.28028,4,1,0,100,0,1
205578,-84.50514,4,1,0,100,0,1
205653,-83.73704,4,1,0,100,0,1
205728,-82.975914,4,1,0,100,0,1
205803,-82.221725,4,1,0,100,0,1
205878,-81.47437,4,1,0,100,0,1
205953,-80.73382,4,1,0,100,0,1
206028,-80,4,1,0,100,0,1
206178,-76.92308,4,1,0,100,0,1
206253,-78.78092,4,1,0,100,0,1
206328,-80.683624,4,1,0,100,0,1
206403,-82.63229,4,1,0,100,0,1
206478,-84.62801,4,1,0,100,0,1
206553,-86.67195,4,1,0,100,0,1
206628,-88.765236,4,1,0,100,0,1
206703,-90.90909,4,1,0,100,0,1
206777,-71.428566,4,1,0,100,0,1
206977,-79.89143,4,1,0,100,0,1
207177,-89.35699,4,1,0,100,0,1
207379,-100,4,1,0,100,0,0
207679,-90.9090909090909,4,1,0,100,0,1
216604,-95.2380952380952,4,1,0,100,0,1
216828,-100,4,1,0,100,0,1
216903,-98.42405,4,1,0,100,0,1
216978,-96.87293,4,1,0,100,0,1
217028,-95.852455,4,1,0,100,0,1
217078,-94.84273,4,1,0,100,0,1
217128,-93.84364,4,1,0,100,0,1
217278,-90.90909,4,1,0,100,0,1
224178,-90.90909,4,1,0,100,0,1
224253,-89.96486,4,1,0,100,0,1
224328,-89.030426,4,1,0,100,0,1
224403,-88.10571,4,1,0,100,0,1
224478,-87.190605,4,1,0,100,0,1
224553,-86.284996,4,1,0,100,0,1
224628,-85.38878,4,1,0,100,0,1
224703,-84.501884,4,1,0,100,0,1
224778,-83.6242,4,1,0,100,0,1
224853,-82.75564,4,1,0,100,0,1
224928,-81.89609,4,1,0,100,0,1
225003,-81.04547,4,1,0,100,0,1
225078,-80.20369,4,1,0,100,0,1
225153,-79.37065,4,1,0,100,0,1
225228,-78.54626,4,1,0,100,0,1
225303,-77.73043,4,1,0,100,0,1
225378,-76.92308,4,1,0,100,0,1
225453,-78.78092,4,1,0,100,0,1
225528,-80.683624,4,1,0,100,0,1
225603,-82.63229,4,1,0,100,0,1
225678,-84.62801,4,1,0,100,0,1
225753,-86.67195,4,1,0,100,0,1
225828,-88.765236,4,1,0,100,0,1
225903,-90.90909,4,1,0,100,0,1
225978,-71.42857,4,1,0,100,0,1
226128,-77.69695,4,1,0,100,0,1
226178,-79.90635,4,1,0,100,0,1
226353,-88.145874,4,1,0,100,0,1
226378,-89.39035,4,1,0,100,0,1
226579,-100,4,1,0,100,0,0
226879,-83.3333333333333,4,1,0,100,0,1
236179,-100,4,1,0,100,0,0
236253,-95.54428,4,1,0,100,0,0
236328,-91.28709,4,1,0,100,0,0
236403,-87.2196,4,1,0,100,0,0
236479,-83.33333,4,1,0,100,0,1
245779,-83.33333,4,1,0,100,0,0
246078,-90.90909,4,1,0,100,0,0
246228,-91.91288,4,1,0,100,0,0
246528,-93.953835,4,1,0,100,0,0
246678,-94.99124,4,1,0,100,0,0
246828,-96.0401,4,1,0,100,0,0
247128,-98.17269,4,1,0,100,0,0
247428,-100.35265,4,1,0,100,0,0
247578,-101.4607,4,1,0,100,0,0
247878,-103.71366,4,1,0,100,0,0
248178,-106.01666,4,1,0,100,0,0
248403,-107.77739,4,1,0,100,0,0
248478,-108.37079,4,1,0,100,0,0
248628,-109.567375,4,1,0,100,0,0
248778,-110.77718,4,1,0,100,0,0
248853,-111.387085,4,1,0,100,0,0
248928,-112.00035,4,1,0,100,0,0
249078,-113.23702,4,1,0,100,0,0
249378,-115.751495,4,1,0,100,0,0
249603,-117.6739,4,1,0,100,0,0
249678,-118.32177,4,1,0,100,0,0
249828,-119.62825,4,1,0,100,0,0
249978,-120.949135,4,1,0,100,0,0
250128,-122.28463,4,1,0,100,0,0
250203,-122.957886,4,1,0,100,0,0
250278,-123.63484,4,1,0,100,0,0
250328,-124.08823,4,1,0,100,0,0
250378,-124.54327,4,1,0,100,0,0
250428,-124.99999,4,1,0,100,0,0
250578,-133.33333,4,1,0,100,0,0
250728,-130.7476,4,1,0,100,0,0
250803,-129.4736,4,1,0,100,0,0
250878,-128.21204,4,1,0,100,0,0
251028,-125.72561,4,1,0,100,0,0
251178,-123.287415,4,1,0,100,0,0
251253,-122.0861,4,1,0,100,0,0
251328,-120.8965,4,1,0,100,0,0
251478,-118.55196,4,1,0,100,0,0
251628,-116.252884,4,1,0,100,0,0
251703,-115.12012,4,1,0,100,0,0
251778,-113.998405,4,1,0,100,0,0
251928,-111.78763,4,1,0,100,0,0
252003,-110.69837,4,1,0,100,0,0
252078,-109.619736,4,1,0,100,0,0
252228,-107.49388,4,1,0,100,0,0
252378,-105.409256,4,1,0,100,0,0
252453,-104.38215,4,1,0,100,0,0
252528,-103.36506,4,1,0,100,0,0
252603,-102.35787,4,1,0,100,0,0
252678,-101.3605,4,1,0,100,0,0
252753,-100.37285,4,1,0,100,0,0
252828,-99.39482,4,1,0,100,0,0
252978,-97.467255,4,1,0,100,0,0
253053,-96.51754,4,1,0,100,0,0
253128,-95.57708,4,1,0,100,0,0
253203,-94.64578,4,1,0,100,0,0
253278,-93.72356,4,1,0,100,0,0
253353,-92.81031,4,1,0,100,0,0
253428,-91.90598,4,1,0,100,0,0
253503,-91.01045,4,1,0,100,0,0
253578,-90.12364,4,1,0,100,0,0
253653,-89.24548,4,1,0,100,0,0
253728,-88.375885,4,1,0,100,0,0
253803,-87.514755,4,1,0,100,0,0
253878,-86.66201,4,1,0,100,0,0
253953,-85.81758,4,1,0,100,0,0
254028,-84.98137,4,1,0,100,0,0
254103,-84.15332,4,1,0,100,0,0
254178,-83.33333,4,1,0,100,0,0
254478,-111.111115,4,1,0,100,0,0
254628,-99.49152,4,1,0,100,0,0
254703,-94.14568,4,1,0,100,0,0
254778,-89.08708,4,1,0,100,0,0
254853,-84.30028,4,1,0,100,0,0
254928,-79.77068,4,1,0,100,0,0
255003,-75.484474,4,1,0,100,0,0
255078,-62.49999890625,4,1,0,100,0,0
255379,-71.42857,4,1,0,100,0,1
264379,-71.42857,4,1,0,100,0,0
264529,-83.3333333333333,4,1,0,100,0,0
264604,-71.4285714285714,4,1,0,100,0,0
264679,-62.5,4,1,0,100,0,0
264979,-71.4285714285714,4,1,0,100,0,1
273528,-83.33333,4,1,0,100,0,1
273603,-81.4944,4,1,0,100,0,1
273678,-79.696045,4,1,0,100,0,1
273753,-77.93737,4,1,0,100,0,1
273828,-76.21751,4,1,0,100,0,1
273903,-74.5356,4,1,0,100,0,1
273978,-72.89081,4,1,0,100,0,1
274053,-71.2823,4,1,0,100,0,1
274128,-69.7093,4,1,0,100,0,1
274203,-68.17101,4,1,0,100,0,1
274278,-66.666664,4,1,0,100,0,1
274579,600,4,1,0,20,1,0
274579,-38.46154,4,1,0,100,0,0
274688,-45.452316,4,1,0,60,0,0
276376,-46.80965,4,1,0,60,0,0
276976,-48.20752,4,1,0,60,0,0
278176,-51.129734,4,1,0,60,0,0
278776,-52.65661,4,1,0,60,0,0
279376,-54.229084,4,1,0,60,0,0
279976,-55.848515,4,1,0,60,0,0
280576,-57.51631,4,1,0,60,0,0
281176,-59.23391,4,1,0,60,0,0
281776,-61.0028,4,1,0,60,0,0
282376,-62.82452,4,1,0,60,0,0
282976,-64.70063,4,1,0,60,0,0
284178,-69.44444,4,1,0,60,0,0
284776,-70.67188,4,1,0,60,0,0
285376,-72.78234,4,1,0,60,0,0
285976,-74.95583,4,1,0,60,0,0
286576,-77.19423,4,1,0,60,0,0
287776,-81.873535,4,1,0,60,0,0
288376,-84.318504,4,1,0,60,0,0
288976,-86.836494,4,1,0,60,0,0
289576,-102.04082,4,1,0,60,0,0
289726,-98.039215,4,1,0,60,0,0
289876,-94.33963,4,1,0,60,0,0
290026,-91.42526,4,1,0,60,0,0
290108,-94.33963,4,1,0,60,0,0
290776,-94.85068,4,1,0,60,0,0
291376,-97.68318,4,1,0,60,0,0
291976,-111.111115,4,1,0,60,0,0
292126,-106.38298,4,1,0,60,0,0
292276,-102.09132,4,1,0,60,0,0
292426,-98.039215,4,1,0,60,0,0
292548,-102.04082,4,1,0,60,0,0
293326,-107.48621,4,1,0,60,0,0
293779,461.538461538462,4,1,0,40,1,0
293779,-153.84618,4,1,0,40,0,0
294008,-150.10303,4,1,0,40,0,0
294239,-146.43529,4,1,0,40,0,0
294470,-142.85715,4,1,0,40,0,0
295624,-142.85715,4,1,0,40,0,0
295625,461.538461538462,4,1,0,40,1,8
295902,405.405405405405,4,1,0,40,1,8
295902,-167.65063,4,1,0,40,0,0
296712,428.571428571429,4,1,0,40,1,8
296712,-173.31113,4,1,0,40,0,0
296946,500,4,1,0,40,1,8
296946,-152.07777,4,1,0,40,0,0
297200,600,4,1,0,40,1,8
297200,-130.25194,4,1,0,40,0,0
297475,-134.6058,4,1,0,40,0,0
298695,390.879478827362,4,1,0,40,1,0
298695,-236.15385,4,1,0,40,0,0
300258,480,4,1,0,40,1,8
300258,-250,4,1,0,40,0,0
300335,-243.90243902439,4,1,0,40,0,0
300415,-238.095238095238,4,1,0,40,0,0
300495,-232.558139534884,4,1,0,40,0,0
302092,285.714285714286,4,1,0,40,1,8
302092,-500,4,1,0,40,0,0
302184,-484.68875,4,1,0,40,0,0
302279,-469.53217,4,1,0,40,0,0
302377,326.086956521739,4,1,0,40,1,8
302377,-398.2684,4,1,0,40,0,0

[HitObjects]
256,192,1062,12,0,2976,0:0:0:0:
256,192,3296,12,0,3455,0:0:0:0:
271,66,3615,5,0,0:0:0:0:
277,89,3765,1,0,0:0:0:0:
278,90,3915,1,0,0:0:0:0:
272,80,4065,1,8,0:0:0:0:
280,85,4365,1,0,0:0:0:0:
276,72,4515,1,8,0:0:0:0:
276,72,4665,1,0,0:0:0:0:
275,73,4965,1,8,0:0:0:0:
275,73,5265,1,8,0:0:0:0:
274,60,5565,1,0,0:0:0:0:
274,60,5715,1,8,0:0:0:0:
286,58,5765,1,8,0:0:0:0:
286,58,5815,1,0,0:0:0:0:
294,72,5865,1,0,0:0:0:0:
279,74,6015,1,8,0:0:0:0:
283,55,6165,1,0,0:0:0:0:
282,56,6315,1,0,0:0:0:0:
285,55,6465,1,8,0:0:0:0:
285,55,6765,1,0,0:0:0:0:
285,55,6915,1,8,0:0:0:0:
286,55,7065,1,0,0:0:0:0:
286,55,8115,1,8,0:0:0:0:
290,45,8415,1,0,0:0:0:0:
289,43,8565,1,0,0:0:0:0:
289,43,8715,1,0,0:0:0:0:
289,43,8865,1,8,0:0:0:0:
289,43,9165,1,8,0:0:0:0:
290,45,9315,1,0,0:0:0:0:
296,37,9465,1,0,0:0:0:0:
289,43,9615,1,8,0:0:0:0:
289,43,10065,1,0,0:0:0:0:
286,47,10515,1,8,0:0:0:0:
286,49,10815,1,0,0:0:0:0:
279,56,10965,1,0,0:0:0:0:
279,55,11115,1,0,0:0:0:0:
279,54,11265,1,8,0:0:0:0:
278,72,11565,1,8,0:0:0:0:
275,73,11715,1,0,0:0:0:0:
284,70,11865,1,8,0:0:0:0:
277,75,13215,1,8,0:0:0:0:
274,92,13365,1,0,0:0:0:0:
266,84,13515,1,0,0:0:0:0:
264,84,13665,1,8,0:0:0:0:
277,75,13965,1,0,0:0:0:0:
277,75,14115,1,8,0:0:0:0:
277,75,14265,1,0,0:0:0:0:
274,77,14565,1,8,0:0:0:0:
277,75,14865,1,8,0:0:0:0:
277,75,15165,1,0,0:0:0:0:
281,72,15315,1,8,0:0:0:0:
281,72,15465,1,8,0:0:0:0:
281,71,15615,1,0,0:0:0:0:
277,75,15765,1,0,0:0:0:0:
284,61,15915,1,8,0:0:0:0:
282,66,16065,1,8,0:0:0:0:
281,61,16365,1,8,0:0:0:0:
281,61,16515,1,8,0:0:0:0:
283,60,16665,1,0,0:0:0:0:
279,54,17715,1,8,0:0:0:0:
279,54,18015,1,0,0:0:0:0:
279,54,18165,1,0,0:0:0:0:
279,54,18315,1,0,0:0:0:0:
279,54,18465,1,8,0:0:0:0:
279,54,18765,1,8,0:0:0:0:
279,54,18915,1,0,0:0:0:0:
279,54,19065,1,0,0:0:0:0:
279,54,19215,1,8,0:0:0:0:
279,54,19665,1,0,0:0:0:0:
279,54,20115,1,8,0:0:0:0:
279,54,20415,1,0,0:0:0:0:
279,54,20565,1,0,0:0:0:0:
279,54,20715,1,0,0:0:0:0:
283,60,20865,1,8,0:0:0:0:
283,60,21015,1,0,0:0:0:0:
283,60,21165,1,0,0:0:0:0:
279,54,21315,1,8,0:0:0:0:
288,49,21465,1,0,0:0:0:0:
179,189,21615,2,0,L|237:174,3,45.5000024299623
288,46,22215,1,8,0:0:0:0:
295,58,22290,1,8,0:0:0:0:
296,58,22365,1,8,0:0:0:0:
293,59,22440,1,8,0:0:0:0:
293,59,22515,1,0,0:0:0:0:
267,69,22815,1,12,0:0:0:0:
268,69,23265,1,12,0:0:0:0:
325,72,23715,1,0,0:0:0:0:
288,102,23765,1,0,0:0:0:0:
305,89,23815,1,0,0:0:0:0:
304,89,23865,1,8,0:0:0:0:
316,71,24015,1,4,0:0:0:0:
317,70,24465,1,12,0:0:0:0:
319,69,24840,1,8,0:0:0:0:
316,71,24915,1,8,0:0:0:0:
316,71,24990,1,0,0:0:0:0:
317,70,25065,1,0,0:0:0:0:
317,70,25140,1,0,0:0:0:0:
317,70,25215,1,12,0:0:0:0:
319,69,25665,1,12,0:0:0:0:
300,74,25965,1,0,0:0:0:0:
317,70,26115,1,8,0:0:0:0:
319,69,26265,1,8,0:0:0:0:
313,57,26415,1,4,0:0:0:0:
313,57,26865,1,4,0:0:0:0:
309,95,27165,1,0,0:0:0:0:
300,68,27290,1,0,0:0:0:0:
303,67,27415,1,8,0:0:0:0:
305,80,27615,1,12,0:0:0:0:
313,61,28065,1,4,0:0:0:0:
319,79,28365,1,8,0:0:0:0:
315,65,28515,1,0,0:0:0:0:
305,80,28565,1,8,0:0:0:0:
311,75,28615,1,8,0:0:0:0:
321,78,28665,1,0,0:0:0:0:
288,58,28815,1,12,0:0:0:0:
300,56,29265,1,12,0:0:0:0:
309,65,29715,1,0,0:0:0:0:
316,63,29790,1,0,0:0:0:0:
300,56,29865,1,8,0:0:0:0:
300,56,29902,1,8,0:0:0:0:
280,71,30015,1,4,0:0:0:0:
280,71,30465,1,4,0:0:0:0:
301,61,30765,1,0,0:0:0:0:
300,56,30915,1,8,0:0:0:0:
297,60,31065,1,0,0:0:0:0:
294,81,31215,1,12,0:0:0:0:
294,81,31665,1,12,0:0:0:0:
279,73,32115,1,12,0:0:0:0:
293,68,32415,1,0,0:0:0:0:
247,94,32565,1,0,0:0:0:0:
294,81,32640,1,0,0:0:0:0:
254,85,32715,1,8,0:0:0:0:
300,68,32865,1,0,0:0:0:0:
300,68,33165,1,0,0:0:0:0:
305,64,33315,1,8,0:0:0:0:
308,62,33390,1,0,0:0:0:0:
309,62,33465,1,8,0:0:0:0:
316,61,33765,1,0,0:0:0:0:
325,58,33915,1,8,0:0:0:0:
310,60,34065,1,0,0:0:0:0:
311,60,34140,1,0,0:0:0:0:
305,64,34215,1,0,0:0:0:0:
308,62,34365,1,0,0:0:0:0:
307,61,34515,1,8,0:0:0:0:
306,56,34565,1,8,0:0:0:0:
308,57,34615,1,8,0:0:0:0:
308,57,34665,1,0,0:0:0:0:
316,61,34815,1,8,0:0:0:0:
309,67,34965,1,0,0:0:0:0:
317,47,35040,1,8,0:0:0:0:
299,56,35115,1,0,0:0:0:0:
299,57,35265,1,8,0:0:0:0:
293,60,35415,1,0,0:0:0:0:
305,58,35715,1,8,0:0:0:0:
308,57,35865,1,8,0:0:0:0:
316,57,36015,1,0,0:0:0:0:
313,60,36165,1,8,0:0:0:0:
305,63,36240,1,0,0:0:0:0:
312,61,36315,1,8,0:0:0:0:
311,61,36465,1,0,0:0:0:0:
312,60,36615,1,8,0:0:0:0:
310,61,36690,1,8,0:0:0:0:
315,56,36840,1,0,0:0:0:0:
308,57,36915,1,8,0:0:0:0:
325,54,37215,1,4,0:0:0:0:
317,50,37365,1,8,0:0:0:0:
317,50,37515,1,0,0:0:0:0:
319,48,37665,1,8,0:0:0:0:
319,48,37740,1,0,0:0:0:0:
322,48,37815,1,8,0:0:0:0:
325,54,37965,1,0,0:0:0:0:
325,54,38115,1,8,0:0:0:0:
325,54,38190,1,8,0:0:0:0:
317,50,38265,1,0,0:0:0:0:
326,50,38415,1,8,0:0:0:0:
331,47,38565,1,0,0:0:0:0:
328,54,38715,1,8,0:0:0:0:
329,52,38865,1,0,0:0:0:0:
325,54,38940,1,8,0:0:0:0:
325,54,39015,1,0,0:0:0:0:
325,54,39165,1,8,0:0:0:0:
328,58,39315,1,0,0:0:0:0:
325,59,39390,1,0,0:0:0:0:
322,61,39465,1,8,0:0:0:0:
313,50,39615,1,0,0:0:0:0:
328,54,39690,1,0,0:0:0:0:
317,55,39765,1,8,0:0:0:0:
315,56,39840,1,8,0:0:0:0:
316,56,39915,1,0,0:0:0:0:
325,54,39990,1,8,0:0:0:0:
331,58,40065,1,0,0:0:0:0:
329,60,40140,1,0,0:0:0:0:
328,58,40215,1,8,0:0:0:0:
328,58,40290,1,8,0:0:0:0:
333,59,40365,1,0,0:0:0:0:
332,60,40440,1,0,0:0:0:0:
333,60,40515,1,8,0:0:0:0:
338,58,40590,1,8,0:0:0:0:
338,58,40665,1,8,0:0:0:0:
338,58,40740,1,8,0:0:0:0:
342,60,40815,1,4,0:0:0:0:
355,55,41115,1,0,0:0:0:0:
353,55,41265,1,8,0:0:0:0:
351,56,41340,1,0,0:0:0:0:
349,57,41415,1,8,0:0:0:0:
349,56,41490,1,8,0:0:0:0:
349,56,41565,1,0,0:0:0:0:
349,56,41640,1,0,0:0:0:0:
349,56,41715,1,12,0:0:0:0:
355,55,42015,1,4,0:0:0:0:
338,66,42315,1,8,0:0:0:0:
330,69,42352,1,8,0:0:0:0:
330,69,42465,1,0,0:0:0:0:
334,66,42540,1,8,0:0:0:0:
333,69,42615,1,0,0:0:0:0:
333,69,42690,1,0,0:0:0:0:
333,67,42765,1,8,0:0:0:0:
329,68,42802,1,8,0:0:0:0:
340,68,42915,1,0,0:0:0:0:
338,57,42990,1,8,0:0:0:0:
338,57,43065,1,0,0:0:0:0:
342,57,43140,1,0,0:0:0:0:
350,55,43215,1,8,0:0:0:0:
333,58,43252,1,8,0:0:0:0:
331,61,43365,1,0,0:0:0:0:
331,61,43440,1,8,0:0:0:0:
331,61,43477,1,0,0:0:0:0:
327,62,43590,1,8,0:0:0:0:
326,62,43665,1,0,0:0:0:0:
326,62,43702,1,0,0:0:0:0:
330,56,43815,1,0,0:0:0:0:
310,67,43890,1,0,0:0:0:0:
307,68,43965,1,0,0:0:0:0:
305,73,44040,1,0,0:0:0:0:
309,72,44115,1,8,0:0:0:0:
331,61,44415,1,4,0:0:0:0:
308,60,44565,1,0,0:0:0:0:
308,59,44715,1,8,0:0:0:0:
310,62,44790,1,8,0:0:0:0:
292,71,44865,1,0,0:0:0:0:
307,68,44940,1,8,0:0:0:0:
311,60,45015,1,0,0:0:0:0:
314,58,45090,1,0,0:0:0:0:
315,58,45165,1,8,0:0:0:0:
295,62,45202,1,8,0:0:0:0:
292,63,45240,1,8,0:0:0:0:
288,66,45315,1,0,0:0:0:0:
315,56,45390,1,8,0:0:0:0:
308,60,45465,1,0,0:0:0:0:
308,60,45540,1,8,0:0:0:0:
308,59,45615,1,0,0:0:0:0:
308,59,45665,1,0,0:0:0:0:
308,59,45715,1,0,0:0:0:0:
310,62,45765,1,8,0:0:0:0:
303,64,45840,1,8,0:0:0:0:
299,57,45915,1,0,0:0:0:0:
299,62,45990,1,8,0:0:0:0:
294,61,46065,1,8,0:0:0:0:
295,61,46140,1,8,0:0:0:0:
295,62,46215,1,0,0:0:0:0:
302,70,46252,1,0,0:0:0:0:
299,70,46290,1,0,0:0:0:0:
299,69,46365,1,0,0:0:0:0:
299,69,46440,1,8,0:0:0:0:
308,60,46590,1,8,0:0:0:0:
298,72,46665,1,8,0:0:0:0:
299,71,46740,1,0,0:0:0:0:
302,67,46890,1,8,0:0:0:0:
301,69,46965,1,0,0:0:0:0:
299,70,47040,1,8,0:0:0:0:
298,71,47115,1,0,0:0:0:0:
298,71,47190,1,0,0:0:0:0:
302,70,47265,1,8,0:0:0:0:
299,69,47340,1,8,0:0:0:0:
299,69,47415,1,0,0:0:0:0:
293,66,47490,1,8,0:0:0:0:
292,66,47565,1,8,0:0:0:0:
289,67,47640,1,8,0:0:0:0:
289,67,47715,1,0,0:0:0:0:
299,71,47752,1,0,0:0:0:0:
302,67,47790,1,0,0:0:0:0:
302,67,47865,1,8,0:0:0:0:
301,69,47940,1,0,0:0:0:0:
305,65,48015,1,8,0:0:0:0:
306,64,48165,1,0,0:0:0:0:
302,70,48240,1,0,0:0:0:0:
292,61,48315,1,8,0:0:0:0:
299,69,48465,1,0,0:0:0:0:
292,66,48540,1,0,0:0:0:0:
289,67,48615,1,8,0:0:0:0:
291,66,48765,1,8,0:0:0:0:
291,66,48915,1,8,0:0:0:0:
291,66,48965,1,8,0:0:0:0:
291,66,49015,1,8,0:0:0:0:
292,65,49065,1,0,0:0:0:0:
306,64,49140,1,0,0:0:0:0:
271,71,49215,1,0,0:0:0:0:
309,68,49365,1,0,0:0:0:0:
274,62,49515,1,12,0:0:0:0:
291,66,49665,1,8,0:0:0:0:
305,76,49702,1,8,0:0:0:0:
304,77,49815,1,0,0:0:0:0:
291,66,49890,1,0,0:0:0:0:
291,66,49965,1,8,0:0:0:0:
298,53,50002,1,0,0:0:0:0:
288,54,50115,1,8,0:0:0:0:
292,54,50152,1,8,0:0:0:0:
298,51,50265,1,0,0:0:0:0:
302,50,50340,1,8,0:0:0:0:
302,50,50415,1,0,0:0:0:0:
286,59,50565,1,0,0:0:0:0:
257,81,50640,1,0,0:0:0:0:
288,69,50715,1,8,0:0:0:0:
301,60,50865,1,0,0:0:0:0:
300,60,50940,1,8,0:0:0:0:
301,59,51015,1,0,0:0:0:0:
288,63,51090,1,0,0:0:0:0:
290,63,51165,1,8,0:0:0:0:
309,72,51315,1,8,0:0:0:0:
295,58,51390,1,0,0:0:0:0:
295,58,51465,1,0,0:0:0:0:
295,58,51540,1,0,0:0:0:0:
297,57,51615,1,8,0:0:0:0:
291,58,51690,1,0,0:0:0:0:
293,58,51765,1,8,0:0:0:0:
293,58,51840,1,8,0:0:0:0:
300,60,51915,1,0,0:0:0:0:
293,78,51990,1,8,0:0:0:0:
305,47,52140,1,0,0:0:0:0:
290,63,52215,1,0,0:0:0:0:
309,64,52290,1,8,0:0:0:0:
309,64,52365,1,0,0:0:0:0:
309,64,52440,1,0,0:0:0:0:
312,66,52515,1,0,0:0:0:0:
314,62,52590,1,8,0:0:0:0:
311,66,52665,1,8,0:0:0:0:
295,71,52740,1,8,0:0:0:0:
296,66,52815,1,4,0:0:0:0:
266,62,52965,1,0,0:0:0:0:
305,47,53115,1,8,0:0:0:0:
285,69,53265,1,4,0:0:0:0:
305,49,53415,1,8,0:0:0:0:
301,50,53490,1,8,0:0:0:0:
302,58,53565,1,0,0:0:0:0:
302,51,53640,1,0,0:0:0:0:
284,68,53715,1,12,0:0:0:0:
311,57,54015,1,4,0:0:0:0:
305,58,54165,1,0,0:0:0:0:
308,59,54315,1,8,0:0:0:0:
310,62,54390,1,8,0:0:0:0:
292,71,54465,1,0,0:0:0:0:
307,68,54540,1,8,0:0:0:0:
311,60,54615,1,0,0:0:0:0:
314,58,54690,1,0,0:0:0:0:
315,58,54765,1,8,0:0:0:0:
295,62,54802,1,8,0:0:0:0:
292,63,54840,1,8,0:0:0:0:
288,66,54915,1,0,0:0:0:0:
315,56,54990,1,8,0:0:0:0:
308,60,55065,1,0,0:0:0:0:
308,60,55140,1,8,0:0:0:0:
308,59,55215,1,0,0:0:0:0:
308,59,55265,1,0,0:0:0:0:
308,59,55315,1,0,0:0:0:0:
310,62,55365,1,8,0:0:0:0:
303,64,55440,1,8,0:0:0:0:
299,57,55515,1,0,0:0:0:0:
299,62,55590,1,8,0:0:0:0:
294,61,55665,1,8,0:0:0:0:
295,61,55740,1,8,0:0:0:0:
295,62,55815,1,0,0:0:0:0:
302,70,55852,1,0,0:0:0:0:
299,70,55890,1,0,0:0:0:0:
299,69,55965,1,0,0:0:0:0:
299,69,56040,1,8,0:0:0:0:
308,60,56190,1,8,0:0:0:0:
298,72,56265,1,8,0:0:0:0:
299,71,56340,1,0,0:0:0:0:
302,67,56490,1,8,0:0:0:0:
301,69,56565,1,0,0:0:0:0:
299,70,56640,1,8,0:0:0:0:
298,71,56715,1,0,0:0:0:0:
298,71,56790,1,0,0:0:0:0:
302,70,56865,1,8,0:0:0:0:
299,69,56940,1,8,0:0:0:0:
299,69,57015,1,0,0:0:0:0:
293,66,57090,1,8,0:0:0:0:
292,66,57165,1,8,0:0:0:0:
289,67,57240,1,8,0:0:0:0:
289,67,57315,1,0,0:0:0:0:
299,71,57352,1,0,0:0:0:0:
302,67,57390,1,0,0:0:0:0:
302,67,57465,1,8,0:0:0:0:
301,69,57540,1,0,0:0:0:0:
305,65,57615,1,8,0:0:0:0:
306,64,57765,1,0,0:0:0:0:
302,70,57840,1,0,0:0:0:0:
292,61,57915,1,8,0:0:0:0:
299,69,58065,1,0,0:0:0:0:
292,66,58140,1,0,0:0:0:0:
289,67,58215,1,8,0:0:0:0:
291,66,58365,1,8,0:0:0:0:
291,66,58515,1,8,0:0:0:0:
291,66,58565,1,8,0:0:0:0:
291,66,58615,1,8,0:0:0:0:
292,65,58665,1,0,0:0:0:0:
306,64,58740,1,0,0:0:0:0:
271,71,58815,1,0,0:0:0:0:
274,77,58965,1,0,0:0:0:0:
271,73,59040,1,0,0:0:0:0:
311,58,59115,1,8,0:0:0:0:
281,69,59152,1,8,0:0:0:0:
291,66,59265,1,8,0:0:0:0:
305,76,59302,1,8,0:0:0:0:
304,77,59415,1,0,0:0:0:0:
291,66,59490,1,0,0:0:0:0:
291,66,59565,1,8,0:0:0:0:
298,53,59602,1,0,0:0:0:0:
288,54,59715,1,8,0:0:0:0:
292,54,59752,1,8,0:0:0:0:
298,51,59865,1,0,0:0:0:0:
302,50,59940,1,8,0:0:0:0:
302,50,60015,1,0,0:0:0:0:
286,59,60165,1,0,0:0:0:0:
257,81,60240,1,0,0:0:0:0:
288,69,60315,1,8,0:0:0:0:
301,60,60465,1,0,0:0:0:0:
300,60,60540,1,8,0:0:0:0:
301,59,60615,1,0,0:0:0:0:
288,63,60690,1,0,0:0:0:0:
290,63,60765,1,8,0:0:0:0:
309,72,60915,1,8,0:0:0:0:
295,58,60990,1,0,0:0:0:0:
295,58,61065,1,0,0:0:0:0:
295,58,61140,1,0,0:0:0:0:
297,57,61215,1,8,0:0:0:0:
291,58,61290,1,0,0:0:0:0:
293,58,61365,1,8,0:0:0:0:
293,58,61440,1,8,0:0:0:0:
300,60,61515,1,0,0:0:0:0:
293,78,61590,1,8,0:0:0:0:
298,48,61665,1,8,0:0:0:0:
305,47,61740,1,0,0:0:0:0:
290,63,61815,1,0,0:0:0:0:
309,64,61890,1,8,0:0:0:0:
309,64,61965,1,0,0:0:0:0:
309,64,62040,1,0,0:0:0:0:
312,66,62115,1,0,0:0:0:0:
314,62,62190,1,8,0:0:0:0:
311,66,62265,1,8,0:0:0:0:
295,71,62340,1,0,0:0:0:0:
296,66,62415,1,8,0:0:0:0:
300,60,62515,1,8,0:0:0:0:
306,61,62615,1,8,0:0:0:0:
302,75,62715,1,8,0:0:0:0:
306,61,62815,1,8,0:0:0:0:
309,64,62915,1,8,0:0:0:0:
295,59,63015,1,0,0:0:0:0:
306,61,63115,1,0,0:0:0:0:
306,61,63215,1,0,0:0:0:0:
306,61,63315,1,0,0:0:0:0:
300,60,63415,1,0,0:0:0:0:
300,60,63515,1,0,0:0:0:0:
306,61,63615,1,0,0:0:0:0:
279,69,63915,1,12,0:0:0:0:
314,63,64065,1,0,0:0:0:0:
306,61,64140,1,0,0:0:0:0:
306,61,64215,1,8,0:0:0:0:
306,69,64365,1,8,0:0:0:0:
304,67,64515,1,0,0:0:0:0:
298,62,64665,1,8,0:0:0:0:
305,60,64740,1,0,0:0:0:0:
305,56,64815,1,8,0:0:0:0:
305,56,64965,1,0,0:0:0:0:
308,55,65115,1,8,0:0:0:0:
308,55,65265,1,0,0:0:0:0:
301,50,65340,1,0,0:0:0:0:
300,55,65415,1,0,0:0:0:0:
291,60,65565,1,0,0:0:0:0:
291,60,65715,1,8,0:0:0:0:
300,49,65790,1,8,0:0:0:0:
300,49,65865,1,0,0:0:0:0:
260,61,66015,1,8,0:0:0:0:
292,55,66172,1,0,0:0:0:0:
286,57,66330,1,8,0:0:0:0:
286,57,66409,1,0,0:0:0:0:
291,60,66488,1,8,0:0:0:0:
291,60,66646,1,0,0:0:0:0:
302,62,66725,1,8,0:0:0:0:
305,59,66883,1,0,0:0:0:0:
279,54,66962,1,8,0:0:0:0:
299,55,67120,1,0,0:0:0:0:
306,54,67278,1,8,0:0:0:0:
304,54,67357,1,8,0:0:0:0:
304,54,67436,1,0,0:0:0:0:
303,55,67515,1,0,0:0:0:0:
312,57,67593,1,8,0:0:0:0:
317,56,67751,1,0,0:0:0:0:
319,55,67830,1,0,0:0:0:0:
319,56,67909,1,0,0:0:0:0:
319,56,67988,1,8,0:0:0:0:
319,55,68146,1,8,0:0:0:0:
316,56,68225,1,0,0:0:0:0:
316,56,68304,1,0,0:0:0:0:
316,56,68383,1,8,0:0:0:0:
316,56,68462,1,0,0:0:0:0:
329,61,68541,1,8,0:0:0:0:
311,44,68707,1,0,0:0:0:0:
312,45,68791,1,8,0:0:0:0:
312,45,68874,1,0,0:0:0:0:
312,45,69041,1,8,0:0:0:0:
313,43,69207,1,0,0:0:0:0:
313,43,69374,1,8,0:0:0:0:
313,43,69457,1,0,0:0:0:0:
313,43,69541,1,8,0:0:0:0:
322,40,69707,1,8,0:0:0:0:
316,52,69874,1,0,0:0:0:0:
312,45,70109,1,8,0:0:0:0:
313,43,70226,1,8,0:0:0:0:
320,54,70344,1,0,0:0:0:0:
320,54,70462,1,8,0:0:0:0:
316,55,70579,1,0,0:0:0:0:
316,55,70697,1,0,0:0:0:0:
316,52,70815,1,8,0:0:0:0:
316,55,70932,1,0,0:0:0:0:
317,55,71050,1,0,0:0:0:0:
317,55,71168,1,0,0:0:0:0:
320,54,71285,1,8,0:0:0:0:
315,42,71374,1,8,0:0:0:0:
318,43,71462,1,0,0:0:0:0:
298,46,71550,1,8,0:0:0:0:
321,41,71638,1,0,0:0:0:0:
320,43,71726,1,0,0:0:0:0:
328,41,71815,1,8,0:0:0:0:
328,41,71903,1,0,0:0:0:0:
331,44,71991,1,8,0:0:0:0:
323,55,72050,1,8,0:0:0:0:
317,55,72109,1,8,0:0:0:0:
317,55,72168,1,0,0:0:0:0:
344,52,72256,1,0,0:0:0:0:
333,53,72344,1,8,0:0:0:0:
338,56,72432,1,0,0:0:0:0:
331,56,72521,1,0,0:0:0:0:
330,56,72609,1,0,0:0:0:0:
333,53,72697,1,8,0:0:0:0:
328,41,72874,1,0,0:0:0:0:
323,55,73050,1,0,0:0:0:0:
325,55,73226,1,8,0:0:0:0:
323,58,73315,1,8,0:0:0:0:
321,60,73403,1,0,0:0:0:0:
319,62,73491,1,0,0:0:0:0:
318,63,73579,1,8,0:0:0:0:
324,62,73668,1,0,0:0:0:0:
323,61,73756,1,12,0:0:0:0:
310,61,74109,1,4,0:0:0:0:
319,62,74462,1,0,0:0:0:0:
324,54,74638,1,8,0:0:0:0:
320,56,74697,1,8,0:0:0:0:
319,66,74815,1,0,0:0:0:0:
319,66,74932,1,8,0:0:0:0:
322,64,75109,1,8,0:0:0:0:
319,62,75168,1,0,0:0:0:0:
326,66,75285,1,8,0:0:0:0:
331,63,75344,1,8,0:0:0:0:
334,66,75462,1,0,0:0:0:0:
335,66,75521,1,0,0:0:0:0:
335,66,75697,1,8,0:0:0:0:
335,66,75815,1,0,0:0:0:0:
335,66,75874,1,8,0:0:0:0:
338,65,75991,1,0,0:0:0:0:
334,67,76050,1,8,0:0:0:0:
333,68,76168,1,0,0:0:0:0:
333,68,76226,1,8,0:0:0:0:
331,63,76344,1,0,0:0:0:0:
337,72,76403,1,0,0:0:0:0:
335,66,76521,1,0,0:0:0:0:
335,66,76579,1,8,0:0:0:0:
335,66,76697,1,0,0:0:0:0:
333,72,76756,1,0,0:0:0:0:
331,73,76874,1,0,0:0:0:0:
333,72,76932,1,8,0:0:0:0:
346,69,77109,1,0,0:0:0:0:
344,70,77285,1,8,0:0:0:0:
331,77,77403,1,0,0:0:0:0:
331,76,77638,1,8,0:0:0:0:
328,62,77756,1,0,0:0:0:0:
327,60,77815,1,0,0:0:0:0:
343,68,77932,1,8,0:0:0:0:
336,64,77991,1,8,0:0:0:0:
325,66,78168,1,0,0:0:0:0:
339,81,78344,1,8,0:0:0:0:
331,76,78462,1,0,0:0:0:0:
331,76,78521,1,0,0:0:0:0:
331,76,78638,1,8,0:0:0:0:
329,72,78697,1,0,0:0:0:0:
329,72,78815,1,0,0:0:0:0:
343,68,78874,1,8,0:0:0:0:
333,72,78991,1,0,0:0:0:0:
338,67,79050,1,0,0:0:0:0:
333,71,79168,1,8,0:0:0:0:
333,71,79226,1,0,0:0:0:0:
333,72,79344,1,8,0:0:0:0:
331,76,79403,1,8,0:0:0:0:
338,69,79579,1,0,0:0:0:0:
329,72,79756,1,12,0:0:0:0:
322,66,80109,1,8,0:0:0:0:
320,68,80226,1,0,0:0:0:0:
298,57,80285,1,8,0:0:0:0:
316,66,80403,1,0,0:0:0:0:
325,68,80462,1,8,0:0:0:0:
317,68,80579,1,0,0:0:0:0:
314,69,80638,1,8,0:0:0:0:
309,70,80756,1,0,0:0:0:0:
311,69,80815,1,8,0:0:0:0:
311,69,80991,1,8,0:0:0:0:
309,64,81168,1,0,0:0:0:0:
310,65,81285,1,8,0:0:0:0:
304,57,81344,1,0,0:0:0:0:
304,57,81521,1,8,0:0:0:0:
299,70,81697,1,0,0:0:0:0:
309,60,81815,1,8,0:0:0:0:
311,69,81991,1,0,0:0:0:0:
309,64,82050,1,0,0:0:0:0:
310,65,82226,1,8,0:0:0:0:
310,65,82285,1,8,0:0:0:0:
302,65,82344,1,0,0:0:0:0:
317,63,82403,1,8,0:0:0:0:
318,62,82462,1,0,0:0:0:0:
318,62,82521,1,0,0:0:0:0:
325,61,82579,1,0,0:0:0:0:
304,57,82697,1,8,0:0:0:0:
315,50,82932,1,8,0:0:0:0:
309,47,83050,1,0,0:0:0:0:
303,54,83168,1,8,0:0:0:0:
303,54,83285,1,0,0:0:0:0:
306,54,83403,1,0,0:0:0:0:
306,54,83521,1,8,0:0:0:0:
326,62,83638,1,0,0:0:0:0:
321,59,83756,1,0,0:0:0:0:
318,57,83873,1,0,0:0:0:0:
319,56,83991,1,12,0:0:0:0:
319,56,84344,1,4,0:0:0:0:
321,59,84697,1,12,0:0:0:0:
319,56,85050,1,4,0:0:0:0:
321,59,85403,1,12,0:0:0:0:
305,60,85756,1,8,0:0:0:0:
312,65,85873,1,0,0:0:0:0:
316,64,85932,1,8,0:0:0:0:
325,62,86109,1,0,0:0:0:0:
307,56,86226,1,0,0:0:0:0:
321,59,86403,1,8,0:0:0:0:
325,58,86462,1,8,0:0:0:0:
316,54,86579,1,0,0:0:0:0:
317,60,86638,1,8,0:0:0:0:
305,60,86756,1,0,0:0:0:0:
317,60,86815,1,0,0:0:0:0:
310,62,86991,1,8,0:0:0:0:
304,64,87109,1,0,0:0:0:0:
298,66,87168,1,8,0:0:0:0:
298,66,87285,1,0,0:0:0:0:
298,65,87344,1,8,0:0:0:0:
314,68,87462,1,0,0:0:0:0:
305,72,87521,1,8,0:0:0:0:
302,73,87638,1,0,0:0:0:0:
302,73,87697,1,0,0:0:0:0:
300,73,87815,1,0,0:0:0:0:
302,73,87873,1,8,0:0:0:0:
287,69,87991,1,0,0:0:0:0:
297,66,88050,1,0,0:0:0:0:
290,69,88168,1,0,0:0:0:0:
297,74,88226,1,8,0:0:0:0:
306,69,88344,1,0,0:0:0:0:
300,72,88403,1,8,0:0:0:0:
305,72,88521,1,0,0:0:0:0:
293,73,88579,1,8,0:0:0:0:
286,72,88756,1,0,0:0:0:0:
289,71,88873,1,0,0:0:0:0:
297,66,89050,1,8,0:0:0:0:
290,69,89109,1,8,0:0:0:0:
283,61,89226,1,0,0:0:0:0:
292,59,89285,1,8,0:0:0:0:
289,56,89403,1,8,0:0:0:0:
290,58,89462,1,0,0:0:0:0:
295,48,89579,1,0,0:0:0:0:
289,57,89638,1,0,0:0:0:0:
297,62,89815,1,8,0:0:0:0:
288,57,89932,1,0,0:0:0:0:
297,66,89991,1,0,0:0:0:0:
292,56,90109,1,8,0:0:0:0:
291,56,90168,1,0,0:0:0:0:
292,59,90285,1,0,0:0:0:0:
289,56,90344,1,8,0:0:0:0:
306,57,90521,1,8,0:0:0:0:
299,59,90638,1,0,0:0:0:0:
302,55,90697,1,8,0:0:0:0:
297,62,90815,1,0,0:0:0:0:
296,59,90873,1,8,0:0:0:0:
296,58,90991,1,0,0:0:0:0:
292,56,91050,1,8,0:0:0:0:
292,59,91226,1,0,0:0:0:0:
292,59,91315,1,0,0:0:0:0:
298,62,91403,1,8,0:0:0:0:
298,61,91491,1,8,0:0:0:0:
299,59,91579,1,0,0:0:0:0:
299,59,91668,1,0,0:0:0:0:
304,57,91756,1,8,0:0:0:0:
299,66,91844,1,0,0:0:0:0:
298,66,91932,1,0,0:0:0:0:
299,66,92021,1,0,0:0:0:0:
300,63,92109,1,8,0:0:0:0:
306,68,92197,1,8,0:0:0:0:
306,68,92285,1,8,0:0:0:0:
306,67,92373,1,8,0:0:0:0:
299,70,92462,1,0,0:0:0:0:
297,73,92638,1,8,0:0:0:0:
297,71,92726,1,0,0:0:0:0:
297,71,92815,1,8,0:0:0:0:
298,66,92903,1,8,0:0:0:0:
299,66,92991,1,8,0:0:0:0:
295,72,93079,1,8,0:0:0:0:
297,78,93168,1,0,0:0:0:0:
297,78,93256,1,0,0:0:0:0:
295,75,93344,1,8,0:0:0:0:
296,78,93432,1,8,0:0:0:0:
297,73,93521,1,0,0:0:0:0:
297,73,93609,1,8,0:0:0:0:
297,73,93697,1,0,0:0:0:0:
297,71,93785,1,0,0:0:0:0:
296,75,93873,1,8,0:0:0:0:
299,73,93962,1,0,0:0:0:0:
295,72,94050,1,0,0:0:0:0:
295,72,94138,1,0,0:0:0:0:
297,78,94226,1,8,0:0:0:0:
301,77,94315,1,0,0:0:0:0:
295,75,94403,1,0,0:0:0:0:
296,78,94491,1,0,0:0:0:0:
297,73,94579,1,8,0:0:0:0:
302,79,94668,1,8,0:0:0:0:
300,78,94756,1,0,0:0:0:0:
302,79,94844,1,0,0:0:0:0:
299,73,94932,1,8,0:0:0:0:
299,73,95021,1,0,0:0:0:0:
300,78,95109,1,8,0:0:0:0:
312,87,95197,1,0,0:0:0:0:
301,77,95285,1,12,0:0:0:0:
309,77,95638,1,0,0:0:0:0:
309,77,95815,1,0,0:0:0:0:
299,73,95903,1,0,0:0:0:0:
304,79,95991,1,8,0:0:0:0:
300,78,96079,1,8,0:0:0:0:
297,78,96168,1,0,0:0:0:0:
301,77,96256,1,0,0:0:0:0:
293,80,96344,1,12,0:0:0:0:
304,67,96697,1,0,0:0:0:0:
309,77,96785,1,0,0:0:0:0:
304,84,97050,1,8,0:0:0:0:
286,80,97138,1,0,0:0:0:0:
286,82,97226,1,8,0:0:0:0:
286,83,97315,1,8,0:0:0:0:
286,83,97491,1,0,0:0:0:0:
286,83,97579,1,0,0:0:0:0:
286,83,97668,1,0,0:0:0:0:
285,83,97756,1,8,0:0:0:0:
309,77,97815,1,8,0:0:0:0:
304,84,97932,1,0,0:0:0:0:
304,84,97991,1,0,0:0:0:0:
307,79,98109,1,8,0:0:0:0:
295,81,98197,1,8,0:0:0:0:
293,80,98285,1,0,0:0:0:0:
293,80,98373,1,0,0:0:0:0:
300,75,98462,1,8,0:0:0:0:
297,78,98550,1,0,0:0:0:0:
297,78,98638,1,8,0:0:0:0:
309,77,98815,1,0,0:0:0:0:
293,74,98903,1,8,0:0:0:0:
291,73,98991,1,8,0:0:0:0:
291,72,99079,1,0,0:0:0:0:
296,69,99168,1,8,0:0:0:0:
315,78,99238,1,8,0:0:0:0:
302,80,99309,1,0,0:0:0:0:
302,80,99379,1,0,0:0:0:0:
297,78,99521,1,8,0:0:0:0:
297,78,99609,1,8,0:0:0:0:
293,79,99697,1,0,0:0:0:0:
292,79,99785,1,0,0:0:0:0:
293,74,99873,1,8,0:0:0:0:
302,72,99962,1,0,0:0:0:0:
301,73,100050,1,0,0:0:0:0:
296,69,100138,1,8,0:0:0:0:
302,80,100315,1,8,0:0:0:0:
302,80,100403,1,8,0:0:0:0:
297,78,100491,1,0,0:0:0:0:
297,78,100579,1,8,0:0:0:0:
300,63,100668,1,0,0:0:0:0:
304,77,100756,1,0,0:0:0:0:
299,73,100844,1,8,0:0:0:0:
295,68,100932,1,0,0:0:0:0:
317,94,101050,1,0,0:0:0:0:
299,76,101168,1,0,0:0:0:0:
311,69,101226,1,0,0:0:0:0:
308,71,101285,1,12,0:0:0:0:
309,73,101638,1,12,0:0:0:0:
309,73,101991,1,4,0:0:0:0:
294,69,102344,1,12,0:0:0:0:
309,73,102697,1,8,0:0:0:0:
309,73,102785,1,8,0:0:0:0:
293,77,102873,1,0,0:0:0:0:
293,77,102962,1,8,0:0:0:0:
294,78,103138,1,0,0:0:0:0:
294,78,103226,1,0,0:0:0:0:
294,78,103315,1,0,0:0:0:0:
294,78,103403,1,8,0:0:0:0:
285,70,103462,1,8,0:0:0:0:
292,73,103579,1,0,0:0:0:0:
294,69,103638,1,0,0:0:0:0:
309,73,103756,1,8,0:0:0:0:
287,72,103844,1,8,0:0:0:0:
293,77,103932,1,0,0:0:0:0:
294,66,104021,1,0,0:0:0:0:
294,66,104109,1,8,0:0:0:0:
282,70,104197,1,0,0:0:0:0:
282,70,104285,1,8,0:0:0:0:
282,69,104462,1,0,0:0:0:0:
280,63,104550,1,8,0:0:0:0:
278,63,104638,1,0,0:0:0:0:
282,60,104726,1,0,0:0:0:0:
280,62,104815,1,8,0:0:0:0:
276,63,104903,1,8,0:0:0:0:
280,62,104991,1,8,0:0:0:0:
275,66,105079,1,8,0:0:0:0:
275,66,105168,1,0,0:0:0:0:
260,75,105256,1,0,0:0:0:0:
262,74,105344,1,8,0:0:0:0:
258,75,105432,1,8,0:0:0:0:
263,71,105521,1,0,0:0:0:0:
258,71,105609,1,0,0:0:0:0:
262,72,105697,1,0,0:0:0:0:
258,71,105785,1,8,0:0:0:0:
254,71,105873,1,0,0:0:0:0:
247,65,105962,1,8,0:0:0:0:
247,65,106050,1,0,0:0:0:0:
257,65,106138,1,8,0:0:0:0:
257,65,106226,1,8,0:0:0:0:
263,64,106315,1,8,0:0:0:0:
263,64,106403,1,0,0:0:0:0:
263,63,106491,1,0,0:0:0:0:
272,64,106579,1,12,0:0:0:0:
282,62,106932,1,8,0:0:0:0:
279,61,107285,1,8,0:0:0:0:
277,60,107373,1,0,0:0:0:0:
274,62,107462,1,0,0:0:0:0:
272,64,107638,1,8,0:0:0:0:
275,56,107815,1,0,0:0:0:0:
279,61,107991,1,0,0:0:0:0:
292,70,108344,1,0,0:0:0:0:
289,59,108432,1,8,0:0:0:0:
289,59,108521,1,8,0:0:0:0:
291,58,108609,1,8,0:0:0:0:
291,66,108697,1,0,0:0:0:0:
280,75,108785,1,8,0:0:0:0:
289,59,108873,1,8,0:0:0:0:
280,75,108962,1,8,0:0:0:0:
292,70,109050,1,0,0:0:0:0:
290,46,109138,1,8,0:0:0:0:
288,47,109226,1,8,0:0:0:0:
292,70,109315,1,8,0:0:0:0:
291,66,109403,1,0,0:0:0:0:
288,71,109491,1,8,0:0:0:0:
286,72,109579,1,8,0:0:0:0:
286,71,109668,1,8,0:0:0:0:
292,70,109756,1,0,0:0:0:0:
286,71,109844,1,8,0:0:0:0:
280,75,109932,1,8,0:0:0:0:
286,71,110021,1,8,0:0:0:0:
291,66,110109,1,0,0:0:0:0:
286,71,110197,1,8,0:0:0:0:
292,70,110285,1,8,0:0:0:0:
286,71,110373,1,8,0:0:0:0:
292,70,110462,1,0,0:0:0:0:
285,75,110815,1,8,0:0:0:0:
281,55,110903,1,0,0:0:0:0:
294,57,110991,1,0,0:0:0:0:
281,55,111079,1,0,0:0:0:0:
280,77,111168,1,8,0:0:0:0:
277,56,111256,1,0,0:0:0:0:
288,60,111344,1,0,0:0:0:0:
277,59,111432,1,0,0:0:0:0:
285,75,111521,1,8,0:0:0:0:
277,60,111609,1,0,0:0:0:0:
287,60,111697,1,0,0:0:0:0:
277,60,111785,1,0,0:0:0:0:
280,77,111873,1,8,0:0:0:0:
279,60,111962,1,0,0:0:0:0:
287,60,112050,1,0,0:0:0:0:
281,55,112138,1,0,0:0:0:0:
277,79,112226,1,8,0:0:0:0:
280,58,112315,1,0,0:0:0:0:
287,60,112403,1,0,0:0:0:0:
280,56,112491,1,0,0:0:0:0:
280,77,112579,1,8,0:0:0:0:
277,60,112668,1,0,0:0:0:0:
287,60,112756,1,0,0:0:0:0:
280,55,112844,1,0,0:0:0:0:
277,79,112932,1,8,0:0:0:0:
280,55,113021,1,0,0:0:0:0:
287,60,113109,1,0,0:0:0:0:
277,56,113197,1,0,0:0:0:0:
280,77,113285,1,8,0:0:0:0:
287,60,113356,1,8,0:0:0:0:
287,60,113426,1,8,0:0:0:0:
287,66,113497,1,8,0:0:0:0:
283,71,113568,1,8,0:0:0:0:
277,79,113638,1,0,0:0:0:0:
269,71,113991,1,8,0:0:0:0:
263,79,114079,1,8,0:0:0:0:
264,72,114168,1,0,0:0:0:0:
267,73,114256,1,8,0:0:0:0:
258,76,114344,1,0,0:0:0:0:
267,82,114432,1,0,0:0:0:0:
267,82,114521,1,8,0:0:0:0:
265,82,114609,1,0,0:0:0:0:
257,76,114697,1,8,0:0:0:0:
277,83,114785,1,8,0:0:0:0:
269,86,114873,1,0,0:0:0:0:
271,85,114962,1,8,0:0:0:0:
258,76,115050,1,0,0:0:0:0:
268,86,115138,1,0,0:0:0:0:
265,88,115226,1,8,0:0:0:0:
262,88,115315,1,0,0:0:0:0:
257,76,115403,1,8,0:0:0:0:
267,82,115491,1,0,0:0:0:0:
273,79,115579,1,8,0:0:0:0:
273,79,115668,1,8,0:0:0:0:
258,76,115756,1,0,0:0:0:0:
269,86,115844,1,8,0:0:0:0:
271,85,115932,1,0,0:0:0:0:
269,81,116021,1,0,0:0:0:0:
257,76,116109,1,8,0:0:0:0:
271,74,116285,1,8,0:0:0:0:
271,75,116329,1,8,0:0:0:0:
258,76,116462,1,0,0:0:0:0:
273,79,116550,1,8,0:0:0:0:
273,79,116638,1,0,0:0:0:0:
264,79,116726,1,0,0:0:0:0:
257,76,116815,1,8,0:0:0:0:
277,72,116903,1,8,0:0:0:0:
269,81,116991,1,0,0:0:0:0:
260,77,117079,1,8,0:0:0:0:
258,76,117168,1,0,0:0:0:0:
260,78,117256,1,0,0:0:0:0:
260,78,117344,1,8,0:0:0:0:
258,76,117432,1,0,0:0:0:0:
257,76,117521,1,8,0:0:0:0:
261,81,117609,1,0,0:0:0:0:
264,79,117697,1,8,0:0:0:0:
257,76,117785,1,8,0:0:0:0:
258,76,117873,1,0,0:0:0:0:
286,68,117962,1,8,0:0:0:0:
284,69,118050,1,0,0:0:0:0:
283,69,118138,1,0,0:0:0:0:
258,76,118226,1,8,0:0:0:0:
281,73,118315,1,8,0:0:0:0:
275,73,118403,1,8,0:0:0:0:
275,74,118491,1,0,0:0:0:0:
270,75,118579,1,8,0:0:0:0:
269,62,118668,1,8,0:0:0:0:
267,64,118756,1,0,0:0:0:0:
267,64,118844,1,0,0:0:0:0:
271,74,118932,1,12,0:0:0:0:
271,74,119285,1,4,0:0:0:0:
312,90,119462,1,8,0:0:0:0:
287,66,119638,1,0,0:0:0:0:
286,65,119726,1,0,0:0:0:0:
277,75,119815,1,8,0:0:0:0:
287,83,119991,1,0,0:0:0:0:
287,83,120079,1,8,0:0:0:0:
297,75,120256,1,8,0:0:0:0:
288,78,120344,1,0,0:0:0:0:
290,79,120432,1,0,0:0:0:0:
292,79,120521,1,8,0:0:0:0:
264,79,120697,1,0,0:0:0:0:
270,79,120873,1,8,0:0:0:0:
289,75,120962,1,8,0:0:0:0:
268,83,121050,1,0,0:0:0:0:
262,85,121138,1,8,0:0:0:0:
262,85,121226,1,8,0:0:0:0:
290,79,121403,1,0,0:0:0:0:
292,79,121491,1,8,0:0:0:0:
286,74,121668,1,8,0:0:0:0:
287,77,121756,1,0,0:0:0:0:
281,74,121844,1,8,0:0:0:0:
280,75,121932,1,8,0:0:0:0:
275,76,122021,1,0,0:0:0:0:
269,80,122109,1,8,0:0:0:0:
268,80,122285,1,8,0:0:0:0:
268,80,122462,1,8,0:0:0:0:
269,81,122550,1,0,0:0:0:0:
266,80,122638,1,0,0:0:0:0:
266,80,122815,1,8,0:0:0:0:
266,80,122903,1,0,0:0:0:0:
269,80,123079,1,0,0:0:0:0:
261,77,123168,1,8,0:0:0:0:
267,68,123256,1,8,0:0:0:0:
263,73,123344,1,0,0:0:0:0:
253,72,123432,1,0,0:0:0:0:
248,73,123521,1,8,0:0:0:0:
242,70,123697,1,0,0:0:0:0:
245,68,123785,1,0,0:0:0:0:
251,64,123873,1,8,0:0:0:0:
251,64,123962,1,0,0:0:0:0:
250,64,124050,1,0,0:0:0:0:
252,62,124138,1,8,0:0:0:0:
250,65,124226,1,8,0:0:0:0:
254,64,124315,1,0,0:0:0:0:
255,65,124403,1,8,0:0:0:0:
253,72,124491,1,0,0:0:0:0:
284,79,124579,1,12,0:0:0:0:
264,79,124932,1,4,0:0:0:0:
266,67,125285,1,8,0:0:0:0:
272,70,125462,1,0,0:0:0:0:
272,70,125550,1,8,0:0:0:0:
272,70,125638,1,0,0:0:0:0:
278,67,125815,1,8,0:0:0:0:
278,68,125903,1,8,0:0:0:0:
278,68,125991,1,0,0:0:0:0:
266,67,126168,1,0,0:0:0:0:
266,67,126256,1,0,0:0:0:0:
262,66,126344,1,8,0:0:0:0:
276,64,126521,1,8,0:0:0:0:
279,69,126609,1,0,0:0:0:0:
274,73,126697,1,8,0:0:0:0:
278,68,126873,1,0,0:0:0:0:
278,68,126962,1,0,0:0:0:0:
276,71,127050,1,8,0:0:0:0:
275,72,127226,1,0,0:0:0:0:
275,71,127315,1,8,0:0:0:0:
276,64,127403,1,0,0:0:0:0:
286,67,127462,1,8,0:0:0:0:
285,67,127521,1,8,0:0:0:0:
287,69,127579,1,0,0:0:0:0:
287,68,127668,1,0,0:0:0:0:
283,71,127756,1,8,0:0:0:0:
314,63,127932,1,0,0:0:0:0:
290,78,128021,1,8,0:0:0:0:
287,76,128109,1,8,0:0:0:0:
302,81,128285,1,0,0:0:0:0:
300,75,128373,1,8,0:0:0:0:
300,77,128462,1,0,0:0:0:0:
302,81,128550,1,0,0:0:0:0:
298,82,128638,1,8,0:0:0:0:
296,83,128726,1,0,0:0:0:0:
293,84,128815,1,8,0:0:0:0:
292,85,128991,1,0,0:0:0:0:
303,79,129079,1,0,0:0:0:0:
297,83,129168,1,8,0:0:0:0:
292,86,129256,1,8,0:0:0:0:
292,86,129344,1,0,0:0:0:0:
292,86,129432,1,0,0:0:0:0:
292,86,129521,1,8,0:0:0:0:
296,83,129697,1,0,0:0:0:0:
293,84,129785,1,8,0:0:0:0:
300,81,129873,1,8,0:0:0:0:
301,82,129962,1,8,0:0:0:0:
292,85,130050,1,0,0:0:0:0:
295,84,130138,1,0,0:0:0:0:
292,86,130226,1,12,0:0:0:0:
296,83,130579,1,4,0:0:0:0:
252,78,132829,1,0,0:0:0:0:
254,91,132904,1,0,0:0:0:0:
254,91,132979,1,8,0:0:0:0:
253,93,135229,1,8,0:0:0:0:
253,93,135304,1,8,0:0:0:0:
253,93,135379,1,0,0:0:0:0:
240,123,139579,1,8,0:0:0:0:
240,123,139654,1,8,0:0:0:0:
240,123,139729,1,8,0:0:0:0:
240,123,139804,1,8,0:0:0:0:
240,123,139879,1,0,0:0:0:0:
226,125,139954,1,0,0:0:0:0:
240,123,140029,1,0,0:0:0:0:
226,124,140104,1,0,0:0:0:0:
226,124,140179,1,12,0:0:0:0:
240,112,140629,1,0,0:0:0:0:
235,114,141079,1,0,0:0:0:0:
245,103,141529,1,8,0:0:0:0:
239,88,141979,1,0,0:0:0:0:
248,94,142279,1,8,0:0:0:0:
246,94,142429,1,8,0:0:0:0:
261,96,142504,1,8,0:0:0:0:
245,103,142579,1,0,0:0:0:0:
241,90,143029,1,8,0:0:0:0:
241,91,143479,1,0,0:0:0:0:
266,84,144529,1,0,0:0:0:0:
266,68,144829,1,8,0:0:0:0:
266,67,144979,1,8,0:0:0:0:
263,69,145429,1,0,0:0:0:0:
266,67,145879,1,0,0:0:0:0:
272,67,145954,1,0,0:0:0:0:
270,67,146029,1,0,0:0:0:0:
269,67,146104,1,0,0:0:0:0:
277,62,146179,1,8,0:0:0:0:
279,63,146629,1,0,0:0:0:0:
277,62,147079,1,0,0:0:0:0:
279,63,147379,1,8,0:0:0:0:
283,51,147829,1,0,0:0:0:0:
279,53,148279,1,0,0:0:0:0:
282,52,148316,1,8,0:0:0:0:
276,52,148579,1,0,0:0:0:0:
268,55,148654,1,8,0:0:0:0:
276,52,148729,1,0,0:0:0:0:
277,61,149329,1,8,0:0:0:0:
282,61,149404,1,8,0:0:0:0:
277,61,149479,1,8,0:0:0:0:
275,61,149554,1,0,0:0:0:0:
277,60,149629,1,0,0:0:0:0:
271,62,149704,1,0,0:0:0:0:
277,61,149779,1,12,0:0:0:0:
280,52,150229,1,0,0:0:0:0:
278,45,150379,1,0,0:0:0:0:
281,46,150679,1,8,0:0:0:0:
280,52,150979,1,0,0:0:0:0:
280,52,151129,1,8,0:0:0:0:
286,43,151279,1,0,0:0:0:0:
281,46,151429,1,0,0:0:0:0:
281,46,151579,1,8,0:0:0:0:
285,43,151879,1,8,0:0:0:0:
280,52,152029,1,8,0:0:0:0:
280,52,152104,1,8,0:0:0:0:
280,52,152179,1,0,0:0:0:0:
271,50,152629,1,8,0:0:0:0:
271,50,152779,1,0,0:0:0:0:
265,48,153079,1,8,0:0:0:0:
283,57,153379,1,0,0:0:0:0:
281,55,153529,1,8,0:0:0:0:
281,53,153679,1,8,0:0:0:0:
281,55,153829,1,0,0:0:0:0:
281,55,153979,1,8,0:0:0:0:
283,57,154129,1,0,0:0:0:0:
282,47,154279,1,8,0:0:0:0:
281,55,154429,1,8,0:0:0:0:
281,53,154579,1,0,0:0:0:0:
281,55,155029,1,8,0:0:0:0:
281,53,155479,1,0,0:0:0:0:
281,55,155779,1,8,0:0:0:0:
285,64,156079,1,0,0:0:0:0:
285,64,156229,1,0,0:0:0:0:
285,64,156379,1,8,0:0:0:0:
286,64,156679,1,8,0:0:0:0:
285,64,156979,1,0,0:0:0:0:
286,64,157429,1,8,0:0:0:0:
285,64,157879,1,0,0:0:0:0:
278,66,158179,1,8,0:0:0:0:
286,64,158329,1,8,0:0:0:0:
285,64,158479,1,0,0:0:0:0:
285,64,158629,1,0,0:0:0:0:
285,64,158779,1,8,0:0:0:0:
285,64,158854,1,8,0:0:0:0:
278,66,158929,1,0,0:0:0:0:
278,66,159004,1,0,0:0:0:0:
278,66,159079,1,8,0:0:0:0:
316,71,159379,1,4,0:0:0:0:
317,70,159829,1,12,0:0:0:0:
316,71,160279,1,0,0:0:0:0:
293,84,160316,1,0,0:0:0:0:
309,57,160429,1,8,0:0:0:0:
310,58,160466,1,8,0:0:0:0:
317,70,160579,1,4,0:0:0:0:
319,69,161029,1,12,0:0:0:0:
300,74,161404,1,0,0:0:0:0:
317,70,161479,1,8,0:0:0:0:
317,70,161554,1,8,0:0:0:0:
310,68,161629,1,0,0:0:0:0:
319,69,161704,1,0,0:0:0:0:
319,69,161779,1,12,0:0:0:0:
313,57,162229,1,4,0:0:0:0:
309,95,162529,1,0,0:0:0:0:
300,68,162679,1,0,0:0:0:0:
303,67,162829,1,0,0:0:0:0:
305,80,162979,1,12,0:0:0:0:
313,61,163429,1,4,0:0:0:0:
319,79,163729,1,8,0:0:0:0:
315,65,163879,1,0,0:0:0:0:
305,80,163929,1,8,0:0:0:0:
311,75,163979,1,8,0:0:0:0:
321,78,164029,1,0,0:0:0:0:
288,58,164179,1,12,0:0:0:0:
300,56,164629,1,12,0:0:0:0:
309,65,164929,1,0,0:0:0:0:
316,63,165079,1,8,0:0:0:0:
300,56,165129,1,8,0:0:0:0:
300,56,165179,1,0,0:0:0:0:
307,67,165229,1,0,0:0:0:0:
280,71,165379,1,4,0:0:0:0:
280,71,165829,1,12,0:0:0:0:
300,56,166279,1,0,0:0:0:0:
288,77,166354,1,0,0:0:0:0:
297,60,166429,1,8,0:0:0:0:
287,75,166504,1,8,0:0:0:0:
294,81,166579,1,4,0:0:0:0:
294,81,167029,1,4,0:0:0:0:
295,77,167329,1,0,0:0:0:0:
279,66,167479,1,0,0:0:0:0:
285,75,167629,1,0,0:0:0:0:
296,70,167779,1,12,0:0:0:0:
293,71,168229,1,12,0:0:0:0:
296,70,168679,1,12,0:0:0:0:
316,71,168979,1,4,0:0:0:0:
317,70,169429,1,12,0:0:0:0:
316,71,169879,1,0,0:0:0:0:
293,84,169916,1,0,0:0:0:0:
309,57,170029,1,8,0:0:0:0:
310,58,170066,1,8,0:0:0:0:
317,70,170179,1,4,0:0:0:0:
319,69,170629,1,12,0:0:0:0:
300,74,171004,1,0,0:0:0:0:
317,70,171079,1,8,0:0:0:0:
317,70,171154,1,8,0:0:0:0:
310,68,171229,1,0,0:0:0:0:
319,69,171304,1,0,0:0:0:0:
319,69,171379,1,12,0:0:0:0:
313,57,171829,1,4,0:0:0:0:
309,95,172129,1,0,0:0:0:0:
300,68,172279,1,0,0:0:0:0:
303,67,172429,1,0,0:0:0:0:
305,80,172579,1,12,0:0:0:0:
313,61,173029,1,4,0:0:0:0:
319,79,173329,1,4,0:0:0:0:
305,80,173554,1,4,0:0:0:0:
288,58,173779,1,12,0:0:0:0:
300,56,174229,1,12,0:0:0:0:
309,65,174529,1,0,0:0:0:0:
316,63,174679,1,8,0:0:0:0:
300,56,174729,1,8,0:0:0:0:
300,56,174779,1,0,0:0:0:0:
307,67,174829,1,0,0:0:0:0:
280,71,174979,1,4,0:0:0:0:
280,71,175429,1,12,0:0:0:0:
300,56,175879,1,0,0:0:0:0:
288,77,175954,1,0,0:0:0:0:
297,60,176029,1,8,0:0:0:0:
287,75,176104,1,8,0:0:0:0:
294,81,176179,1,4,0:0:0:0:
294,81,176629,1,4,0:0:0:0:
295,77,176929,1,0,0:0:0:0:
279,66,177079,1,0,0:0:0:0:
285,75,177229,1,0,0:0:0:0:
296,70,177379,1,12,0:0:0:0:
293,71,177829,1,12,0:0:0:0:
296,70,178279,1,12,0:0:0:0:
296,58,178579,1,8,0:0:0:0:
293,71,178729,1,0,0:0:0:0:
304,61,178804,1,8,0:0:0:0:
305,60,178954,1,8,0:0:0:0:
306,60,179029,1,8,0:0:0:0:
303,72,179179,1,8,0:0:0:0:
296,58,179329,1,0,0:0:0:0:
299,71,179404,1,8,0:0:0:0:
296,58,179554,1,8,0:0:0:0:
295,55,179629,1,8,0:0:0:0:
295,55,179779,1,8,0:0:0:0:
305,60,179929,1,0,0:0:0:0:
295,55,180004,1,8,0:0:0:0:
294,54,180154,1,8,0:0:0:0:
295,55,180229,1,8,0:0:0:0:
295,54,180379,1,8,0:0:0:0:
305,64,180529,1,0,0:0:0:0:
302,50,180604,1,8,0:0:0:0:
302,49,180679,1,0,0:0:0:0:
308,60,180754,1,0,0:0:0:0:
306,58,180829,1,8,0:0:0:0:
305,57,180904,1,8,0:0:0:0:
305,57,180979,1,0,0:0:0:0:
302,64,181129,1,8,0:0:0:0:
295,55,181204,1,0,0:0:0:0:
295,54,181354,1,0,0:0:0:0:
302,50,181429,1,0,0:0:0:0:
317,67,181579,1,8,0:0:0:0:
299,65,181729,1,8,0:0:0:0:
298,51,181804,1,0,0:0:0:0:
319,62,181954,1,8,0:0:0:0:
295,50,182029,1,0,0:0:0:0:
268,49,182179,1,8,0:0:0:0:
316,59,182329,1,0,0:0:0:0:
323,57,182404,1,8,0:0:0:0:
283,60,182554,1,8,0:0:0:0:
281,64,182629,1,0,0:0:0:0:
281,63,182704,1,0,0:0:0:0:
282,62,182779,1,8,0:0:0:0:
294,51,182854,1,8,0:0:0:0:
291,43,183004,1,0,0:0:0:0:
291,45,183079,1,8,0:0:0:0:
291,45,183154,1,8,0:0:0:0:
290,46,183229,1,0,0:0:0:0:
286,50,183379,1,8,0:0:0:0:
272,50,183529,1,0,0:0:0:0:
272,50,183604,1,8,0:0:0:0:
276,49,183679,1,0,0:0:0:0:
276,44,183829,1,8,0:0:0:0:
279,49,183904,1,8,0:0:0:0:
282,50,183979,1,0,0:0:0:0:
282,50,184054,1,0,0:0:0:0:
281,64,184204,1,8,0:0:0:0:
290,46,184279,1,0,0:0:0:0:
286,50,184354,1,8,0:0:0:0:
281,47,184429,1,8,0:0:0:0:
283,44,184579,1,0,0:0:0:0:
276,44,184729,1,8,0:0:0:0:
281,49,184804,1,0,0:0:0:0:
279,49,184879,1,8,0:0:0:0:
282,50,184954,1,8,0:0:0:0:
282,50,185029,1,0,0:0:0:0:
280,48,185104,1,0,0:0:0:0:
281,47,185179,1,8,0:0:0:0:
281,47,185254,1,0,0:0:0:0:
281,47,185404,1,8,0:0:0:0:
283,44,185479,1,0,0:0:0:0:
283,44,185554,1,0,0:0:0:0:
285,46,185629,1,8,0:0:0:0:
281,49,185779,1,0,0:0:0:0:
279,49,185854,1,0,0:0:0:0:
282,50,185929,1,0,0:0:0:0:
282,50,186004,1,8,0:0:0:0:
280,48,186079,1,8,0:0:0:0:
281,47,186154,1,8,0:0:0:0:
281,47,186229,1,0,0:0:0:0:
281,47,186304,1,0,0:0:0:0:
281,47,186379,1,8,0:0:0:0:
283,44,186454,1,8,0:0:0:0:
283,44,186529,1,0,0:0:0:0:
285,46,186604,1,8,0:0:0:0:
281,49,186679,1,8,0:0:0:0:
281,49,186754,1,0,0:0:0:0:
281,49,186829,1,8,0:0:0:0:
276,45,186904,1,0,0:0:0:0:
285,42,186979,1,12,0:0:0:0:
267,44,187279,1,8,0:0:0:0:
267,44,187429,1,0,0:0:0:0:
267,44,187504,1,8,0:0:0:0:
267,44,187579,1,0,0:0:0:0:
258,42,187654,1,8,0:0:0:0:
263,45,187729,1,0,0:0:0:0:
262,46,187804,1,0,0:0:0:0:
258,43,187879,1,12,0:0:0:0:
267,44,188179,1,4,0:0:0:0:
267,44,188329,1,0,0:0:0:0:
267,44,188479,1,8,0:0:0:0:
267,44,188554,1,8,0:0:0:0:
265,48,188629,1,0,0:0:0:0:
263,45,188704,1,8,0:0:0:0:
270,47,188854,1,0,0:0:0:0:
267,44,188929,1,0,0:0:0:0:
285,45,189004,1,0,0:0:0:0:
285,47,189079,1,8,0:0:0:0:
281,49,189229,1,0,0:0:0:0:
287,46,189379,1,8,0:0:0:0:
287,47,189454,1,8,0:0:0:0:
283,47,189604,1,0,0:0:0:0:
280,48,189679,1,8,0:0:0:0:
280,48,189829,1,0,0:0:0:0:
276,49,189979,1,8,0:0:0:0:
285,45,190054,1,8,0:0:0:0:
281,49,190129,1,0,0:0:0:0:
281,49,190204,1,0,0:0:0:0:
281,49,190279,1,8,0:0:0:0:
280,50,190429,1,0,0:0:0:0:
274,47,190579,1,8,0:0:0:0:
271,49,190654,1,0,0:0:0:0:
270,49,190729,1,0,0:0:0:0:
269,50,190804,1,8,0:0:0:0:
276,49,190954,1,0,0:0:0:0:
272,50,191029,1,8,0:0:0:0:
271,50,191179,1,0,0:0:0:0:
269,53,191254,1,0,0:0:0:0:
269,53,191329,1,8,0:0:0:0:
269,53,191404,1,0,0:0:0:0:
273,54,191554,1,8,0:0:0:0:
260,60,191629,1,0,0:0:0:0:
258,58,191779,1,8,0:0:0:0:
280,63,191854,1,8,0:0:0:0:
275,58,191929,1,8,0:0:0:0:
272,59,192004,1,8,0:0:0:0:
279,58,192079,1,0,0:0:0:0:
277,60,192154,1,0,0:0:0:0:
277,60,192229,1,8,0:0:0:0:
272,68,192304,1,8,0:0:0:0:
273,61,192379,1,0,0:0:0:0:
266,64,192454,1,8,0:0:0:0:
264,69,192529,1,0,0:0:0:0:
264,68,192604,1,0,0:0:0:0:
265,68,192679,1,8,0:0:0:0:
265,68,192754,1,0,0:0:0:0:
265,68,192829,1,8,0:0:0:0:
265,68,192904,1,0,0:0:0:0:
264,68,192979,1,8,0:0:0:0:
264,68,193129,1,0,0:0:0:0:
264,57,193204,1,0,0:0:0:0:
257,59,193279,1,8,0:0:0:0:
258,58,193429,1,0,0:0:0:0:
258,58,193504,1,8,0:0:0:0:
263,59,193654,1,8,0:0:0:0:
263,59,193729,1,0,0:0:0:0:
264,59,193804,1,0,0:0:0:0:
276,54,193879,1,8,0:0:0:0:
279,56,194029,1,8,0:0:0:0:
278,56,194179,1,0,0:0:0:0:
274,49,194254,1,8,0:0:0:0:
265,51,194404,1,0,0:0:0:0:
258,58,194479,1,0,0:0:0:0:
260,49,194554,1,8,0:0:0:0:
274,49,194629,1,0,0:0:0:0:
263,49,194704,1,8,0:0:0:0:
264,49,194854,1,0,0:0:0:0:
263,46,194929,1,8,0:0:0:0:
268,45,195004,1,8,0:0:0:0:
265,45,195079,1,0,0:0:0:0:
267,52,195229,1,8,0:0:0:0:
265,51,195379,1,0,0:0:0:0:
264,46,195454,1,8,0:0:0:0:
264,46,195604,1,8,0:0:0:0:
263,49,195679,1,0,0:0:0:0:
263,49,195754,1,0,0:0:0:0:
263,46,195904,1,8,0:0:0:0:
260,50,195979,1,8,0:0:0:0:
265,45,196054,1,0,0:0:0:0:
259,50,196129,1,8,0:0:0:0:
252,54,196204,1,0,0:0:0:0:
251,52,196279,1,8,0:0:0:0:
251,52,196429,1,8,0:0:0:0:
248,53,196579,1,0,0:0:0:0:
248,53,196654,1,8,0:0:0:0:
243,54,196729,1,0,0:0:0:0:
248,53,196804,1,0,0:0:0:0:
243,54,196879,1,8,0:0:0:0:
242,54,196954,1,8,0:0:0:0:
242,54,197029,1,0,0:0:0:0:
240,54,197104,1,0,0:0:0:0:
236,55,197179,1,12,0:0:0:0:
245,56,197404,1,4,0:0:0:0:
241,54,197629,1,12,0:0:0:0:
265,52,197929,1,8,0:0:0:0:
251,53,198079,1,0,0:0:0:0:
257,51,198154,1,0,0:0:0:0:
257,51,198229,1,0,0:0:0:0:
257,51,198304,1,0,0:0:0:0:
236,49,198379,1,12,0:0:0:0:
241,54,198604,1,12,0:0:0:0:
238,46,198829,1,4,0:0:0:0:
246,56,199129,1,0,0:0:0:0:
237,56,199204,1,0,0:0:0:0:
230,56,199279,1,8,0:0:0:0:
225,57,199354,1,8,0:0:0:0:
225,57,199429,1,0,0:0:0:0:
226,55,199504,1,8,0:0:0:0:
224,56,199579,1,0,0:0:0:0:
224,56,199654,1,0,0:0:0:0:
217,58,199729,1,8,0:0:0:0:
217,58,199779,1,8,0:0:0:0:
217,71,199829,1,8,0:0:0:0:
215,71,199879,1,0,0:0:0:0:
246,56,199954,1,8,0:0:0:0:
246,56,200029,1,0,0:0:0:0:
246,56,200104,1,8,0:0:0:0:
237,56,200179,1,0,0:0:0:0:
234,57,200329,1,8,0:0:0:0:
243,50,200479,1,0,0:0:0:0:
251,48,200554,1,8,0:0:0:0:
249,49,200629,1,0,0:0:0:0:
248,49,200704,1,0,0:0:0:0:
244,50,200779,1,12,0:0:0:0:
238,53,201004,1,12,0:0:0:0:
237,56,201229,1,12,0:0:0:0:
267,51,201379,1,0,0:0:0:0:
245,56,201429,1,0,0:0:0:0:
248,64,201479,1,0,0:0:0:0:
262,59,201529,1,8,0:0:0:0:
262,70,201679,1,0,0:0:0:0:
253,66,201754,1,0,0:0:0:0:
251,67,201829,1,8,0:0:0:0:
242,69,201904,1,8,0:0:0:0:
239,70,201979,1,0,0:0:0:0:
267,64,202054,1,0,0:0:0:0:
267,64,202129,1,0,0:0:0:0:
267,64,202204,1,8,0:0:0:0:
275,68,202279,1,8,0:0:0:0:
267,68,202354,1,8,0:0:0:0:
259,70,202429,1,0,0:0:0:0:
260,74,202504,1,0,0:0:0:0:
268,64,202579,1,8,0:0:0:0:
262,56,202729,1,0,0:0:0:0:
256,59,202804,1,0,0:0:0:0:
250,49,202879,1,8,0:0:0:0:
246,51,202954,1,0,0:0:0:0:
233,35,203029,1,8,0:0:0:0:
245,51,203104,1,8,0:0:0:0:
238,54,203179,1,0,0:0:0:0:
234,49,203329,1,8,0:0:0:0:
237,52,203404,1,0,0:0:0:0:
241,52,203554,1,0,0:0:0:0:
241,52,203629,1,8,0:0:0:0:
248,58,203779,1,8,0:0:0:0:
248,58,203929,1,0,0:0:0:0:
248,58,204004,1,0,0:0:0:0:
253,56,204079,1,8,0:0:0:0:
248,58,204154,1,8,0:0:0:0:
247,58,204229,1,0,0:0:0:0:
244,59,204304,1,0,0:0:0:0:
246,59,204379,1,8,0:0:0:0:
257,46,204529,1,0,0:0:0:0:
252,49,204604,1,8,0:0:0:0:
252,49,204679,1,0,0:0:0:0:
249,49,204754,1,0,0:0:0:0:
249,48,204829,1,8,0:0:0:0:
256,43,204979,1,0,0:0:0:0:
248,47,205129,1,8,0:0:0:0:
247,49,205204,1,0,0:0:0:0:
248,49,205279,1,8,0:0:0:0:
248,49,205354,1,8,0:0:0:0:
247,49,205429,1,0,0:0:0:0:
248,48,205504,1,8,0:0:0:0:
268,42,205579,1,8,0:0:0:0:
267,42,205654,1,0,0:0:0:0:
267,42,205729,1,0,0:0:0:0:
267,42,205804,1,8,0:0:0:0:
268,43,205879,1,0,0:0:0:0:
266,43,205954,1,0,0:0:0:0:
261,49,206029,1,8,0:0:0:0:
264,43,206179,1,8,0:0:0:0:
276,49,206254,1,8,0:0:0:0:
270,50,206329,1,0,0:0:0:0:
270,50,206404,1,8,0:0:0:0:
272,50,206479,1,0,0:0:0:0:
272,51,206554,1,0,0:0:0:0:
277,47,206629,1,8,0:0:0:0:
274,49,206704,1,0,0:0:0:0:
274,51,206779,1,8,0:0:0:0:
288,54,206979,1,8,0:0:0:0:
275,59,207179,1,8,0:0:0:0:
270,58,207379,1,0,0:0:0:0:
281,52,207679,1,8,0:0:0:0:
295,69,207829,1,0,0:0:0:0:
281,67,207904,1,8,0:0:0:0:
280,67,207979,1,8,0:0:0:0:
275,68,208129,1,0,0:0:0:0:
285,69,208204,1,0,0:0:0:0:
285,69,208279,1,8,0:0:0:0:
279,66,208429,1,8,0:0:0:0:
279,66,208579,1,0,0:0:0:0:
280,66,208654,1,8,0:0:0:0:
280,66,208804,1,8,0:0:0:0:
289,65,208879,1,0,0:0:0:0:
287,64,209029,1,8,0:0:0:0:
285,69,209179,1,0,0:0:0:0:
285,69,209254,1,8,0:0:0:0:
279,66,209329,1,0,0:0:0:0:
279,66,209404,1,0,0:0:0:0:
279,66,209479,1,8,0:0:0:0:
274,71,209629,1,0,0:0:0:0:
274,73,209779,1,8,0:0:0:0:
277,62,209854,1,8,0:0:0:0:
277,62,209929,1,0,0:0:0:0:
269,61,210004,1,8,0:0:0:0:
282,55,210154,1,0,0:0:0:0:
280,53,210229,1,8,0:0:0:0:
273,58,210304,1,8,0:0:0:0:
284,54,210379,1,0,0:0:0:0:
284,54,210529,1,8,0:0:0:0:
273,57,210604,1,8,0:0:0:0:
269,57,210754,1,0,0:0:0:0:
269,57,210829,1,8,0:0:0:0:
272,56,210979,1,0,0:0:0:0:
267,53,211054,1,0,0:0:0:0:
264,54,211129,1,8,0:0:0:0:
264,55,211204,1,0,0:0:0:0:
273,58,211279,1,8,0:0:0:0:
266,45,211354,1,8,0:0:0:0:
270,49,211429,1,0,0:0:0:0:
274,47,211504,1,0,0:0:0:0:
274,47,211579,1,8,0:0:0:0:
274,47,211654,1,8,0:0:0:0:
273,47,211729,1,8,0:0:0:0:
272,47,211804,1,0,0:0:0:0:
271,48,211879,1,8,0:0:0:0:
272,56,211954,1,0,0:0:0:0:
272,49,212029,1,0,0:0:0:0:
272,49,212104,1,0,0:0:0:0:
288,47,212179,1,8,0:0:0:0:
273,58,212329,1,0,0:0:0:0:
282,54,212479,1,8,0:0:0:0:
280,55,212554,1,0,0:0:0:0:
275,57,212629,1,0,0:0:0:0:
276,57,212704,1,8,0:0:0:0:
276,57,212854,1,0,0:0:0:0:
272,56,212929,1,0,0:0:0:0:
272,58,213004,1,0,0:0:0:0:
276,58,213079,1,8,0:0:0:0:
273,58,213229,1,8,0:0:0:0:
273,58,213304,1,0,0:0:0:0:
266,61,213454,1,8,0:0:0:0:
282,54,213529,1,8,0:0:0:0:
276,57,213679,1,0,0:0:0:0:
276,57,213754,1,0,0:0:0:0:
276,57,213904,1,8,0:0:0:0:
272,58,213979,1,0,0:0:0:0:
288,52,214129,1,0,0:0:0:0:
287,53,214204,1,0,0:0:0:0:
293,50,214279,1,8,0:0:0:0:
290,50,214429,1,8,0:0:0:0:
289,50,214579,1,0,0:0:0:0:
287,51,214654,1,8,0:0:0:0:
288,64,214729,1,8,0:0:0:0:
290,63,214879,1,0,0:0:0:0:
298,72,214954,1,0,0:0:0:0:
292,61,215104,1,8,0:0:0:0:
294,60,215179,1,8,0:0:0:0:
292,61,215254,1,0,0:0:0:0:
287,62,215329,1,0,0:0:0:0:
285,62,215404,1,8,0:0:0:0:
285,63,215479,1,8,0:0:0:0:
287,62,215629,1,8,0:0:0:0:
301,65,215779,1,8,0:0:0:0:
300,65,215854,1,8,0:0:0:0:
298,66,215929,1,0,0:0:0:0:
297,67,216004,1,0,0:0:0:0:
304,66,216079,1,8,0:0:0:0:
302,66,216154,1,0,0:0:0:0:
300,67,216229,1,8,0:0:0:0:
300,67,216304,1,8,0:0:0:0:
300,67,216379,1,0,0:0:0:0:
300,67,216604,1,0,0:0:0:0:
300,65,216829,1,0,0:0:0:0:
298,66,216904,1,0,0:0:0:0:
297,67,216979,1,8,0:0:0:0:
315,65,217029,1,8,0:0:0:0:
304,66,217079,1,8,0:0:0:0:
302,66,217129,1,0,0:0:0:0:
310,59,217279,1,8,0:0:0:0:
311,55,217429,1,0,0:0:0:0:
305,61,217504,1,0,0:0:0:0:
310,60,217579,1,8,0:0:0:0:
310,62,217654,1,0,0:0:0:0:
310,60,217804,1,0,0:0:0:0:
309,50,217879,1,8,0:0:0:0:
307,56,218029,1,0,0:0:0:0:
310,65,218104,1,0,0:0:0:0:
310,59,218179,1,8,0:0:0:0:
310,59,218254,1,8,0:0:0:0:
310,64,218404,1,8,0:0:0:0:
310,60,218479,1,0,0:0:0:0:
307,50,218629,1,8,0:0:0:0:
305,51,218704,1,8,0:0:0:0:
305,51,218779,1,0,0:0:0:0:
309,50,218854,1,0,0:0:0:0:
321,55,219004,1,8,0:0:0:0:
322,58,219079,1,8,0:0:0:0:
322,59,219229,1,0,0:0:0:0:
321,60,219304,1,0,0:0:0:0:
319,60,219379,1,8,0:0:0:0:
321,65,219454,1,0,0:0:0:0:
323,62,219604,1,8,0:0:0:0:
322,63,219679,1,8,0:0:0:0:
320,65,219829,1,0,0:0:0:0:
325,61,219904,1,8,0:0:0:0:
325,61,219979,1,0,0:0:0:0:
322,58,220054,1,0,0:0:0:0:
335,62,220204,1,0,0:0:0:0:
323,66,220279,1,8,0:0:0:0:
315,60,220429,1,0,0:0:0:0:
316,60,220504,1,8,0:0:0:0:
323,62,220579,1,8,0:0:0:0:
322,63,220654,1,0,0:0:0:0:
331,58,220804,1,8,0:0:0:0:
338,57,220879,1,8,0:0:0:0:
338,57,221029,1,0,0:0:0:0:
335,62,221104,1,0,0:0:0:0:
335,62,221179,1,8,0:0:0:0:
331,62,221254,1,0,0:0:0:0:
339,57,221404,1,8,0:0:0:0:
333,64,221479,1,0,0:0:0:0:
323,62,221629,1,0,0:0:0:0:
331,58,221704,1,0,0:0:0:0:
331,58,221779,1,8,0:0:0:0:
323,60,221929,1,0,0:0:0:0:
321,60,222004,1,8,0:0:0:0:
319,61,222079,1,0,0:0:0:0:
318,61,222154,1,0,0:0:0:0:
313,63,222229,1,8,0:0:0:0:
313,63,222304,1,0,0:0:0:0:
313,63,222379,1,8,0:0:0:0:
313,63,222529,1,8,0:0:0:0:
313,62,222604,1,0,0:0:0:0:
313,62,222754,1,0,0:0:0:0:
313,62,222829,1,8,0:0:0:0:
329,58,222979,1,8,0:0:0:0:
326,57,223129,1,0,0:0:0:0:
313,63,223204,1,0,0:0:0:0:
313,63,223279,1,8,0:0:0:0:
305,59,223354,1,0,0:0:0:0:
304,59,223429,1,8,0:0:0:0:
305,59,223504,1,0,0:0:0:0:
303,60,223579,1,8,0:0:0:0:
305,58,223654,1,8,0:0:0:0:
313,62,223804,1,0,0:0:0:0:
315,64,223879,1,8,0:0:0:0:
321,73,224029,1,0,0:0:0:0:
316,72,224104,1,0,0:0:0:0:
314,73,224179,1,8,0:0:0:0:
316,69,224254,1,8,0:0:0:0:
315,71,224329,1,0,0:0:0:0:
315,71,224404,1,0,0:0:0:0:
314,73,224479,1,8,0:0:0:0:
314,68,224554,1,0,0:0:0:0:
312,68,224629,1,8,0:0:0:0:
313,62,224704,1,0,0:0:0:0:
313,62,224779,1,8,0:0:0:0:
309,69,224854,1,0,0:0:0:0:
308,69,224929,1,0,0:0:0:0:
309,69,225004,1,8,0:0:0:0:
308,69,225079,1,8,0:0:0:0:
314,73,225154,1,0,0:0:0:0:
314,73,225229,1,8,0:0:0:0:
315,71,225304,1,8,0:0:0:0:
308,63,225379,1,0,0:0:0:0:
309,61,225454,1,8,0:0:0:0:
304,64,225529,1,0,0:0:0:0:
304,64,225604,1,0,0:0:0:0:
298,69,225679,1,8,0:0:0:0:
299,69,225754,1,0,0:0:0:0:
300,70,225829,1,0,0:0:0:0:
296,71,225904,1,0,0:0:0:0:
309,69,225979,1,8,0:0:0:0:
304,49,226179,1,8,0:0:0:0:
289,57,226379,1,8,0:0:0:0:
288,56,226579,1,0,0:0:0:0:
303,48,226879,1,8,0:0:0:0:
306,58,226954,1,0,0:0:0:0:
304,49,227029,1,0,0:0:0:0:
304,49,227104,1,0,0:0:0:0:
295,50,227179,1,8,0:0:0:0:
295,50,227329,1,0,0:0:0:0:
298,49,227404,1,8,0:0:0:0:
288,56,227479,1,0,0:0:0:0:
286,52,227629,1,8,0:0:0:0:
288,49,227704,1,8,0:0:0:0:
288,49,227779,1,0,0:0:0:0:
290,56,227854,1,0,0:0:0:0:
292,55,227929,1,8,0:0:0:0:
289,57,228079,1,0,0:0:0:0:
304,49,228154,1,0,0:0:0:0:
289,62,228229,1,8,0:0:0:0:
298,49,228379,1,8,0:0:0:0:
298,49,228454,1,0,0:0:0:0:
292,55,228529,1,0,0:0:0:0:
286,52,228604,1,0,0:0:0:0:
280,61,228679,1,8,0:0:0:0:
280,61,228754,1,8,0:0:0:0:
276,63,228829,1,0,0:0:0:0:
280,61,228904,1,0,0:0:0:0:
276,61,228979,1,8,0:0:0:0:
279,62,229129,1,0,0:0:0:0:
276,51,229204,1,8,0:0:0:0:
279,59,229279,1,0,0:0:0:0:
303,61,229354,1,0,0:0:0:0:
282,55,229429,1,8,0:0:0:0:
286,52,229579,1,0,0:0:0:0:
305,62,229654,1,0,0:0:0:0:
280,61,229729,1,8,0:0:0:0:
284,56,229879,1,8,0:0:0:0:
298,62,229954,1,8,0:0:0:0:
295,63,230029,1,0,0:0:0:0:
279,62,230104,1,0,0:0:0:0:
280,59,230179,1,8,0:0:0:0:
282,55,230329,1,0,0:0:0:0:
282,55,230404,1,8,0:0:0:0:
280,55,230479,1,8,0:0:0:0:
280,61,230629,1,0,0:0:0:0:
280,61,230704,1,8,0:0:0:0:
287,55,230779,1,0,0:0:0:0:
299,55,230854,1,0,0:0:0:0:
290,54,230929,1,8,0:0:0:0:
290,54,231004,1,0,0:0:0:0:
290,54,231079,1,8,0:0:0:0:
292,50,231154,1,0,0:0:0:0:
288,51,231229,1,8,0:0:0:0:
288,51,231304,1,8,0:0:0:0:
291,49,231379,1,0,0:0:0:0:
294,53,231454,1,0,0:0:0:0:
293,54,231529,1,8,0:0:0:0:
288,49,231604,1,8,0:0:0:0:
292,45,231679,1,0,0:0:0:0:
290,45,231829,1,0,0:0:0:0:
291,45,231904,1,0,0:0:0:0:
290,54,231979,1,8,0:0:0:0:
290,54,232054,1,8,0:0:0:0:
292,50,232129,1,0,0:0:0:0:
288,51,232204,1,8,0:0:0:0:
288,51,232279,1,0,0:0:0:0:
292,49,232429,1,8,0:0:0:0:
292,49,232504,1,8,0:0:0:0:
287,55,232579,1,0,0:0:0:0:
288,55,232729,1,8,0:0:0:0:
286,55,232804,1,8,0:0:0:0:
283,61,232879,1,0,0:0:0:0:
290,54,232954,1,0,0:0:0:0:
283,61,233029,1,8,0:0:0:0:
291,56,233104,1,8,0:0:0:0:
272,52,233179,1,0,0:0:0:0:
275,51,233254,1,8,0:0:0:0:
279,63,233329,1,0,0:0:0:0:
283,62,233404,1,0,0:0:0:0:
281,62,233479,1,8,0:0:0:0:
281,62,233629,1,0,0:0:0:0:
282,62,233704,1,0,0:0:0:0:
279,63,233779,1,8,0:0:0:0:
280,69,233854,1,8,0:0:0:0:
280,68,233929,1,0,0:0:0:0:
290,58,234004,1,8,0:0:0:0:
283,61,234079,1,0,0:0:0:0:
282,62,234229,1,8,0:0:0:0:
279,63,234304,1,0,0:0:0:0:
283,62,234379,1,0,0:0:0:0:
281,62,234454,1,0,0:0:0:0:
281,62,234529,1,8,0:0:0:0:
292,59,234604,1,8,0:0:0:0:
282,62,234679,1,0,0:0:0:0:
258,68,234754,1,0,0:0:0:0:
272,67,234829,1,8,0:0:0:0:
273,69,234904,1,8,0:0:0:0:
281,77,234979,1,0,0:0:0:0:
292,70,235129,1,8,0:0:0:0:
288,73,235204,1,0,0:0:0:0:
289,73,235354,1,8,0:0:0:0:
289,73,235429,1,0,0:0:0:0:
289,73,235579,1,8,0:0:0:0:
288,73,235654,1,0,0:0:0:0:
284,73,235804,1,8,0:0:0:0:
281,69,235879,1,0,0:0:0:0:
273,69,235954,1,0,0:0:0:0:
280,71,236029,1,8,0:0:0:0:
292,70,236179,1,0,0:0:0:0:
292,65,236254,1,0,0:0:0:0:
289,73,236329,1,0,0:0:0:0:
278,70,236404,1,0,0:0:0:0:
279,69,236479,1,8,0:0:0:0:
254,63,236629,1,0,0:0:0:0:
276,77,236704,1,8,0:0:0:0:
269,74,236779,1,8,0:0:0:0:
279,54,236854,1,8,0:0:0:0:
271,76,236929,1,0,0:0:0:0:
273,69,237004,1,8,0:0:0:0:
292,60,237079,1,0,0:0:0:0:
283,67,237154,1,0,0:0:0:0:
282,71,237229,1,8,0:0:0:0:
260,68,237379,1,0,0:0:0:0:
269,69,237454,1,0,0:0:0:0:
270,70,237529,1,8,0:0:0:0:
279,72,237604,1,8,0:0:0:0:
279,69,237679,1,0,0:0:0:0:
287,61,237754,1,8,0:0:0:0:
280,65,237829,1,8,0:0:0:0:
280,63,237904,1,8,0:0:0:0:
279,63,237979,1,0,0:0:0:0:
283,67,238129,1,8,0:0:0:0:
283,67,238204,1,0,0:0:0:0:
281,62,238279,1,8,0:0:0:0:
281,62,238354,1,0,0:0:0:0:
281,62,238429,1,8,0:0:0:0:
281,62,238504,1,8,0:0:0:0:
288,58,238579,1,0,0:0:0:0:
286,61,238654,1,0,0:0:0:0:
280,68,238729,1,0,0:0:0:0:
287,71,238804,1,0,0:0:0:0:
294,71,238879,1,8,0:0:0:0:
288,71,239029,1,0,0:0:0:0:
286,52,239104,1,0,0:0:0:0:
290,72,239179,1,8,0:0:0:0:
288,68,239254,1,0,0:0:0:0:
287,69,239329,1,8,0:0:0:0:
287,69,239404,1,8,0:0:0:0:
273,62,239479,1,0,0:0:0:0:
273,62,239629,1,8,0:0:0:0:
272,63,239704,1,8,0:0:0:0:
263,67,239779,1,8,0:0:0:0:
294,71,239854,1,0,0:0:0:0:
263,67,239929,1,0,0:0:0:0:
259,68,240004,1,0,0:0:0:0:
258,64,240079,1,8,0:0:0:0:
258,64,240229,1,0,0:0:0:0:
257,65,240304,1,8,0:0:0:0:
255,66,240379,1,0,0:0:0:0:
253,66,240454,1,0,0:0:0:0:
256,74,240529,1,8,0:0:0:0:
254,81,240604,1,0,0:0:0:0:
256,74,240679,1,8,0:0:0:0:
254,80,240754,1,8,0:0:0:0:
256,77,240829,1,0,0:0:0:0:
256,77,240904,1,0,0:0:0:0:
254,78,240979,1,8,0:0:0:0:
254,78,241129,1,0,0:0:0:0:
257,79,241204,1,0,0:0:0:0:
249,83,241279,1,8,0:0:0:0:
245,66,241354,1,8,0:0:0:0:
249,83,241429,1,0,0:0:0:0:
247,85,241504,1,8,0:0:0:0:
254,81,241579,1,0,0:0:0:0:
247,83,241729,1,8,0:0:0:0:
247,59,241804,1,8,0:0:0:0:
251,84,241879,1,0,0:0:0:0:
249,86,241954,1,0,0:0:0:0:
243,69,242029,1,8,0:0:0:0:
243,69,242104,1,8,0:0:0:0:
254,78,242179,1,0,0:0:0:0:
253,74,242329,1,0,0:0:0:0:
249,83,242404,1,8,0:0:0:0:
247,85,242479,1,0,0:0:0:0:
259,63,242554,1,0,0:0:0:0:
253,83,242629,1,8,0:0:0:0:
253,83,242704,1,0,0:0:0:0:
258,84,242779,1,8,0:0:0:0:
257,87,242854,1,8,0:0:0:0:
259,85,242929,1,0,0:0:0:0:
260,85,243004,1,0,0:0:0:0:
254,88,243079,1,8,0:0:0:0:
254,78,243154,1,0,0:0:0:0:
256,80,243229,1,8,0:0:0:0:
256,80,243304,1,8,0:0:0:0:
249,83,243379,1,0,0:0:0:0:
266,70,243529,1,8,0:0:0:0:
253,83,243604,1,0,0:0:0:0:
246,78,243679,1,8,0:0:0:0:
246,78,243829,1,0,0:0:0:0:
242,79,243904,1,0,0:0:0:0:
251,78,243979,1,8,0:0:0:0:
261,69,244054,1,0,0:0:0:0:
256,68,244129,1,8,0:0:0:0:
256,68,244204,1,8,0:0:0:0:
256,68,244279,1,0,0:0:0:0:
256,69,244354,1,0,0:0:0:0:
254,69,244429,1,8,0:0:0:0:
250,79,244504,1,8,0:0:0:0:
249,79,244579,1,0,0:0:0:0:
246,78,244729,1,8,0:0:0:0:
251,71,244804,1,0,0:0:0:0:
251,78,244954,1,8,0:0:0:0:
251,78,245029,1,0,0:0:0:0:
247,76,245179,1,8,0:0:0:0:
249,72,245254,1,0,0:0:0:0:
247,76,245404,1,8,0:0:0:0:
249,72,245479,1,0,0:0:0:0:
249,79,245554,1,0,0:0:0:0:
246,78,245629,1,8,0:0:0:0:
238,80,245704,1,0,0:0:0:0:
235,79,245779,1,8,0:0:0:0:
263,65,246079,1,0,0:0:0:0:
259,66,246229,1,8,0:0:0:0:
256,69,246529,1,0,0:0:0:0:
256,69,246679,1,0,0:0:0:0:
263,65,246829,1,8,0:0:0:0:
259,66,247129,1,8,0:0:0:0:
256,69,247429,1,8,0:0:0:0:
263,65,247579,1,0,0:0:0:0:
261,59,247879,1,0,0:0:0:0:
257,60,248179,1,8,0:0:0:0:
264,59,248404,1,0,0:0:0:0:
263,65,248479,1,8,0:0:0:0:
271,59,248629,1,0,0:0:0:0:
272,63,248779,1,8,0:0:0:0:
274,63,248854,1,8,0:0:0:0:
275,63,248929,1,0,0:0:0:0:
275,63,249079,1,8,0:0:0:0:
281,60,249379,1,8,0:0:0:0:
283,61,249604,1,0,0:0:0:0:
283,61,249679,1,8,0:0:0:0:
283,61,249829,1,0,0:0:0:0:
292,56,249979,1,8,0:0:0:0:
296,59,250129,1,8,0:0:0:0:
296,59,250204,1,8,0:0:0:0:
293,58,250279,1,0,0:0:0:0:
302,55,250329,1,0,0:0:0:0:
303,58,250379,1,0,0:0:0:0:
302,56,250429,1,0,0:0:0:0:
283,61,250579,1,8,0:0:0:0:
296,57,250729,1,0,0:0:0:0:
297,57,250804,1,8,0:0:0:0:
298,56,250879,1,0,0:0:0:0:
292,56,251029,1,8,0:0:0:0:
296,59,251179,1,0,0:0:0:0:
296,59,251254,1,0,0:0:0:0:
302,55,251329,1,8,0:0:0:0:
300,57,251479,1,0,0:0:0:0:
296,57,251629,1,8,0:0:0:0:
296,57,251704,1,8,0:0:0:0:
297,57,251779,1,0,0:0:0:0:
301,57,251929,1,8,0:0:0:0:
305,56,252004,1,0,0:0:0:0:
296,59,252079,1,8,0:0:0:0:
296,59,252229,1,0,0:0:0:0:
300,57,252379,1,8,0:0:0:0:
300,57,252454,1,0,0:0:0:0:
296,57,252529,1,0,0:0:0:0:
296,57,252604,1,0,0:0:0:0:
296,57,252679,1,8,0:0:0:0:
292,68,252754,1,8,0:0:0:0:
289,65,252829,1,0,0:0:0:0:
291,64,252979,1,8,0:0:0:0:
286,63,253054,1,8,0:0:0:0:
296,59,253129,1,0,0:0:0:0:
296,59,253204,1,8,0:0:0:0:
305,61,253279,1,0,0:0:0:0:
300,57,253354,1,0,0:0:0:0:
296,63,253429,1,8,0:0:0:0:
294,64,253504,1,0,0:0:0:0:
298,64,253579,1,8,0:0:0:0:
298,64,253654,1,8,0:0:0:0:
292,68,253729,1,0,0:0:0:0:
289,65,253804,1,8,0:0:0:0:
289,65,253879,1,0,0:0:0:0:
291,64,253954,1,8,0:0:0:0:
286,63,254029,1,0,0:0:0:0:
290,66,254104,1,0,0:0:0:0:
284,67,254179,1,12,0:0:0:0:
309,54,254479,1,8,0:0:0:0:
289,60,254629,1,0,0:0:0:0:
288,61,254704,1,0,0:0:0:0:
300,61,254779,1,8,0:0:0:0:
289,65,254854,1,8,0:0:0:0:
291,64,254929,1,0,0:0:0:0:
286,63,255004,1,0,0:0:0:0:
278,57,255079,1,12,0:0:0:0:
299,58,255379,1,0,0:0:0:0:
297,57,255454,1,0,0:0:0:0:
299,58,255529,1,8,0:0:0:0:
300,65,255604,1,8,0:0:0:0:
293,67,255679,1,0,0:0:0:0:
291,67,255754,1,0,0:0:0:0:
289,65,255829,1,8,0:0:0:0:
289,65,255904,1,8,0:0:0:0:
286,63,255979,1,0,0:0:0:0:
286,62,256054,1,8,0:0:0:0:
293,63,256129,1,0,0:0:0:0:
289,64,256204,1,8,0:0:0:0:
289,64,256279,1,8,0:0:0:0:
294,63,256354,1,0,0:0:0:0:
287,66,256429,1,8,0:0:0:0:
299,58,256504,1,8,0:0:0:0:
299,58,256579,1,0,0:0:0:0:
293,67,256654,1,0,0:0:0:0:
291,67,256729,1,8,0:0:0:0:
289,65,256804,1,8,0:0:0:0:
289,65,256879,1,0,0:0:0:0:
293,66,256954,1,0,0:0:0:0:
291,66,257029,1,8,0:0:0:0:
293,63,257104,1,8,0:0:0:0:
289,64,257179,1,0,0:0:0:0:
289,64,257254,1,8,0:0:0:0:
294,63,257329,1,0,0:0:0:0:
294,60,257404,1,8,0:0:0:0:
282,74,257441,1,8,0:0:0:0:
297,60,257479,1,8,0:0:0:0:
299,58,257554,1,0,0:0:0:0:
302,63,257629,1,8,0:0:0:0:
303,63,257704,1,8,0:0:0:0:
311,60,257779,1,0,0:0:0:0:
299,54,257854,1,0,0:0:0:0:
299,54,257929,1,8,0:0:0:0:
297,55,258004,1,8,0:0:0:0:
297,54,258079,1,0,0:0:0:0:
297,55,258154,1,0,0:0:0:0:
297,54,258229,1,8,0:0:0:0:
297,54,258304,1,8,0:0:0:0:
294,60,258379,1,0,0:0:0:0:
297,60,258454,1,8,0:0:0:0:
299,58,258529,1,0,0:0:0:0:
300,54,258604,1,8,0:0:0:0:
300,54,258679,1,8,0:0:0:0:
300,54,258754,1,0,0:0:0:0:
299,54,258829,1,8,0:0:0:0:
299,54,258904,1,8,0:0:0:0:
308,50,258979,1,0,0:0:0:0:
297,54,259054,1,0,0:0:0:0:
319,43,259129,1,8,0:0:0:0:
322,62,259179,1,8,0:0:0:0:
315,61,259229,1,8,0:0:0:0:
314,56,259279,1,0,0:0:0:0:
316,54,259354,1,0,0:0:0:0:
309,55,259429,1,8,0:0:0:0:
304,57,259504,1,0,0:0:0:0:
300,54,259579,1,8,0:0:0:0:
346,92,259616,1,8,0:0:0:0:
319,58,259654,1,0,0:0:0:0:
312,57,259729,1,0,0:0:0:0:
311,57,259804,1,8,0:0:0:0:
321,80,259841,1,8,0:0:0:0:
308,58,259879,1,0,0:0:0:0:
314,56,259954,1,0,0:0:0:0:
322,80,260029,1,8,0:0:0:0:
319,81,260066,1,8,0:0:0:0:
315,55,260104,1,8,0:0:0:0:
299,58,260179,1,0,0:0:0:0:
297,57,260254,1,0,0:0:0:0:
299,58,260329,1,8,0:0:0:0:
300,65,260404,1,8,0:0:0:0:
293,67,260479,1,0,0:0:0:0:
291,67,260554,1,0,0:0:0:0:
289,65,260629,1,8,0:0:0:0:
289,65,260704,1,8,0:0:0:0:
286,63,260779,1,0,0:0:0:0:
286,62,260854,1,8,0:0:0:0:
293,63,260929,1,0,0:0:0:0:
289,64,261004,1,8,0:0:0:0:
289,64,261079,1,8,0:0:0:0:
294,63,261154,1,0,0:0:0:0:
287,66,261229,1,8,0:0:0:0:
299,58,261304,1,8,0:0:0:0:
299,58,261379,1,0,0:0:0:0:
293,67,261454,1,0,0:0:0:0:
291,67,261529,1,8,0:0:0:0:
289,65,261604,1,8,0:0:0:0:
289,65,261679,1,0,0:0:0:0:
293,66,261754,1,0,0:0:0:0:
291,66,261829,1,8,0:0:0:0:
293,63,261904,1,0,0:0:0:0:
289,64,261979,1,8,0:0:0:0:
289,64,262054,1,8,0:0:0:0:
294,63,262129,1,0,0:0:0:0:
294,60,262204,1,8,0:0:0:0:
282,74,262241,1,8,0:0:0:0:
297,60,262279,1,8,0:0:0:0:
299,58,262354,1,0,0:0:0:0:
302,63,262429,1,8,0:0:0:0:
303,63,262504,1,8,0:0:0:0:
311,60,262579,1,0,0:0:0:0:
299,54,262654,1,0,0:0:0:0:
299,54,262729,1,8,0:0:0:0:
297,55,262804,1,8,0:0:0:0:
297,54,262879,1,0,0:0:0:0:
297,55,262954,1,0,0:0:0:0:
297,54,263029,1,8,0:0:0:0:
297,54,263104,1,8,0:0:0:0:
294,60,263179,1,0,0:0:0:0:
297,60,263254,1,8,0:0:0:0:
299,58,263329,1,0,0:0:0:0:
300,54,263404,1,8,0:0:0:0:
300,54,263479,1,8,0:0:0:0:
300,54,263554,1,0,0:0:0:0:
299,54,263629,1,8,0:0:0:0:
299,54,263704,1,8,0:0:0:0:
308,50,263779,1,0,0:0:0:0:
297,54,263854,1,0,0:0:0:0:
319,43,263929,1,8,0:0:0:0:
322,62,263979,1,8,0:0:0:0:
315,61,264029,1,8,0:0:0:0:
314,56,264079,1,0,0:0:0:0:
316,54,264154,1,0,0:0:0:0:
309,55,264229,1,8,0:0:0:0:
304,57,264279,1,8,0:0:0:0:
306,56,264329,1,8,0:0:0:0:
320,59,264379,1,0,0:0:0:0:
320,60,264529,1,0,0:0:0:0:
320,61,264604,1,0,0:0:0:0:
322,62,264679,1,12,0:0:0:0:
322,62,264979,1,0,0:0:0:0:
332,67,265054,1,0,0:0:0:0:
322,80,265129,1,8,0:0:0:0:
322,79,265204,1,8,0:0:0:0:
323,77,265279,1,0,0:0:0:0:
316,79,265354,1,0,0:0:0:0:
316,79,265429,1,8,0:0:0:0:
312,80,265504,1,8,0:0:0:0:
314,79,265579,1,0,0:0:0:0:
305,79,265654,1,8,0:0:0:0:
310,77,265729,1,0,0:0:0:0:
302,79,265804,1,8,0:0:0:0:
303,79,265879,1,8,0:0:0:0:
301,78,265954,1,0,0:0:0:0:
300,78,266029,1,8,0:0:0:0:
300,78,266104,1,8,0:0:0:0:
292,78,266179,1,0,0:0:0:0:
302,100,266254,1,0,0:0:0:0:
303,94,266329,1,8,0:0:0:0:
294,92,266404,1,8,0:0:0:0:
292,92,266479,1,0,0:0:0:0:
291,93,266554,1,0,0:0:0:0:
292,92,266629,1,8,0:0:0:0:
292,92,266704,1,0,0:0:0:0:
289,93,266779,1,8,0:0:0:0:
289,93,266854,1,8,0:0:0:0:
287,94,266929,1,0,0:0:0:0:
288,94,267004,1,8,0:0:0:0:
280,95,267079,1,8,0:0:0:0:
289,92,267154,1,0,0:0:0:0:
291,91,267229,1,8,0:0:0:0:
276,96,267279,1,8,0:0:0:0:
283,86,267329,1,8,0:0:0:0:
280,89,267379,1,0,0:0:0:0:
303,84,267454,1,0,0:0:0:0:
294,85,267529,1,8,0:0:0:0:
295,83,267604,1,8,0:0:0:0:
294,83,267679,1,0,0:0:0:0:
296,82,267754,1,0,0:0:0:0:
293,83,267829,1,8,0:0:0:0:
296,82,267904,1,8,0:0:0:0:
301,80,267979,1,0,0:0:0:0:
302,79,268054,1,8,0:0:0:0:
303,79,268129,1,0,0:0:0:0:
304,79,268204,1,8,0:0:0:0:
306,78,268279,1,8,0:0:0:0:
310,75,268354,1,0,0:0:0:0:
310,75,268429,1,8,0:0:0:0:
310,76,268479,1,8,0:0:0:0:
302,69,268529,1,8,0:0:0:0:
302,69,268579,1,0,0:0:0:0:
235,85,268654,1,0,0:0:0:0:
297,70,268729,1,8,0:0:0:0:
299,71,268804,1,8,0:0:0:0:
308,75,268879,1,0,0:0:0:0:
306,75,268954,1,0,0:0:0:0:
302,79,269029,1,8,0:0:0:0:
294,75,269066,1,8,0:0:0:0:
303,79,269104,1,0,0:0:0:0:
304,79,269179,1,8,0:0:0:0:
306,78,269254,1,8,0:0:0:0:
310,75,269329,1,0,0:0:0:0:
296,81,269404,1,8,0:0:0:0:
310,76,269479,1,0,0:0:0:0:
305,78,269554,1,0,0:0:0:0:
305,76,269629,1,8,0:0:0:0:
304,65,269704,1,8,0:0:0:0:
299,71,269779,1,0,0:0:0:0:
308,75,269854,1,0,0:0:0:0:
306,75,269929,1,8,0:0:0:0:
309,73,270004,1,8,0:0:0:0:
314,74,270079,1,0,0:0:0:0:
314,70,270154,1,0,0:0:0:0:
319,69,270229,1,8,0:0:0:0:
318,69,270304,1,8,0:0:0:0:
319,68,270379,1,0,0:0:0:0:
326,70,270454,1,8,0:0:0:0:
329,71,270529,1,0,0:0:0:0:
329,71,270604,1,8,0:0:0:0:
329,71,270679,1,8,0:0:0:0:
329,71,270754,1,0,0:0:0:0:
326,72,270829,1,8,0:0:0:0:
320,70,270904,1,8,0:0:0:0:
323,66,270979,1,0,0:0:0:0:
322,67,271054,1,0,0:0:0:0:
321,67,271129,1,8,0:0:0:0:
319,69,271204,1,8,0:0:0:0:
318,69,271279,1,0,0:0:0:0:
319,68,271354,1,0,0:0:0:0:
319,68,271429,1,8,0:0:0:0:
321,65,271504,1,0,0:0:0:0:
320,65,271579,1,8,0:0:0:0:
321,65,271654,1,8,0:0:0:0:
322,64,271729,1,0,0:0:0:0:
320,65,271804,1,8,0:0:0:0:
320,70,271879,1,0,0:0:0:0:
316,67,271954,1,0,0:0:0:0:
322,67,272029,1,8,0:0:0:0:
321,67,272104,1,8,0:0:0:0:
321,67,272179,1,0,0:0:0:0:
318,69,272254,1,0,0:0:0:0:
318,69,272329,1,8,0:0:0:0:
319,68,272404,1,8,0:0:0:0:
321,65,272479,1,0,0:0:0:0:
320,65,272554,1,0,0:0:0:0:
331,69,272629,1,8,0:0:0:0:
321,65,272704,1,0,0:0:0:0:
321,72,272779,1,8,0:0:0:0:
320,70,272854,1,8,0:0:0:0:
320,73,272929,1,0,0:0:0:0:
322,67,273004,1,8,0:0:0:0:
321,67,273079,1,0,0:0:0:0:
321,67,273154,1,8,0:0:0:0:
321,67,273229,1,8,0:0:0:0:
329,62,273304,1,0,0:0:0:0:
326,73,273379,1,12,0:0:0:0:
309,61,273529,1,0,0:0:0:0:
309,61,273604,1,0,0:0:0:0:
309,68,273679,1,8,0:0:0:0:
325,52,273754,1,0,0:0:0:0:
320,70,273829,1,0,0:0:0:0:
306,63,273904,1,0,0:0:0:0:
308,63,273979,1,8,0:0:0:0:
312,69,274054,1,8,0:0:0:0:
321,67,274129,1,0,0:0:0:0:
321,67,274204,1,0,0:0:0:0:
311,69,274279,1,12,0:0:0:0:
324,61,274579,1,4,0:0:0:0:
301,50,275779,1,0,0:0:0:0:
301,50,276379,1,8,0:0:0:0:
294,63,276979,1,0,0:0:0:0:
274,61,278179,1,0,0:0:0:0:
284,57,278779,1,0,0:0:0:0:
276,63,279379,1,8,0:0:0:0:
276,63,279979,1,8,0:0:0:0:
276,63,280579,1,0,0:0:0:0:
276,63,281179,1,8,0:0:0:0:
276,63,281779,1,8,0:0:0:0:
269,62,282379,1,0,0:0:0:0:
269,62,282979,1,0,0:0:0:0:
265,61,284779,1,8,0:0:0:0:
265,61,285379,1,0,0:0:0:0:
265,61,285979,1,8,0:0:0:0:
265,61,286579,1,0,0:0:0:0:
270,61,287779,1,0,0:0:0:0:
270,61,288379,1,0,0:0:0:0:
270,61,288979,1,8,0:0:0:0:
270,61,289579,1,0,0:0:0:0:
270,61,289729,1,0,0:0:0:0:
270,61,289879,1,8,0:0:0:0:
270,61,290029,1,8,0:0:0:0:
270,61,290779,1,8,0:0:0:0:
270,61,291379,1,0,0:0:0:0:
270,61,291979,1,0,0:0:0:0:
270,61,292129,1,0,0:0:0:0:
270,61,292279,1,8,0:0:0:0:
270,61,292429,1,8,0:0:0:0:
263,71,293329,1,8,0:0:0:0:
263,71,293779,1,0,0:0:0:0:
253,100,294009,1,0,0:0:0:0:
253,100,294240,1,0,0:0:0:0:
253,100,294471,1,8,0:0:0:0:
258,95,295902,1,8,0:0:0:0:
256,87,296712,1,8,0:0:0:0:
256,87,296946,1,0,0:0:0:0:
256,87,297200,1,0,0:0:0:0:
256,192,297500,12,0,298550,0:0:0:0:
277,102,298695,5,0,0:0:0:0:
280,87,300258,1,0,0:0:0:0:
270,84,300338,1,0,0:0:0:0:
263,72,300418,1,8,0:0:0:0:
280,87,300498,1,8,0:0:0:0:
300,88,302092,1,0,0:0:0:0:
293,79,302187,1,0,0:0:0:0:
300,88,302282,1,8,0:0:0:0:
292,88,302377,1,8,0:0:0:0:
