osu file format v14

[General]
AudioFilename: audio.mp3
AudioLeadIn: 0
PreviewTime: 187129
Countdown: 0
SampleSet: Soft
StackLeniency: 0.7
Mode: 3
LetterboxInBreaks: 0
SpecialStyle: 0
WidescreenStoryboard: 0

[Editor]
Bookmarks: 13198,22798,32398,41998,53998,63598,74109,85403,91050,96697,107991,119285,130579,140479,149779,159379,168979,178579,188179,197779,207379,216979,226579,236179,245779,255379,264979,274579,284179,293779,302379
DistanceSpacing: 1
BeatDivisor: 4
GridSize: 32
TimelineZoom: 2.4

[Metadata]
Title:EXXTRA JUDGEMENT
TitleUnicode:EXXTRA JUDGEMENT
Artist:seatrus
ArtistUnicode:seatrus
Creator:Feraligatr
Version:RETRIBUXXION
Source:osu! World Cup 2022
Tags:owc2022 owc grand finals gf tiebreaker tb gftb owc2022gftb extra osu! original electronic instrumental featured artist fa psytrance dubstep hardcore hardstyle jazz piano breakcore speedcore
BeatmapID:4378709
BeatmapSetID:2089449

[Difficulty]
HPDrainRate:8.3
CircleSize:4
OverallDifficulty:7.7
ApproachRate:5
SliderMultiplier:1.4
SliderTickRate:1

[Events]
//Background and Video events
0,0,"wah.jpg",0,0
//Break Periods
//Storyboard Layer 0 (Background)
//Storyboard Layer 1 (Fail)
//Storyboard Layer 2 (Pass)
//Storyboard Layer 3 (Foreground)
//Storyboard Layer 4 (Overlay)
//Storyboard Sound Samples

[TimingPoints]
1055,319.148936170213,4,2,1,50,1,0
1055,-94.3396226415094,4,2,1,50,0,0
1099.68,-96.1538461538461,4,2,1,50,0,0
1144.36,-97.0873786407767,4,2,1,50,0,0
1189.04,-99.009900990099,4,2,1,50,0,0
1233.72,-100,4,2,1,50,0,0
1278.4,-102.040816326531,4,2,1,50,0,0
1323.08,-103.092783505155,4,2,1,50,0,0
1367.76,-105.263157894737,4,2,1,50,0,0
1412.44,-106.382978723404,4,2,1,50,0,0
1457.12,-108.695652173913,4,2,1,50,0,0
1501.8,-109.89010989011,4,2,1,50,0,0
1546.48,-112.359550561798,4,2,1,50,0,0
1591.16,-113.636363636364,4,2,1,50,0,0
1635.84,-116.279069767442,4,2,1,50,0,0
1680.52,-117.647058823529,4,2,1,50,0,0
1725.2,-120.481927710843,4,2,1,50,0,0
1769.88,-121.951219512195,4,2,1,50,0,0
1814.56,-125,4,2,1,50,0,0
1859.24,-126.582278481013,4,2,1,50,0,0
1903.92,-129.87012987013,4,2,1,50,0,0
1948.6,-131.578947368421,4,2,1,50,0,0
1993.28,-135.135135135135,4,2,1,50,0,0
2037.96,-136.986301369863,4,2,1,50,0,0
2082.64,-140.845070422535,4,2,1,50,0,0
2127.32,-142.857142857143,4,2,1,50,0,0
2172,-147.058823529412,4,2,1,50,0,0
2216.68,-151.515151515152,4,2,1,50,0,0
2261.36,-153.846153846154,4,2,1,50,0,0
2306.04,-158.730158730159,4,2,1,50,0,0
2350.72,-161.290322580645,4,2,1,50,0,0
2395.4,-166.666666666667,4,2,1,50,0,0
2440.08,-169.491525423729,4,2,1,50,0,0
2484.76,-175.438596491228,4,2,1,50,0,0
2529.44,-178.571428571429,4,2,1,50,0,0
2574.12,-185.185185185185,4,2,1,50,0,0
2618.8,-188.679245283019,4,2,1,50,0,0
2663.48,-196.078431372549,4,2,1,50,0,0
2708.16,-200,4,2,1,50,0,0
2752.84,-208.333333333333,4,2,1,50,0,0
2797.52,-212.765957446809,4,2,1,50,0,0
2842.2,-222.222222222222,4,2,1,50,0,0
2886.88,-227.272727272727,4,2,1,50,0,0
2931.56,-238.095238095238,4,2,1,50,0,0
2976.24,-243.90243902439,4,2,1,50,0,0
3020.92,-256.410256410256,4,2,1,50,0,0
3065.6,-263.157894736842,4,2,1,50,0,0
3110.28,-277.777777777778,4,2,1,50,0,0
3154.96,-285.714285714286,4,2,1,50,0,0
3199.64,-303.030303030303,4,2,1,50,0,0
3244.32,-312.5,4,2,1,50,0,0
3289,-333.333333333333,4,2,1,50,0,0
3308,-10,4,2,1,50,0,0
3368,-400,4,2,1,50,0,0
3377.6,-357.142857142857,4,2,1,50,0,0
3387.2,-322.58064516129,4,2,1,50,0,0
3396.8,-294.117647058824,4,2,1,50,0,0
3406.4,-270.27027027027,4,2,1,50,0,0
3416,-250,4,2,1,50,0,0
3425.6,-232.558139534884,4,2,1,50,0,0
3435.2,-212.765957446809,4,2,1,50,0,0
3444.8,-200,4,2,1,50,0,0
3454.4,-188.679245283019,4,2,1,50,0,0
3464,-178.571428571429,4,2,1,50,0,0
3473.6,-169.491525423729,4,2,1,50,0,0
3483.2,-161.290322580645,4,2,1,50,0,0
3492.8,-153.846153846154,4,2,1,50,0,0
3502.4,-147.058823529412,4,2,1,50,0,0
3512,-140.845070422535,4,2,1,50,0,0
3521.6,-135.135135135135,4,2,1,50,0,0
3531.2,-129.87012987013,4,2,1,50,0,0
3540.8,-125,4,2,1,50,0,0
3550.4,-119.047619047619,4,2,1,50,0,0
3560,-114.942528735632,4,2,1,50,0,0
3569.6,-111.111111111111,4,2,1,50,0,0
3579.2,-107.52688172043,4,2,1,50,0,0
3588.8,-104.166666666667,4,2,1,50,0,0
3598.4,-101.010101010101,4,2,1,50,0,0
3608,600.000000000001,4,2,1,50,1,0
3608,-50,4,2,1,50,0,0
22808,300,4,2,1,50,1,0
66008,315.789473684211,4,2,1,50,1,0
66008,-95.2380952380952,4,2,1,50,0,0
68218,333.333333333333,4,2,1,50,1,0
68218,-90.0900900900901,4,2,1,50,0,0
68551,333.333333333334,4,2,1,50,1,0
68551,-90.0900900900901,4,2,1,50,0,0
69884,352.941176470588,4,2,1,50,1,0
69884,-84.7457627118644,4,2,1,50,0,0
130589,300,4,2,1,50,1,0
293789,444.444444444444,4,2,1,50,1,0
293789,-67.5675675675676,4,2,1,50,0,0
294455,479.616306954436,4,2,1,50,1,0
294455,-62.5,4,2,1,50,0,0
295893,413.793103448276,4,2,1,50,1,0
295893,-72.463768115942,4,2,1,50,0,0
296720,428.571428571429,4,2,1,50,1,0
296720,-69.9300699300699,4,2,1,50,0,0
296934,500,4,2,1,50,1,0
296934,-59.8802395209581,4,2,1,50,0,0
297184,600,4,2,1,50,1,0
297184,-50,4,2,1,50,0,0
297484,588.235294117647,4,2,1,50,1,0
297484,-51.0204081632653,4,2,1,50,0,0
298706,388.349514563107,4,2,1,50,1,0
298706,-77.5193798449612,4,2,1,50,0,0
300259,470.588235294118,4,2,1,50,1,0
300259,-63.6942675159236,4,2,1,50,0,0
300494,493.827160493827,4,2,1,50,1,0
300494,-60.6060606060606,4,2,1,50,0,0
302098,582.52427184466,4,2,1,50,1,0
302098,-51.5463917525773,4,2,1,50,0,0
302389,652.173913043478,4,2,1,50,1,0
302389,-46.0829493087558,4,2,1,50,0,0

[HitObjects]
320,192,1055,128,0,3289:0:0:0:0:
192,192,3608,128,0,3683:0:0:0:0:
448,192,3645,1,0,0:0:0:0:
320,192,3758,128,0,3833:0:0:0:0:
64,192,3908,128,0,3983:0:0:0:0:
448,192,4058,128,0,4133:0:0:0:0:
64,192,4358,128,0,4433:0:0:0:0:
192,192,4508,128,0,4583:0:0:0:0:
320,192,4658,128,0,4733:0:0:0:0:
192,192,4958,128,0,5033:0:0:0:0:
448,192,5258,128,0,5333:0:0:0:0:
320,192,5558,128,0,5633:0:0:0:0:
320,192,5708,128,0,5783:0:0:0:0:
448,192,5783,128,0,5858:0:0:0:0:
64,192,5858,128,0,5933:0:0:0:0:
320,192,6008,1,0,0:0:0:0:
448,192,6008,128,0,6083:0:0:0:0:
320,192,6458,128,0,6533:0:0:0:0:
64,192,6908,128,0,6983:0:0:0:0:
192,192,7058,1,0,0:0:0:0:
448,192,8108,128,0,8183:0:0:0:0:
192,192,8408,1,0,0:0:0:0:
320,192,8408,128,0,8483:0:0:0:0:
192,192,8858,128,0,8933:0:0:0:0:
64,192,9308,128,0,9383:0:0:0:0:
192,192,9608,1,0,0:0:0:0:
320,192,9608,128,0,9683:0:0:0:0:
192,192,10058,128,0,10133:0:0:0:0:
448,192,10508,128,0,10583:0:0:0:0:
192,192,10808,1,0,0:0:0:0:
64,192,10808,128,0,10883:0:0:0:0:
192,192,11258,128,0,11333:0:0:0:0:
320,192,11708,128,0,11783:0:0:0:0:
448,192,11858,1,0,0:0:0:0:
192,192,13208,128,0,13283:0:0:0:0:
448,192,13245,1,0,0:0:0:0:
320,192,13358,128,0,13433:0:0:0:0:
64,192,13508,128,0,13583:0:0:0:0:
448,192,13658,128,0,13733:0:0:0:0:
64,192,13958,128,0,14033:0:0:0:0:
192,192,14108,128,0,14183:0:0:0:0:
320,192,14258,128,0,14333:0:0:0:0:
192,192,14558,128,0,14633:0:0:0:0:
448,192,14858,128,0,14933:0:0:0:0:
192,192,15158,128,0,15233:0:0:0:0:
320,192,15308,128,0,15383:0:0:0:0:
448,192,15458,128,0,15533:0:0:0:0:
64,192,15608,1,0,0:0:0:0:
192,192,15608,128,0,15683:0:0:0:0:
320,192,16058,1,0,0:0:0:0:
448,192,16058,128,0,16133:0:0:0:0:
64,192,16508,128,0,16583:0:0:0:0:
192,192,16658,1,0,0:0:0:0:
448,192,17708,128,0,17783:0:0:0:0:
192,192,18008,1,0,0:0:0:0:
320,192,18008,128,0,18083:0:0:0:0:
192,192,18458,128,0,18533:0:0:0:0:
64,192,18908,128,0,18983:0:0:0:0:
192,192,19208,1,0,0:0:0:0:
320,192,19208,128,0,19283:0:0:0:0:
192,192,19658,128,0,19733:0:0:0:0:
448,192,20108,128,0,20183:0:0:0:0:
192,192,20408,1,0,0:0:0:0:
64,192,20408,128,0,20483:0:0:0:0:
192,192,20858,128,0,20933:0:0:0:0:
320,192,21308,128,0,21383:0:0:0:0:
192,192,21408,1,0,0:0:0:0:
64,192,21508,128,0,22408:0:0:0:0:
448,192,21608,128,0,21908:0:0:0:0:
448,192,22008,1,0,0:0:0:0:
320,192,22108,1,0,0:0:0:0:
448,192,22208,1,0,0:0:0:0:
320,192,22283,1,0,0:0:0:0:
192,192,22358,1,0,0:0:0:0:
448,192,22433,1,0,0:0:0:0:
320,192,22508,1,0,0:0:0:0:
192,192,22508,1,0,0:0:0:0:
64,192,22583,1,0,0:0:0:0:
320,192,22658,1,0,0:0:0:0:
192,192,22733,1,0,0:0:0:0:
448,192,22808,128,0,23108:0:0:0:0:
64,192,22808,128,0,23108:0:0:0:0:
320,192,22883,128,0,23108:0:0:0:0:
448,192,23258,128,0,23558:0:0:0:0:
64,192,23258,128,0,23558:0:0:0:0:
192,192,23333,128,0,23558:0:0:0:0:
320,192,23708,128,0,23783:0:0:0:0:
192,192,23745,1,0,0:0:0:0:
320,192,23858,1,0,0:0:0:0:
192,192,23883,1,0,0:0:0:0:
448,192,23883,1,0,0:0:0:0:
320,192,24008,128,0,24308:0:0:0:0:
64,192,24008,128,0,24308:0:0:0:0:
192,192,24083,128,0,24308:0:0:0:0:
448,192,24458,128,0,24758:0:0:0:0:
192,192,24458,128,0,24758:0:0:0:0:
320,192,24533,128,0,24758:0:0:0:0:
64,192,24758,1,0,0:0:0:0:
448,192,24833,1,0,0:0:0:0:
320,192,24908,1,0,0:0:0:0:
192,192,24983,1,0,0:0:0:0:
320,192,25058,1,0,0:0:0:0:
192,192,25133,1,0,0:0:0:0:
64,192,25208,128,0,25508:0:0:0:0:
448,192,25208,128,0,25508:0:0:0:0:
320,192,25283,128,0,25508:0:0:0:0:
448,192,25658,128,0,25958:0:0:0:0:
64,192,25658,128,0,27008:0:0:0:0:
192,192,25733,128,0,25958:0:0:0:0:
448,192,26408,128,0,26708:0:0:0:0:
320,192,26408,128,0,26708:0:0:0:0:
192,192,26483,128,0,26708:0:0:0:0:
320,192,26858,128,0,27083:0:0:0:0:
192,192,26858,128,0,27158:0:0:0:0:
448,192,26933,128,0,27158:0:0:0:0:
320,192,27158,128,0,27308:0:0:0:0:
448,192,27233,128,0,27533:0:0:0:0:
192,192,27233,128,0,27533:0:0:0:0:
320,192,27383,128,0,27533:0:0:0:0:
64,192,27383,128,0,27533:0:0:0:0:
64,192,27608,128,0,27908:0:0:0:0:
320,192,27608,128,0,27908:0:0:0:0:
448,192,27683,128,0,27908:0:0:0:0:
448,192,28058,128,0,28358:0:0:0:0:
192,192,28058,128,0,28358:0:0:0:0:
64,192,28133,128,0,28358:0:0:0:0:
192,192,28508,1,0,0:0:0:0:
448,192,28545,1,0,0:0:0:0:
192,192,28583,1,0,0:0:0:0:
64,192,28620,1,0,0:0:0:0:
320,192,28658,1,0,0:0:0:0:
448,192,28695,1,0,0:0:0:0:
320,192,28808,128,0,29108:0:0:0:0:
192,192,28808,128,0,29108:0:0:0:0:
64,192,28883,128,0,29108:0:0:0:0:
320,192,29258,128,0,29558:0:0:0:0:
192,192,29258,128,0,29558:0:0:0:0:
448,192,29333,128,0,29858:0:0:0:0:
192,192,29708,1,0,0:0:0:0:
64,192,29708,1,0,0:0:0:0:
64,192,29783,1,0,0:0:0:0:
320,192,29858,128,0,29933:0:0:0:0:
192,192,29933,128,0,30008:0:0:0:0:
448,192,30008,128,0,30308:0:0:0:0:
64,192,30008,128,0,30683:0:0:0:0:
320,192,30083,128,0,30308:0:0:0:0:
448,192,30458,128,0,30758:0:0:0:0:
192,192,30458,128,0,30758:0:0:0:0:
320,192,30533,128,0,30758:0:0:0:0:
64,192,30758,128,0,30833:0:0:0:0:
64,192,30908,128,0,31020:0:0:0:0:
64,192,31095,128,0,31208:0:0:0:0:
448,192,31208,128,0,31508:0:0:0:0:
320,192,31208,128,0,31508:0:0:0:0:
64,192,31283,128,0,31358:0:0:0:0:
64,192,31433,128,0,31545:0:0:0:0:
64,192,31620,128,0,31658:0:0:0:0:
320,192,31658,128,0,31958:0:0:0:0:
192,192,31658,128,0,31958:0:0:0:0:
64,192,31733,128,0,31845:0:0:0:0:
64,192,31920,128,0,32033:0:0:0:0:
320,192,32108,1,0,0:0:0:0:
448,192,32108,1,0,0:0:0:0:
64,192,32108,1,0,0:0:0:0:
192,192,32108,1,0,0:0:0:0:
320,192,32408,1,0,0:0:0:0:
192,192,32408,128,0,32483:0:0:0:0:
320,192,32558,128,0,32633:0:0:0:0:
192,192,32633,1,0,0:0:0:0:
448,192,32708,1,0,0:0:0:0:
64,192,32708,128,0,32783:0:0:0:0:
448,192,32858,128,0,32933:0:0:0:0:
192,192,32933,1,0,0:0:0:0:
64,192,33008,1,0,0:0:0:0:
320,192,33008,1,0,0:0:0:0:
320,192,33083,1,0,0:0:0:0:
64,192,33158,128,0,33233:0:0:0:0:
448,192,33233,1,0,0:0:0:0:
320,192,33308,1,0,0:0:0:0:
192,192,33308,128,0,33383:0:0:0:0:
320,192,33458,128,0,33533:0:0:0:0:
64,192,33533,1,0,0:0:0:0:
448,192,33608,1,0,0:0:0:0:
192,192,33608,1,0,0:0:0:0:
192,192,33758,128,0,33833:0:0:0:0:
320,192,33833,1,0,0:0:0:0:
64,192,33908,1,0,0:0:0:0:
448,192,33908,1,0,0:0:0:0:
448,192,34058,128,0,34133:0:0:0:0:
64,192,34133,1,0,0:0:0:0:
192,192,34208,1,0,0:0:0:0:
320,192,34208,1,0,0:0:0:0:
320,192,34358,128,0,34433:0:0:0:0:
192,192,34433,1,0,0:0:0:0:
64,192,34508,1,0,0:0:0:0:
320,192,34508,128,0,34583:0:0:0:0:
448,192,34583,128,0,34658:0:0:0:0:
64,192,34658,128,0,34733:0:0:0:0:
192,192,34733,1,0,0:0:0:0:
320,192,34808,1,0,0:0:0:0:
448,192,34808,128,0,34883:0:0:0:0:
64,192,34958,1,0,0:0:0:0:
192,192,35033,1,0,0:0:0:0:
448,192,35108,1,0,0:0:0:0:
320,192,35108,1,0,0:0:0:0:
320,192,35258,128,0,35333:0:0:0:0:
192,192,35333,1,0,0:0:0:0:
448,192,35408,1,0,0:0:0:0:
64,192,35408,1,0,0:0:0:0:
320,192,35558,1,0,0:0:0:0:
448,192,35633,1,0,0:0:0:0:
192,192,35708,1,0,0:0:0:0:
64,192,35708,128,0,35783:0:0:0:0:
448,192,35858,1,0,0:0:0:0:
320,192,35933,1,0,0:0:0:0:
64,192,36008,1,0,0:0:0:0:
192,192,36008,1,0,0:0:0:0:
64,192,36158,1,0,0:0:0:0:
192,192,36233,1,0,0:0:0:0:
448,192,36308,1,0,0:0:0:0:
320,192,36308,1,0,0:0:0:0:
448,192,36458,1,0,0:0:0:0:
320,192,36533,1,0,0:0:0:0:
64,192,36608,1,0,0:0:0:0:
192,192,36608,1,0,0:0:0:0:
64,192,36758,1,0,0:0:0:0:
192,192,36833,1,0,0:0:0:0:
320,192,36908,1,0,0:0:0:0:
448,192,36908,128,0,36983:0:0:0:0:
192,192,37208,128,0,37258:0:0:0:0:
320,192,37208,128,0,37283:0:0:0:0:
64,192,37358,1,0,0:0:0:0:
448,192,37358,1,0,0:0:0:0:
320,192,37433,1,0,0:0:0:0:
64,192,37508,1,0,0:0:0:0:
192,192,37508,1,0,0:0:0:0:
448,192,37658,1,0,0:0:0:0:
192,192,37658,128,0,37733:0:0:0:0:
320,192,37733,1,0,0:0:0:0:
64,192,37808,1,0,0:0:0:0:
448,192,37808,1,0,0:0:0:0:
192,192,37958,1,0,0:0:0:0:
320,192,37958,1,0,0:0:0:0:
448,192,38033,1,0,0:0:0:0:
192,192,38108,1,0,0:0:0:0:
64,192,38108,128,0,38183:0:0:0:0:
448,192,38258,1,0,0:0:0:0:
320,192,38258,1,0,0:0:0:0:
64,192,38333,1,0,0:0:0:0:
192,192,38408,128,0,38458:0:0:0:0:
320,192,38408,128,0,38483:0:0:0:0:
64,192,38558,1,0,0:0:0:0:
448,192,38558,1,0,0:0:0:0:
320,192,38633,1,0,0:0:0:0:
192,192,38708,1,0,0:0:0:0:
448,192,38708,1,0,0:0:0:0:
64,192,38858,1,0,0:0:0:0:
192,192,38858,128,0,38933:0:0:0:0:
320,192,38933,1,0,0:0:0:0:
448,192,39008,1,0,0:0:0:0:
64,192,39008,1,0,0:0:0:0:
192,192,39158,1,0,0:0:0:0:
320,192,39158,1,0,0:0:0:0:
64,192,39233,1,0,0:0:0:0:
192,192,39308,1,0,0:0:0:0:
448,192,39308,128,0,39383:0:0:0:0:
64,192,39458,1,0,0:0:0:0:
320,192,39458,1,0,0:0:0:0:
448,192,39533,1,0,0:0:0:0:
192,192,39608,1,0,0:0:0:0:
64,192,39608,128,0,39683:0:0:0:0:
448,192,39683,1,0,0:0:0:0:
320,192,39683,1,0,0:0:0:0:
64,192,39758,1,0,0:0:0:0:
320,192,39833,1,0,0:0:0:0:
448,192,39908,1,0,0:0:0:0:
192,192,39908,1,0,0:0:0:0:
64,192,39983,1,0,0:0:0:0:
320,192,40058,1,0,0:0:0:0:
192,192,40058,128,0,40133:0:0:0:0:
448,192,40133,1,0,0:0:0:0:
64,192,40208,1,0,0:0:0:0:
192,192,40208,1,0,0:0:0:0:
448,192,40283,1,0,0:0:0:0:
320,192,40283,1,0,0:0:0:0:
64,192,40358,1,0,0:0:0:0:
192,192,40433,1,0,0:0:0:0:
448,192,40508,1,0,0:0:0:0:
320,192,40508,128,0,40583:0:0:0:0:
192,192,40583,1,0,0:0:0:0:
64,192,40658,1,0,0:0:0:0:
320,192,40658,1,0,0:0:0:0:
448,192,40733,1,0,0:0:0:0:
64,192,40808,1,0,0:0:0:0:
192,192,40808,1,0,0:0:0:0:
320,192,40808,1,0,0:0:0:0:
448,192,41108,1,0,0:0:0:0:
64,192,41108,1,0,0:0:0:0:
448,192,41258,1,0,0:0:0:0:
192,192,41333,1,0,0:0:0:0:
320,192,41408,1,0,0:0:0:0:
192,192,41408,1,0,0:0:0:0:
320,192,41483,1,0,0:0:0:0:
192,192,41558,1,0,0:0:0:0:
64,192,41633,1,0,0:0:0:0:
320,192,41708,1,0,0:0:0:0:
448,192,41708,1,0,0:0:0:0:
192,192,41708,1,0,0:0:0:0:
64,192,42008,1,0,0:0:0:0:
192,192,42008,1,0,0:0:0:0:
448,192,42026,1,0,0:0:0:0:
448,192,42308,1,0,0:0:0:0:
64,192,42345,1,0,0:0:0:0:
448,192,42383,1,0,0:0:0:0:
192,192,42458,1,0,0:0:0:0:
448,192,42533,1,0,0:0:0:0:
192,192,42608,1,0,0:0:0:0:
192,192,42683,1,0,0:0:0:0:
448,192,42758,1,0,0:0:0:0:
64,192,42795,1,0,0:0:0:0:
448,192,42833,1,0,0:0:0:0:
192,192,42908,1,0,0:0:0:0:
448,192,42983,1,0,0:0:0:0:
320,192,43058,1,0,0:0:0:0:
448,192,43133,1,0,0:0:0:0:
320,192,43208,1,0,0:0:0:0:
192,192,43245,1,0,0:0:0:0:
64,192,43283,1,0,0:0:0:0:
320,192,43358,1,0,0:0:0:0:
64,192,43433,1,0,0:0:0:0:
192,192,43470,1,0,0:0:0:0:
320,192,43508,1,0,0:0:0:0:
64,192,43583,1,0,0:0:0:0:
320,192,43658,1,0,0:0:0:0:
192,192,43695,1,0,0:0:0:0:
64,192,43733,1,0,0:0:0:0:
192,192,43808,1,0,0:0:0:0:
320,192,43883,1,0,0:0:0:0:
192,192,43958,1,0,0:0:0:0:
192,192,44033,1,0,0:0:0:0:
320,192,44108,128,0,44220:0:0:0:0:
448,192,44108,128,0,44258:0:0:0:0:
64,192,44108,128,0,44183:0:0:0:0:
64,192,44408,1,0,0:0:0:0:
320,192,44408,1,0,0:0:0:0:
192,192,44408,1,0,0:0:0:0:
320,192,44558,1,0,0:0:0:0:
192,192,44558,1,0,0:0:0:0:
448,192,44708,1,0,0:0:0:0:
448,192,44783,1,0,0:0:0:0:
192,192,44858,1,0,0:0:0:0:
448,192,44933,1,0,0:0:0:0:
192,192,45008,1,0,0:0:0:0:
192,192,45083,1,0,0:0:0:0:
448,192,45158,1,0,0:0:0:0:
64,192,45195,1,0,0:0:0:0:
448,192,45233,1,0,0:0:0:0:
192,192,45308,1,0,0:0:0:0:
320,192,45383,1,0,0:0:0:0:
64,192,45458,1,0,0:0:0:0:
320,192,45533,1,0,0:0:0:0:
448,192,45608,1,0,0:0:0:0:
64,192,45645,1,0,0:0:0:0:
448,192,45683,1,0,0:0:0:0:
64,192,45758,1,0,0:0:0:0:
320,192,45833,1,0,0:0:0:0:
192,192,45908,1,0,0:0:0:0:
320,192,45983,1,0,0:0:0:0:
448,192,46058,1,0,0:0:0:0:
192,192,46058,1,0,0:0:0:0:
320,192,46133,1,0,0:0:0:0:
64,192,46133,1,0,0:0:0:0:
192,192,46208,1,0,0:0:0:0:
320,192,46245,1,0,0:0:0:0:
192,192,46283,1,0,0:0:0:0:
320,192,46358,1,0,0:0:0:0:
64,192,46433,1,0,0:0:0:0:
448,192,46433,1,0,0:0:0:0:
320,192,46508,1,0,0:0:0:0:
192,192,46508,1,0,0:0:0:0:
448,192,46583,1,0,0:0:0:0:
64,192,46658,1,0,0:0:0:0:
320,192,46658,1,0,0:0:0:0:
448,192,46733,1,0,0:0:0:0:
192,192,46733,1,0,0:0:0:0:
192,192,46808,1,0,0:0:0:0:
64,192,46883,1,0,0:0:0:0:
448,192,46883,1,0,0:0:0:0:
320,192,46958,1,0,0:0:0:0:
64,192,47033,1,0,0:0:0:0:
448,192,47033,1,0,0:0:0:0:
192,192,47108,1,0,0:0:0:0:
192,192,47183,1,0,0:0:0:0:
64,192,47258,1,0,0:0:0:0:
320,192,47258,1,0,0:0:0:0:
192,192,47333,1,0,0:0:0:0:
448,192,47333,1,0,0:0:0:0:
320,192,47408,1,0,0:0:0:0:
192,192,47483,1,0,0:0:0:0:
64,192,47558,1,0,0:0:0:0:
192,192,47633,1,0,0:0:0:0:
320,192,47708,1,0,0:0:0:0:
64,192,47745,1,0,0:0:0:0:
320,192,47783,1,0,0:0:0:0:
64,192,47858,1,0,0:0:0:0:
320,192,47933,1,0,0:0:0:0:
64,192,48008,1,0,0:0:0:0:
448,192,48008,1,0,0:0:0:0:
192,192,48158,1,0,0:0:0:0:
320,192,48233,1,0,0:0:0:0:
64,192,48308,1,0,0:0:0:0:
448,192,48308,1,0,0:0:0:0:
192,192,48458,1,0,0:0:0:0:
320,192,48533,1,0,0:0:0:0:
64,192,48608,1,0,0:0:0:0:
448,192,48608,1,0,0:0:0:0:
64,192,48758,1,0,0:0:0:0:
448,192,48758,1,0,0:0:0:0:
320,192,48833,1,0,0:0:0:0:
64,192,48908,1,0,0:0:0:0:
192,192,48945,1,0,0:0:0:0:
320,192,48983,1,0,0:0:0:0:
448,192,49020,1,0,0:0:0:0:
64,192,49058,1,0,0:0:0:0:
64,192,49133,1,0,0:0:0:0:
192,192,49208,1,0,0:0:0:0:
320,192,49208,1,0,0:0:0:0:
320,192,49358,1,0,0:0:0:0:
192,192,49358,1,0,0:0:0:0:
320,192,49508,1,0,0:0:0:0:
448,192,49508,1,0,0:0:0:0:
64,192,49508,1,0,0:0:0:0:
192,192,49508,1,0,0:0:0:0:
448,192,49658,1,0,0:0:0:0:
64,192,49695,1,0,0:0:0:0:
448,192,49733,1,0,0:0:0:0:
192,192,49808,1,0,0:0:0:0:
192,192,49883,1,0,0:0:0:0:
64,192,49958,1,0,0:0:0:0:
320,192,49958,1,0,0:0:0:0:
448,192,50108,1,0,0:0:0:0:
192,192,50108,1,0,0:0:0:0:
320,192,50258,1,0,0:0:0:0:
64,192,50333,1,0,0:0:0:0:
320,192,50408,1,0,0:0:0:0:
192,192,50408,1,0,0:0:0:0:
64,192,50558,1,0,0:0:0:0:
320,192,50633,1,0,0:0:0:0:
448,192,50708,1,0,0:0:0:0:
192,192,50708,1,0,0:0:0:0:
320,192,50858,1,0,0:0:0:0:
64,192,50933,1,0,0:0:0:0:
192,192,51008,1,0,0:0:0:0:
192,192,51083,1,0,0:0:0:0:
320,192,51158,1,0,0:0:0:0:
64,192,51158,1,0,0:0:0:0:
192,192,51308,1,0,0:0:0:0:
320,192,51383,1,0,0:0:0:0:
64,192,51458,1,0,0:0:0:0:
320,192,51533,1,0,0:0:0:0:
192,192,51608,1,0,0:0:0:0:
192,192,51683,1,0,0:0:0:0:
320,192,51758,1,0,0:0:0:0:
64,192,51758,1,0,0:0:0:0:
448,192,51833,1,0,0:0:0:0:
192,192,51833,1,0,0:0:0:0:
64,192,51908,1,0,0:0:0:0:
448,192,51983,1,0,0:0:0:0:
320,192,51983,1,0,0:0:0:0:
192,192,52058,1,0,0:0:0:0:
320,192,52133,1,0,0:0:0:0:
64,192,52208,1,0,0:0:0:0:
448,192,52283,1,0,0:0:0:0:
192,192,52283,1,0,0:0:0:0:
192,192,52358,1,0,0:0:0:0:
320,192,52433,1,0,0:0:0:0:
192,192,52508,1,0,0:0:0:0:
64,192,52583,1,0,0:0:0:0:
320,192,52583,1,0,0:0:0:0:
448,192,52658,1,0,0:0:0:0:
192,192,52658,1,0,0:0:0:0:
320,192,52733,1,0,0:0:0:0:
64,192,52808,128,0,53108:0:0:0:0:
448,192,52808,1,0,0:0:0:0:
192,192,52808,1,0,0:0:0:0:
192,192,52958,128,0,53183:0:0:0:0:
320,192,53108,128,0,53183:0:0:0:0:
320,192,53258,1,0,0:0:0:0:
192,192,53258,1,0,0:0:0:0:
448,192,53258,128,0,53558:0:0:0:0:
320,192,53408,128,0,53633:0:0:0:0:
64,192,53483,1,0,0:0:0:0:
192,192,53558,128,0,53633:0:0:0:0:
64,192,53633,1,0,0:0:0:0:
192,192,53708,1,0,0:0:0:0:
448,192,53708,1,0,0:0:0:0:
320,192,53708,1,0,0:0:0:0:
64,192,53858,1,0,0:0:0:0:
64,192,54008,128,0,54058:0:0:0:0:
320,192,54008,1,0,0:0:0:0:
448,192,54008,1,0,0:0:0:0:
320,192,54158,1,0,0:0:0:0:
192,192,54158,1,0,0:0:0:0:
448,192,54308,1,0,0:0:0:0:
64,192,54308,128,0,54358:0:0:0:0:
448,192,54383,1,0,0:0:0:0:
192,192,54458,1,0,0:0:0:0:
448,192,54533,1,0,0:0:0:0:
192,192,54608,1,0,0:0:0:0:
64,192,54608,128,0,54658:0:0:0:0:
192,192,54683,1,0,0:0:0:0:
448,192,54758,1,0,0:0:0:0:
64,192,54795,1,0,0:0:0:0:
448,192,54833,1,0,0:0:0:0:
320,192,54908,1,0,0:0:0:0:
64,192,54908,128,0,54958:0:0:0:0:
192,192,54983,1,0,0:0:0:0:
64,192,55058,1,0,0:0:0:0:
320,192,55133,1,0,0:0:0:0:
448,192,55208,1,0,0:0:0:0:
64,192,55208,128,0,55258:0:0:0:0:
192,192,55245,1,0,0:0:0:0:
448,192,55283,1,0,0:0:0:0:
320,192,55320,1,0,0:0:0:0:
64,192,55358,1,0,0:0:0:0:
448,192,55433,1,0,0:0:0:0:
192,192,55508,1,0,0:0:0:0:
64,192,55508,128,0,55558:0:0:0:0:
320,192,55583,1,0,0:0:0:0:
64,192,55658,1,0,0:0:0:0:
448,192,55658,1,0,0:0:0:0:
320,192,55733,1,0,0:0:0:0:
192,192,55808,1,0,0:0:0:0:
64,192,55808,128,0,55858:0:0:0:0:
320,192,55845,1,0,0:0:0:0:
192,192,55883,1,0,0:0:0:0:
320,192,55958,1,0,0:0:0:0:
448,192,56033,1,0,0:0:0:0:
192,192,56033,1,0,0:0:0:0:
320,192,56108,1,0,0:0:0:0:
64,192,56108,128,0,56158:0:0:0:0:
448,192,56183,1,0,0:0:0:0:
64,192,56258,1,0,0:0:0:0:
320,192,56258,1,0,0:0:0:0:
448,192,56333,1,0,0:0:0:0:
192,192,56333,1,0,0:0:0:0:
192,192,56408,1,0,0:0:0:0:
64,192,56408,128,0,56458:0:0:0:0:
448,192,56483,1,0,0:0:0:0:
320,192,56483,1,0,0:0:0:0:
64,192,56558,1,0,0:0:0:0:
448,192,56633,1,0,0:0:0:0:
320,192,56633,1,0,0:0:0:0:
192,192,56708,1,0,0:0:0:0:
64,192,56708,128,0,56758:0:0:0:0:
192,192,56783,1,0,0:0:0:0:
64,192,56858,1,0,0:0:0:0:
320,192,56858,1,0,0:0:0:0:
448,192,56933,1,0,0:0:0:0:
192,192,56933,1,0,0:0:0:0:
64,192,57008,128,0,57058:0:0:0:0:
320,192,57083,1,0,0:0:0:0:
448,192,57158,1,0,0:0:0:0:
192,192,57233,1,0,0:0:0:0:
192,192,57308,1,0,0:0:0:0:
64,192,57308,128,0,57358:0:0:0:0:
320,192,57383,1,0,0:0:0:0:
448,192,57458,1,0,0:0:0:0:
192,192,57533,1,0,0:0:0:0:
448,192,57608,1,0,0:0:0:0:
64,192,57608,128,0,57658:0:0:0:0:
192,192,57758,1,0,0:0:0:0:
320,192,57833,1,0,0:0:0:0:
448,192,57908,1,0,0:0:0:0:
64,192,57908,128,0,57958:0:0:0:0:
192,192,58058,1,0,0:0:0:0:
320,192,58133,1,0,0:0:0:0:
448,192,58208,1,0,0:0:0:0:
64,192,58208,128,0,58258:0:0:0:0:
64,192,58358,1,0,0:0:0:0:
448,192,58358,1,0,0:0:0:0:
448,192,58508,1,0,0:0:0:0:
64,192,58508,128,0,58558:0:0:0:0:
320,192,58545,1,0,0:0:0:0:
192,192,58583,1,0,0:0:0:0:
64,192,58620,1,0,0:0:0:0:
448,192,58658,1,0,0:0:0:0:
448,192,58733,1,0,0:0:0:0:
320,192,58808,1,0,0:0:0:0:
192,192,58808,128,0,58858:0:0:0:0:
64,192,58958,1,0,0:0:0:0:
320,192,59033,1,0,0:0:0:0:
448,192,59108,1,0,0:0:0:0:
192,192,59108,128,0,59158:0:0:0:0:
448,192,59258,1,0,0:0:0:0:
64,192,59295,1,0,0:0:0:0:
448,192,59333,1,0,0:0:0:0:
64,192,59408,1,0,0:0:0:0:
192,192,59408,128,0,59458:0:0:0:0:
320,192,59483,1,0,0:0:0:0:
64,192,59558,1,0,0:0:0:0:
320,192,59558,1,0,0:0:0:0:
448,192,59708,1,0,0:0:0:0:
192,192,59708,128,0,59758:0:0:0:0:
320,192,59858,1,0,0:0:0:0:
64,192,59933,1,0,0:0:0:0:
320,192,60008,1,0,0:0:0:0:
192,192,60008,128,0,60058:0:0:0:0:
64,192,60158,1,0,0:0:0:0:
320,192,60233,1,0,0:0:0:0:
448,192,60308,1,0,0:0:0:0:
192,192,60308,128,0,60358:0:0:0:0:
64,192,60458,1,0,0:0:0:0:
320,192,60533,1,0,0:0:0:0:
64,192,60608,1,0,0:0:0:0:
192,192,60608,128,0,60658:0:0:0:0:
320,192,60683,1,0,0:0:0:0:
64,192,60758,1,0,0:0:0:0:
320,192,60758,1,0,0:0:0:0:
448,192,60908,1,0,0:0:0:0:
192,192,60908,128,0,60958:0:0:0:0:
320,192,60983,1,0,0:0:0:0:
192,192,61058,1,0,0:0:0:0:
64,192,61133,1,0,0:0:0:0:
192,192,61208,1,0,0:0:0:0:
320,192,61208,128,0,61258:0:0:0:0:
192,192,61283,1,0,0:0:0:0:
64,192,61358,1,0,0:0:0:0:
320,192,61358,1,0,0:0:0:0:
192,192,61433,1,0,0:0:0:0:
448,192,61433,1,0,0:0:0:0:
320,192,61508,128,0,61558:0:0:0:0:
448,192,61583,1,0,0:0:0:0:
64,192,61583,1,0,0:0:0:0:
192,192,61658,1,0,0:0:0:0:
192,192,61733,1,0,0:0:0:0:
448,192,61808,1,0,0:0:0:0:
320,192,61808,128,0,61858:0:0:0:0:
64,192,61883,1,0,0:0:0:0:
192,192,61883,1,0,0:0:0:0:
320,192,61958,1,0,0:0:0:0:
448,192,62033,1,0,0:0:0:0:
64,192,62033,1,0,0:0:0:0:
192,192,62108,1,0,0:0:0:0:
320,192,62108,128,0,62158:0:0:0:0:
448,192,62183,1,0,0:0:0:0:
448,192,62258,1,0,0:0:0:0:
192,192,62333,1,0,0:0:0:0:
320,192,62333,1,0,0:0:0:0:
448,192,62408,1,0,0:0:0:0:
64,192,62408,1,0,0:0:0:0:
192,192,62508,1,0,0:0:0:0:
320,192,62508,1,0,0:0:0:0:
64,192,62608,1,0,0:0:0:0:
320,192,62608,1,0,0:0:0:0:
448,192,62708,1,0,0:0:0:0:
64,192,62708,1,0,0:0:0:0:
320,192,62808,1,0,0:0:0:0:
192,192,62808,1,0,0:0:0:0:
64,192,62908,1,0,0:0:0:0:
192,192,62908,1,0,0:0:0:0:
448,192,63008,1,0,0:0:0:0:
320,192,63008,1,0,0:0:0:0:
192,192,63108,1,0,0:0:0:0:
64,192,63108,1,0,0:0:0:0:
448,192,63208,1,0,0:0:0:0:
64,192,63208,1,0,0:0:0:0:
320,192,63308,1,0,0:0:0:0:
192,192,63308,1,0,0:0:0:0:
320,192,63408,1,0,0:0:0:0:
448,192,63408,1,0,0:0:0:0:
64,192,63508,1,0,0:0:0:0:
448,192,63508,1,0,0:0:0:0:
64,192,63608,1,0,0:0:0:0:
192,192,63608,1,0,0:0:0:0:
320,192,63608,1,0,0:0:0:0:
448,192,63908,1,0,0:0:0:0:
64,192,63908,1,0,0:0:0:0:
192,192,63908,1,0,0:0:0:0:
320,192,63908,1,0,0:0:0:0:
64,192,63983,1,0,0:0:0:0:
448,192,64058,128,0,64133:0:0:0:0:
64,192,64208,1,0,0:0:0:0:
320,192,64208,1,0,0:0:0:0:
64,192,64358,128,0,64433:0:0:0:0:
448,192,64433,1,0,0:0:0:0:
320,192,64508,1,0,0:0:0:0:
192,192,64508,128,0,64583:0:0:0:0:
320,192,64658,128,0,64733:0:0:0:0:
192,192,64733,1,0,0:0:0:0:
448,192,64808,1,0,0:0:0:0:
64,192,64808,1,0,0:0:0:0:
64,192,64958,1,0,0:0:0:0:
192,192,65033,1,0,0:0:0:0:
320,192,65108,1,0,0:0:0:0:
448,192,65108,1,0,0:0:0:0:
448,192,65258,1,0,0:0:0:0:
320,192,65333,1,0,0:0:0:0:
64,192,65408,1,0,0:0:0:0:
192,192,65408,1,0,0:0:0:0:
64,192,65558,1,0,0:0:0:0:
192,192,65633,1,0,0:0:0:0:
448,192,65708,1,0,0:0:0:0:
320,192,65708,1,0,0:0:0:0:
448,192,65858,1,0,0:0:0:0:
320,192,65933,1,0,0:0:0:0:
64,192,66008,1,0,0:0:0:0:
192,192,66008,1,0,0:0:0:0:
64,192,66165,1,0,0:0:0:0:
192,192,66244,1,0,0:0:0:0:
320,192,66323,1,0,0:0:0:0:
448,192,66323,1,0,0:0:0:0:
448,192,66481,1,0,0:0:0:0:
320,192,66560,1,0,0:0:0:0:
64,192,66639,1,0,0:0:0:0:
192,192,66639,1,0,0:0:0:0:
64,192,66797,1,0,0:0:0:0:
192,192,66876,1,0,0:0:0:0:
448,192,66955,1,0,0:0:0:0:
320,192,66955,1,0,0:0:0:0:
448,192,67113,1,0,0:0:0:0:
320,192,67192,1,0,0:0:0:0:
64,192,67271,1,0,0:0:0:0:
192,192,67271,1,0,0:0:0:0:
64,192,67429,1,0,0:0:0:0:
192,192,67508,1,0,0:0:0:0:
448,192,67586,1,0,0:0:0:0:
320,192,67586,1,0,0:0:0:0:
448,192,67744,1,0,0:0:0:0:
320,192,67823,1,0,0:0:0:0:
64,192,67902,1,0,0:0:0:0:
192,192,67902,1,0,0:0:0:0:
64,192,68060,1,0,0:0:0:0:
192,192,68139,1,0,0:0:0:0:
448,192,68218,1,0,0:0:0:0:
320,192,68218,1,0,0:0:0:0:
448,192,68301,1,0,0:0:0:0:
320,192,68384,1,0,0:0:0:0:
192,192,68468,1,0,0:0:0:0:
64,192,68551,1,0,0:0:0:0:
192,192,68551,128,0,68634:0:0:0:0:
448,192,68717,1,0,0:0:0:0:
320,192,68717,128,0,68801:0:0:0:0:
192,192,68801,1,0,0:0:0:0:
448,192,68884,1,0,0:0:0:0:
64,192,68884,128,0,68967:0:0:0:0:
320,192,69051,1,0,0:0:0:0:
448,192,69051,128,0,69134:0:0:0:0:
192,192,69134,1,0,0:0:0:0:
64,192,69217,1,0,0:0:0:0:
320,192,69217,1,0,0:0:0:0:
192,192,69384,1,0,0:0:0:0:
64,192,69384,128,0,69467:0:0:0:0:
448,192,69467,1,0,0:0:0:0:
320,192,69551,1,0,0:0:0:0:
192,192,69551,128,0,69634:0:0:0:0:
448,192,69717,1,0,0:0:0:0:
320,192,69717,128,0,69801:0:0:0:0:
64,192,69801,1,0,0:0:0:0:
448,192,69884,1,0,0:0:0:0:
192,192,69884,1,0,0:0:0:0:
320,192,70060,1,0,0:0:0:0:
64,192,70060,1,0,0:0:0:0:
448,192,70119,1,0,0:0:0:0:
192,192,70148,1,0,0:0:0:0:
448,192,70236,1,0,0:0:0:0:
320,192,70236,1,0,0:0:0:0:
64,192,70354,1,0,0:0:0:0:
448,192,70413,1,0,0:0:0:0:
192,192,70413,1,0,0:0:0:0:
64,192,70472,1,0,0:0:0:0:
320,192,70501,1,0,0:0:0:0:
64,192,70589,1,0,0:0:0:0:
192,192,70589,1,0,0:0:0:0:
320,192,70707,1,0,0:0:0:0:
448,192,70766,1,0,0:0:0:0:
64,192,70766,1,0,0:0:0:0:
320,192,70825,1,0,0:0:0:0:
192,192,70854,1,0,0:0:0:0:
448,192,70942,1,0,0:0:0:0:
320,192,70942,1,0,0:0:0:0:
192,192,71060,1,0,0:0:0:0:
64,192,71119,1,0,0:0:0:0:
448,192,71119,1,0,0:0:0:0:
192,192,71178,1,0,0:0:0:0:
320,192,71207,1,0,0:0:0:0:
64,192,71295,1,0,0:0:0:0:
192,192,71295,1,0,0:0:0:0:
448,192,71384,1,0,0:0:0:0:
192,192,71472,1,0,0:0:0:0:
320,192,71472,1,0,0:0:0:0:
448,192,71560,1,0,0:0:0:0:
192,192,71648,1,0,0:0:0:0:
64,192,71648,1,0,0:0:0:0:
448,192,71736,1,0,0:0:0:0:
320,192,71825,1,0,0:0:0:0:
192,192,71825,1,0,0:0:0:0:
448,192,71913,1,0,0:0:0:0:
192,192,72001,1,0,0:0:0:0:
64,192,72001,1,0,0:0:0:0:
320,192,72045,1,0,0:0:0:0:
448,192,72089,1,0,0:0:0:0:
320,192,72178,1,0,0:0:0:0:
192,192,72178,1,0,0:0:0:0:
64,192,72266,1,0,0:0:0:0:
448,192,72354,1,0,0:0:0:0:
320,192,72354,1,0,0:0:0:0:
64,192,72442,1,0,0:0:0:0:
320,192,72531,1,0,0:0:0:0:
192,192,72531,1,0,0:0:0:0:
64,192,72619,1,0,0:0:0:0:
448,192,72707,1,0,0:0:0:0:
192,192,72707,1,0,0:0:0:0:
448,192,72884,128,0,72972:0:0:0:0:
320,192,72884,128,0,72972:0:0:0:0:
448,192,73060,128,0,73236:0:0:0:0:
320,192,73060,128,0,73236:0:0:0:0:
64,192,73236,1,0,0:0:0:0:
448,192,73325,1,0,0:0:0:0:
64,192,73413,128,0,73501:0:0:0:0:
192,192,73413,128,0,73501:0:0:0:0:
320,192,73501,1,0,0:0:0:0:
192,192,73589,1,0,0:0:0:0:
320,192,73678,1,0,0:0:0:0:
448,192,73766,1,0,0:0:0:0:
320,192,73766,1,0,0:0:0:0:
64,192,73766,1,0,0:0:0:0:
192,192,73766,1,0,0:0:0:0:
320,192,74119,1,0,0:0:0:0:
64,192,74119,128,0,74295:0:0:0:0:
192,192,74119,128,0,74295:0:0:0:0:
448,192,74295,1,0,0:0:0:0:
448,192,74413,1,0,0:0:0:0:
320,192,74472,1,0,0:0:0:0:
64,192,74472,1,0,0:0:0:0:
64,192,74648,1,0,0:0:0:0:
64,192,74766,1,0,0:0:0:0:
448,192,74825,1,0,0:0:0:0:
192,192,74825,1,0,0:0:0:0:
448,192,74942,1,0,0:0:0:0:
192,192,75001,1,0,0:0:0:0:
192,192,75119,1,0,0:0:0:0:
448,192,75178,1,0,0:0:0:0:
320,192,75178,1,0,0:0:0:0:
320,192,75295,1,0,0:0:0:0:
192,192,75354,1,0,0:0:0:0:
192,192,75472,1,0,0:0:0:0:
448,192,75531,1,0,0:0:0:0:
64,192,75531,1,0,0:0:0:0:
448,192,75707,128,0,75795:0:0:0:0:
64,192,75707,1,0,0:0:0:0:
320,192,75825,1,0,0:0:0:0:
448,192,75884,128,0,75913:0:0:0:0:
192,192,75884,1,0,0:0:0:0:
64,192,75884,1,0,0:0:0:0:
448,192,76001,128,0,76089:0:0:0:0:
320,192,76001,1,0,0:0:0:0:
64,192,76060,1,0,0:0:0:0:
448,192,76178,128,0,76325:0:0:0:0:
320,192,76178,1,0,0:0:0:0:
192,192,76236,1,0,0:0:0:0:
64,192,76236,1,0,0:0:0:0:
192,192,76354,1,0,0:0:0:0:
448,192,76413,128,0,76501:0:0:0:0:
320,192,76413,1,0,0:0:0:0:
192,192,76531,1,0,0:0:0:0:
64,192,76589,1,0,0:0:0:0:
448,192,76589,128,0,76766:0:0:0:0:
192,192,76707,1,0,0:0:0:0:
64,192,76766,1,0,0:0:0:0:
192,192,76884,1,0,0:0:0:0:
64,192,76942,1,0,0:0:0:0:
320,192,76942,1,0,0:0:0:0:
448,192,77001,1,0,0:0:0:0:
64,192,77060,1,0,0:0:0:0:
448,192,77119,128,0,77295:0:0:0:0:
320,192,77119,128,0,77295:0:0:0:0:
192,192,77295,1,0,0:0:0:0:
64,192,77295,1,0,0:0:0:0:
448,192,77413,128,0,77560:0:0:0:0:
192,192,77413,128,0,77560:0:0:0:0:
320,192,77472,1,0,0:0:0:0:
64,192,77648,128,0,77825:0:0:0:0:
448,192,77648,128,0,77825:0:0:0:0:
192,192,77766,1,0,0:0:0:0:
320,192,77825,1,0,0:0:0:0:
192,192,77942,128,0,78089:0:0:0:0:
320,192,77942,128,0,78089:0:0:0:0:
64,192,78001,1,0,0:0:0:0:
448,192,78001,1,0,0:0:0:0:
64,192,78178,128,0,78266:0:0:0:0:
320,192,78178,128,0,78266:0:0:0:0:
448,192,78295,1,0,0:0:0:0:
192,192,78354,128,0,78442:0:0:0:0:
64,192,78354,128,0,78442:0:0:0:0:
320,192,78472,1,0,0:0:0:0:
192,192,78531,1,0,0:0:0:0:
448,192,78648,1,0,0:0:0:0:
320,192,78707,1,0,0:0:0:0:
192,192,78707,1,0,0:0:0:0:
192,192,78825,1,0,0:0:0:0:
320,192,78884,1,0,0:0:0:0:
320,192,79001,1,0,0:0:0:0:
192,192,79060,1,0,0:0:0:0:
64,192,79060,1,0,0:0:0:0:
64,192,79178,1,0,0:0:0:0:
192,192,79236,1,0,0:0:0:0:
192,192,79354,1,0,0:0:0:0:
448,192,79413,1,0,0:0:0:0:
320,192,79413,1,0,0:0:0:0:
448,192,79531,1,0,0:0:0:0:
192,192,79589,1,0,0:0:0:0:
320,192,79589,1,0,0:0:0:0:
320,192,79707,1,0,0:0:0:0:
192,192,79766,1,0,0:0:0:0:
448,192,79766,128,0,80119:0:0:0:0:
64,192,79766,128,0,80119:0:0:0:0:
320,192,80119,1,0,0:0:0:0:
192,192,80119,1,0,0:0:0:0:
192,192,80236,1,0,0:0:0:0:
64,192,80295,1,0,0:0:0:0:
64,192,80413,1,0,0:0:0:0:
448,192,80472,1,0,0:0:0:0:
192,192,80472,1,0,0:0:0:0:
192,192,80589,1,0,0:0:0:0:
320,192,80648,1,0,0:0:0:0:
320,192,80766,1,0,0:0:0:0:
64,192,80825,1,0,0:0:0:0:
448,192,80825,1,0,0:0:0:0:
448,192,81001,1,0,0:0:0:0:
320,192,81001,1,0,0:0:0:0:
448,192,81119,1,0,0:0:0:0:
320,192,81119,1,0,0:0:0:0:
64,192,81178,1,0,0:0:0:0:
192,192,81178,1,0,0:0:0:0:
448,192,81295,128,0,81413:0:0:0:0:
192,192,81295,128,0,81413:0:0:0:0:
64,192,81472,1,0,0:0:0:0:
192,192,81531,128,0,81648:0:0:0:0:
320,192,81531,128,0,81648:0:0:0:0:
448,192,81707,1,0,0:0:0:0:
448,192,81825,128,0,81942:0:0:0:0:
192,192,81825,128,0,81942:0:0:0:0:
64,192,81884,1,0,0:0:0:0:
320,192,81884,1,0,0:0:0:0:
64,192,82060,128,0,82148:0:0:0:0:
320,192,82060,128,0,82148:0:0:0:0:
192,192,82178,1,0,0:0:0:0:
64,192,82236,1,0,0:0:0:0:
320,192,82236,1,0,0:0:0:0:
448,192,82295,1,0,0:0:0:0:
64,192,82354,1,0,0:0:0:0:
320,192,82354,1,0,0:0:0:0:
192,192,82413,1,0,0:0:0:0:
448,192,82472,1,0,0:0:0:0:
320,192,82531,1,0,0:0:0:0:
64,192,82589,1,0,0:0:0:0:
192,192,82589,1,0,0:0:0:0:
320,192,82707,1,0,0:0:0:0:
192,192,82707,1,0,0:0:0:0:
448,192,82942,1,0,0:0:0:0:
192,192,82942,128,0,83178:0:0:0:0:
320,192,83060,128,0,83295:0:0:0:0:
448,192,83178,128,0,83413:0:0:0:0:
192,192,83295,1,0,0:0:0:0:
64,192,83295,128,0,83531:0:0:0:0:
320,192,83413,128,0,83648:0:0:0:0:
448,192,83531,128,0,83766:0:0:0:0:
192,192,83648,1,0,0:0:0:0:
64,192,83648,128,0,83883:0:0:0:0:
192,192,83766,128,0,83883:0:0:0:0:
448,192,83883,128,0,84001:0:0:0:0:
320,192,84001,1,0,0:0:0:0:
192,192,84001,1,0,0:0:0:0:
64,192,84001,1,0,0:0:0:0:
192,192,84354,1,0,0:0:0:0:
448,192,84354,1,0,0:0:0:0:
64,192,84354,1,0,0:0:0:0:
320,192,84413,1,0,0:0:0:0:
192,192,84472,1,0,0:0:0:0:
448,192,84531,1,0,0:0:0:0:
64,192,84589,1,0,0:0:0:0:
192,192,84648,1,0,0:0:0:0:
320,192,84707,1,0,0:0:0:0:
448,192,84707,1,0,0:0:0:0:
64,192,84707,1,0,0:0:0:0:
192,192,84766,1,0,0:0:0:0:
448,192,84825,1,0,0:0:0:0:
320,192,84883,1,0,0:0:0:0:
192,192,84942,1,0,0:0:0:0:
64,192,85001,1,0,0:0:0:0:
448,192,85060,1,0,0:0:0:0:
320,192,85060,1,0,0:0:0:0:
192,192,85060,1,0,0:0:0:0:
320,192,85413,128,0,85472:0:0:0:0:
192,192,85413,128,0,85472:0:0:0:0:
448,192,85766,1,0,0:0:0:0:
192,192,85766,1,0,0:0:0:0:
64,192,85766,1,0,0:0:0:0:
320,192,85766,1,0,0:0:0:0:
448,192,85942,128,0,86001:0:0:0:0:
64,192,86060,1,0,0:0:0:0:
448,192,86119,1,0,0:0:0:0:
320,192,86119,128,0,86178:0:0:0:0:
192,192,86236,128,0,86295:0:0:0:0:
320,192,86295,1,0,0:0:0:0:
448,192,86413,128,0,86472:0:0:0:0:
64,192,86472,1,0,0:0:0:0:
192,192,86472,1,0,0:0:0:0:
320,192,86589,128,0,86648:0:0:0:0:
192,192,86648,128,0,86707:0:0:0:0:
192,192,86766,128,0,86825:0:0:0:0:
448,192,86825,1,0,0:0:0:0:
320,192,86825,1,0,0:0:0:0:
448,192,87001,128,0,87089:0:0:0:0:
64,192,87001,128,0,87060:0:0:0:0:
320,192,87119,128,0,87178:0:0:0:0:
192,192,87178,1,0,0:0:0:0:
448,192,87178,128,0,87207:0:0:0:0:
64,192,87178,128,0,87236:0:0:0:0:
448,192,87295,128,0,87383:0:0:0:0:
320,192,87295,128,0,87354:0:0:0:0:
64,192,87354,128,0,87413:0:0:0:0:
448,192,87472,128,0,87619:0:0:0:0:
320,192,87472,128,0,87531:0:0:0:0:
192,192,87531,1,0,0:0:0:0:
64,192,87531,128,0,87589:0:0:0:0:
192,192,87648,128,0,87707:0:0:0:0:
448,192,87707,128,0,87795:0:0:0:0:
320,192,87707,128,0,87766:0:0:0:0:
64,192,87825,128,0,87883:0:0:0:0:
448,192,87883,128,0,88060:0:0:0:0:
320,192,87883,128,0,87942:0:0:0:0:
64,192,88001,128,0,88060:0:0:0:0:
192,192,88060,128,0,88119:0:0:0:0:
192,192,88178,128,0,88236:0:0:0:0:
448,192,88236,1,0,0:0:0:0:
320,192,88236,128,0,88295:0:0:0:0:
64,192,88354,128,0,88413:0:0:0:0:
320,192,88413,128,0,88472:0:0:0:0:
192,192,88531,128,0,88589:0:0:0:0:
64,192,88589,1,0,0:0:0:0:
320,192,88589,128,0,88648:0:0:0:0:
448,192,88766,128,0,88825:0:0:0:0:
192,192,88883,128,0,88942:0:0:0:0:
448,192,88942,1,0,0:0:0:0:
64,192,88942,1,0,0:0:0:0:
320,192,89060,128,0,89119:0:0:0:0:
448,192,89119,128,0,89178:0:0:0:0:
192,192,89236,128,0,89295:0:0:0:0:
448,192,89295,1,0,0:0:0:0:
320,192,89295,128,0,89354:0:0:0:0:
320,192,89413,128,0,89472:0:0:0:0:
192,192,89472,128,0,89531:0:0:0:0:
192,192,89589,128,0,89648:0:0:0:0:
448,192,89648,1,0,0:0:0:0:
64,192,89648,128,0,89707:0:0:0:0:
320,192,89825,128,0,89942:0:0:0:0:
64,192,89942,128,0,90001:0:0:0:0:
448,192,90001,1,0,0:0:0:0:
320,192,90001,128,0,90119:0:0:0:0:
64,192,90119,128,0,90178:0:0:0:0:
320,192,90178,128,0,90295:0:0:0:0:
64,192,90295,128,0,90354:0:0:0:0:
320,192,90354,1,0,0:0:0:0:
448,192,90354,128,0,90413:0:0:0:0:
448,192,90531,128,0,90589:0:0:0:0:
448,192,90648,128,0,90707:0:0:0:0:
64,192,90707,1,0,0:0:0:0:
192,192,90707,1,0,0:0:0:0:
320,192,90707,128,0,90766:0:0:0:0:
320,192,90825,128,0,90883:0:0:0:0:
192,192,90883,128,0,90942:0:0:0:0:
192,192,91001,128,0,91060:0:0:0:0:
320,192,91060,1,0,0:0:0:0:
448,192,91060,1,0,0:0:0:0:
64,192,91060,128,0,91589:0:0:0:0:
448,192,91236,1,0,0:0:0:0:
320,192,91413,1,0,0:0:0:0:
192,192,91413,1,0,0:0:0:0:
192,192,91589,128,0,92119:0:0:0:0:
320,192,91766,1,0,0:0:0:0:
64,192,91766,1,0,0:0:0:0:
448,192,91942,1,0,0:0:0:0:
64,192,92119,1,0,0:0:0:0:
448,192,92119,128,0,92472:0:0:0:0:
320,192,92295,1,0,0:0:0:0:
192,192,92472,1,0,0:0:0:0:
64,192,92472,1,0,0:0:0:0:
320,192,92472,128,0,92825:0:0:0:0:
192,192,92648,1,0,0:0:0:0:
448,192,92825,1,0,0:0:0:0:
192,192,92825,128,0,93178:0:0:0:0:
64,192,93001,1,0,0:0:0:0:
448,192,93178,1,0,0:0:0:0:
64,192,93178,128,0,93354:0:0:0:0:
448,192,93354,128,0,93531:0:0:0:0:
192,192,93531,1,0,0:0:0:0:
64,192,93531,128,0,93619:0:0:0:0:
320,192,93619,128,0,93707:0:0:0:0:
448,192,93707,128,0,93795:0:0:0:0:
320,192,93795,128,0,93883:0:0:0:0:
64,192,93883,1,0,0:0:0:0:
448,192,93883,1,0,0:0:0:0:
192,192,93883,128,0,95295:0:0:0:0:
64,192,94060,1,0,0:0:0:0:
320,192,94060,1,0,0:0:0:0:
448,192,94236,1,0,0:0:0:0:
320,192,94236,1,0,0:0:0:0:
64,192,94413,1,0,0:0:0:0:
320,192,94413,1,0,0:0:0:0:
448,192,94589,1,0,0:0:0:0:
320,192,94589,1,0,0:0:0:0:
64,192,94678,1,0,0:0:0:0:
448,192,94766,1,0,0:0:0:0:
448,192,94854,1,0,0:0:0:0:
64,192,94942,1,0,0:0:0:0:
320,192,94942,1,0,0:0:0:0:
448,192,95031,1,0,0:0:0:0:
64,192,95119,1,0,0:0:0:0:
64,192,95207,1,0,0:0:0:0:
448,192,95295,128,0,95560:0:0:0:0:
320,192,95295,128,0,95516:0:0:0:0:
320,192,95648,1,0,0:0:0:0:
192,192,95648,1,0,0:0:0:0:
192,192,95825,1,0,0:0:0:0:
320,192,95913,1,0,0:0:0:0:
192,192,96001,1,0,0:0:0:0:
64,192,96001,1,0,0:0:0:0:
320,192,96089,1,0,0:0:0:0:
448,192,96178,1,0,0:0:0:0:
320,192,96178,1,0,0:0:0:0:
64,192,96266,1,0,0:0:0:0:
320,192,96354,1,0,0:0:0:0:
448,192,96354,1,0,0:0:0:0:
64,192,96354,1,0,0:0:0:0:
192,192,96354,1,0,0:0:0:0:
64,192,96707,128,0,96883:0:0:0:0:
448,192,96707,1,0,0:0:0:0:
448,192,96795,128,0,96972:0:0:0:0:
320,192,96825,128,0,96972:0:0:0:0:
192,192,96854,128,0,96972:0:0:0:0:
448,192,97060,1,0,0:0:0:0:
320,192,97060,1,0,0:0:0:0:
192,192,97060,1,0,0:0:0:0:
192,192,97148,1,0,0:0:0:0:
64,192,97236,1,0,0:0:0:0:
448,192,97325,1,0,0:0:0:0:
192,192,97413,1,0,0:0:0:0:
64,192,97413,1,0,0:0:0:0:
320,192,97501,1,0,0:0:0:0:
320,192,97589,128,0,97766:0:0:0:0:
192,192,97633,1,0,0:0:0:0:
64,192,97678,128,0,97766:0:0:0:0:
448,192,97766,1,0,0:0:0:0:
192,192,97766,1,0,0:0:0:0:
64,192,97854,1,0,0:0:0:0:
192,192,97898,1,0,0:0:0:0:
448,192,97942,1,0,0:0:0:0:
320,192,97972,1,0,0:0:0:0:
192,192,98001,1,0,0:0:0:0:
64,192,98031,1,0,0:0:0:0:
448,192,98119,128,0,98295:0:0:0:0:
320,192,98119,1,0,0:0:0:0:
320,192,98207,128,0,98472:0:0:0:0:
192,192,98295,128,0,98472:0:0:0:0:
448,192,98472,1,0,0:0:0:0:
64,192,98472,1,0,0:0:0:0:
192,192,98560,1,0,0:0:0:0:
320,192,98648,1,0,0:0:0:0:
64,192,98648,1,0,0:0:0:0:
320,192,98825,1,0,0:0:0:0:
448,192,98825,128,0,98913:0:0:0:0:
192,192,98913,1,0,0:0:0:0:
448,192,99001,1,0,0:0:0:0:
448,192,99089,1,0,0:0:0:0:
320,192,99178,1,0,0:0:0:0:
64,192,99178,128,0,99442:0:0:0:0:
192,192,99266,1,0,0:0:0:0:
448,192,99354,1,0,0:0:0:0:
192,192,99442,1,0,0:0:0:0:
448,192,99531,128,0,99619:0:0:0:0:
64,192,99531,1,0,0:0:0:0:
320,192,99619,128,0,99707:0:0:0:0:
192,192,99707,128,0,99795:0:0:0:0:
64,192,99795,1,0,0:0:0:0:
64,192,99883,128,0,99972:0:0:0:0:
448,192,99883,1,0,0:0:0:0:
192,192,99972,128,0,100060:0:0:0:0:
320,192,100060,128,0,100148:0:0:0:0:
448,192,100148,128,0,100236:0:0:0:0:
192,192,100236,1,0,0:0:0:0:
64,192,100236,1,0,0:0:0:0:
448,192,100325,1,0,0:0:0:0:
192,192,100325,1,0,0:0:0:0:
64,192,100413,1,0,0:0:0:0:
320,192,100413,1,0,0:0:0:0:
448,192,100501,1,0,0:0:0:0:
192,192,100501,1,0,0:0:0:0:
448,192,100589,128,0,100854:0:0:0:0:
64,192,100589,1,0,0:0:0:0:
320,192,100589,1,0,0:0:0:0:
192,192,100678,128,0,100766:0:0:0:0:
64,192,100766,128,0,100854:0:0:0:0:
320,192,100766,128,0,100854:0:0:0:0:
192,192,100942,1,0,0:0:0:0:
64,192,100942,1,0,0:0:0:0:
64,192,101060,1,0,0:0:0:0:
192,192,101060,1,0,0:0:0:0:
192,192,101178,1,0,0:0:0:0:
64,192,101178,1,0,0:0:0:0:
448,192,101236,1,0,0:0:0:0:
320,192,101236,1,0,0:0:0:0:
448,192,101295,128,0,101560:0:0:0:0:
64,192,101295,128,0,101560:0:0:0:0:
192,192,101295,128,0,101560:0:0:0:0:
448,192,101648,128,0,101913:0:0:0:0:
64,192,101648,128,0,101913:0:0:0:0:
192,192,101648,128,0,101913:0:0:0:0:
64,192,102001,128,0,102266:0:0:0:0:
192,192,102001,128,0,102266:0:0:0:0:
320,192,102001,128,0,102266:0:0:0:0:
64,192,102354,128,0,102531:0:0:0:0:
448,192,102354,1,0,0:0:0:0:
448,192,102442,128,0,102619:0:0:0:0:
320,192,102472,128,0,102619:0:0:0:0:
192,192,102501,128,0,102619:0:0:0:0:
448,192,102707,1,0,0:0:0:0:
320,192,102707,1,0,0:0:0:0:
192,192,102707,1,0,0:0:0:0:
192,192,102795,1,0,0:0:0:0:
64,192,102883,1,0,0:0:0:0:
320,192,102972,1,0,0:0:0:0:
448,192,103060,1,0,0:0:0:0:
192,192,103060,1,0,0:0:0:0:
64,192,103060,1,0,0:0:0:0:
320,192,103148,1,0,0:0:0:0:
320,192,103236,128,0,103413:0:0:0:0:
192,192,103281,1,0,0:0:0:0:
64,192,103325,128,0,103413:0:0:0:0:
448,192,103413,1,0,0:0:0:0:
192,192,103413,1,0,0:0:0:0:
64,192,103501,1,0,0:0:0:0:
192,192,103545,1,0,0:0:0:0:
448,192,103589,1,0,0:0:0:0:
320,192,103619,1,0,0:0:0:0:
192,192,103648,1,0,0:0:0:0:
64,192,103678,1,0,0:0:0:0:
64,192,103766,1,0,0:0:0:0:
448,192,103766,128,0,103942:0:0:0:0:
320,192,103766,1,0,0:0:0:0:
320,192,103854,128,0,104031:0:0:0:0:
192,192,103942,128,0,104119:0:0:0:0:
320,192,104119,1,0,0:0:0:0:
448,192,104119,1,0,0:0:0:0:
64,192,104119,1,0,0:0:0:0:
192,192,104207,1,0,0:0:0:0:
320,192,104295,1,0,0:0:0:0:
64,192,104295,1,0,0:0:0:0:
64,192,104472,1,0,0:0:0:0:
320,192,104472,1,0,0:0:0:0:
448,192,104472,128,0,104560:0:0:0:0:
192,192,104560,1,0,0:0:0:0:
448,192,104648,1,0,0:0:0:0:
448,192,104736,1,0,0:0:0:0:
192,192,104825,1,0,0:0:0:0:
320,192,104825,1,0,0:0:0:0:
64,192,104825,128,0,105089:0:0:0:0:
448,192,104913,1,0,0:0:0:0:
192,192,105001,1,0,0:0:0:0:
320,192,105089,1,0,0:0:0:0:
448,192,105178,128,0,105266:0:0:0:0:
64,192,105178,1,0,0:0:0:0:
320,192,105266,128,0,105354:0:0:0:0:
448,192,105354,1,0,0:0:0:0:
192,192,105354,128,0,105442:0:0:0:0:
64,192,105442,1,0,0:0:0:0:
64,192,105531,128,0,105619:0:0:0:0:
448,192,105531,1,0,0:0:0:0:
192,192,105619,128,0,105707:0:0:0:0:
64,192,105707,1,0,0:0:0:0:
320,192,105707,128,0,105795:0:0:0:0:
448,192,105795,128,0,105883:0:0:0:0:
192,192,105883,1,0,0:0:0:0:
64,192,105883,1,0,0:0:0:0:
448,192,105972,128,0,106060:0:0:0:0:
320,192,106016,128,0,106060:0:0:0:0:
192,192,106060,1,0,0:0:0:0:
64,192,106148,128,0,106236:0:0:0:0:
192,192,106178,128,0,106236:0:0:0:0:
448,192,106236,1,0,0:0:0:0:
320,192,106266,1,0,0:0:0:0:
448,192,106325,128,0,106413:0:0:0:0:
320,192,106354,128,0,106413:0:0:0:0:
64,192,106413,128,0,106501:0:0:0:0:
192,192,106442,128,0,106501:0:0:0:0:
320,192,106472,128,0,106501:0:0:0:0:
448,192,106501,1,0,0:0:0:0:
192,192,106589,1,0,0:0:0:0:
64,192,106589,1,0,0:0:0:0:
192,192,106942,1,0,0:0:0:0:
448,192,106942,1,0,0:0:0:0:
320,192,106964,1,0,0:0:0:0:
192,192,107295,1,0,0:0:0:0:
448,192,107295,1,0,0:0:0:0:
320,192,107317,1,0,0:0:0:0:
192,192,107383,1,0,0:0:0:0:
320,192,107472,128,0,107648:0:0:0:0:
64,192,107648,1,0,0:0:0:0:
448,192,107648,1,0,0:0:0:0:
320,192,107825,1,0,0:0:0:0:
192,192,107825,1,0,0:0:0:0:
320,192,108001,1,0,0:0:0:0:
192,192,108001,1,0,0:0:0:0:
64,192,108001,1,0,0:0:0:0:
192,192,108354,1,0,0:0:0:0:
64,192,108354,1,0,0:0:0:0:
320,192,108442,1,0,0:0:0:0:
320,192,108531,1,0,0:0:0:0:
320,192,108619,1,0,0:0:0:0:
192,192,108707,1,0,0:0:0:0:
64,192,108707,1,0,0:0:0:0:
320,192,108795,1,0,0:0:0:0:
320,192,108883,1,0,0:0:0:0:
320,192,108972,1,0,0:0:0:0:
192,192,109060,1,0,0:0:0:0:
64,192,109060,1,0,0:0:0:0:
320,192,109148,1,0,0:0:0:0:
320,192,109236,1,0,0:0:0:0:
320,192,109325,1,0,0:0:0:0:
192,192,109413,1,0,0:0:0:0:
64,192,109413,1,0,0:0:0:0:
320,192,109501,1,0,0:0:0:0:
320,192,109589,1,0,0:0:0:0:
320,192,109678,1,0,0:0:0:0:
192,192,109766,1,0,0:0:0:0:
64,192,109766,1,0,0:0:0:0:
320,192,109854,1,0,0:0:0:0:
320,192,109942,1,0,0:0:0:0:
320,192,110031,1,0,0:0:0:0:
192,192,110119,1,0,0:0:0:0:
64,192,110119,1,0,0:0:0:0:
320,192,110207,1,0,0:0:0:0:
320,192,110295,1,0,0:0:0:0:
320,192,110383,1,0,0:0:0:0:
192,192,110472,1,0,0:0:0:0:
64,192,110472,1,0,0:0:0:0:
448,192,110648,1,0,0:0:0:0:
64,192,110736,1,0,0:0:0:0:
320,192,110825,1,0,0:0:0:0:
448,192,110825,1,0,0:0:0:0:
192,192,110913,1,0,0:0:0:0:
192,192,111001,1,0,0:0:0:0:
192,192,111089,1,0,0:0:0:0:
320,192,111178,1,0,0:0:0:0:
448,192,111178,1,0,0:0:0:0:
192,192,111266,1,0,0:0:0:0:
192,192,111354,1,0,0:0:0:0:
192,192,111442,1,0,0:0:0:0:
320,192,111531,1,0,0:0:0:0:
448,192,111531,1,0,0:0:0:0:
192,192,111619,1,0,0:0:0:0:
192,192,111707,1,0,0:0:0:0:
192,192,111795,1,0,0:0:0:0:
320,192,111883,1,0,0:0:0:0:
448,192,111883,1,0,0:0:0:0:
192,192,111972,1,0,0:0:0:0:
192,192,112060,1,0,0:0:0:0:
192,192,112148,1,0,0:0:0:0:
320,192,112236,1,0,0:0:0:0:
448,192,112236,1,0,0:0:0:0:
192,192,112325,1,0,0:0:0:0:
192,192,112413,1,0,0:0:0:0:
192,192,112501,1,0,0:0:0:0:
320,192,112589,1,0,0:0:0:0:
448,192,112589,1,0,0:0:0:0:
192,192,112678,1,0,0:0:0:0:
192,192,112766,1,0,0:0:0:0:
192,192,112854,1,0,0:0:0:0:
320,192,112942,1,0,0:0:0:0:
448,192,112942,1,0,0:0:0:0:
192,192,113031,1,0,0:0:0:0:
192,192,113119,1,0,0:0:0:0:
192,192,113207,1,0,0:0:0:0:
320,192,113295,1,0,0:0:0:0:
448,192,113295,1,0,0:0:0:0:
64,192,113339,1,0,0:0:0:0:
192,192,113383,1,0,0:0:0:0:
320,192,113428,1,0,0:0:0:0:
64,192,113472,1,0,0:0:0:0:
448,192,113516,1,0,0:0:0:0:
192,192,113560,1,0,0:0:0:0:
320,192,113604,1,0,0:0:0:0:
448,192,113648,128,0,114001:0:0:0:0:
64,192,113648,1,0,0:0:0:0:
320,192,114001,1,0,0:0:0:0:
64,192,114001,1,0,0:0:0:0:
192,192,114089,1,0,0:0:0:0:
448,192,114178,1,0,0:0:0:0:
192,192,114266,1,0,0:0:0:0:
448,192,114266,1,0,0:0:0:0:
64,192,114354,1,0,0:0:0:0:
320,192,114354,1,0,0:0:0:0:
64,192,114442,1,0,0:0:0:0:
448,192,114531,1,0,0:0:0:0:
192,192,114619,1,0,0:0:0:0:
448,192,114619,1,0,0:0:0:0:
64,192,114707,1,0,0:0:0:0:
320,192,114707,1,0,0:0:0:0:
192,192,114795,1,0,0:0:0:0:
448,192,114883,1,0,0:0:0:0:
192,192,114972,1,0,0:0:0:0:
448,192,114972,1,0,0:0:0:0:
320,192,115060,1,0,0:0:0:0:
64,192,115060,1,0,0:0:0:0:
64,192,115148,1,0,0:0:0:0:
448,192,115236,1,0,0:0:0:0:
192,192,115325,1,0,0:0:0:0:
448,192,115325,1,0,0:0:0:0:
320,192,115413,1,0,0:0:0:0:
64,192,115413,1,0,0:0:0:0:
192,192,115501,1,0,0:0:0:0:
448,192,115589,1,0,0:0:0:0:
192,192,115678,1,0,0:0:0:0:
448,192,115678,1,0,0:0:0:0:
320,192,115766,1,0,0:0:0:0:
64,192,115766,1,0,0:0:0:0:
64,192,115854,1,0,0:0:0:0:
448,192,115942,1,0,0:0:0:0:
192,192,116031,1,0,0:0:0:0:
448,192,116031,1,0,0:0:0:0:
320,192,116119,1,0,0:0:0:0:
64,192,116119,1,0,0:0:0:0:
320,192,116295,128,0,116383:0:0:0:0:
64,192,116295,128,0,116383:0:0:0:0:
192,192,116472,1,0,0:0:0:0:
448,192,116472,1,0,0:0:0:0:
320,192,116472,1,0,0:0:0:0:
448,192,116560,1,0,0:0:0:0:
64,192,116648,1,0,0:0:0:0:
320,192,116736,1,0,0:0:0:0:
64,192,116736,1,0,0:0:0:0:
320,192,116825,1,0,0:0:0:0:
448,192,116825,1,0,0:0:0:0:
192,192,116825,1,0,0:0:0:0:
64,192,116913,1,0,0:0:0:0:
64,192,117001,1,0,0:0:0:0:
320,192,117089,1,0,0:0:0:0:
64,192,117089,1,0,0:0:0:0:
320,192,117178,1,0,0:0:0:0:
448,192,117178,1,0,0:0:0:0:
192,192,117178,1,0,0:0:0:0:
448,192,117266,1,0,0:0:0:0:
64,192,117354,1,0,0:0:0:0:
320,192,117442,1,0,0:0:0:0:
64,192,117442,1,0,0:0:0:0:
448,192,117531,1,0,0:0:0:0:
192,192,117531,1,0,0:0:0:0:
64,192,117619,1,0,0:0:0:0:
64,192,117707,1,0,0:0:0:0:
320,192,117795,1,0,0:0:0:0:
64,192,117795,1,0,0:0:0:0:
448,192,117883,1,0,0:0:0:0:
320,192,117883,1,0,0:0:0:0:
192,192,117883,1,0,0:0:0:0:
448,192,118060,1,0,0:0:0:0:
64,192,118104,1,0,0:0:0:0:
320,192,118148,1,0,0:0:0:0:
192,192,118192,1,0,0:0:0:0:
320,192,118236,1,0,0:0:0:0:
448,192,118236,1,0,0:0:0:0:
192,192,118325,1,0,0:0:0:0:
64,192,118325,1,0,0:0:0:0:
192,192,118413,1,0,0:0:0:0:
64,192,118413,1,0,0:0:0:0:
320,192,118501,1,0,0:0:0:0:
448,192,118589,1,0,0:0:0:0:
64,192,118589,1,0,0:0:0:0:
64,192,118678,1,0,0:0:0:0:
192,192,118678,1,0,0:0:0:0:
448,192,118766,1,0,0:0:0:0:
320,192,118766,1,0,0:0:0:0:
448,192,118854,1,0,0:0:0:0:
64,192,118942,128,0,119031:0:0:0:0:
448,192,118942,128,0,119031:0:0:0:0:
320,192,118942,1,0,0:0:0:0:
192,192,118942,1,0,0:0:0:0:
448,192,119295,1,0,0:0:0:0:
320,192,119295,1,0,0:0:0:0:
64,192,119295,1,0,0:0:0:0:
192,192,119383,1,0,0:0:0:0:
448,192,119472,1,0,0:0:0:0:
320,192,119472,1,0,0:0:0:0:
192,192,119560,1,0,0:0:0:0:
64,192,119560,1,0,0:0:0:0:
448,192,119648,1,0,0:0:0:0:
320,192,119648,1,0,0:0:0:0:
64,192,119648,1,0,0:0:0:0:
448,192,119736,1,0,0:0:0:0:
320,192,119736,1,0,0:0:0:0:
192,192,119825,1,0,0:0:0:0:
64,192,119825,1,0,0:0:0:0:
320,192,119913,1,0,0:0:0:0:
192,192,120001,1,0,0:0:0:0:
448,192,120001,1,0,0:0:0:0:
64,192,120001,1,0,0:0:0:0:
64,192,120089,1,0,0:0:0:0:
192,192,120089,1,0,0:0:0:0:
320,192,120178,1,0,0:0:0:0:
64,192,120266,1,0,0:0:0:0:
192,192,120266,1,0,0:0:0:0:
448,192,120354,1,0,0:0:0:0:
320,192,120354,1,0,0:0:0:0:
64,192,120354,1,0,0:0:0:0:
320,192,120442,1,0,0:0:0:0:
448,192,120531,1,0,0:0:0:0:
64,192,120531,1,0,0:0:0:0:
192,192,120531,1,0,0:0:0:0:
320,192,120619,1,0,0:0:0:0:
448,192,120707,1,0,0:0:0:0:
192,192,120707,1,0,0:0:0:0:
64,192,120707,1,0,0:0:0:0:
320,192,120795,1,0,0:0:0:0:
64,192,120883,1,0,0:0:0:0:
192,192,120883,1,0,0:0:0:0:
448,192,120972,1,0,0:0:0:0:
320,192,120972,1,0,0:0:0:0:
64,192,121060,1,0,0:0:0:0:
192,192,121060,1,0,0:0:0:0:
448,192,121060,1,0,0:0:0:0:
64,192,121148,1,0,0:0:0:0:
192,192,121148,1,0,0:0:0:0:
448,192,121236,1,0,0:0:0:0:
320,192,121236,1,0,0:0:0:0:
192,192,121325,1,0,0:0:0:0:
64,192,121413,1,0,0:0:0:0:
448,192,121413,1,0,0:0:0:0:
320,192,121413,1,0,0:0:0:0:
448,192,121501,1,0,0:0:0:0:
320,192,121501,1,0,0:0:0:0:
192,192,121589,1,0,0:0:0:0:
448,192,121678,1,0,0:0:0:0:
320,192,121678,1,0,0:0:0:0:
64,192,121766,1,0,0:0:0:0:
192,192,121766,1,0,0:0:0:0:
448,192,121766,1,0,0:0:0:0:
64,192,121854,1,0,0:0:0:0:
192,192,121854,1,0,0:0:0:0:
448,192,121942,1,0,0:0:0:0:
320,192,121942,1,0,0:0:0:0:
192,192,122031,1,0,0:0:0:0:
448,192,122119,1,0,0:0:0:0:
64,192,122119,1,0,0:0:0:0:
192,192,122119,1,0,0:0:0:0:
320,192,122119,1,0,0:0:0:0:
192,192,122295,1,0,0:0:0:0:
64,192,122295,1,0,0:0:0:0:
448,192,122295,1,0,0:0:0:0:
320,192,122295,1,0,0:0:0:0:
448,192,122472,1,0,0:0:0:0:
64,192,122472,1,0,0:0:0:0:
192,192,122472,1,0,0:0:0:0:
320,192,122472,1,0,0:0:0:0:
448,192,122560,1,0,0:0:0:0:
320,192,122560,1,0,0:0:0:0:
448,192,122648,1,0,0:0:0:0:
320,192,122648,1,0,0:0:0:0:
448,192,122825,1,0,0:0:0:0:
320,192,122825,1,0,0:0:0:0:
64,192,122825,1,0,0:0:0:0:
192,192,122825,1,0,0:0:0:0:
192,192,122913,1,0,0:0:0:0:
64,192,122913,1,0,0:0:0:0:
192,192,123089,1,0,0:0:0:0:
64,192,123089,1,0,0:0:0:0:
320,192,123178,1,0,0:0:0:0:
448,192,123178,1,0,0:0:0:0:
64,192,123178,1,0,0:0:0:0:
192,192,123178,1,0,0:0:0:0:
320,192,123354,1,0,0:0:0:0:
448,192,123354,1,0,0:0:0:0:
64,192,123354,1,0,0:0:0:0:
192,192,123354,1,0,0:0:0:0:
64,192,123442,1,0,0:0:0:0:
192,192,123442,1,0,0:0:0:0:
448,192,123442,1,0,0:0:0:0:
320,192,123442,1,0,0:0:0:0:
320,192,123531,1,0,0:0:0:0:
448,192,123531,1,0,0:0:0:0:
64,192,123531,1,0,0:0:0:0:
192,192,123531,1,0,0:0:0:0:
448,192,123707,1,0,0:0:0:0:
320,192,123707,1,0,0:0:0:0:
64,192,123795,1,0,0:0:0:0:
192,192,123795,1,0,0:0:0:0:
320,192,123883,1,0,0:0:0:0:
448,192,123883,1,0,0:0:0:0:
64,192,123883,1,0,0:0:0:0:
192,192,123883,1,0,0:0:0:0:
448,192,123972,1,0,0:0:0:0:
320,192,123972,1,0,0:0:0:0:
192,192,124060,1,0,0:0:0:0:
64,192,124060,1,0,0:0:0:0:
320,192,124148,1,0,0:0:0:0:
448,192,124148,1,0,0:0:0:0:
64,192,124148,1,0,0:0:0:0:
192,192,124148,1,0,0:0:0:0:
320,192,124236,1,0,0:0:0:0:
448,192,124236,1,0,0:0:0:0:
64,192,124236,1,0,0:0:0:0:
192,192,124236,1,0,0:0:0:0:
448,192,124413,1,0,0:0:0:0:
192,192,124413,1,0,0:0:0:0:
64,192,124413,1,0,0:0:0:0:
320,192,124413,1,0,0:0:0:0:
64,192,124589,128,0,124678:0:0:0:0:
448,192,124589,128,0,124678:0:0:0:0:
192,192,124589,1,0,0:0:0:0:
320,192,124589,1,0,0:0:0:0:
448,192,124942,1,0,0:0:0:0:
64,192,124942,1,0,0:0:0:0:
320,192,125001,128,0,125119:0:0:0:0:
192,192,125001,128,0,125119:0:0:0:0:
448,192,125060,1,0,0:0:0:0:
64,192,125060,1,0,0:0:0:0:
64,192,125295,1,0,0:0:0:0:
320,192,125295,1,0,0:0:0:0:
448,192,125295,1,0,0:0:0:0:
192,192,125383,1,0,0:0:0:0:
448,192,125472,1,0,0:0:0:0:
192,192,125560,1,0,0:0:0:0:
320,192,125560,1,0,0:0:0:0:
448,192,125648,1,0,0:0:0:0:
192,192,125648,1,0,0:0:0:0:
64,192,125648,1,0,0:0:0:0:
320,192,125736,1,0,0:0:0:0:
64,192,125825,1,0,0:0:0:0:
192,192,125913,1,0,0:0:0:0:
320,192,125913,1,0,0:0:0:0:
64,192,126001,1,0,0:0:0:0:
448,192,126001,1,0,0:0:0:0:
320,192,126001,1,0,0:0:0:0:
192,192,126089,1,0,0:0:0:0:
320,192,126178,1,0,0:0:0:0:
448,192,126266,1,0,0:0:0:0:
64,192,126266,1,0,0:0:0:0:
64,192,126354,1,0,0:0:0:0:
192,192,126354,1,0,0:0:0:0:
320,192,126354,1,0,0:0:0:0:
448,192,126442,1,0,0:0:0:0:
192,192,126531,1,0,0:0:0:0:
448,192,126619,1,0,0:0:0:0:
64,192,126619,1,0,0:0:0:0:
448,192,126707,1,0,0:0:0:0:
320,192,126707,1,0,0:0:0:0:
192,192,126707,1,0,0:0:0:0:
64,192,126795,1,0,0:0:0:0:
320,192,126883,1,0,0:0:0:0:
448,192,126972,1,0,0:0:0:0:
192,192,126972,1,0,0:0:0:0:
320,192,127060,1,0,0:0:0:0:
192,192,127060,1,0,0:0:0:0:
64,192,127060,1,0,0:0:0:0:
448,192,127148,1,0,0:0:0:0:
192,192,127236,1,0,0:0:0:0:
320,192,127325,1,0,0:0:0:0:
64,192,127325,1,0,0:0:0:0:
448,192,127413,128,0,127678:0:0:0:0:
320,192,127413,128,0,127501:0:0:0:0:
192,192,127413,1,0,0:0:0:0:
64,192,127501,128,0,127678:0:0:0:0:
320,192,127589,1,0,0:0:0:0:
192,192,127589,1,0,0:0:0:0:
320,192,127766,1,0,0:0:0:0:
448,192,127766,1,0,0:0:0:0:
64,192,127766,1,0,0:0:0:0:
192,192,127766,1,0,0:0:0:0:
448,192,127942,1,0,0:0:0:0:
192,192,128031,1,0,0:0:0:0:
320,192,128031,1,0,0:0:0:0:
448,192,128119,1,0,0:0:0:0:
192,192,128119,1,0,0:0:0:0:
64,192,128119,1,0,0:0:0:0:
320,192,128207,1,0,0:0:0:0:
64,192,128295,1,0,0:0:0:0:
320,192,128383,1,0,0:0:0:0:
192,192,128383,1,0,0:0:0:0:
320,192,128472,1,0,0:0:0:0:
448,192,128472,1,0,0:0:0:0:
64,192,128472,1,0,0:0:0:0:
192,192,128472,1,0,0:0:0:0:
192,192,128648,1,0,0:0:0:0:
64,192,128736,1,0,0:0:0:0:
448,192,128736,1,0,0:0:0:0:
448,192,128825,1,0,0:0:0:0:
192,192,128825,1,0,0:0:0:0:
320,192,128825,1,0,0:0:0:0:
64,192,128913,1,0,0:0:0:0:
320,192,129001,1,0,0:0:0:0:
448,192,129089,1,0,0:0:0:0:
64,192,129089,1,0,0:0:0:0:
192,192,129178,1,0,0:0:0:0:
64,192,129178,1,0,0:0:0:0:
448,192,129178,1,0,0:0:0:0:
320,192,129178,1,0,0:0:0:0:
192,192,129354,1,0,0:0:0:0:
320,192,129442,1,0,0:0:0:0:
192,192,129442,1,0,0:0:0:0:
64,192,129531,1,0,0:0:0:0:
320,192,129531,1,0,0:0:0:0:
320,192,129707,1,0,0:0:0:0:
192,192,129795,1,0,0:0:0:0:
320,192,129795,1,0,0:0:0:0:
192,192,129883,1,0,0:0:0:0:
448,192,129883,1,0,0:0:0:0:
320,192,129972,1,0,0:0:0:0:
64,192,129972,1,0,0:0:0:0:
448,192,130060,1,0,0:0:0:0:
64,192,130148,1,0,0:0:0:0:
320,192,130236,1,0,0:0:0:0:
448,192,130236,1,0,0:0:0:0:
64,192,130236,1,0,0:0:0:0:
192,192,130236,1,0,0:0:0:0:
192,192,130589,128,0,130639:0:0:0:0:
320,192,130589,1,0,0:0:0:0:
64,192,130589,1,0,0:0:0:0:
192,192,132839,128,0,132889:0:0:0:0:
320,192,132914,128,0,132964:0:0:0:0:
448,192,132989,128,0,133039:0:0:0:0:
448,192,135239,128,0,135289:0:0:0:0:
320,192,135314,128,0,135364:0:0:0:0:
64,192,135389,1,0,0:0:0:0:
192,192,135389,128,0,135439:0:0:0:0:
448,192,139589,128,0,139639:0:0:0:0:
320,192,139664,128,0,139714:0:0:0:0:
192,192,139739,128,0,139789:0:0:0:0:
64,192,139814,128,0,139864:0:0:0:0:
448,192,139889,128,0,139939:0:0:0:0:
64,192,139964,128,0,140014:0:0:0:0:
320,192,140039,128,0,140089:0:0:0:0:
64,192,140114,128,0,140164:0:0:0:0:
192,192,140189,128,0,140239:0:0:0:0:
320,192,140189,1,0,0:0:0:0:
448,192,140189,1,0,0:0:0:0:
320,192,140639,128,0,140689:0:0:0:0:
192,192,141089,128,0,141139:0:0:0:0:
448,192,141539,128,0,141589:0:0:0:0:
64,192,141989,128,0,142039:0:0:0:0:
320,192,142139,1,0,0:0:0:0:
192,192,142139,1,0,0:0:0:0:
448,192,142289,128,0,142339:0:0:0:0:
448,192,142439,128,0,142489:0:0:0:0:
320,192,142514,128,0,142564:0:0:0:0:
64,192,142589,1,0,0:0:0:0:
192,192,142589,128,0,142639:0:0:0:0:
448,192,143039,128,0,143089:0:0:0:0:
192,192,143489,128,0,143539:0:0:0:0:
448,192,144389,1,0,0:0:0:0:
320,192,144539,1,0,0:0:0:0:
64,192,144539,128,0,144589:0:0:0:0:
448,192,144839,128,0,144889:0:0:0:0:
192,192,144989,1,0,0:0:0:0:
320,192,144989,128,0,145039:0:0:0:0:
192,192,145439,128,0,145489:0:0:0:0:
64,192,145889,128,0,145939:0:0:0:0:
320,192,145964,128,0,146014:0:0:0:0:
192,192,146039,128,0,146089:0:0:0:0:
320,192,146114,128,0,146164:0:0:0:0:
64,192,146189,1,0,0:0:0:0:
448,192,146189,128,0,146239:0:0:0:0:
320,192,146639,128,0,146689:0:0:0:0:
192,192,147089,128,0,147139:0:0:0:0:
448,192,147389,1,0,0:0:0:0:
320,192,147389,128,0,147439:0:0:0:0:
64,192,147839,128,0,147889:0:0:0:0:
320,192,148289,128,0,148339:0:0:0:0:
448,192,148339,128,0,148389:0:0:0:0:
64,192,148589,1,0,0:0:0:0:
192,192,148589,128,0,148639:0:0:0:0:
448,192,148664,128,0,148714:0:0:0:0:
192,192,148739,128,0,148789:0:0:0:0:
448,192,149339,128,0,149389:0:0:0:0:
320,192,149414,128,0,149464:0:0:0:0:
192,192,149489,128,0,149539:0:0:0:0:
320,192,149564,128,0,149614:0:0:0:0:
192,192,149639,128,0,149689:0:0:0:0:
64,192,149714,128,0,149764:0:0:0:0:
192,192,149789,128,0,149839:0:0:0:0:
448,192,149807,1,0,0:0:0:0:
448,192,150089,1,0,0:0:0:0:
320,192,150239,128,0,150289:0:0:0:0:
320,192,150689,1,0,0:0:0:0:
192,192,150689,128,0,150739:0:0:0:0:
64,192,150989,1,0,0:0:0:0:
448,192,151139,128,0,151189:0:0:0:0:
320,192,151589,1,0,0:0:0:0:
64,192,151589,128,0,151639:0:0:0:0:
320,192,151739,1,0,0:0:0:0:
192,192,151739,1,0,0:0:0:0:
192,192,151889,1,0,0:0:0:0:
448,192,151889,128,0,151939:0:0:0:0:
448,192,152039,128,0,152089:0:0:0:0:
320,192,152114,128,0,152164:0:0:0:0:
64,192,152189,1,0,0:0:0:0:
192,192,152189,128,0,152239:0:0:0:0:
448,192,152639,128,0,152689:0:0:0:0:
448,192,153089,1,0,0:0:0:0:
192,192,153089,128,0,153139:0:0:0:0:
320,192,153389,1,0,0:0:0:0:
192,192,153689,1,0,0:0:0:0:
320,192,153989,1,0,0:0:0:0:
448,192,153989,1,0,0:0:0:0:
320,192,154139,1,0,0:0:0:0:
64,192,154139,128,0,154189:0:0:0:0:
64,192,154289,1,0,0:0:0:0:
192,192,154289,1,0,0:0:0:0:
320,192,154439,1,0,0:0:0:0:
448,192,154439,128,0,154489:0:0:0:0:
320,192,154589,128,0,155489:0:0:0:0:
192,192,154589,1,0,0:0:0:0:
192,192,155039,128,0,155789:0:0:0:0:
64,192,155489,1,0,0:0:0:0:
448,192,155489,128,0,156389:0:0:0:0:
320,192,155789,128,0,156389:0:0:0:0:
192,192,156389,1,0,0:0:0:0:
64,192,156389,128,0,156689:0:0:0:0:
448,192,156539,1,0,0:0:0:0:
448,192,156689,1,0,0:0:0:0:
320,192,156689,128,0,156989:0:0:0:0:
64,192,156839,1,0,0:0:0:0:
64,192,156989,1,0,0:0:0:0:
448,192,156989,128,0,157814:0:0:0:0:
64,192,157439,128,0,158189:0:0:0:0:
448,192,157889,128,0,158214:0:0:0:0:
192,192,157889,1,0,0:0:0:0:
192,192,158189,128,0,159014:0:0:0:0:
320,192,158239,5,0,0:0:0:0:
448,192,158289,128,0,159089:0:0:0:0:
64,192,158789,128,0,159089:0:0:0:0:
320,192,159089,1,0,0:0:0:0:
192,192,159089,1,0,0:0:0:0:
448,192,159389,128,0,159689:0:0:0:0:
64,192,159389,128,0,159689:0:0:0:0:
320,192,159464,128,0,159689:0:0:0:0:
448,192,159839,128,0,160139:0:0:0:0:
64,192,159839,128,0,160139:0:0:0:0:
192,192,159914,128,0,160139:0:0:0:0:
320,192,160289,128,0,160364:0:0:0:0:
192,192,160326,1,0,0:0:0:0:
320,192,160439,1,0,0:0:0:0:
192,192,160464,1,0,0:0:0:0:
448,192,160464,1,0,0:0:0:0:
320,192,160589,128,0,160889:0:0:0:0:
64,192,160589,128,0,160889:0:0:0:0:
192,192,160664,128,0,160889:0:0:0:0:
448,192,161039,128,0,161339:0:0:0:0:
192,192,161039,128,0,161339:0:0:0:0:
320,192,161114,128,0,161339:0:0:0:0:
64,192,161339,1,0,0:0:0:0:
448,192,161414,1,0,0:0:0:0:
320,192,161489,1,0,0:0:0:0:
192,192,161564,1,0,0:0:0:0:
320,192,161639,1,0,0:0:0:0:
192,192,161714,1,0,0:0:0:0:
64,192,161789,128,0,162089:0:0:0:0:
448,192,161789,128,0,162089:0:0:0:0:
320,192,161864,128,0,162089:0:0:0:0:
448,192,162239,128,0,162539:0:0:0:0:
64,192,162239,128,0,163589:0:0:0:0:
192,192,162314,128,0,162539:0:0:0:0:
192,192,162689,1,0,0:0:0:0:
448,192,162839,1,0,0:0:0:0:
448,192,162989,128,0,163289:0:0:0:0:
320,192,162989,128,0,163289:0:0:0:0:
192,192,163064,128,0,163289:0:0:0:0:
320,192,163439,128,0,163664:0:0:0:0:
192,192,163439,128,0,163739:0:0:0:0:
448,192,163514,128,0,163739:0:0:0:0:
320,192,163739,128,0,163889:0:0:0:0:
448,192,163814,128,0,164114:0:0:0:0:
192,192,163814,128,0,164114:0:0:0:0:
320,192,163964,128,0,164114:0:0:0:0:
64,192,163964,128,0,164114:0:0:0:0:
64,192,164189,128,0,164489:0:0:0:0:
320,192,164189,128,0,164489:0:0:0:0:
448,192,164264,128,0,164489:0:0:0:0:
448,192,164639,128,0,164939:0:0:0:0:
192,192,164639,128,0,164939:0:0:0:0:
64,192,164714,128,0,164939:0:0:0:0:
192,192,165089,1,0,0:0:0:0:
448,192,165126,1,0,0:0:0:0:
192,192,165164,1,0,0:0:0:0:
64,192,165201,1,0,0:0:0:0:
320,192,165239,1,0,0:0:0:0:
448,192,165276,1,0,0:0:0:0:
320,192,165389,128,0,165689:0:0:0:0:
192,192,165389,128,0,165689:0:0:0:0:
64,192,165464,128,0,165689:0:0:0:0:
320,192,165839,128,0,166139:0:0:0:0:
192,192,165839,128,0,166139:0:0:0:0:
448,192,165914,128,0,166439:0:0:0:0:
192,192,166289,1,0,0:0:0:0:
64,192,166289,1,0,0:0:0:0:
64,192,166364,1,0,0:0:0:0:
320,192,166439,128,0,166514:0:0:0:0:
192,192,166514,128,0,166589:0:0:0:0:
448,192,166589,128,0,166889:0:0:0:0:
64,192,166589,128,0,167264:0:0:0:0:
320,192,166664,128,0,166889:0:0:0:0:
448,192,167039,128,0,167339:0:0:0:0:
192,192,167039,128,0,167339:0:0:0:0:
320,192,167114,128,0,167339:0:0:0:0:
64,192,167339,128,0,167414:0:0:0:0:
64,192,167489,128,0,167601:0:0:0:0:
64,192,167676,128,0,167789:0:0:0:0:
448,192,167789,128,0,168089:0:0:0:0:
320,192,167789,128,0,168089:0:0:0:0:
64,192,167864,128,0,167939:0:0:0:0:
64,192,168014,128,0,168126:0:0:0:0:
64,192,168201,128,0,168239:0:0:0:0:
320,192,168239,128,0,168539:0:0:0:0:
192,192,168239,128,0,168539:0:0:0:0:
64,192,168314,128,0,168426:0:0:0:0:
64,192,168501,128,0,168614:0:0:0:0:
320,192,168689,1,0,0:0:0:0:
448,192,168689,1,0,0:0:0:0:
64,192,168689,1,0,0:0:0:0:
192,192,168689,1,0,0:0:0:0:
64,192,168989,128,0,169289:0:0:0:0:
448,192,168989,128,0,169289:0:0:0:0:
320,192,169064,128,0,169289:0:0:0:0:
448,192,169439,128,0,169739:0:0:0:0:
64,192,169439,128,0,169739:0:0:0:0:
192,192,169514,128,0,169739:0:0:0:0:
320,192,169889,128,0,169964:0:0:0:0:
192,192,169926,1,0,0:0:0:0:
320,192,170039,1,0,0:0:0:0:
192,192,170064,1,0,0:0:0:0:
448,192,170064,1,0,0:0:0:0:
320,192,170189,128,0,170489:0:0:0:0:
64,192,170189,128,0,170489:0:0:0:0:
192,192,170264,128,0,170489:0:0:0:0:
448,192,170639,128,0,170939:0:0:0:0:
192,192,170639,128,0,170939:0:0:0:0:
320,192,170714,128,0,170939:0:0:0:0:
64,192,170939,1,0,0:0:0:0:
448,192,171014,1,0,0:0:0:0:
320,192,171089,1,0,0:0:0:0:
192,192,171164,1,0,0:0:0:0:
320,192,171239,1,0,0:0:0:0:
192,192,171314,1,0,0:0:0:0:
64,192,171389,128,0,171689:0:0:0:0:
448,192,171389,128,0,171689:0:0:0:0:
192,192,171464,128,0,171689:0:0:0:0:
448,192,171839,128,0,172139:0:0:0:0:
320,192,171839,128,0,172139:0:0:0:0:
192,192,171914,128,0,173189:0:0:0:0:
64,192,172289,1,0,0:0:0:0:
448,192,172439,1,0,0:0:0:0:
320,192,172589,128,0,172889:0:0:0:0:
64,192,172589,128,0,172889:0:0:0:0:
448,192,173039,128,0,173264:0:0:0:0:
64,192,173039,128,0,173264:0:0:0:0:
320,192,173114,128,0,173264:0:0:0:0:
192,192,173339,128,0,173489:0:0:0:0:
64,192,173339,128,0,173489:0:0:0:0:
320,192,173414,128,0,173489:0:0:0:0:
64,192,173564,128,0,173714:0:0:0:0:
448,192,173564,128,0,173714:0:0:0:0:
192,192,173639,128,0,173714:0:0:0:0:
64,192,173789,128,0,174089:0:0:0:0:
320,192,173789,128,0,174089:0:0:0:0:
448,192,173864,128,0,174089:0:0:0:0:
448,192,174239,128,0,174539:0:0:0:0:
192,192,174239,128,0,174539:0:0:0:0:
64,192,174314,128,0,174539:0:0:0:0:
192,192,174689,1,0,0:0:0:0:
448,192,174726,1,0,0:0:0:0:
192,192,174764,1,0,0:0:0:0:
64,192,174801,1,0,0:0:0:0:
320,192,174839,1,0,0:0:0:0:
448,192,174876,1,0,0:0:0:0:
320,192,174989,128,0,175289:0:0:0:0:
192,192,174989,128,0,175289:0:0:0:0:
64,192,175064,128,0,175289:0:0:0:0:
320,192,175439,128,0,175739:0:0:0:0:
192,192,175439,128,0,175739:0:0:0:0:
448,192,175514,128,0,176039:0:0:0:0:
192,192,175889,1,0,0:0:0:0:
64,192,175889,1,0,0:0:0:0:
64,192,175964,1,0,0:0:0:0:
320,192,176039,128,0,176114:0:0:0:0:
192,192,176114,128,0,176189:0:0:0:0:
448,192,176189,128,0,176489:0:0:0:0:
64,192,176189,128,0,176864:0:0:0:0:
320,192,176264,128,0,176489:0:0:0:0:
448,192,176639,128,0,176939:0:0:0:0:
192,192,176639,128,0,176939:0:0:0:0:
320,192,176714,128,0,176939:0:0:0:0:
64,192,176939,128,0,177014:0:0:0:0:
64,192,177089,128,0,177201:0:0:0:0:
64,192,177276,128,0,177389:0:0:0:0:
448,192,177389,128,0,177689:0:0:0:0:
320,192,177389,128,0,177689:0:0:0:0:
64,192,177464,128,0,177539:0:0:0:0:
64,192,177614,128,0,177726:0:0:0:0:
64,192,177801,128,0,177839:0:0:0:0:
320,192,177839,128,0,178139:0:0:0:0:
192,192,177839,128,0,178139:0:0:0:0:
64,192,177914,128,0,178026:0:0:0:0:
64,192,178101,128,0,178214:0:0:0:0:
320,192,178289,1,0,0:0:0:0:
448,192,178289,1,0,0:0:0:0:
64,192,178289,1,0,0:0:0:0:
192,192,178289,1,0,0:0:0:0:
448,192,178589,1,0,0:0:0:0:
64,192,178589,1,0,0:0:0:0:
192,192,178589,128,0,178664:0:0:0:0:
320,192,178739,128,0,178814:0:0:0:0:
192,192,178814,1,0,0:0:0:0:
448,192,178814,1,0,0:0:0:0:
320,192,178889,1,0,0:0:0:0:
64,192,178889,128,0,178964:0:0:0:0:
192,192,178964,1,0,0:0:0:0:
320,192,179039,1,0,0:0:0:0:
448,192,179039,128,0,179114:0:0:0:0:
192,192,179189,1,0,0:0:0:0:
64,192,179189,1,0,0:0:0:0:
64,192,179339,128,0,179414:0:0:0:0:
448,192,179414,1,0,0:0:0:0:
320,192,179414,1,0,0:0:0:0:
64,192,179489,1,0,0:0:0:0:
192,192,179489,128,0,179564:0:0:0:0:
448,192,179564,1,0,0:0:0:0:
192,192,179639,1,0,0:0:0:0:
320,192,179639,128,0,179714:0:0:0:0:
448,192,179789,1,0,0:0:0:0:
320,192,179789,1,0,0:0:0:0:
64,192,179939,1,0,0:0:0:0:
320,192,180014,1,0,0:0:0:0:
448,192,180014,1,0,0:0:0:0:
64,192,180089,1,0,0:0:0:0:
192,192,180089,1,0,0:0:0:0:
448,192,180164,1,0,0:0:0:0:
64,192,180239,1,0,0:0:0:0:
320,192,180239,1,0,0:0:0:0:
64,192,180389,1,0,0:0:0:0:
192,192,180389,1,0,0:0:0:0:
448,192,180539,1,0,0:0:0:0:
192,192,180614,1,0,0:0:0:0:
64,192,180614,1,0,0:0:0:0:
320,192,180689,1,0,0:0:0:0:
448,192,180689,1,0,0:0:0:0:
64,192,180764,1,0,0:0:0:0:
320,192,180801,1,0,0:0:0:0:
192,192,180839,1,0,0:0:0:0:
448,192,180839,1,0,0:0:0:0:
64,192,180914,1,0,0:0:0:0:
320,192,180914,1,0,0:0:0:0:
448,192,180989,1,0,0:0:0:0:
192,192,180989,1,0,0:0:0:0:
320,192,181139,1,0,0:0:0:0:
448,192,181214,1,0,0:0:0:0:
192,192,181214,1,0,0:0:0:0:
64,192,181289,1,0,0:0:0:0:
320,192,181289,1,0,0:0:0:0:
192,192,181364,1,0,0:0:0:0:
448,192,181439,1,0,0:0:0:0:
320,192,181439,1,0,0:0:0:0:
320,192,181589,1,0,0:0:0:0:
64,192,181589,1,0,0:0:0:0:
192,192,181739,1,0,0:0:0:0:
64,192,181814,1,0,0:0:0:0:
320,192,181814,1,0,0:0:0:0:
448,192,181889,1,0,0:0:0:0:
192,192,181889,1,0,0:0:0:0:
320,192,181964,1,0,0:0:0:0:
64,192,182039,1,0,0:0:0:0:
192,192,182039,1,0,0:0:0:0:
64,192,182189,1,0,0:0:0:0:
320,192,182189,1,0,0:0:0:0:
192,192,182339,1,0,0:0:0:0:
64,192,182414,1,0,0:0:0:0:
448,192,182414,1,0,0:0:0:0:
320,192,182489,1,0,0:0:0:0:
192,192,182489,1,0,0:0:0:0:
448,192,182564,1,0,0:0:0:0:
64,192,182639,1,0,0:0:0:0:
192,192,182639,1,0,0:0:0:0:
448,192,182789,1,0,0:0:0:0:
192,192,182789,1,0,0:0:0:0:
320,192,182939,1,0,0:0:0:0:
64,192,183014,1,0,0:0:0:0:
192,192,183089,1,0,0:0:0:0:
448,192,183126,1,0,0:0:0:0:
192,192,183164,1,0,0:0:0:0:
64,192,183201,1,0,0:0:0:0:
320,192,183239,1,0,0:0:0:0:
448,192,183276,1,0,0:0:0:0:
320,192,183389,1,0,0:0:0:0:
192,192,183389,1,0,0:0:0:0:
64,192,183389,1,0,0:0:0:0:
192,192,183539,1,0,0:0:0:0:
64,192,183539,1,0,0:0:0:0:
320,192,183614,1,0,0:0:0:0:
448,192,183689,1,0,0:0:0:0:
320,192,183689,1,0,0:0:0:0:
448,192,183839,1,0,0:0:0:0:
192,192,183839,1,0,0:0:0:0:
64,192,183914,1,0,0:0:0:0:
448,192,183989,1,0,0:0:0:0:
320,192,183989,1,0,0:0:0:0:
64,192,184064,1,0,0:0:0:0:
448,192,184139,1,0,0:0:0:0:
320,192,184139,1,0,0:0:0:0:
192,192,184214,1,0,0:0:0:0:
64,192,184289,1,0,0:0:0:0:
192,192,184289,1,0,0:0:0:0:
448,192,184364,1,0,0:0:0:0:
64,192,184439,1,0,0:0:0:0:
320,192,184439,1,0,0:0:0:0:
448,192,184514,1,0,0:0:0:0:
320,192,184589,1,0,0:0:0:0:
192,192,184589,1,0,0:0:0:0:
64,192,184589,1,0,0:0:0:0:
192,192,184739,1,0,0:0:0:0:
64,192,184739,1,0,0:0:0:0:
320,192,184814,1,0,0:0:0:0:
448,192,184889,1,0,0:0:0:0:
320,192,184889,1,0,0:0:0:0:
448,192,185039,1,0,0:0:0:0:
192,192,185039,1,0,0:0:0:0:
64,192,185114,1,0,0:0:0:0:
448,192,185189,1,0,0:0:0:0:
320,192,185189,1,0,0:0:0:0:
64,192,185264,1,0,0:0:0:0:
448,192,185339,1,0,0:0:0:0:
320,192,185339,1,0,0:0:0:0:
192,192,185414,1,0,0:0:0:0:
64,192,185489,1,0,0:0:0:0:
192,192,185489,1,0,0:0:0:0:
320,192,185564,1,0,0:0:0:0:
64,192,185639,1,0,0:0:0:0:
448,192,185639,1,0,0:0:0:0:
320,192,185714,1,0,0:0:0:0:
192,192,185789,1,0,0:0:0:0:
64,192,185789,1,0,0:0:0:0:
448,192,185864,1,0,0:0:0:0:
320,192,185864,1,0,0:0:0:0:
64,192,185939,1,0,0:0:0:0:
448,192,186014,1,0,0:0:0:0:
320,192,186089,1,0,0:0:0:0:
448,192,186089,1,0,0:0:0:0:
64,192,186164,1,0,0:0:0:0:
192,192,186239,1,0,0:0:0:0:
64,192,186314,1,0,0:0:0:0:
320,192,186314,1,0,0:0:0:0:
320,192,186389,1,0,0:0:0:0:
448,192,186389,1,0,0:0:0:0:
192,192,186464,1,0,0:0:0:0:
64,192,186464,1,0,0:0:0:0:
448,192,186539,1,0,0:0:0:0:
192,192,186614,1,0,0:0:0:0:
64,192,186689,1,0,0:0:0:0:
192,192,186689,1,0,0:0:0:0:
448,192,186764,1,0,0:0:0:0:
64,192,186839,1,0,0:0:0:0:
320,192,186839,1,0,0:0:0:0:
320,192,186914,1,0,0:0:0:0:
192,192,186989,1,0,0:0:0:0:
64,192,187007,1,0,0:0:0:0:
448,192,187139,128,0,187214:0:0:0:0:
192,192,187214,128,0,187289:0:0:0:0:
320,192,187289,128,0,187364:0:0:0:0:
448,192,187289,1,0,0:0:0:0:
64,192,187364,128,0,187439:0:0:0:0:
320,192,187439,128,0,187514:0:0:0:0:
192,192,187514,128,0,187589:0:0:0:0:
448,192,187589,128,0,187664:0:0:0:0:
192,192,187664,128,0,187739:0:0:0:0:
320,192,187739,128,0,187814:0:0:0:0:
64,192,187814,128,0,187889:0:0:0:0:
448,192,187889,128,0,188114:0:0:0:0:
320,192,187889,128,0,188039:0:0:0:0:
192,192,187889,128,0,187964:0:0:0:0:
320,192,188189,128,0,188414:0:0:0:0:
448,192,188189,1,0,0:0:0:0:
64,192,188189,1,0,0:0:0:0:
64,192,188264,128,0,188414:0:0:0:0:
192,192,188264,1,0,0:0:0:0:
64,192,188489,128,0,188714:0:0:0:0:
320,192,188489,1,0,0:0:0:0:
320,192,188564,128,0,188714:0:0:0:0:
192,192,188564,1,0,0:0:0:0:
448,192,188714,128,0,188939:0:0:0:0:
192,192,188714,128,0,188864:0:0:0:0:
320,192,188789,1,0,0:0:0:0:
64,192,188789,1,0,0:0:0:0:
64,192,188939,128,0,189239:0:0:0:0:
192,192,188939,1,0,0:0:0:0:
448,192,189014,128,0,189089:0:0:0:0:
192,192,189089,128,0,189389:0:0:0:0:
320,192,189089,1,0,0:0:0:0:
320,192,189239,128,0,189389:0:0:0:0:
448,192,189239,1,0,0:0:0:0:
64,192,189389,128,0,189614:0:0:0:0:
448,192,189389,1,0,0:0:0:0:
448,192,189464,128,0,189539:0:0:0:0:
192,192,189464,1,0,0:0:0:0:
192,192,189614,128,0,189839:0:0:0:0:
448,192,189614,128,0,189839:0:0:0:0:
320,192,189689,1,0,0:0:0:0:
64,192,189689,1,0,0:0:0:0:
64,192,189839,128,0,189914:0:0:0:0:
320,192,189839,128,0,189989:0:0:0:0:
64,192,189989,128,0,190064:0:0:0:0:
192,192,189989,128,0,190064:0:0:0:0:
448,192,189989,128,0,190064:0:0:0:0:
320,192,190064,128,0,190289:0:0:0:0:
448,192,190139,128,0,190289:0:0:0:0:
192,192,190139,128,0,190214:0:0:0:0:
64,192,190289,128,0,190514:0:0:0:0:
192,192,190289,1,0,0:0:0:0:
448,192,190439,128,0,190514:0:0:0:0:
192,192,190439,1,0,0:0:0:0:
64,192,190589,128,0,190814:0:0:0:0:
448,192,190589,1,0,0:0:0:0:
192,192,190589,1,0,0:0:0:0:
192,192,190664,128,0,190739:0:0:0:0:
320,192,190664,1,0,0:0:0:0:
448,192,190814,128,0,190964:0:0:0:0:
192,192,190814,128,0,191039:0:0:0:0:
64,192,190889,1,0,0:0:0:0:
320,192,190889,1,0,0:0:0:0:
64,192,191039,128,0,191264:0:0:0:0:
448,192,191039,128,0,191264:0:0:0:0:
320,192,191189,128,0,191414:0:0:0:0:
192,192,191189,128,0,191264:0:0:0:0:
64,192,191414,128,0,191639:0:0:0:0:
192,192,191414,128,0,191714:0:0:0:0:
320,192,191489,1,0,0:0:0:0:
448,192,191489,1,0,0:0:0:0:
448,192,191639,128,0,191789:0:0:0:0:
320,192,191639,128,0,191714:0:0:0:0:
64,192,191789,128,0,192089:0:0:0:0:
320,192,191789,1,0,0:0:0:0:
320,192,191864,128,0,192089:0:0:0:0:
192,192,191864,1,0,0:0:0:0:
192,192,192089,128,0,192164:0:0:0:0:
448,192,192089,1,0,0:0:0:0:
64,192,192164,128,0,192239:0:0:0:0:
192,192,192239,128,0,192539:0:0:0:0:
320,192,192314,128,0,192389:0:0:0:0:
64,192,192389,128,0,192689:0:0:0:0:
448,192,192389,128,0,192464:0:0:0:0:
320,192,192464,128,0,192614:0:0:0:0:
448,192,192539,128,0,192614:0:0:0:0:
192,192,192614,128,0,192764:0:0:0:0:
448,192,192689,128,0,192839:0:0:0:0:
320,192,192689,128,0,192914:0:0:0:0:
64,192,192764,128,0,192989:0:0:0:0:
192,192,192839,128,0,192914:0:0:0:0:
448,192,192914,128,0,192989:0:0:0:0:
320,192,192989,128,0,193214:0:0:0:0:
192,192,192989,1,0,0:0:0:0:
192,192,193064,128,0,193214:0:0:0:0:
64,192,193064,1,0,0:0:0:0:
64,192,193289,128,0,193514:0:0:0:0:
320,192,193289,1,0,0:0:0:0:
320,192,193364,128,0,193514:0:0:0:0:
192,192,193364,1,0,0:0:0:0:
448,192,193514,128,0,193739:0:0:0:0:
192,192,193514,128,0,193664:0:0:0:0:
64,192,193589,1,0,0:0:0:0:
320,192,193589,1,0,0:0:0:0:
320,192,193739,128,0,193889:0:0:0:0:
192,192,193739,1,0,0:0:0:0:
64,192,193814,128,0,193889:0:0:0:0:
192,192,193889,128,0,194039:0:0:0:0:
448,192,193889,1,0,0:0:0:0:
320,192,193964,128,0,194039:0:0:0:0:
448,192,194039,128,0,194114:0:0:0:0:
64,192,194039,128,0,194189:0:0:0:0:
192,192,194189,128,0,194414:0:0:0:0:
448,192,194189,1,0,0:0:0:0:
448,192,194264,128,0,194489:0:0:0:0:
320,192,194264,1,0,0:0:0:0:
192,192,194489,128,0,194639:0:0:0:0:
64,192,194489,1,0,0:0:0:0:
320,192,194564,128,0,194639:0:0:0:0:
64,192,194564,1,0,0:0:0:0:
320,192,194714,128,0,194939:0:0:0:0:
192,192,194714,128,0,194789:0:0:0:0:
64,192,194789,1,0,0:0:0:0:
448,192,194789,1,0,0:0:0:0:
64,192,194939,128,0,195014:0:0:0:0:
192,192,195014,128,0,195089:0:0:0:0:
64,192,195089,128,0,195239:0:0:0:0:
320,192,195089,128,0,195164:0:0:0:0:
192,192,195164,128,0,195239:0:0:0:0:
448,192,195239,128,0,195314:0:0:0:0:
320,192,195239,128,0,195314:0:0:0:0:
192,192,195389,1,0,0:0:0:0:
448,192,195389,128,0,195689:0:0:0:0:
320,192,195389,1,0,0:0:0:0:
64,192,195464,128,0,195614:0:0:0:0:
320,192,195464,1,0,0:0:0:0:
192,192,195689,128,0,195914:0:0:0:0:
64,192,195689,1,0,0:0:0:0:
320,192,195764,128,0,195839:0:0:0:0:
64,192,195764,1,0,0:0:0:0:
320,192,195914,128,0,196064:0:0:0:0:
448,192,195914,128,0,195989:0:0:0:0:
64,192,195989,1,0,0:0:0:0:
192,192,195989,1,0,0:0:0:0:
448,192,196064,128,0,196139:0:0:0:0:
64,192,196139,128,0,196214:0:0:0:0:
320,192,196214,128,0,196289:0:0:0:0:
64,192,196289,1,0,0:0:0:0:
192,192,196289,128,0,196439:0:0:0:0:
448,192,196289,1,0,0:0:0:0:
448,192,196439,128,0,196514:0:0:0:0:
64,192,196439,128,0,196514:0:0:0:0:
320,192,196589,128,0,196664:0:0:0:0:
192,192,196589,128,0,196739:0:0:0:0:
64,192,196589,128,0,196964:0:0:0:0:
448,192,196664,128,0,196814:0:0:0:0:
320,192,196739,128,0,196814:0:0:0:0:
192,192,196814,128,0,196889:0:0:0:0:
448,192,196889,128,0,197114:0:0:0:0:
320,192,196889,128,0,197114:0:0:0:0:
192,192,196964,128,0,197039:0:0:0:0:
64,192,197039,128,0,197114:0:0:0:0:
192,192,197114,128,0,197339:0:0:0:0:
320,192,197189,128,0,197339:0:0:0:0:
448,192,197189,128,0,197339:0:0:0:0:
64,192,197189,128,0,197339:0:0:0:0:
64,192,197414,128,0,197564:0:0:0:0:
448,192,197414,128,0,197564:0:0:0:0:
192,192,197414,128,0,197564:0:0:0:0:
448,192,197639,128,0,197789:0:0:0:0:
320,192,197639,128,0,197714:0:0:0:0:
192,192,197639,128,0,197714:0:0:0:0:
320,192,197789,1,0,0:0:0:0:
192,192,197789,1,0,0:0:0:0:
448,192,197939,128,0,198014:0:0:0:0:
320,192,198089,1,0,0:0:0:0:
64,192,198089,128,0,198164:0:0:0:0:
192,192,198089,1,0,0:0:0:0:
448,192,198089,1,0,0:0:0:0:
192,192,198164,128,0,198239:0:0:0:0:
320,192,198239,128,0,198314:0:0:0:0:
448,192,198314,128,0,198389:0:0:0:0:
192,192,198389,1,0,0:0:0:0:
64,192,198389,1,0,0:0:0:0:
192,192,198464,128,0,198539:0:0:0:0:
64,192,198464,128,0,198539:0:0:0:0:
320,192,198614,1,0,0:0:0:0:
448,192,198614,1,0,0:0:0:0:
320,192,198689,128,0,198764:0:0:0:0:
448,192,198689,128,0,198764:0:0:0:0:
320,192,198839,128,0,199139:0:0:0:0:
192,192,198839,128,0,199139:0:0:0:0:
64,192,199139,1,0,0:0:0:0:
448,192,199289,1,0,0:0:0:0:
448,192,199364,1,0,0:0:0:0:
64,192,199439,1,0,0:0:0:0:
448,192,199514,1,0,0:0:0:0:
64,192,199589,1,0,0:0:0:0:
64,192,199664,1,0,0:0:0:0:
448,192,199739,1,0,0:0:0:0:
192,192,199776,1,0,0:0:0:0:
448,192,199814,1,0,0:0:0:0:
64,192,199889,1,0,0:0:0:0:
320,192,199889,1,0,0:0:0:0:
192,192,199964,1,0,0:0:0:0:
320,192,200039,1,0,0:0:0:0:
192,192,200114,1,0,0:0:0:0:
448,192,200189,1,0,0:0:0:0:
320,192,200189,1,0,0:0:0:0:
192,192,200339,128,0,200414:0:0:0:0:
448,192,200339,128,0,200489:0:0:0:0:
192,192,200489,128,0,200564:0:0:0:0:
320,192,200489,1,0,0:0:0:0:
64,192,200564,128,0,200639:0:0:0:0:
192,192,200639,128,0,200714:0:0:0:0:
448,192,200714,128,0,200789:0:0:0:0:
64,192,200789,1,0,0:0:0:0:
320,192,200789,1,0,0:0:0:0:
64,192,200864,128,0,200939:0:0:0:0:
320,192,200864,128,0,200939:0:0:0:0:
448,192,201014,1,0,0:0:0:0:
192,192,201014,1,0,0:0:0:0:
448,192,201089,128,0,201164:0:0:0:0:
192,192,201089,128,0,201164:0:0:0:0:
448,192,201239,128,0,201389:0:0:0:0:
64,192,201239,128,0,201389:0:0:0:0:
192,192,201389,1,0,0:0:0:0:
320,192,201426,1,0,0:0:0:0:
192,192,201464,1,0,0:0:0:0:
320,192,201501,1,0,0:0:0:0:
64,192,201539,1,0,0:0:0:0:
64,192,201689,1,0,0:0:0:0:
320,192,201764,1,0,0:0:0:0:
192,192,201839,1,0,0:0:0:0:
448,192,201839,1,0,0:0:0:0:
64,192,201914,1,0,0:0:0:0:
320,192,201914,1,0,0:0:0:0:
192,192,201989,1,0,0:0:0:0:
448,192,202026,1,0,0:0:0:0:
192,192,202064,1,0,0:0:0:0:
320,192,202139,128,0,202214:0:0:0:0:
192,192,202214,128,0,202289:0:0:0:0:
320,192,202289,128,0,202364:0:0:0:0:
448,192,202289,1,0,0:0:0:0:
64,192,202364,128,0,202439:0:0:0:0:
192,192,202364,1,0,0:0:0:0:
320,192,202439,128,0,202514:0:0:0:0:
448,192,202514,128,0,202589:0:0:0:0:
320,192,202589,128,0,202739:0:0:0:0:
64,192,202589,1,0,0:0:0:0:
192,192,202664,128,0,202739:0:0:0:0:
64,192,202664,1,0,0:0:0:0:
448,192,202739,128,0,202814:0:0:0:0:
192,192,202814,128,0,202889:0:0:0:0:
320,192,202889,128,0,202964:0:0:0:0:
448,192,202889,1,0,0:0:0:0:
64,192,202964,128,0,203039:0:0:0:0:
320,192,203039,128,0,203114:0:0:0:0:
64,192,203114,128,0,203189:0:0:0:0:
192,192,203189,128,0,203339:0:0:0:0:
448,192,203189,1,0,0:0:0:0:
320,192,203264,128,0,203339:0:0:0:0:
448,192,203264,1,0,0:0:0:0:
64,192,203414,128,0,203489:0:0:0:0:
320,192,203414,128,0,203489:0:0:0:0:
448,192,203489,1,0,0:0:0:0:
192,192,203489,1,0,0:0:0:0:
192,192,203639,128,0,203714:0:0:0:0:
448,192,203639,128,0,203714:0:0:0:0:
192,192,203789,128,0,203939:0:0:0:0:
448,192,203789,1,0,0:0:0:0:
320,192,203864,128,0,203939:0:0:0:0:
448,192,203864,1,0,0:0:0:0:
64,192,203939,128,0,204014:0:0:0:0:
320,192,204014,128,0,204089:0:0:0:0:
192,192,204089,128,0,204164:0:0:0:0:
64,192,204089,1,0,0:0:0:0:
448,192,204164,128,0,204239:0:0:0:0:
192,192,204239,128,0,204314:0:0:0:0:
448,192,204314,128,0,204389:0:0:0:0:
320,192,204389,128,0,204539:0:0:0:0:
64,192,204389,1,0,0:0:0:0:
192,192,204464,128,0,204539:0:0:0:0:
64,192,204464,1,0,0:0:0:0:
448,192,204614,128,0,204689:0:0:0:0:
192,192,204614,128,0,204689:0:0:0:0:
64,192,204689,1,0,0:0:0:0:
320,192,204689,1,0,0:0:0:0:
64,192,204839,128,0,204914:0:0:0:0:
320,192,204839,128,0,204914:0:0:0:0:
192,192,204989,1,0,0:0:0:0:
448,192,204989,128,0,205139:0:0:0:0:
64,192,205064,128,0,205139:0:0:0:0:
192,192,205064,1,0,0:0:0:0:
320,192,205139,128,0,205214:0:0:0:0:
64,192,205214,128,0,205289:0:0:0:0:
448,192,205289,128,0,205364:0:0:0:0:
320,192,205289,1,0,0:0:0:0:
192,192,205364,128,0,205439:0:0:0:0:
448,192,205439,128,0,205514:0:0:0:0:
192,192,205514,128,0,205589:0:0:0:0:
64,192,205589,128,0,205739:0:0:0:0:
320,192,205589,1,0,0:0:0:0:
448,192,205664,128,0,205739:0:0:0:0:
320,192,205664,1,0,0:0:0:0:
192,192,205814,128,0,205889:0:0:0:0:
448,192,205814,128,0,205889:0:0:0:0:
320,192,205889,1,0,0:0:0:0:
64,192,205889,1,0,0:0:0:0:
64,192,206039,128,0,206114:0:0:0:0:
320,192,206039,128,0,206114:0:0:0:0:
448,192,206189,128,0,206264:0:0:0:0:
320,192,206189,1,0,0:0:0:0:
192,192,206264,128,0,206339:0:0:0:0:
448,192,206339,128,0,206414:0:0:0:0:
320,192,206339,1,0,0:0:0:0:
192,192,206414,128,0,206489:0:0:0:0:
320,192,206489,128,0,206564:0:0:0:0:
448,192,206489,1,0,0:0:0:0:
64,192,206564,128,0,206639:0:0:0:0:
448,192,206639,1,0,0:0:0:0:
320,192,206639,128,0,206714:0:0:0:0:
64,192,206714,128,0,206789:0:0:0:0:
448,192,206789,128,0,206914:0:0:0:0:
320,192,206789,128,0,206914:0:0:0:0:
192,192,206789,128,0,206914:0:0:0:0:
192,192,206989,128,0,207114:0:0:0:0:
448,192,206989,128,0,207114:0:0:0:0:
64,192,206989,128,0,207114:0:0:0:0:
192,192,207189,128,0,207314:0:0:0:0:
64,192,207189,128,0,207314:0:0:0:0:
320,192,207189,128,0,207314:0:0:0:0:
320,192,207389,128,0,207614:0:0:0:0:
192,192,207389,1,0,0:0:0:0:
192,192,207464,128,0,207651:0:0:0:0:
448,192,207689,1,0,0:0:0:0:
64,192,207689,1,0,0:0:0:0:
320,192,207689,1,0,0:0:0:0:
320,192,207764,128,0,207914:0:0:0:0:
192,192,207764,1,0,0:0:0:0:
448,192,207914,128,0,208139:0:0:0:0:
192,192,207914,128,0,208064:0:0:0:0:
64,192,208139,128,0,208214:0:0:0:0:
192,192,208139,1,0,0:0:0:0:
448,192,208214,128,0,208289:0:0:0:0:
64,192,208289,128,0,208439:0:0:0:0:
192,192,208289,128,0,208589:0:0:0:0:
320,192,208289,1,0,0:0:0:0:
320,192,208439,128,0,208589:0:0:0:0:
448,192,208439,1,0,0:0:0:0:
64,192,208589,128,0,208664:0:0:0:0:
448,192,208589,1,0,0:0:0:0:
448,192,208664,128,0,208739:0:0:0:0:
192,192,208664,1,0,0:0:0:0:
64,192,208739,128,0,208814:0:0:0:0:
320,192,208739,1,0,0:0:0:0:
448,192,208814,128,0,209039:0:0:0:0:
192,192,208889,128,0,209039:0:0:0:0:
320,192,208889,1,0,0:0:0:0:
64,192,208889,1,0,0:0:0:0:
64,192,209039,128,0,209114:0:0:0:0:
320,192,209039,128,0,209189:0:0:0:0:
64,192,209189,128,0,209264:0:0:0:0:
192,192,209189,128,0,209264:0:0:0:0:
448,192,209189,128,0,209264:0:0:0:0:
320,192,209264,128,0,209414:0:0:0:0:
448,192,209339,128,0,209489:0:0:0:0:
192,192,209339,128,0,209414:0:0:0:0:
320,192,209489,1,0,0:0:0:0:
64,192,209489,128,0,209714:0:0:0:0:
192,192,209489,1,0,0:0:0:0:
448,192,209639,128,0,209714:0:0:0:0:
192,192,209639,1,0,0:0:0:0:
64,192,209789,128,0,210014:0:0:0:0:
448,192,209789,1,0,0:0:0:0:
192,192,209789,1,0,0:0:0:0:
192,192,209864,128,0,209939:0:0:0:0:
320,192,209864,1,0,0:0:0:0:
448,192,210014,128,0,210164:0:0:0:0:
192,192,210089,128,0,210239:0:0:0:0:
64,192,210089,1,0,0:0:0:0:
320,192,210089,1,0,0:0:0:0:
64,192,210239,128,0,210464:0:0:0:0:
448,192,210239,128,0,210464:0:0:0:0:
320,192,210389,128,0,210614:0:0:0:0:
192,192,210389,128,0,210464:0:0:0:0:
448,192,210539,1,0,0:0:0:0:
64,192,210539,1,0,0:0:0:0:
192,192,210614,128,0,210914:0:0:0:0:
64,192,210689,128,0,210839:0:0:0:0:
320,192,210689,1,0,0:0:0:0:
448,192,210689,1,0,0:0:0:0:
448,192,210839,128,0,210989:0:0:0:0:
320,192,210839,128,0,210914:0:0:0:0:
64,192,210989,128,0,211064:0:0:0:0:
320,192,210989,1,0,0:0:0:0:
320,192,211064,128,0,211214:0:0:0:0:
192,192,211064,1,0,0:0:0:0:
64,192,211139,128,0,211289:0:0:0:0:
448,192,211139,1,0,0:0:0:0:
320,192,211289,1,0,0:0:0:0:
192,192,211289,128,0,211364:0:0:0:0:
448,192,211289,1,0,0:0:0:0:
64,192,211364,128,0,211439:0:0:0:0:
192,192,211439,128,0,211739:0:0:0:0:
320,192,211514,128,0,211589:0:0:0:0:
448,192,211589,128,0,211664:0:0:0:0:
320,192,211664,128,0,211814:0:0:0:0:
64,192,211739,128,0,211814:0:0:0:0:
448,192,211739,128,0,211814:0:0:0:0:
192,192,211814,128,0,211889:0:0:0:0:
64,192,211889,128,0,211964:0:0:0:0:
448,192,211889,128,0,212039:0:0:0:0:
320,192,211889,128,0,212114:0:0:0:0:
192,192,211964,128,0,212114:0:0:0:0:
64,192,212039,128,0,212189:0:0:0:0:
448,192,212114,128,0,212189:0:0:0:0:
320,192,212189,128,0,212414:0:0:0:0:
192,192,212189,1,0,0:0:0:0:
192,192,212264,128,0,212414:0:0:0:0:
64,192,212264,1,0,0:0:0:0:
448,192,212489,1,0,0:0:0:0:
64,192,212489,128,0,212714:0:0:0:0:
320,192,212489,1,0,0:0:0:0:
320,192,212564,128,0,212714:0:0:0:0:
192,192,212564,1,0,0:0:0:0:
448,192,212714,128,0,212939:0:0:0:0:
192,192,212714,128,0,212864:0:0:0:0:
320,192,212939,128,0,213014:0:0:0:0:
192,192,212939,1,0,0:0:0:0:
64,192,213014,128,0,213089:0:0:0:0:
320,192,213089,1,0,0:0:0:0:
192,192,213089,128,0,213239:0:0:0:0:
448,192,213089,1,0,0:0:0:0:
448,192,213239,128,0,213314:0:0:0:0:
64,192,213239,128,0,213389:0:0:0:0:
192,192,213389,128,0,213464:0:0:0:0:
448,192,213389,1,0,0:0:0:0:
448,192,213464,128,0,213614:0:0:0:0:
320,192,213464,1,0,0:0:0:0:
192,192,213539,128,0,213614:0:0:0:0:
64,192,213539,1,0,0:0:0:0:
448,192,213689,1,0,0:0:0:0:
192,192,213689,128,0,213839:0:0:0:0:
64,192,213689,1,0,0:0:0:0:
320,192,213764,128,0,213839:0:0:0:0:
64,192,213764,1,0,0:0:0:0:
320,192,213914,128,0,214139:0:0:0:0:
192,192,213914,128,0,213989:0:0:0:0:
64,192,213989,1,0,0:0:0:0:
448,192,213989,1,0,0:0:0:0:
448,192,214139,1,0,0:0:0:0:
64,192,214139,128,0,214214:0:0:0:0:
192,192,214214,128,0,214289:0:0:0:0:
448,192,214289,1,0,0:0:0:0:
64,192,214289,128,0,214439:0:0:0:0:
320,192,214289,128,0,214364:0:0:0:0:
192,192,214364,128,0,214439:0:0:0:0:
448,192,214439,128,0,214514:0:0:0:0:
320,192,214439,128,0,214514:0:0:0:0:
448,192,214589,128,0,214814:0:0:0:0:
320,192,214589,1,0,0:0:0:0:
64,192,214664,128,0,214814:0:0:0:0:
320,192,214664,1,0,0:0:0:0:
448,192,214889,1,0,0:0:0:0:
192,192,214889,128,0,215114:0:0:0:0:
64,192,214889,1,0,0:0:0:0:
320,192,214964,128,0,215039:0:0:0:0:
64,192,214964,1,0,0:0:0:0:
320,192,215114,128,0,215264:0:0:0:0:
448,192,215114,128,0,215189:0:0:0:0:
448,192,215264,128,0,215339:0:0:0:0:
192,192,215339,1,0,0:0:0:0:
64,192,215339,128,0,215414:0:0:0:0:
320,192,215414,128,0,215489:0:0:0:0:
64,192,215489,1,0,0:0:0:0:
192,192,215489,128,0,215639:0:0:0:0:
448,192,215489,1,0,0:0:0:0:
64,192,215639,128,0,215789:0:0:0:0:
448,192,215639,128,0,215714:0:0:0:0:
320,192,215789,128,0,215864:0:0:0:0:
448,192,215864,128,0,216014:0:0:0:0:
64,192,215939,128,0,216014:0:0:0:0:
320,192,215939,128,0,216014:0:0:0:0:
192,192,216014,128,0,216089:0:0:0:0:
64,192,216089,128,0,216164:0:0:0:0:
448,192,216089,128,0,216314:0:0:0:0:
320,192,216089,128,0,216314:0:0:0:0:
192,192,216164,128,0,216239:0:0:0:0:
64,192,216239,128,0,216314:0:0:0:0:
192,192,216314,128,0,216539:0:0:0:0:
320,192,216389,128,0,216539:0:0:0:0:
448,192,216389,128,0,216539:0:0:0:0:
64,192,216389,128,0,216539:0:0:0:0:
64,192,216614,128,0,216764:0:0:0:0:
448,192,216614,128,0,216764:0:0:0:0:
192,192,216614,128,0,216764:0:0:0:0:
320,192,216839,128,0,216914:0:0:0:0:
448,192,216839,1,0,0:0:0:0:
192,192,216839,1,0,0:0:0:0:
64,192,216914,128,0,216989:0:0:0:0:
320,192,216989,128,0,217064:0:0:0:0:
448,192,216989,1,0,0:0:0:0:
192,192,217026,1,0,0:0:0:0:
448,192,217064,1,0,0:0:0:0:
192,192,217101,1,0,0:0:0:0:
64,192,217139,1,0,0:0:0:0:
448,192,217214,128,0,217439:0:0:0:0:
320,192,217214,128,0,217364:0:0:0:0:
64,192,217289,1,0,0:0:0:0:
192,192,217289,1,0,0:0:0:0:
320,192,217439,128,0,217514:0:0:0:0:
192,192,217439,128,0,217589:0:0:0:0:
64,192,217589,128,0,217739:0:0:0:0:
320,192,217589,1,0,0:0:0:0:
320,192,217664,128,0,217739:0:0:0:0:
448,192,217664,1,0,0:0:0:0:
448,192,217814,128,0,217889:0:0:0:0:
192,192,217814,128,0,218039:0:0:0:0:
320,192,217889,1,0,0:0:0:0:
64,192,217889,1,0,0:0:0:0:
448,192,218039,128,0,218114:0:0:0:0:
64,192,218039,128,0,218189:0:0:0:0:
192,192,218189,128,0,218339:0:0:0:0:
448,192,218189,1,0,0:0:0:0:
448,192,218264,128,0,218414:0:0:0:0:
320,192,218264,1,0,0:0:0:0:
64,192,218414,128,0,218489:0:0:0:0:
192,192,218414,128,0,218639:0:0:0:0:
448,192,218489,1,0,0:0:0:0:
320,192,218489,1,0,0:0:0:0:
448,192,218639,128,0,218864:0:0:0:0:
64,192,218639,128,0,218789:0:0:0:0:
320,192,218789,128,0,218939:0:0:0:0:
192,192,218789,1,0,0:0:0:0:
192,192,218864,128,0,218939:0:0:0:0:
64,192,218864,1,0,0:0:0:0:
64,192,219014,128,0,219164:0:0:0:0:
448,192,219014,128,0,219164:0:0:0:0:
192,192,219089,1,0,0:0:0:0:
320,192,219089,1,0,0:0:0:0:
64,192,219239,128,0,219389:0:0:0:0:
448,192,219239,1,0,0:0:0:0:
320,192,219314,128,0,219389:0:0:0:0:
448,192,219389,128,0,219614:0:0:0:0:
192,192,219389,128,0,219539:0:0:0:0:
320,192,219614,128,0,219764:0:0:0:0:
192,192,219614,128,0,219839:0:0:0:0:
64,192,219689,1,0,0:0:0:0:
448,192,219689,1,0,0:0:0:0:
64,192,219839,128,0,219989:0:0:0:0:
320,192,219839,1,0,0:0:0:0:
448,192,219914,128,0,219989:0:0:0:0:
320,192,219989,128,0,220139:0:0:0:0:
192,192,219989,128,0,220139:0:0:0:0:
448,192,220214,128,0,220289:0:0:0:0:
192,192,220214,128,0,220439:0:0:0:0:
64,192,220289,1,0,0:0:0:0:
320,192,220289,1,0,0:0:0:0:
320,192,220439,128,0,220514:0:0:0:0:
448,192,220439,128,0,220589:0:0:0:0:
320,192,220589,128,0,220739:0:0:0:0:
64,192,220589,1,0,0:0:0:0:
192,192,220664,128,0,220739:0:0:0:0:
64,192,220664,1,0,0:0:0:0:
448,192,220814,128,0,220889:0:0:0:0:
192,192,220814,128,0,221039:0:0:0:0:
64,192,220889,1,0,0:0:0:0:
320,192,220889,1,0,0:0:0:0:
320,192,221039,128,0,221189:0:0:0:0:
448,192,221039,1,0,0:0:0:0:
448,192,221189,128,0,221339:0:0:0:0:
192,192,221189,1,0,0:0:0:0:
192,192,221264,128,0,221339:0:0:0:0:
320,192,221264,1,0,0:0:0:0:
64,192,221414,128,0,221639:0:0:0:0:
192,192,221414,128,0,221564:0:0:0:0:
448,192,221489,1,0,0:0:0:0:
320,192,221489,1,0,0:0:0:0:
192,192,221639,128,0,221714:0:0:0:0:
320,192,221639,1,0,0:0:0:0:
448,192,221714,128,0,221789:0:0:0:0:
64,192,221789,1,0,0:0:0:0:
320,192,221789,128,0,221939:0:0:0:0:
192,192,221864,128,0,221939:0:0:0:0:
64,192,221864,1,0,0:0:0:0:
448,192,221939,128,0,222014:0:0:0:0:
192,192,222014,128,0,222089:0:0:0:0:
320,192,222089,128,0,222164:0:0:0:0:
448,192,222089,1,0,0:0:0:0:
64,192,222164,128,0,222239:0:0:0:0:
320,192,222239,128,0,222314:0:0:0:0:
64,192,222314,128,0,222389:0:0:0:0:
192,192,222389,128,0,222539:0:0:0:0:
448,192,222389,1,0,0:0:0:0:
320,192,222464,128,0,222539:0:0:0:0:
448,192,222464,1,0,0:0:0:0:
64,192,222614,128,0,222689:0:0:0:0:
320,192,222614,128,0,222689:0:0:0:0:
448,192,222689,1,0,0:0:0:0:
192,192,222689,1,0,0:0:0:0:
192,192,222839,128,0,222914:0:0:0:0:
448,192,222839,128,0,222914:0:0:0:0:
192,192,222989,128,0,223139:0:0:0:0:
448,192,222989,1,0,0:0:0:0:
320,192,223064,128,0,223139:0:0:0:0:
448,192,223064,1,0,0:0:0:0:
64,192,223139,128,0,223214:0:0:0:0:
320,192,223214,128,0,223289:0:0:0:0:
192,192,223289,128,0,223364:0:0:0:0:
64,192,223289,1,0,0:0:0:0:
448,192,223364,128,0,223439:0:0:0:0:
192,192,223439,128,0,223514:0:0:0:0:
448,192,223514,128,0,223589:0:0:0:0:
320,192,223589,128,0,223739:0:0:0:0:
64,192,223589,1,0,0:0:0:0:
192,192,223664,128,0,223739:0:0:0:0:
64,192,223664,1,0,0:0:0:0:
448,192,223814,128,0,223889:0:0:0:0:
192,192,223814,128,0,223889:0:0:0:0:
64,192,223889,1,0,0:0:0:0:
320,192,223889,1,0,0:0:0:0:
64,192,224039,128,0,224114:0:0:0:0:
320,192,224039,128,0,224114:0:0:0:0:
192,192,224189,1,0,0:0:0:0:
448,192,224189,128,0,224264:0:0:0:0:
64,192,224264,128,0,224339:0:0:0:0:
192,192,224264,1,0,0:0:0:0:
448,192,224339,1,0,0:0:0:0:
320,192,224339,128,0,224414:0:0:0:0:
64,192,224414,128,0,224489:0:0:0:0:
448,192,224489,128,0,224564:0:0:0:0:
320,192,224489,1,0,0:0:0:0:
192,192,224564,128,0,224639:0:0:0:0:
64,192,224639,1,0,0:0:0:0:
448,192,224639,128,0,224714:0:0:0:0:
192,192,224714,128,0,224789:0:0:0:0:
64,192,224789,128,0,224864:0:0:0:0:
320,192,224789,1,0,0:0:0:0:
448,192,224864,128,0,224939:0:0:0:0:
320,192,224864,1,0,0:0:0:0:
192,192,224939,1,0,0:0:0:0:
64,192,224939,1,0,0:0:0:0:
192,192,225014,128,0,225089:0:0:0:0:
448,192,225014,128,0,225089:0:0:0:0:
320,192,225089,1,0,0:0:0:0:
64,192,225089,1,0,0:0:0:0:
64,192,225239,128,0,225314:0:0:0:0:
320,192,225239,128,0,225314:0:0:0:0:
448,192,225389,128,0,225464:0:0:0:0:
320,192,225389,1,0,0:0:0:0:
64,192,225464,1,0,0:0:0:0:
192,192,225464,128,0,225539:0:0:0:0:
448,192,225539,128,0,225614:0:0:0:0:
320,192,225539,1,0,0:0:0:0:
64,192,225614,1,0,0:0:0:0:
192,192,225614,128,0,225689:0:0:0:0:
320,192,225689,128,0,225764:0:0:0:0:
448,192,225689,1,0,0:0:0:0:
192,192,225764,1,0,0:0:0:0:
64,192,225764,128,0,225839:0:0:0:0:
448,192,225839,1,0,0:0:0:0:
320,192,225839,128,0,225914:0:0:0:0:
64,192,225914,128,0,225989:0:0:0:0:
448,192,225989,128,0,226114:0:0:0:0:
320,192,225989,128,0,226114:0:0:0:0:
192,192,225989,128,0,226114:0:0:0:0:
192,192,226189,128,0,226314:0:0:0:0:
448,192,226189,128,0,226314:0:0:0:0:
64,192,226189,128,0,226314:0:0:0:0:
192,192,226389,128,0,226514:0:0:0:0:
64,192,226389,128,0,226514:0:0:0:0:
320,192,226389,128,0,226514:0:0:0:0:
64,192,226589,128,0,226814:0:0:0:0:
448,192,226589,1,0,0:0:0:0:
192,192,226739,128,0,226889:0:0:0:0:
448,192,226889,1,0,0:0:0:0:
320,192,226889,1,0,0:0:0:0:
64,192,226889,1,0,0:0:0:0:
192,192,226964,1,0,0:0:0:0:
64,192,227039,1,0,0:0:0:0:
448,192,227039,1,0,0:0:0:0:
320,192,227114,1,0,0:0:0:0:
64,192,227189,1,0,0:0:0:0:
192,192,227189,1,0,0:0:0:0:
448,192,227189,1,0,0:0:0:0:
320,192,227264,1,0,0:0:0:0:
192,192,227339,1,0,0:0:0:0:
64,192,227339,1,0,0:0:0:0:
448,192,227414,1,0,0:0:0:0:
64,192,227489,1,0,0:0:0:0:
320,192,227489,1,0,0:0:0:0:
192,192,227489,1,0,0:0:0:0:
448,192,227564,1,0,0:0:0:0:
192,192,227639,1,0,0:0:0:0:
320,192,227639,1,0,0:0:0:0:
64,192,227714,1,0,0:0:0:0:
448,192,227789,1,0,0:0:0:0:
192,192,227789,1,0,0:0:0:0:
320,192,227789,1,0,0:0:0:0:
64,192,227864,1,0,0:0:0:0:
448,192,227939,1,0,0:0:0:0:
192,192,227939,1,0,0:0:0:0:
320,192,228014,1,0,0:0:0:0:
448,192,228089,1,0,0:0:0:0:
64,192,228089,1,0,0:0:0:0:
192,192,228089,1,0,0:0:0:0:
320,192,228164,1,0,0:0:0:0:
64,192,228239,1,0,0:0:0:0:
448,192,228239,1,0,0:0:0:0:
192,192,228314,1,0,0:0:0:0:
320,192,228389,1,0,0:0:0:0:
64,192,228389,1,0,0:0:0:0:
448,192,228389,1,0,0:0:0:0:
192,192,228464,1,0,0:0:0:0:
64,192,228539,1,0,0:0:0:0:
320,192,228539,1,0,0:0:0:0:
448,192,228614,1,0,0:0:0:0:
64,192,228689,1,0,0:0:0:0:
320,192,228689,1,0,0:0:0:0:
192,192,228689,1,0,0:0:0:0:
192,192,228839,1,0,0:0:0:0:
448,192,228839,1,0,0:0:0:0:
64,192,228839,1,0,0:0:0:0:
64,192,228989,1,0,0:0:0:0:
320,192,228989,1,0,0:0:0:0:
448,192,228989,1,0,0:0:0:0:
192,192,229064,1,0,0:0:0:0:
448,192,229139,1,0,0:0:0:0:
320,192,229214,1,0,0:0:0:0:
448,192,229289,1,0,0:0:0:0:
192,192,229289,1,0,0:0:0:0:
64,192,229289,1,0,0:0:0:0:
320,192,229364,1,0,0:0:0:0:
64,192,229439,1,0,0:0:0:0:
448,192,229514,1,0,0:0:0:0:
64,192,229589,1,0,0:0:0:0:
192,192,229589,1,0,0:0:0:0:
320,192,229589,1,0,0:0:0:0:
448,192,229664,1,0,0:0:0:0:
320,192,229739,1,0,0:0:0:0:
192,192,229739,1,0,0:0:0:0:
64,192,229814,1,0,0:0:0:0:
448,192,229889,1,0,0:0:0:0:
320,192,229889,1,0,0:0:0:0:
192,192,229889,1,0,0:0:0:0:
64,192,229964,1,0,0:0:0:0:
192,192,230039,1,0,0:0:0:0:
448,192,230039,1,0,0:0:0:0:
320,192,230114,1,0,0:0:0:0:
64,192,230189,1,0,0:0:0:0:
192,192,230189,1,0,0:0:0:0:
448,192,230189,1,0,0:0:0:0:
320,192,230264,1,0,0:0:0:0:
192,192,230339,1,0,0:0:0:0:
64,192,230339,1,0,0:0:0:0:
448,192,230414,1,0,0:0:0:0:
192,192,230489,1,0,0:0:0:0:
320,192,230489,1,0,0:0:0:0:
64,192,230489,1,0,0:0:0:0:
448,192,230564,1,0,0:0:0:0:
64,192,230639,1,0,0:0:0:0:
320,192,230639,1,0,0:0:0:0:
192,192,230714,1,0,0:0:0:0:
448,192,230789,1,0,0:0:0:0:
64,192,230789,1,0,0:0:0:0:
320,192,230789,1,0,0:0:0:0:
192,192,230864,1,0,0:0:0:0:
448,192,230939,1,0,0:0:0:0:
64,192,230939,1,0,0:0:0:0:
320,192,231014,1,0,0:0:0:0:
64,192,231089,1,0,0:0:0:0:
448,192,231089,1,0,0:0:0:0:
192,192,231089,1,0,0:0:0:0:
320,192,231164,1,0,0:0:0:0:
64,192,231239,1,0,0:0:0:0:
192,192,231239,1,0,0:0:0:0:
320,192,231314,1,0,0:0:0:0:
64,192,231389,1,0,0:0:0:0:
192,192,231389,1,0,0:0:0:0:
448,192,231389,1,0,0:0:0:0:
320,192,231464,1,0,0:0:0:0:
64,192,231539,1,0,0:0:0:0:
192,192,231614,1,0,0:0:0:0:
64,192,231689,1,0,0:0:0:0:
448,192,231689,1,0,0:0:0:0:
320,192,231689,1,0,0:0:0:0:
192,192,231764,1,0,0:0:0:0:
320,192,231839,1,0,0:0:0:0:
448,192,231914,1,0,0:0:0:0:
320,192,231989,1,0,0:0:0:0:
192,192,231989,1,0,0:0:0:0:
64,192,231989,1,0,0:0:0:0:
448,192,232064,1,0,0:0:0:0:
320,192,232139,1,0,0:0:0:0:
192,192,232139,1,0,0:0:0:0:
64,192,232214,1,0,0:0:0:0:
448,192,232289,1,0,0:0:0:0:
320,192,232289,1,0,0:0:0:0:
192,192,232289,1,0,0:0:0:0:
64,192,232364,1,0,0:0:0:0:
192,192,232439,1,0,0:0:0:0:
448,192,232439,1,0,0:0:0:0:
320,192,232514,1,0,0:0:0:0:
64,192,232589,1,0,0:0:0:0:
192,192,232589,1,0,0:0:0:0:
448,192,232589,1,0,0:0:0:0:
320,192,232664,1,0,0:0:0:0:
192,192,232739,1,0,0:0:0:0:
448,192,232739,1,0,0:0:0:0:
64,192,232814,1,0,0:0:0:0:
448,192,232889,1,0,0:0:0:0:
192,192,232889,1,0,0:0:0:0:
320,192,232889,1,0,0:0:0:0:
64,192,232964,1,0,0:0:0:0:
192,192,233039,1,0,0:0:0:0:
448,192,233114,1,0,0:0:0:0:
192,192,233189,1,0,0:0:0:0:
320,192,233189,1,0,0:0:0:0:
64,192,233189,1,0,0:0:0:0:
448,192,233264,1,0,0:0:0:0:
320,192,233339,1,0,0:0:0:0:
192,192,233339,1,0,0:0:0:0:
64,192,233414,1,0,0:0:0:0:
448,192,233489,1,0,0:0:0:0:
320,192,233489,1,0,0:0:0:0:
192,192,233489,1,0,0:0:0:0:
64,192,233564,1,0,0:0:0:0:
320,192,233639,1,0,0:0:0:0:
448,192,233639,1,0,0:0:0:0:
192,192,233714,1,0,0:0:0:0:
64,192,233789,1,0,0:0:0:0:
448,192,233789,1,0,0:0:0:0:
320,192,233789,1,0,0:0:0:0:
192,192,233864,1,0,0:0:0:0:
64,192,233939,1,0,0:0:0:0:
448,192,234014,1,0,0:0:0:0:
192,192,234089,1,0,0:0:0:0:
320,192,234089,1,0,0:0:0:0:
64,192,234089,1,0,0:0:0:0:
448,192,234164,1,0,0:0:0:0:
320,192,234239,1,0,0:0:0:0:
192,192,234239,1,0,0:0:0:0:
64,192,234314,1,0,0:0:0:0:
320,192,234389,1,0,0:0:0:0:
448,192,234389,1,0,0:0:0:0:
192,192,234389,1,0,0:0:0:0:
64,192,234464,1,0,0:0:0:0:
448,192,234539,1,0,0:0:0:0:
192,192,234539,1,0,0:0:0:0:
320,192,234614,1,0,0:0:0:0:
448,192,234689,1,0,0:0:0:0:
64,192,234689,1,0,0:0:0:0:
192,192,234689,1,0,0:0:0:0:
320,192,234764,1,0,0:0:0:0:
64,192,234839,1,0,0:0:0:0:
448,192,234839,1,0,0:0:0:0:
192,192,234914,1,0,0:0:0:0:
64,192,234989,1,0,0:0:0:0:
448,192,234989,1,0,0:0:0:0:
192,192,235064,1,0,0:0:0:0:
320,192,235064,1,0,0:0:0:0:
448,192,235214,1,0,0:0:0:0:
64,192,235214,1,0,0:0:0:0:
320,192,235289,1,0,0:0:0:0:
192,192,235289,1,0,0:0:0:0:
64,192,235439,1,0,0:0:0:0:
448,192,235439,1,0,0:0:0:0:
192,192,235514,1,0,0:0:0:0:
320,192,235514,1,0,0:0:0:0:
64,192,235589,1,0,0:0:0:0:
448,192,235589,1,0,0:0:0:0:
448,192,235664,1,0,0:0:0:0:
64,192,235664,1,0,0:0:0:0:
320,192,235739,1,0,0:0:0:0:
192,192,235739,1,0,0:0:0:0:
448,192,235889,1,0,0:0:0:0:
64,192,235889,1,0,0:0:0:0:
320,192,235964,1,0,0:0:0:0:
192,192,235964,1,0,0:0:0:0:
64,192,236039,1,0,0:0:0:0:
448,192,236039,1,0,0:0:0:0:
64,192,236189,128,0,236414:0:0:0:0:
448,192,236189,1,0,0:0:0:0:
320,192,236264,1,0,0:0:0:0:
192,192,236339,128,0,236489:0:0:0:0:
448,192,236489,1,0,0:0:0:0:
320,192,236489,1,0,0:0:0:0:
64,192,236489,1,0,0:0:0:0:
192,192,236564,1,0,0:0:0:0:
64,192,236639,1,0,0:0:0:0:
448,192,236639,1,0,0:0:0:0:
320,192,236714,1,0,0:0:0:0:
64,192,236789,1,0,0:0:0:0:
192,192,236789,1,0,0:0:0:0:
448,192,236789,1,0,0:0:0:0:
320,192,236864,1,0,0:0:0:0:
192,192,236939,1,0,0:0:0:0:
64,192,236939,1,0,0:0:0:0:
448,192,237014,1,0,0:0:0:0:
64,192,237089,1,0,0:0:0:0:
320,192,237089,1,0,0:0:0:0:
192,192,237089,1,0,0:0:0:0:
448,192,237164,1,0,0:0:0:0:
192,192,237239,1,0,0:0:0:0:
320,192,237239,1,0,0:0:0:0:
64,192,237314,1,0,0:0:0:0:
448,192,237389,1,0,0:0:0:0:
192,192,237389,1,0,0:0:0:0:
320,192,237389,1,0,0:0:0:0:
64,192,237464,1,0,0:0:0:0:
448,192,237539,1,0,0:0:0:0:
192,192,237539,1,0,0:0:0:0:
320,192,237614,1,0,0:0:0:0:
448,192,237689,1,0,0:0:0:0:
64,192,237689,1,0,0:0:0:0:
192,192,237689,1,0,0:0:0:0:
320,192,237764,1,0,0:0:0:0:
64,192,237839,1,0,0:0:0:0:
448,192,237839,1,0,0:0:0:0:
192,192,237914,1,0,0:0:0:0:
320,192,237989,1,0,0:0:0:0:
64,192,237989,1,0,0:0:0:0:
448,192,237989,1,0,0:0:0:0:
192,192,238064,1,0,0:0:0:0:
64,192,238139,1,0,0:0:0:0:
320,192,238139,1,0,0:0:0:0:
192,192,238214,1,0,0:0:0:0:
448,192,238289,1,0,0:0:0:0:
64,192,238289,1,0,0:0:0:0:
320,192,238289,1,0,0:0:0:0:
320,192,238439,1,0,0:0:0:0:
192,192,238439,1,0,0:0:0:0:
448,192,238439,1,0,0:0:0:0:
320,192,238589,1,0,0:0:0:0:
192,192,238589,1,0,0:0:0:0:
64,192,238589,1,0,0:0:0:0:
448,192,238664,1,0,0:0:0:0:
64,192,238739,1,0,0:0:0:0:
192,192,238814,1,0,0:0:0:0:
64,192,238889,1,0,0:0:0:0:
320,192,238889,1,0,0:0:0:0:
448,192,238889,1,0,0:0:0:0:
192,192,238964,1,0,0:0:0:0:
448,192,239039,1,0,0:0:0:0:
64,192,239114,1,0,0:0:0:0:
448,192,239189,1,0,0:0:0:0:
320,192,239189,1,0,0:0:0:0:
192,192,239189,1,0,0:0:0:0:
64,192,239264,1,0,0:0:0:0:
192,192,239339,1,0,0:0:0:0:
320,192,239339,1,0,0:0:0:0:
448,192,239414,1,0,0:0:0:0:
64,192,239489,1,0,0:0:0:0:
192,192,239489,1,0,0:0:0:0:
320,192,239489,1,0,0:0:0:0:
448,192,239564,1,0,0:0:0:0:
320,192,239639,1,0,0:0:0:0:
64,192,239639,1,0,0:0:0:0:
192,192,239714,1,0,0:0:0:0:
448,192,239789,1,0,0:0:0:0:
320,192,239789,1,0,0:0:0:0:
64,192,239789,1,0,0:0:0:0:
192,192,239864,1,0,0:0:0:0:
320,192,239939,1,0,0:0:0:0:
448,192,239939,1,0,0:0:0:0:
64,192,240014,1,0,0:0:0:0:
320,192,240089,1,0,0:0:0:0:
192,192,240089,1,0,0:0:0:0:
448,192,240089,1,0,0:0:0:0:
64,192,240164,1,0,0:0:0:0:
448,192,240239,1,0,0:0:0:0:
192,192,240239,1,0,0:0:0:0:
320,192,240314,1,0,0:0:0:0:
64,192,240389,1,0,0:0:0:0:
448,192,240389,1,0,0:0:0:0:
192,192,240389,1,0,0:0:0:0:
320,192,240464,1,0,0:0:0:0:
64,192,240539,1,0,0:0:0:0:
448,192,240539,1,0,0:0:0:0:
192,192,240614,1,0,0:0:0:0:
448,192,240689,1,0,0:0:0:0:
64,192,240689,1,0,0:0:0:0:
320,192,240689,1,0,0:0:0:0:
192,192,240764,1,0,0:0:0:0:
448,192,240839,1,0,0:0:0:0:
320,192,240839,1,0,0:0:0:0:
192,192,240914,1,0,0:0:0:0:
448,192,240989,1,0,0:0:0:0:
320,192,240989,1,0,0:0:0:0:
64,192,240989,1,0,0:0:0:0:
192,192,241064,1,0,0:0:0:0:
448,192,241139,1,0,0:0:0:0:
320,192,241214,1,0,0:0:0:0:
448,192,241289,1,0,0:0:0:0:
64,192,241289,1,0,0:0:0:0:
192,192,241289,1,0,0:0:0:0:
320,192,241364,1,0,0:0:0:0:
192,192,241439,1,0,0:0:0:0:
64,192,241514,1,0,0:0:0:0:
192,192,241589,1,0,0:0:0:0:
320,192,241589,1,0,0:0:0:0:
448,192,241589,1,0,0:0:0:0:
64,192,241664,1,0,0:0:0:0:
192,192,241739,1,0,0:0:0:0:
320,192,241739,1,0,0:0:0:0:
448,192,241814,1,0,0:0:0:0:
64,192,241889,1,0,0:0:0:0:
192,192,241889,1,0,0:0:0:0:
320,192,241889,1,0,0:0:0:0:
448,192,241964,1,0,0:0:0:0:
320,192,242039,1,0,0:0:0:0:
64,192,242039,1,0,0:0:0:0:
192,192,242114,1,0,0:0:0:0:
448,192,242189,1,0,0:0:0:0:
320,192,242189,1,0,0:0:0:0:
64,192,242189,1,0,0:0:0:0:
192,192,242264,1,0,0:0:0:0:
320,192,242339,1,0,0:0:0:0:
64,192,242339,1,0,0:0:0:0:
448,192,242414,1,0,0:0:0:0:
64,192,242489,1,0,0:0:0:0:
320,192,242489,1,0,0:0:0:0:
192,192,242489,1,0,0:0:0:0:
448,192,242564,1,0,0:0:0:0:
320,192,242639,1,0,0:0:0:0:
192,192,242639,1,0,0:0:0:0:
64,192,242714,1,0,0:0:0:0:
320,192,242789,1,0,0:0:0:0:
192,192,242789,1,0,0:0:0:0:
448,192,242789,1,0,0:0:0:0:
64,192,242864,1,0,0:0:0:0:
192,192,242939,1,0,0:0:0:0:
320,192,242939,1,0,0:0:0:0:
448,192,243014,1,0,0:0:0:0:
64,192,243089,1,0,0:0:0:0:
192,192,243089,1,0,0:0:0:0:
320,192,243089,1,0,0:0:0:0:
448,192,243164,1,0,0:0:0:0:
192,192,243239,1,0,0:0:0:0:
64,192,243239,1,0,0:0:0:0:
320,192,243314,1,0,0:0:0:0:
448,192,243389,1,0,0:0:0:0:
64,192,243389,1,0,0:0:0:0:
192,192,243389,1,0,0:0:0:0:
320,192,243464,1,0,0:0:0:0:
448,192,243539,1,0,0:0:0:0:
64,192,243614,1,0,0:0:0:0:
320,192,243689,1,0,0:0:0:0:
192,192,243689,1,0,0:0:0:0:
448,192,243689,1,0,0:0:0:0:
64,192,243764,1,0,0:0:0:0:
192,192,243839,1,0,0:0:0:0:
448,192,243914,1,0,0:0:0:0:
192,192,243989,1,0,0:0:0:0:
64,192,243989,1,0,0:0:0:0:
320,192,243989,1,0,0:0:0:0:
448,192,244064,1,0,0:0:0:0:
64,192,244139,1,0,0:0:0:0:
320,192,244139,1,0,0:0:0:0:
192,192,244214,1,0,0:0:0:0:
64,192,244289,1,0,0:0:0:0:
448,192,244289,1,0,0:0:0:0:
320,192,244289,1,0,0:0:0:0:
192,192,244364,1,0,0:0:0:0:
320,192,244439,1,0,0:0:0:0:
64,192,244439,1,0,0:0:0:0:
448,192,244514,1,0,0:0:0:0:
320,192,244589,1,0,0:0:0:0:
192,192,244589,1,0,0:0:0:0:
448,192,244664,1,0,0:0:0:0:
64,192,244664,1,0,0:0:0:0:
192,192,244814,1,0,0:0:0:0:
320,192,244814,1,0,0:0:0:0:
64,192,244889,1,0,0:0:0:0:
448,192,244889,1,0,0:0:0:0:
320,192,245039,1,0,0:0:0:0:
192,192,245039,1,0,0:0:0:0:
448,192,245114,1,0,0:0:0:0:
64,192,245114,1,0,0:0:0:0:
320,192,245189,1,0,0:0:0:0:
192,192,245189,1,0,0:0:0:0:
192,192,245264,1,0,0:0:0:0:
320,192,245264,1,0,0:0:0:0:
64,192,245339,1,0,0:0:0:0:
448,192,245339,1,0,0:0:0:0:
192,192,245489,1,0,0:0:0:0:
320,192,245489,1,0,0:0:0:0:
64,192,245564,1,0,0:0:0:0:
448,192,245564,1,0,0:0:0:0:
320,192,245639,1,0,0:0:0:0:
192,192,245639,1,0,0:0:0:0:
64,192,245714,1,0,0:0:0:0:
320,192,245789,1,0,0:0:0:0:
448,192,245789,128,0,248789:0:0:0:0:
64,192,245939,1,0,0:0:0:0:
192,192,246014,1,0,0:0:0:0:
320,192,246089,1,0,0:0:0:0:
64,192,246089,1,0,0:0:0:0:
320,192,246239,1,0,0:0:0:0:
192,192,246314,1,0,0:0:0:0:
320,192,246389,1,0,0:0:0:0:
64,192,246389,1,0,0:0:0:0:
64,192,246539,1,0,0:0:0:0:
192,192,246614,1,0,0:0:0:0:
320,192,246689,1,0,0:0:0:0:
64,192,246689,1,0,0:0:0:0:
320,192,246839,1,0,0:0:0:0:
192,192,246914,1,0,0:0:0:0:
64,192,246989,1,0,0:0:0:0:
320,192,246989,1,0,0:0:0:0:
64,192,247139,1,0,0:0:0:0:
192,192,247214,1,0,0:0:0:0:
320,192,247289,1,0,0:0:0:0:
64,192,247289,1,0,0:0:0:0:
320,192,247439,1,0,0:0:0:0:
192,192,247514,1,0,0:0:0:0:
64,192,247589,1,0,0:0:0:0:
320,192,247589,1,0,0:0:0:0:
64,192,247739,1,0,0:0:0:0:
192,192,247814,1,0,0:0:0:0:
320,192,247889,1,0,0:0:0:0:
64,192,247889,1,0,0:0:0:0:
320,192,248039,1,0,0:0:0:0:
192,192,248114,1,0,0:0:0:0:
320,192,248189,1,0,0:0:0:0:
64,192,248189,1,0,0:0:0:0:
64,192,248339,1,0,0:0:0:0:
192,192,248414,1,0,0:0:0:0:
64,192,248489,1,0,0:0:0:0:
320,192,248489,1,0,0:0:0:0:
320,192,248639,1,0,0:0:0:0:
192,192,248714,1,0,0:0:0:0:
320,192,248789,1,0,0:0:0:0:
64,192,248789,1,0,0:0:0:0:
64,192,248939,1,0,0:0:0:0:
192,192,249014,1,0,0:0:0:0:
448,192,249089,1,0,0:0:0:0:
320,192,249089,1,0,0:0:0:0:
448,192,249239,1,0,0:0:0:0:
320,192,249314,1,0,0:0:0:0:
64,192,249389,1,0,0:0:0:0:
192,192,249389,1,0,0:0:0:0:
64,192,249539,1,0,0:0:0:0:
192,192,249614,1,0,0:0:0:0:
320,192,249689,1,0,0:0:0:0:
448,192,249689,1,0,0:0:0:0:
448,192,249839,1,0,0:0:0:0:
320,192,249914,1,0,0:0:0:0:
64,192,249989,1,0,0:0:0:0:
192,192,249989,1,0,0:0:0:0:
64,192,250139,1,0,0:0:0:0:
192,192,250214,1,0,0:0:0:0:
320,192,250289,1,0,0:0:0:0:
64,192,250326,1,0,0:0:0:0:
320,192,250364,1,0,0:0:0:0:
448,192,250401,1,0,0:0:0:0:
192,192,250439,1,0,0:0:0:0:
64,192,250476,1,0,0:0:0:0:
320,192,250589,128,0,250639:0:0:0:0:
192,192,250589,128,0,250664:0:0:0:0:
64,192,250739,1,0,0:0:0:0:
320,192,250739,128,0,250814:0:0:0:0:
448,192,250814,1,0,0:0:0:0:
64,192,250889,128,0,250964:0:0:0:0:
192,192,250889,1,0,0:0:0:0:
448,192,251039,128,0,251114:0:0:0:0:
192,192,251039,1,0,0:0:0:0:
320,192,251114,1,0,0:0:0:0:
64,192,251189,1,0,0:0:0:0:
448,192,251189,1,0,0:0:0:0:
192,192,251339,128,0,251414:0:0:0:0:
320,192,251339,1,0,0:0:0:0:
64,192,251414,1,0,0:0:0:0:
320,192,251489,128,0,251564:0:0:0:0:
448,192,251489,1,0,0:0:0:0:
448,192,251639,128,0,251714:0:0:0:0:
192,192,251639,1,0,0:0:0:0:
64,192,251714,1,0,0:0:0:0:
320,192,251789,128,0,251839:0:0:0:0:
192,192,251789,128,0,251839:0:0:0:0:
64,192,251939,1,0,0:0:0:0:
448,192,251939,1,0,0:0:0:0:
320,192,252014,1,0,0:0:0:0:
192,192,252089,1,0,0:0:0:0:
448,192,252089,1,0,0:0:0:0:
192,192,252239,1,0,0:0:0:0:
64,192,252239,1,0,0:0:0:0:
320,192,252314,1,0,0:0:0:0:
448,192,252389,1,0,0:0:0:0:
64,192,252389,1,0,0:0:0:0:
192,192,252539,1,0,0:0:0:0:
320,192,252539,1,0,0:0:0:0:
64,192,252614,1,0,0:0:0:0:
448,192,252689,1,0,0:0:0:0:
192,192,252689,1,0,0:0:0:0:
64,192,252839,1,0,0:0:0:0:
320,192,252839,1,0,0:0:0:0:
448,192,252914,1,0,0:0:0:0:
64,192,252989,1,0,0:0:0:0:
192,192,252989,1,0,0:0:0:0:
448,192,253064,1,0,0:0:0:0:
320,192,253064,1,0,0:0:0:0:
64,192,253139,1,0,0:0:0:0:
320,192,253214,1,0,0:0:0:0:
448,192,253289,1,0,0:0:0:0:
192,192,253289,1,0,0:0:0:0:
64,192,253364,1,0,0:0:0:0:
192,192,253439,1,0,0:0:0:0:
320,192,253439,1,0,0:0:0:0:
448,192,253514,1,0,0:0:0:0:
64,192,253589,1,0,0:0:0:0:
192,192,253589,1,0,0:0:0:0:
448,192,253664,1,0,0:0:0:0:
320,192,253664,1,0,0:0:0:0:
64,192,253739,1,0,0:0:0:0:
192,192,253814,1,0,0:0:0:0:
320,192,253889,1,0,0:0:0:0:
448,192,253889,1,0,0:0:0:0:
192,192,253964,1,0,0:0:0:0:
64,192,254039,1,0,0:0:0:0:
320,192,254039,1,0,0:0:0:0:
448,192,254114,1,0,0:0:0:0:
64,192,254189,1,0,0:0:0:0:
192,192,254189,1,0,0:0:0:0:
320,192,254189,1,0,0:0:0:0:
64,192,254339,1,0,0:0:0:0:
320,192,254414,1,0,0:0:0:0:
448,192,254489,1,0,0:0:0:0:
64,192,254489,1,0,0:0:0:0:
192,192,254564,1,0,0:0:0:0:
448,192,254639,1,0,0:0:0:0:
192,192,254714,1,0,0:0:0:0:
320,192,254789,1,0,0:0:0:0:
192,192,254789,1,0,0:0:0:0:
320,192,254864,1,0,0:0:0:0:
192,192,254939,1,0,0:0:0:0:
64,192,255014,1,0,0:0:0:0:
320,192,255089,1,0,0:0:0:0:
448,192,255089,1,0,0:0:0:0:
192,192,255089,1,0,0:0:0:0:
192,192,255389,1,0,0:0:0:0:
448,192,255389,1,0,0:0:0:0:
64,192,255389,1,0,0:0:0:0:
320,192,255464,1,0,0:0:0:0:
192,192,255539,1,0,0:0:0:0:
320,192,255576,1,0,0:0:0:0:
448,192,255614,1,0,0:0:0:0:
64,192,255689,1,0,0:0:0:0:
192,192,255689,1,0,0:0:0:0:
320,192,255764,1,0,0:0:0:0:
448,192,255839,1,0,0:0:0:0:
320,192,255876,1,0,0:0:0:0:
192,192,255914,1,0,0:0:0:0:
64,192,255989,1,0,0:0:0:0:
448,192,255989,1,0,0:0:0:0:
192,192,256064,1,0,0:0:0:0:
320,192,256064,1,0,0:0:0:0:
320,192,256214,1,0,0:0:0:0:
192,192,256214,1,0,0:0:0:0:
64,192,256289,1,0,0:0:0:0:
448,192,256289,1,0,0:0:0:0:
320,192,256364,1,0,0:0:0:0:
448,192,256439,1,0,0:0:0:0:
192,192,256476,1,0,0:0:0:0:
320,192,256514,1,0,0:0:0:0:
64,192,256589,1,0,0:0:0:0:
448,192,256589,1,0,0:0:0:0:
192,192,256664,1,0,0:0:0:0:
320,192,256739,1,0,0:0:0:0:
192,192,256776,1,0,0:0:0:0:
64,192,256814,1,0,0:0:0:0:
448,192,256889,1,0,0:0:0:0:
320,192,256889,1,0,0:0:0:0:
192,192,256964,1,0,0:0:0:0:
64,192,257039,1,0,0:0:0:0:
192,192,257076,1,0,0:0:0:0:
320,192,257114,1,0,0:0:0:0:
448,192,257189,1,0,0:0:0:0:
64,192,257189,1,0,0:0:0:0:
320,192,257264,1,0,0:0:0:0:
192,192,257264,1,0,0:0:0:0:
64,192,257339,1,0,0:0:0:0:
448,192,257376,1,0,0:0:0:0:
192,192,257414,1,0,0:0:0:0:
320,192,257414,1,0,0:0:0:0:
448,192,257489,1,0,0:0:0:0:
64,192,257489,1,0,0:0:0:0:
192,192,257564,1,0,0:0:0:0:
64,192,257639,1,0,0:0:0:0:
320,192,257676,1,0,0:0:0:0:
192,192,257714,1,0,0:0:0:0:
448,192,257789,1,0,0:0:0:0:
64,192,257789,1,0,0:0:0:0:
320,192,257864,1,0,0:0:0:0:
192,192,257939,1,0,0:0:0:0:
320,192,257976,1,0,0:0:0:0:
448,192,258014,1,0,0:0:0:0:
64,192,258089,1,0,0:0:0:0:
192,192,258089,1,0,0:0:0:0:
320,192,258164,1,0,0:0:0:0:
448,192,258239,1,0,0:0:0:0:
320,192,258276,1,0,0:0:0:0:
192,192,258314,1,0,0:0:0:0:
64,192,258389,1,0,0:0:0:0:
448,192,258389,1,0,0:0:0:0:
192,192,258464,1,0,0:0:0:0:
320,192,258464,1,0,0:0:0:0:
320,192,258614,1,0,0:0:0:0:
192,192,258614,1,0,0:0:0:0:
64,192,258689,1,0,0:0:0:0:
448,192,258689,1,0,0:0:0:0:
320,192,258764,1,0,0:0:0:0:
448,192,258839,1,0,0:0:0:0:
192,192,258876,1,0,0:0:0:0:
320,192,258914,1,0,0:0:0:0:
64,192,258989,1,0,0:0:0:0:
448,192,258989,1,0,0:0:0:0:
192,192,259064,1,0,0:0:0:0:
448,192,259139,1,0,0:0:0:0:
320,192,259176,1,0,0:0:0:0:
192,192,259214,1,0,0:0:0:0:
64,192,259251,1,0,0:0:0:0:
448,192,259289,1,0,0:0:0:0:
320,192,259289,1,0,0:0:0:0:
192,192,259364,1,0,0:0:0:0:
448,192,259439,1,0,0:0:0:0:
320,192,259476,1,0,0:0:0:0:
192,192,259514,1,0,0:0:0:0:
64,192,259551,1,0,0:0:0:0:
448,192,259589,1,0,0:0:0:0:
192,192,259626,1,0,0:0:0:0:
448,192,259664,1,0,0:0:0:0:
320,192,259701,1,0,0:0:0:0:
192,192,259739,1,0,0:0:0:0:
64,192,259814,1,0,0:0:0:0:
320,192,259851,1,0,0:0:0:0:
64,192,259889,1,0,0:0:0:0:
192,192,259926,1,0,0:0:0:0:
320,192,259964,1,0,0:0:0:0:
448,192,260039,1,0,0:0:0:0:
64,192,260076,1,0,0:0:0:0:
448,192,260114,1,0,0:0:0:0:
192,192,260151,1,0,0:0:0:0:
320,192,260189,1,0,0:0:0:0:
64,192,260189,1,0,0:0:0:0:
448,192,260264,1,0,0:0:0:0:
192,192,260339,1,0,0:0:0:0:
448,192,260376,1,0,0:0:0:0:
320,192,260414,1,0,0:0:0:0:
64,192,260489,1,0,0:0:0:0:
192,192,260489,1,0,0:0:0:0:
448,192,260564,1,0,0:0:0:0:
320,192,260639,1,0,0:0:0:0:
448,192,260676,1,0,0:0:0:0:
192,192,260714,1,0,0:0:0:0:
64,192,260789,1,0,0:0:0:0:
320,192,260789,1,0,0:0:0:0:
192,192,260864,1,0,0:0:0:0:
448,192,260864,1,0,0:0:0:0:
448,192,261014,1,0,0:0:0:0:
192,192,261014,1,0,0:0:0:0:
64,192,261089,1,0,0:0:0:0:
320,192,261089,1,0,0:0:0:0:
448,192,261164,1,0,0:0:0:0:
320,192,261239,1,0,0:0:0:0:
64,192,261276,1,0,0:0:0:0:
448,192,261314,1,0,0:0:0:0:
192,192,261389,1,0,0:0:0:0:
320,192,261389,1,0,0:0:0:0:
64,192,261464,1,0,0:0:0:0:
448,192,261539,1,0,0:0:0:0:
64,192,261576,1,0,0:0:0:0:
192,192,261614,1,0,0:0:0:0:
448,192,261689,1,0,0:0:0:0:
320,192,261689,1,0,0:0:0:0:
64,192,261764,1,0,0:0:0:0:
192,192,261839,1,0,0:0:0:0:
64,192,261876,1,0,0:0:0:0:
320,192,261914,1,0,0:0:0:0:
448,192,261989,1,0,0:0:0:0:
192,192,261989,1,0,0:0:0:0:
320,192,262064,1,0,0:0:0:0:
64,192,262064,1,0,0:0:0:0:
192,192,262139,1,0,0:0:0:0:
448,192,262176,1,0,0:0:0:0:
64,192,262214,1,0,0:0:0:0:
320,192,262214,1,0,0:0:0:0:
448,192,262289,1,0,0:0:0:0:
192,192,262289,1,0,0:0:0:0:
64,192,262364,1,0,0:0:0:0:
192,192,262439,1,0,0:0:0:0:
320,192,262476,1,0,0:0:0:0:
448,192,262514,1,0,0:0:0:0:
320,192,262589,1,0,0:0:0:0:
64,192,262589,1,0,0:0:0:0:
448,192,262664,1,0,0:0:0:0:
192,192,262739,1,0,0:0:0:0:
448,192,262776,1,0,0:0:0:0:
320,192,262814,1,0,0:0:0:0:
64,192,262889,1,0,0:0:0:0:
192,192,262889,1,0,0:0:0:0:
448,192,262964,1,0,0:0:0:0:
320,192,263039,1,0,0:0:0:0:
448,192,263076,1,0,0:0:0:0:
192,192,263114,1,0,0:0:0:0:
64,192,263189,1,0,0:0:0:0:
320,192,263189,1,0,0:0:0:0:
192,192,263264,1,0,0:0:0:0:
448,192,263264,1,0,0:0:0:0:
448,192,263414,1,0,0:0:0:0:
192,192,263414,1,0,0:0:0:0:
64,192,263489,1,0,0:0:0:0:
320,192,263489,1,0,0:0:0:0:
448,192,263564,1,0,0:0:0:0:
320,192,263639,1,0,0:0:0:0:
192,192,263676,1,0,0:0:0:0:
448,192,263714,1,0,0:0:0:0:
64,192,263789,1,0,0:0:0:0:
320,192,263789,1,0,0:0:0:0:
192,192,263864,1,0,0:0:0:0:
448,192,263939,1,0,0:0:0:0:
320,192,263976,1,0,0:0:0:0:
192,192,264014,1,0,0:0:0:0:
64,192,264051,1,0,0:0:0:0:
448,192,264089,1,0,0:0:0:0:
320,192,264089,1,0,0:0:0:0:
192,192,264164,1,0,0:0:0:0:
448,192,264239,1,0,0:0:0:0:
320,192,264276,1,0,0:0:0:0:
192,192,264314,1,0,0:0:0:0:
64,192,264351,1,0,0:0:0:0:
448,192,264389,1,0,0:0:0:0:
192,192,264539,1,0,0:0:0:0:
64,192,264614,1,0,0:0:0:0:
448,192,264689,1,0,0:0:0:0:
320,192,264689,1,0,0:0:0:0:
192,192,264689,1,0,0:0:0:0:
64,192,264989,1,0,0:0:0:0:
320,192,264989,1,0,0:0:0:0:
192,192,264989,1,0,0:0:0:0:
448,192,265064,1,0,0:0:0:0:
64,192,265139,1,0,0:0:0:0:
448,192,265176,1,0,0:0:0:0:
320,192,265214,1,0,0:0:0:0:
64,192,265289,1,0,0:0:0:0:
192,192,265289,1,0,0:0:0:0:
448,192,265364,1,0,0:0:0:0:
320,192,265439,1,0,0:0:0:0:
448,192,265476,1,0,0:0:0:0:
64,192,265514,1,0,0:0:0:0:
192,192,265589,1,0,0:0:0:0:
320,192,265589,1,0,0:0:0:0:
64,192,265664,1,0,0:0:0:0:
448,192,265664,1,0,0:0:0:0:
192,192,265739,1,0,0:0:0:0:
64,192,265814,1,0,0:0:0:0:
448,192,265814,1,0,0:0:0:0:
192,192,265889,1,0,0:0:0:0:
320,192,265889,1,0,0:0:0:0:
448,192,265964,1,0,0:0:0:0:
320,192,266039,1,0,0:0:0:0:
64,192,266076,1,0,0:0:0:0:
448,192,266114,1,0,0:0:0:0:
192,192,266189,1,0,0:0:0:0:
320,192,266189,1,0,0:0:0:0:
64,192,266264,1,0,0:0:0:0:
448,192,266339,1,0,0:0:0:0:
64,192,266376,1,0,0:0:0:0:
192,192,266414,1,0,0:0:0:0:
448,192,266489,1,0,0:0:0:0:
320,192,266489,1,0,0:0:0:0:
64,192,266564,1,0,0:0:0:0:
192,192,266639,1,0,0:0:0:0:
64,192,266676,1,0,0:0:0:0:
448,192,266714,1,0,0:0:0:0:
320,192,266789,1,0,0:0:0:0:
192,192,266789,1,0,0:0:0:0:
448,192,266864,1,0,0:0:0:0:
64,192,266864,1,0,0:0:0:0:
320,192,266939,1,0,0:0:0:0:
64,192,267014,1,0,0:0:0:0:
448,192,267014,1,0,0:0:0:0:
320,192,267089,1,0,0:0:0:0:
192,192,267089,1,0,0:0:0:0:
64,192,267164,1,0,0:0:0:0:
192,192,267239,1,0,0:0:0:0:
320,192,267276,1,0,0:0:0:0:
448,192,267314,1,0,0:0:0:0:
64,192,267351,1,0,0:0:0:0:
320,192,267389,1,0,0:0:0:0:
192,192,267389,1,0,0:0:0:0:
448,192,267464,1,0,0:0:0:0:
64,192,267539,1,0,0:0:0:0:
448,192,267576,1,0,0:0:0:0:
320,192,267614,1,0,0:0:0:0:
64,192,267689,1,0,0:0:0:0:
192,192,267689,1,0,0:0:0:0:
448,192,267764,1,0,0:0:0:0:
320,192,267839,1,0,0:0:0:0:
448,192,267876,1,0,0:0:0:0:
64,192,267914,1,0,0:0:0:0:
192,192,267989,1,0,0:0:0:0:
320,192,267989,1,0,0:0:0:0:
64,192,268064,1,0,0:0:0:0:
448,192,268064,1,0,0:0:0:0:
192,192,268139,1,0,0:0:0:0:
448,192,268214,1,0,0:0:0:0:
64,192,268214,1,0,0:0:0:0:
192,192,268289,1,0,0:0:0:0:
320,192,268289,1,0,0:0:0:0:
448,192,268364,1,0,0:0:0:0:
320,192,268439,1,0,0:0:0:0:
192,192,268476,1,0,0:0:0:0:
64,192,268514,1,0,0:0:0:0:
448,192,268551,1,0,0:0:0:0:
192,192,268589,1,0,0:0:0:0:
320,192,268589,1,0,0:0:0:0:
64,192,268664,1,0,0:0:0:0:
320,192,268739,1,0,0:0:0:0:
192,192,268776,1,0,0:0:0:0:
64,192,268814,1,0,0:0:0:0:
448,192,268889,1,0,0:0:0:0:
320,192,268889,1,0,0:0:0:0:
64,192,268964,1,0,0:0:0:0:
320,192,269039,1,0,0:0:0:0:
448,192,269076,1,0,0:0:0:0:
64,192,269114,1,0,0:0:0:0:
192,192,269151,1,0,0:0:0:0:
320,192,269189,1,0,0:0:0:0:
320,192,269264,1,0,0:0:0:0:
192,192,269339,1,0,0:0:0:0:
64,192,269414,1,0,0:0:0:0:
448,192,269489,1,0,0:0:0:0:
320,192,269489,1,0,0:0:0:0:
192,192,269489,1,0,0:0:0:0:
192,192,269639,1,0,0:0:0:0:
320,192,269639,1,0,0:0:0:0:
64,192,269789,1,0,0:0:0:0:
448,192,269789,1,0,0:0:0:0:
192,192,269789,1,0,0:0:0:0:
320,192,269864,1,0,0:0:0:0:
64,192,269939,1,0,0:0:0:0:
320,192,269976,1,0,0:0:0:0:
448,192,270014,1,0,0:0:0:0:
64,192,270089,1,0,0:0:0:0:
192,192,270089,1,0,0:0:0:0:
320,192,270164,1,0,0:0:0:0:
448,192,270239,1,0,0:0:0:0:
320,192,270276,1,0,0:0:0:0:
64,192,270314,1,0,0:0:0:0:
192,192,270389,1,0,0:0:0:0:
448,192,270389,1,0,0:0:0:0:
64,192,270464,1,0,0:0:0:0:
320,192,270464,1,0,0:0:0:0:
192,192,270539,1,0,0:0:0:0:
320,192,270614,1,0,0:0:0:0:
64,192,270614,1,0,0:0:0:0:
192,192,270689,1,0,0:0:0:0:
448,192,270689,1,0,0:0:0:0:
320,192,270764,1,0,0:0:0:0:
448,192,270839,1,0,0:0:0:0:
192,192,270876,1,0,0:0:0:0:
320,192,270914,1,0,0:0:0:0:
64,192,270989,1,0,0:0:0:0:
448,192,270989,1,0,0:0:0:0:
192,192,271064,1,0,0:0:0:0:
320,192,271139,1,0,0:0:0:0:
192,192,271176,1,0,0:0:0:0:
64,192,271214,1,0,0:0:0:0:
448,192,271289,1,0,0:0:0:0:
320,192,271289,1,0,0:0:0:0:
192,192,271364,1,0,0:0:0:0:
64,192,271439,1,0,0:0:0:0:
192,192,271476,1,0,0:0:0:0:
448,192,271514,1,0,0:0:0:0:
320,192,271589,1,0,0:0:0:0:
64,192,271589,1,0,0:0:0:0:
192,192,271664,1,0,0:0:0:0:
448,192,271664,1,0,0:0:0:0:
320,192,271739,1,0,0:0:0:0:
192,192,271814,1,0,0:0:0:0:
448,192,271814,1,0,0:0:0:0:
320,192,271889,1,0,0:0:0:0:
64,192,271889,1,0,0:0:0:0:
192,192,271964,1,0,0:0:0:0:
64,192,272039,1,0,0:0:0:0:
448,192,272076,1,0,0:0:0:0:
320,192,272114,1,0,0:0:0:0:
448,192,272189,1,0,0:0:0:0:
192,192,272189,1,0,0:0:0:0:
320,192,272264,1,0,0:0:0:0:
64,192,272339,1,0,0:0:0:0:
320,192,272376,1,0,0:0:0:0:
448,192,272414,1,0,0:0:0:0:
64,192,272489,1,0,0:0:0:0:
192,192,272489,1,0,0:0:0:0:
320,192,272564,1,0,0:0:0:0:
448,192,272639,1,0,0:0:0:0:
320,192,272676,1,0,0:0:0:0:
64,192,272714,1,0,0:0:0:0:
192,192,272789,1,0,0:0:0:0:
448,192,272789,1,0,0:0:0:0:
64,192,272864,1,0,0:0:0:0:
320,192,272864,1,0,0:0:0:0:
192,192,272939,1,0,0:0:0:0:
64,192,273014,1,0,0:0:0:0:
320,192,273014,1,0,0:0:0:0:
192,192,273089,1,0,0:0:0:0:
448,192,273089,1,0,0:0:0:0:
320,192,273164,1,0,0:0:0:0:
448,192,273239,1,0,0:0:0:0:
64,192,273276,1,0,0:0:0:0:
320,192,273314,1,0,0:0:0:0:
64,192,273389,128,0,273689:0:0:0:0:
448,192,273389,128,0,273689:0:0:0:0:
192,192,273389,1,0,0:0:0:0:
320,192,273689,1,0,0:0:0:0:
192,192,273689,1,0,0:0:0:0:
64,192,273764,1,0,0:0:0:0:
448,192,273839,1,0,0:0:0:0:
192,192,273914,1,0,0:0:0:0:
320,192,273989,1,0,0:0:0:0:
192,192,273989,1,0,0:0:0:0:
320,192,274064,1,0,0:0:0:0:
192,192,274139,1,0,0:0:0:0:
64,192,274214,1,0,0:0:0:0:
448,192,274289,1,0,0:0:0:0:
320,192,274289,1,0,0:0:0:0:
192,192,274289,1,0,0:0:0:0:
192,192,274589,1,0,0:0:0:0:
64,192,274589,1,0,0:0:0:0:
448,192,274607,1,0,0:0:0:0:
192,192,275039,1,0,0:0:0:0:
448,192,275189,128,0,275239:0:0:0:0:
64,192,275489,1,0,0:0:0:0:
192,192,275789,128,0,275839:0:0:0:0:
448,192,276389,128,0,276439:0:0:0:0:
320,192,276539,1,0,0:0:0:0:
192,192,276989,1,0,0:0:0:0:
320,192,276989,128,0,277039:0:0:0:0:
192,192,277439,1,0,0:0:0:0:
448,192,277889,1,0,0:0:0:0:
64,192,278189,128,0,278239:0:0:0:0:
192,192,278789,128,0,278839:0:0:0:0:
320,192,278939,1,0,0:0:0:0:
320,192,279389,1,0,0:0:0:0:
448,192,279389,128,0,279439:0:0:0:0:
320,192,279839,1,0,0:0:0:0:
192,192,279989,128,0,280039:0:0:0:0:
448,192,280289,1,0,0:0:0:0:
320,192,280589,128,0,280639:0:0:0:0:
448,192,281189,128,0,281239:0:0:0:0:
192,192,281339,1,0,0:0:0:0:
64,192,281789,1,0,0:0:0:0:
192,192,281789,128,0,281839:0:0:0:0:
192,192,282239,1,0,0:0:0:0:
320,192,282389,128,0,282439:0:0:0:0:
64,192,282689,1,0,0:0:0:0:
448,192,282989,128,0,283039:0:0:0:0:
448,192,283739,1,0,0:0:0:0:
64,192,283739,1,0,0:0:0:0:
192,192,284189,1,0,0:0:0:0:
192,192,284639,1,0,0:0:0:0:
448,192,284789,128,0,284839:0:0:0:0:
64,192,285089,1,0,0:0:0:0:
192,192,285389,128,0,285439:0:0:0:0:
448,192,285989,128,0,286039:0:0:0:0:
320,192,286139,1,0,0:0:0:0:
192,192,286589,1,0,0:0:0:0:
320,192,286589,128,0,286639:0:0:0:0:
192,192,287039,1,0,0:0:0:0:
448,192,287489,1,0,0:0:0:0:
64,192,287789,128,0,287839:0:0:0:0:
192,192,288389,128,0,288439:0:0:0:0:
320,192,288539,1,0,0:0:0:0:
320,192,288989,1,0,0:0:0:0:
448,192,288989,128,0,289039:0:0:0:0:
64,192,289589,128,0,289639:0:0:0:0:
320,192,289739,128,0,289789:0:0:0:0:
64,192,289889,1,0,0:0:0:0:
192,192,289889,128,0,289939:0:0:0:0:
448,192,290039,128,0,290089:0:0:0:0:
320,192,290789,128,0,290839:0:0:0:0:
320,192,291389,1,0,0:0:0:0:
448,192,291389,128,0,291439:0:0:0:0:
64,192,291989,128,0,292039:0:0:0:0:
192,192,292139,128,0,292189:0:0:0:0:
64,192,292289,1,0,0:0:0:0:
320,192,292289,128,0,292339:0:0:0:0:
448,192,292439,128,0,292489:0:0:0:0:
320,192,293339,128,0,293389:0:0:0:0:
192,192,293789,128,0,293863:0:0:0:0:
64,192,293789,1,0,0:0:0:0:
320,192,294011,1,0,0:0:0:0:
192,192,294233,1,0,0:0:0:0:
448,192,294455,1,0,0:0:0:0:
448,192,295893,128,0,295961:0:0:0:0:
320,192,296720,128,0,296791:0:0:0:0:
192,192,296934,128,0,297017:0:0:0:0:
320,192,297184,128,0,297284:0:0:0:0:
64,192,297484,128,0,297582:0:0:0:0:
448,192,297631,1,0,0:0:0:0:
320,192,297704,1,0,0:0:0:0:
192,192,297778,1,0,0:0:0:0:
320,192,297925,1,0,0:0:0:0:
448,192,298072,1,0,0:0:0:0:
192,192,298109,1,0,0:0:0:0:
64,192,298145,1,0,0:0:0:0:
64,192,298706,1,0,0:0:0:0:
64,192,300259,1,0,0:0:0:0:
320,192,300337,1,0,0:0:0:0:
192,192,300415,1,0,0:0:0:0:
448,192,300494,1,0,0:0:0:0:
64,192,302098,5,0,0:0:0:0:
192,192,302195,1,0,0:0:0:0:
320,192,302292,1,0,0:0:0:0:
448,192,302389,1,0,0:0:0:0:
