osu file format v14

[General]
AudioFilename: audio.mp3
AudioLeadIn: 0
PreviewTime: 223019
Countdown: 0
SampleSet: Normal
StackLeniency: 0.7
Mode: 1
LetterboxInBreaks: 0
WidescreenStoryboard: 0

[Editor]
Bookmarks: 14507,24989,33637,42286,50935,68232,86226,107096,127965,150047,174047,186047,195992,204640,213289,224100,241397,258694,275992,292654,296806
DistanceSpacing: 1
BeatDivisor: 4
GridSize: 32
TimelineZoom: 4.499998

[Metadata]
Title:DiSANiMATE
TitleUnicode:DiSANiMATE
Artist:seatrus
ArtistUnicode:seatrus
Creator:Kyoko Sakura
Version:Second Identity
Source:osu!mania 7K World Cup 2024
Tags:mwc 2024 world cup mwc2024 mwc7k2024 grand finals gf tiebreaker featured artist fa electronic instrumental speedcore breakdown neurofunk sakura006memory saturn mappers' guild mpg mg paradise_
BeatmapID:4529957
BeatmapSetID:2150212

[Difficulty]
HPDrainRate:4.5
CircleSize:2
OverallDifficulty:7.5
ApproachRate:10
SliderMultiplier:1.4
SliderTickRate:1

[Events]
//Background and Video events
0,0,"background.jpg",0,10
//Break Periods
//Storyboard Layer 0 (Background)
//Storyboard Layer 1 (Fail)
//Storyboard Layer 2 (Pass)
//Storyboard Layer 3 (Foreground)
//Storyboard Layer 4 (Overlay)
//Storyboard Sound Samples

[TimingPoints]
2040,389.61038961039,4,1,0,100,1,0
2040,-100,4,1,0,75,0,0
11361,-100,4,1,0,75,0,0
11621,-101.696574225122,4,1,0,75,0,0
11880,-103.451709259874,4,1,0,75,0,0
12140,-105.26138052141,4,1,0,75,0,0
12400,-107.142857142857,4,1,0,75,0,0
12660,-109.092818143637,4,1,0,75,0,0
12724,-109.591449265171,4,1,0,75,0,0
12789,-110.094659508336,4,1,0,75,0,0
12919,-111.115072009126,4,1,0,75,0,0
13114,-112.673510699826,4,1,0,75,0,0
13309,-114.284666715553,4,1,0,75,0,0
13504,-115.942568070228,4,1,0,75,0,0
13698,-117.647058823529,4,1,0,75,0,0
13893,-112.682152647526,4,1,0,75,0,0
14088,-108.119332733439,4,1,0,75,0,0
14283,-103.91165513571,4,1,0,75,0,0
14507,365.853658536585,4,1,0,90,1,0
14507,-91.104332669323,4,1,0,90,0,0
14570,-91.686505450445,4,1,0,90,0,0
14662,-92.486097067745,4,1,0,90,0,0
14844,-94.109703556041,4,1,0,90,0,0
15027,-95.800739698229,4,1,0,90,0,0
15210,-97.553659512065,4,1,0,90,0,0
15393,-99.371923272789,4,1,0,90,0,0
15576,-101.25925413409,4,1,0,90,0,0
15759,-103.219663575131,4,1,0,90,0,0
15942,-105.25747986191,4,1,0,90,0,0
16125,-107.377379947907,4,1,0,90,0,0
16308,-109.584425308873,4,1,0,90,0,0
16491,-111.884102289668,4,1,0,90,0,0
16674,-114.282367640169,4,1,0,90,0,0
16857,-116.785700035909,4,1,0,90,0,0
17040,-119.401158521661,4,1,0,90,0,0
17223,-122.136448988108,4,1,0,90,0,0
17433,344.827586206897,4,1,0,100,1,0
17433,-90.909090909091,4,1,0,90,0,0
17578,-92.482060223996,4,1,0,90,0,0
17665,-93.289135434988,4,1,0,90,0,0
17751,-94.110421074183,4,1,0,90,0,0
17923,-95.807135165179,4,1,0,90,0,0
18096,-97.555799228892,4,1,0,90,0,0
18354,-100.312795519022,4,1,0,90,0,0
18440,-101.263034219415,4,1,0,90,0,0
18613,-103.218562874251,4,1,0,90,0,0
18785,-105.263157894737,4,1,0,90,0,0
18958,-107.377846992408,4,1,0,90,0,0
19130,-109.592307080982,4,1,0,90,0,0
19245,-111.115587607268,4,1,0,90,0,0
19360,-112.681810753391,4,1,0,90,0,0
19475,-114.278611088091,4,1,0,90,0,0
19590,-115.935936777502,4,1,0,90,0,0
19705,-117.642040607405,4,1,0,90,0,0
19820,-119.399108186502,4,1,0,90,0,0
19935,-121.209457677771,4,1,0,90,0,0
20050,-123.075550002231,4,1,0,90,0,0
20191,326.086956521739,4,1,0,100,1,0
20191,-131.578947368421,4,1,0,90,0,0
20328,-127.591706539075,4,1,0,90,0,0
20491,-123.839009287926,4,1,0,90,0,0
20654,-120.300751879699,4,1,0,90,0,0
20817,-116.959064327485,4,1,0,90,0,0
20980,-113.798008534851,4,1,0,90,0,0
21143,-110.803324099723,4,1,0,90,0,0
21306,-107.962213225371,4,1,0,90,0,0
21495,309.278350515464,4,1,0,100,1,0
21495,-111.111111111111,4,1,0,90,0,0
21625,-108.411771923367,4,1,0,90,0,0
21779,-105.824179584574,4,1,0,90,0,0
21934,-103.372777109239,4,1,0,90,0,0
22089,-101.017524948144,4,1,0,90,0,0
22243,-98.767206413082,4,1,0,90,0,0
22398,-96.628546431696,4,1,0,90,0,0
22553,-94.567527483449,4,1,0,90,0,0
22732,294.117647058824,4,1,0,100,1,0
22732,-98.039215686275,4,1,0,90,0,0
22855,-95.238095238095,4,1,0,90,0,0
23002,-92.592592592593,4,1,0,90,0,0
23149,-90.09009009009,4,1,0,90,0,0
23296,-87.719298245614,4,1,0,90,0,0
23443,-85.470085470085,4,1,0,90,0,0
23590,-83.333333333333,4,1,0,90,0,0
23738,-81.30081300813,4,1,0,90,0,0
23835,-81.30081300813,4,1,0,100,0,0
23908,270.27027027027,4,1,0,100,1,0
23908,-66.666666666667,4,1,0,100,0,0
24066,-70.58439438459,4,1,0,100,0,0
24246,-74.991328477281,4,1,0,100,0,0
24426,-79.985201627821,4,1,0,100,0,0
24606,-85.691636940151,4,1,0,100,0,0
24787,-92.274861288946,4,1,0,100,0,0
24984,-100,4,1,0,100,0,0
25119,-100,4,1,0,90,0,0
25237,-102.561669829222,4,1,0,90,0,0
25507,-105.258033106134,4,1,0,90,0,0
25777,-108.1,4,1,0,90,0,0
25913,-109.590429845904,4,1,0,90,0,0
26065,-111.111111111111,4,1,0,90,0,0
26183,-112.674588284344,4,1,0,90,0,0
26318,-114.282693730838,4,1,0,90,0,0
26453,-115.937365937366,4,1,0,90,0,0
26588,-117.64065730765,4,1,0,90,0,0
26723,-119.39474265518,4,1,0,90,0,0
26859,-121.201928467317,4,1,0,90,0,0
27129,-111.111111111111,4,1,0,90,0,0
27264,-112.674588284344,4,1,0,90,0,0
27399,-114.282693730838,4,1,0,90,0,0
27669,-117.64065730765,4,1,0,90,0,0
27940,-121.215519174703,4,1,0,90,0,0
28075,-123.078674712513,4,1,0,90,0,0
28210,-125,4,1,0,90,0,0
28345,-126.982262422178,4,1,0,90,0,0
28480,-129.028407734543,4,1,0,90,0,0
28615,-131.141574669416,4,1,0,90,0,0
28750,-133.32511100148,4,1,0,90,0,0
28886,-135.599598595083,4,1,0,90,0,0
29021,-137.935434477479,4,1,0,90,0,0
29156,-140.353155024669,4,1,0,90,0,0
29291,-100,4,1,0,90,0,0
29426,-101.264637002342,4,1,0,90,0,0
29561,-102.561669829222,4,1,0,90,0,0
29696,-103.892359442576,4,1,0,90,0,0
29832,-105.258033106134,4,1,0,90,0,0
30102,-108.110811081108,4,1,0,90,0,0
30237,-109.590429845904,4,1,0,90,0,0
30305,-110.339899969378,4,1,0,90,0,0
30372,-111.111111111111,4,1,0,90,0,0
30507,-112.674588284344,4,1,0,90,0,0
30642,-114.282693730838,4,1,0,90,0,0
30777,-115.937365937366,4,1,0,90,0,0
30913,-117.653461036134,4,1,0,90,0,0
31048,-119.407931072573,4,1,0,90,0,0
31183,-121.215519174703,4,1,0,90,0,0
31318,-123.078674712513,4,1,0,90,0,0
31453,-111.111111111111,4,1,0,90,0,0
31723,-114.282693730838,4,1,0,90,0,0
31994,-117.653461036134,4,1,0,90,0,0
32264,-121.215519174703,4,1,0,90,0,0
32399,-123.078674712513,4,1,0,90,0,0
32534,-125,4,1,0,90,0,0
32602,-125.990675990676,4,1,0,90,0,0
32669,-126.982262422178,4,1,0,90,0,0
32805,-129.028407734543,4,1,0,90,0,0
32940,-131.157486047076,4,1,0,90,0,0
33075,-100,4,1,0,90,0,0
33165,-103.448275862069,4,1,0,90,0,0
33255,-107.142857142857,4,1,0,90,0,0
33345,-111.111111111111,4,1,0,90,0,0
33435,-115.384615384615,4,1,0,90,0,0
33525,-120,4,1,0,90,0,0
33565,-120,4,1,0,100,0,0
33632,-76.923076923077,4,1,0,100,0,0
35237,-117.647058823529,4,1,0,100,0,0
35305,-110.294117647059,4,1,0,100,0,0
35372,-103.896103896104,4,1,0,100,0,0
35440,-98.119378577269,4,1,0,100,0,0
35507,-93.023255813953,4,1,0,100,0,0
35575,-88.365243004418,4,1,0,100,0,0
35642,-84.210526315789,4,1,0,100,0,0
35710,-80.375083724046,4,1,0,100,0,0
35794,-76.923076923077,4,1,0,100,0,0
37399,-86.95652173913,4,1,0,100,0,0
37489,-92.307692307692,4,1,0,100,0,0
37579,-98.360655737705,4,1,0,100,0,0
37669,-105.263157894737,4,1,0,100,0,0
37957,-76.923076923077,4,1,0,100,0,0
39561,-117.647058823529,4,1,0,100,0,0
39629,-110.306861045978,4,1,0,100,0,0
39696,-103.91855551287,4,1,0,100,0,0
39764,-98.149492017417,4,1,0,100,0,0
39832,-92.987280852527,4,1,0,100,0,0
39899,-88.405915515974,4,1,0,100,0,0
39967,-84.195782429383,4,1,0,100,0,0
40034,-80.422179277538,4,1,0,100,0,0
40119,-76.923076923077,4,1,0,100,0,0
41588,-100,4,1,0,100,0,0
41656,-92.97520661157,4,1,0,100,0,0
41723,-87.719298245614,4,1,0,100,0,0
42146,-104.166666666667,4,1,0,100,0,0
42213,-107.52688172043,4,1,0,100,0,0
42264,-111.111111111111,4,1,0,100,0,0
42399,-109.590429845904,4,1,0,100,0,0
42534,-108.110811081108,4,1,0,100,0,0
42602,-107.380550312904,4,1,0,100,0,0
42669,-106.67061377541,4,1,0,100,0,0
42737,-105.959615761615,4,1,0,100,0,0
42805,-105.268283182394,4,1,0,100,0,0
42940,-103.892359442576,4,1,0,100,0,0
43007,-103.227654698243,4,1,0,100,0,0
43075,-102.561669829222,4,1,0,100,0,0
43210,-101.264637002342,4,1,0,100,0,0
43277,-100.633029231056,4,1,0,100,0,0
43345,-100,4,1,0,100,0,0
43480,-98.766560073093,4,1,0,100,0,0
43548,-98.156723871788,4,1,0,100,0,0
43615,-97.563176895307,4,1,0,100,0,0
43683,-96.968066020811,4,1,0,100,0,0
43750,-96.388765046812,4,1,0,100,0,0
43818,-95.807852521493,4,1,0,100,0,0
43886,-95.242290748899,4,1,0,100,0,0
44021,-94.114574264322,4,1,0,100,0,0
44088,-93.568770016446,4,1,0,100,0,0
44156,-93.021254625247,4,1,0,100,0,0
44223,-92.488021902806,4,1,0,100,0,0
44291,-91.953045253488,4,1,0,100,0,0
44359,-91.431954664637,4,1,0,100,0,0
44426,-90.909090909091,4,1,0,100,0,0
44561,-91.953045253488,4,1,0,100,0,0
44629,-92.488021902806,4,1,0,100,0,0
44696,-93.021254625247,4,1,0,100,0,0
44764,-93.568770016446,4,1,0,100,0,0
44832,-94.114574264322,4,1,0,100,0,0
44899,-94.675074443861,4,1,0,100,0,0
44967,-95.242290748899,4,1,0,100,0,0
45102,-96.388765046812,4,1,0,100,0,0
45169,-96.968066020811,4,1,0,100,0,0
45237,-97.563176895307,4,1,0,100,0,0
45372,-98.766560073093,4,1,0,100,0,0
45440,-99.384021329411,4,1,0,100,0,0
45507,-100,4,1,0,100,0,0
45642,-101.264637002342,4,1,0,100,0,0
45710,-101.9138304893,4,1,0,100,0,0
45777,-102.561669829222,4,1,0,100,0,0
45845,-103.227654698243,4,1,0,100,0,0
45913,-103.902345251826,4,1,0,100,0,0
45980,-104.575795685402,4,1,0,100,0,0
46048,-105.268283182394,4,1,0,100,0,0
46183,-106.67061377541,4,1,0,100,0,0
46250,-107.380550312904,4,1,0,100,0,0
46318,-108.110811081108,4,1,0,100,0,0
46386,-108.840112766814,4,1,0,100,0,0
46453,-109.590429845904,4,1,0,100,0,0
46521,-110.351163740302,4,1,0,100,0,0
46588,-111.111111111111,4,1,0,100,0,0
46723,-109.376806567233,4,1,0,100,0,0
46859,-107.683551508253,4,1,0,100,0,0
46994,-106.053811659193,4,1,0,100,0,0
47129,-104.472667034787,4,1,0,100,0,0
47264,-102.937976060936,4,1,0,100,0,0
47399,-101.447721179625,4,1,0,100,0,0
47534,-100,4,1,0,100,0,0
47669,-98.593017196456,4,1,0,100,0,0
47805,-97.215085808242,4,1,0,100,0,0
47940,-95.884857084938,4,1,0,100,0,0
48075,-94.590540945905,4,1,0,100,0,0
48210,-93.330702446725,4,1,0,100,0,0
48345,-92.103982085483,4,1,0,100,0,0
48480,-90.909090909091,4,1,0,100,0,0
48615,-89.744805995636,4,1,0,100,0,0
48750,-88.609966279505,4,1,0,100,0,0
48818,-88.049143708116,4,1,0,100,0,0
48886,-87.495375508694,4,1,0,100,0,0
48953,-86.95652173913,4,1,0,100,0,0
49021,-86.416369781675,4,1,0,100,0,0
49088,-85.890684583258,4,1,0,100,0,0
49156,-85.363652770258,4,1,0,100,0,0
49223,-84.850659251951,4,1,0,100,0,0
49291,-84.336275296425,4,1,0,100,0,0
49359,-83.828090385467,4,1,0,100,0,0
49426,-83.333333333333,4,1,0,100,0,0
49494,-82.837127845884,4,1,0,100,0,0
49561,-82.353965352137,4,1,0,100,0,0
49629,-81.869320640415,4,1,0,100,0,0
49696,-81.397349853726,4,1,0,100,0,0
49764,-80.923866552609,4,1,0,100,0,0
49832,-80.455859840109,4,1,0,100,0,0
49899,-80,4,1,0,100,0,0
49967,-79.54258807702,4,1,0,100,0,0
50034,-79.096989966555,4,1,0,100,0,0
50102,-78.649817093449,4,1,0,100,0,0
50169,-78.214138073584,4,1,0,100,0,0
50237,-77.776864260462,4,1,0,100,0,0
50305,-77.344452620391,4,1,0,100,0,0
50372,-76.923076923077,4,1,0,100,0,0
50930,-90.909090909091,4,1,0,100,0,0
50958,-88.235294117647,4,1,0,100,0,0
51003,-85.714285714286,4,1,0,100,0,0
51048,-83.333333333333,4,1,0,100,0,0
51183,-83.333333333333,4,1,0,100,0,0
51228,-85.714285714286,4,1,0,100,0,0
51273,-88.235294117647,4,1,0,100,0,0
51318,-90.909090909091,4,1,0,100,0,0
51453,-95.238095238095,4,1,0,100,0,0
51521,-91.930541368744,4,1,0,100,0,0
51588,-88.888888888889,4,1,0,100,0,0
51656,-86.000955566173,4,1,0,100,0,0
51723,-83.333333333333,4,1,0,100,0,0
51859,-95.238095238095,4,1,0,100,0,0
51927,-91.930541368744,4,1,0,100,0,0
51994,-88.888888888889,4,1,0,100,0,0
52062,-86.000955566173,4,1,0,100,0,0
52129,-83.333333333333,4,1,0,100,0,0
52264,-95.238095238095,4,1,0,100,0,0
52332,-91.930541368744,4,1,0,100,0,0
52399,-88.888888888889,4,1,0,100,0,0
52467,-86.000955566173,4,1,0,100,0,0
52534,-83.333333333333,4,1,0,100,0,0
52585,-84.033613445378,4,1,0,100,0,0
52669,-86.327106285593,4,1,0,100,0,0
52720,-86.95652173913,4,1,0,100,0,0
52805,-89.568722734552,4,1,0,100,0,0
52855,-90.09009009009,4,1,0,100,0,0
52940,-93.036595158885,4,1,0,100,0,0
52990,-94.339622641509,4,1,0,100,0,0
53075,-96.783817650218,4,1,0,100,0,0
53142,-98.757915245982,4,1,0,100,0,0
53210,-100.84556080577,4,1,0,100,0,0
53345,-83.333333333333,4,1,0,100,0,0
53390,-85.714285714286,4,1,0,100,0,0
53435,-88.235294117647,4,1,0,100,0,0
53480,-90.909090909091,4,1,0,100,0,0
53615,-95.238095238095,4,1,0,100,0,0
53683,-91.930541368744,4,1,0,100,0,0
53750,-88.888888888889,4,1,0,100,0,0
53818,-86.000955566173,4,1,0,100,0,0
53885,-83.333333333333,4,1,0,100,0,0
54021,-95.238095238095,4,1,0,100,0,0
54089,-91.930541368744,4,1,0,100,0,0
54156,-88.888888888889,4,1,0,100,0,0
54224,-86.000955566173,4,1,0,100,0,0
54291,-83.333333333333,4,1,0,100,0,0
54426,-95.238095238095,4,1,0,100,0,0
54494,-91.930541368744,4,1,0,100,0,0
54561,-88.888888888889,4,1,0,100,0,0
54629,-86.000955566173,4,1,0,100,0,0
54696,-83.333333333333,4,1,0,100,0,0
54747,-84.745762711864,4,1,0,100,0,0
54832,-88.921761998685,4,1,0,100,0,0
54882,-90.909090909091,4,1,0,100,0,0
54967,-95.263250572284,4,1,0,100,0,0
55034,-98.758671047828,4,1,0,100,0,0
55102,-102.57868790292,4,1,0,100,0,0
55169,-106.643012024443,4,1,0,100,0,0
55254,-90.909090909091,4,1,0,100,0,0
55282,-88.235294117647,4,1,0,100,0,0
55327,-85.714285714286,4,1,0,100,0,0
55372,-83.333333333333,4,1,0,100,0,0
55507,-83.333333333333,4,1,0,100,0,0
55552,-85.714285714286,4,1,0,100,0,0
55597,-88.235294117647,4,1,0,100,0,0
55642,-90.909090909091,4,1,0,100,0,0
55777,-95.238095238095,4,1,0,100,0,0
55845,-91.930541368744,4,1,0,100,0,0
55912,-88.888888888889,4,1,0,100,0,0
55980,-86.000955566173,4,1,0,100,0,0
56047,-83.333333333333,4,1,0,100,0,0
56183,-95.238095238095,4,1,0,100,0,0
56251,-91.930541368744,4,1,0,100,0,0
56318,-88.888888888889,4,1,0,100,0,0
56386,-86.000955566173,4,1,0,100,0,0
56453,-83.333333333333,4,1,0,100,0,0
56588,-95.238095238095,4,1,0,100,0,0
56656,-91.930541368744,4,1,0,100,0,0
56723,-88.888888888889,4,1,0,100,0,0
56791,-86.000955566173,4,1,0,100,0,0
56858,-83.333333333333,4,1,0,100,0,0
56909,-84.033613445378,4,1,0,100,0,0
56994,-86.327106285593,4,1,0,100,0,0
57044,-86.95652173913,4,1,0,100,0,0
57130,-89.568722734552,4,1,0,100,0,0
57180,-90.09009009009,4,1,0,100,0,0
57265,-93.036595158885,4,1,0,100,0,0
57315,-94.339622641509,4,1,0,100,0,0
57399,-83.333333333333,4,1,0,100,0,0
57467,-84.664786967419,4,1,0,100,0,0
57534,-86.018938489695,4,1,0,100,0,0
57602,-87.438324031384,4,1,0,100,0,0
57669,-88.88340733432,4,1,0,100,0,0
57737,-90.399732396722,4,1,0,100,0,0
57805,-91.968691509273,4,1,0,100,0,0
57872,-93.568770016446,4,1,0,100,0,0
57940,-95.250682879549,4,1,0,100,0,0
58007,-96.968066020811,4,1,0,100,0,0
58075,-98.775584795322,4,1,0,100,0,0
58210,-102.571401461239,4,1,0,100,0,0
58345,-106.67061377541,4,1,0,100,0,0
58480,-108.695652173913,4,1,0,100,0,0
58615,-103.10379013193,4,1,0,100,0,0
58683,-99.49223636765,4,1,0,100,0,0
58750,-96.172997581448,4,1,0,100,0,0
58818,-93.023255813953,4,1,0,100,0,0
58886,-90.073284477015,4,1,0,100,0,0
58953,-87.344143678532,4,1,0,100,0,0
59021,-84.738326543403,4,1,0,100,0,0
59173,-62.5,4,1,0,100,0,0
59578,-86.95652173913,4,1,0,100,0,0
59606,-84.507042253521,4,1,0,100,0,0
59651,-82.191780821918,4,1,0,100,0,0
59696,-80,4,1,0,100,0,0
59832,-80,4,1,0,100,0,0
59877,-82.175226586103,4,1,0,100,0,0
59922,-84.524549409571,4,1,0,100,0,0
59967,-86.95652173913,4,1,0,100,0,0
60119,-90.909090909091,4,1,0,100,0,0
60169,-87.933561309233,4,1,0,100,0,0
60237,-85.106382978723,4,1,0,100,0,0
60305,-82.493125572869,4,1,0,100,0,0
60372,-80,4,1,0,100,0,0
60524,-90.909090909091,4,1,0,100,0,0
60574,-87.933561309233,4,1,0,100,0,0
60642,-85.106382978723,4,1,0,100,0,0
60710,-82.493125572869,4,1,0,100,0,0
60777,-80,4,1,0,100,0,0
60930,-90.909090909091,4,1,0,100,0,0
60980,-87.933561309233,4,1,0,100,0,0
61048,-85.106382978723,4,1,0,100,0,0
61116,-82.493125572869,4,1,0,100,0,0
61183,-80,4,1,0,100,0,0
61234,-80.645161290323,4,1,0,100,0,0
61318,-82.755102040816,4,1,0,100,0,0
61369,-83.333333333333,4,1,0,100,0,0
61453,-85.706737120211,4,1,0,100,0,0
61504,-86.206896551724,4,1,0,100,0,0
61588,-88.876712328767,4,1,0,100,0,0
61639,-89.285714285714,4,1,0,100,0,0
61723,-92.290184921764,4,1,0,100,0,0
61791,-94.110821003771,4,1,0,100,0,0
61859,-95.976331360947,4,1,0,100,0,0
61994,-80,4,1,0,100,0,0
62039,-82.175226586103,4,1,0,100,0,0
62084,-84.524549409571,4,1,0,100,0,0
62129,-86.95652173913,4,1,0,100,0,0
62281,-90.909090909091,4,1,0,100,0,0
62331,-87.933561309233,4,1,0,100,0,0
62399,-85.106382978723,4,1,0,100,0,0
62467,-82.493125572869,4,1,0,100,0,0
62534,-80,4,1,0,100,0,0
62686,-90.909090909091,4,1,0,100,0,0
62736,-87.933561309233,4,1,0,100,0,0
62804,-85.106382978723,4,1,0,100,0,0
62872,-82.493125572869,4,1,0,100,0,0
62939,-80,4,1,0,100,0,0
63092,-90.909090909091,4,1,0,100,0,0
63142,-87.933561309233,4,1,0,100,0,0
63210,-85.106382978723,4,1,0,100,0,0
63278,-82.493125572869,4,1,0,100,0,0
63345,-80,4,1,0,100,0,0
63396,-81.30081300813,4,1,0,100,0,0
63480,-85.106382978723,4,1,0,100,0,0
63531,-86.206896551724,4,1,0,100,0,0
63615,-90.909090909091,4,1,0,100,0,0
63683,-94.142259414226,4,1,0,100,0,0
63750,-97.560975609756,4,1,0,100,0,0
63818,-101.294316263365,4,1,0,100,0,0
63902,-86.95652173913,4,1,0,100,0,0
63930,-84.507042253521,4,1,0,100,0,0
63975,-82.191780821918,4,1,0,100,0,0
64020,-80,4,1,0,100,0,0
64156,-80,4,1,0,100,0,0
64201,-82.175226586103,4,1,0,100,0,0
64246,-84.524549409571,4,1,0,100,0,0
64291,-86.95652173913,4,1,0,100,0,0
64443,-90.909090909091,4,1,0,100,0,0
64493,-87.933561309233,4,1,0,100,0,0
64561,-85.106382978723,4,1,0,100,0,0
64629,-82.493125572869,4,1,0,100,0,0
64696,-80,4,1,0,100,0,0
64848,-90.909090909091,4,1,0,100,0,0
64898,-87.933561309233,4,1,0,100,0,0
64966,-85.106382978723,4,1,0,100,0,0
65034,-82.493125572869,4,1,0,100,0,0
65101,-80,4,1,0,100,0,0
65254,-90.909090909091,4,1,0,100,0,0
65304,-87.933561309233,4,1,0,100,0,0
65372,-85.106382978723,4,1,0,100,0,0
65440,-82.493125572869,4,1,0,100,0,0
65507,-80,4,1,0,100,0,0
65558,-80.645161290323,4,1,0,100,0,0
65642,-82.755102040816,4,1,0,100,0,0
65693,-83.333333333333,4,1,0,100,0,0
65777,-85.706737120211,4,1,0,100,0,0
65828,-86.206896551724,4,1,0,100,0,0
65912,-88.876712328767,4,1,0,100,0,0
65963,-89.285714285714,4,1,0,100,0,0
66048,-80,4,1,0,100,0,0
66115,-81.00412139378,4,1,0,100,0,0
66183,-82.049335863378,4,1,0,100,0,0
66250,-83.105900442053,4,1,0,100,0,0
66318,-84.206426484907,4,1,0,100,0,0
66386,-85.319652722968,4,1,0,100,0,0
66453,-86.48,4,1,0,100,0,0
66521,-87.672343876723,4,1,0,100,0,0
66588,-88.879753340185,4,1,0,100,0,0
66656,-90.139670627476,4,1,0,100,0,0
66723,-91.416490486258,4,1,0,100,0,0
66791,-92.749892749893,4,1,0,100,0,0
66859,-94.102285092492,4,1,0,100,0,0
66926,-95.515794124144,4,1,0,100,0,0
66994,-96.972415339762,4,1,0,100,0,0
67061,-98.451730418944,4,1,0,100,0,0
67129,-99.009900990099,4,1,0,100,0,0
67196,-98.474151673878,4,1,0,100,0,0
67264,-96.972415339762,4,1,0,100,0,0
67332,-95.536897923111,4,1,0,100,0,0
67399,-94.122768828907,4,1,0,100,0,0
67467,-92.749892749893,4,1,0,100,0,0
67534,-91.43582152675,4,1,0,100,0,0
67602,-90.139670627476,4,1,0,100,0,0
67669,-88.898026315789,4,1,0,100,0,0
67737,-87.672343876723,4,1,0,100,0,0
67805,-86.497299459892,4,1,0,100,0,0
67872,-85.336491020328,4,1,0,100,0,0
67940,-84.206426484908,4,1,0,100,0,0
68007,-83.121876201461,4,1,0,100,0,0
68075,-82.049335863378,4,1,0,100,0,0
68142,-81.019299231778,4,1,0,100,0,0
68232,-80.100774332185,4,1,0,100,0,1
68345,-80.777134317205,4,1,0,100,0,1
68480,-81.600301943763,4,1,0,100,0,1
68548,-82.021320990933,4,1,0,100,0,1
68615,-82.440419447092,4,1,0,100,0,1
68750,-83.298015796571,4,1,0,100,0,1
68818,-83.736782989271,4,1,0,100,0,1
68886,-84.180197017482,4,1,0,100,0,1
68953,-84.621707307527,4,1,0,100,0,1
69021,-85.074568134419,4,1,0,100,0,1
69088,-85.525535029076,4,1,0,100,0,1
69156,-85.988147794615,4,1,0,100,0,1
69291,-86.921561532586,4,1,0,100,0,1
69359,-87.39944213122,4,1,0,100,0,1
69426,-87.875462341991,4,1,0,100,0,1
69494,-88.363918747701,4,1,0,100,0,1
69561,-88.850532199071,4,1,0,100,0,1
69696,-89.847483688651,4,1,0,100,0,1
69764,-90.358172775526,4,1,0,100,0,1
69832,-90.874700517002,4,1,0,100,0,1
69899,-91.389440757492,4,1,0,100,0,1
69967,-91.917860635177,4,1,0,100,0,1
70034,-92.444520460085,4,1,0,100,0,1
70102,-92.985247946325,4,1,0,100,0,1
70169,-93.524246225721,4,1,0,100,0,1
70237,-94.077716374396,4,1,0,100,0,1
70394,-95.238095238095,4,1,0,100,0,1
74701,-95.238095238095,4,1,0,100,0,1
74769,-94.38987120716,4,1,0,100,0,1
74837,-93.568770016446,4,1,0,100,0,1
74904,-92.749892749893,4,1,0,100,0,1
74972,-91.9452241218,4,1,0,100,0,1
75039,-91.165928737086,4,1,0,100,0,1
75107,-90.388394163636,4,1,0,100,0,1
75174,-89.635157545605,4,1,0,100,0,1
75242,-88.88340733432,4,1,0,100,0,1
75310,-88.15494393476,4,1,0,100,0,1
75377,-87.427716446278,4,1,0,100,0,1
75445,-86.712389203064,4,1,0,100,0,1
75512,-86.018938489695,4,1,0,100,0,1
75580,-85.326387244455,4,1,0,100,0,1
75647,-84.654841614785,4,1,0,100,0,1
75799,-83.333333333333,4,1,0,100,0,0
75913,-79.522528581036,4,1,0,100,0,0
76183,-72.90382244143,4,1,0,100,0,0
76453,-67.302219692658,4,1,0,100,0,0
76723,-62.5,4,1,0,100,0,0
76880,-83.333333333333,4,1,0,100,0,1
81205,294.117647058824,4,1,0,100,1,0
81205,-76.335877862595,4,1,0,100,0,1
81260,-76.735855089297,4,1,0,100,0,1
81333,-77.145612343298,4,1,0,100,0,1
81407,-77.55414281569,4,1,0,100,0,1
81480,-77.972709551657,4,1,0,100,0,1
81554,-78.390070591058,4,1,0,100,0,1
81627,-78.817733990148,4,1,0,100,0,1
81701,-79.244215037533,4,1,0,100,0,1
81774,-79.681274900398,4,1,0,100,0,1
81848,-80.117178185782,4,1,0,100,0,1
81921,-80.563947633434,4,1,0,100,0,1
81995,-81.009588890114,4,1,0,100,0,1
82068,-81.466395112016,4,1,0,100,0,1
82142,-81.922104339224,4,1,0,100,0,1
82216,-82.389289392379,4,1,0,100,0,1
82289,-82.855411670213,4,1,0,100,0,1
82381,309.278350515464,4,1,0,100,1,0
82381,-79.365079365079,4,1,0,100,0,1
82438,-79.798729155243,4,1,0,100,0,1
82516,-80.237143894972,4,1,0,100,0,1
82593,-80.680402554118,4,1,0,100,0,1
82670,-81.134439175406,4,1,0,100,0,1
82748,-81.587695230055,4,1,0,100,0,1
82825,-82.046043948026,4,1,0,100,0,1
82902,-82.515625938057,4,1,0,100,0,1
82980,-82.98448988354,4,1,0,100,0,1
83057,-83.458712563336,4,1,0,100,0,1
83134,-83.944652175978,4,1,0,100,0,1
83212,-84.429944304903,4,1,0,100,0,1
83289,-84.920880101603,4,1,0,100,0,1
83366,-85.42404718004,4,1,0,100,0,1
83444,-85.926646290636,4,1,0,100,0,1
83521,-86.435194566531,4,1,0,100,0,1
83618,326.086956521739,4,1,0,100,1,1
83618,-69.234649181024,4,1,0,100,0,1
83674,-70.028462488588,4,1,0,100,0,1
83755,-71.111111111111,4,1,0,100,0,1
83837,-72.241766156062,4,1,0,100,0,1
83918,-73.394495412844,4,1,0,100,0,1
84000,-74.599542334096,4,1,0,100,0,1
84081,-75.829383886256,4,1,0,100,0,1
84163,-77.116413850203,4,1,0,100,0,1
84244,-78.43137254902,4,1,0,100,0,1
84326,-79.809045841239,4,1,0,100,0,1
84407,-81.218274111675,4,1,0,100,0,1
84489,-82.696515204363,4,1,0,100,0,1
84570,-84.210526315789,4,1,0,100,0,1
84652,-85.800763258323,4,1,0,100,0,1
84733,-87.431693989071,4,1,0,100,0,1
84815,-89.147154332593,4,1,0,100,0,1
84922,-90.909090909091,4,1,0,100,0,0
85569,-71.428571428571,4,1,0,100,0,0
85793,-77.683784105802,4,1,0,100,0,0
86038,-85.106382978723,4,1,0,100,0,0
86221,-90.909090909091,4,1,0,100,0,0
86364,-88.39966130398,4,1,0,100,0,0
86445,-87.188909303491,4,1,0,100,0,0
86527,-86.025049439684,4,1,0,100,0,0
86568,-85.447700114585,4,1,0,100,0,0
86608,-84.878048780488,4,1,0,100,0,0
86690,-83.774675012037,4,1,0,100,0,0
86771,-82.686519879613,4,1,0,100,0,0
86812,-82.152974504249,4,1,0,100,0,0
86853,-81.63903659681,4,1,0,100,0,0
86935,-80.605311920939,4,1,0,100,0,0
87016,-79.609577550709,4,1,0,100,0,0
87057,-79.114883297969,4,1,0,100,0,0
87098,-78.626299141437,4,1,0,100,0,0
87179,-77.678571428571,4,1,0,100,0,0
87233,-77.047970479705,4,1,0,100,0,0
87288,-76.43871723532,4,1,0,100,0,0
87362,-75.82800697269,4,1,0,100,0,0
87424,-74.94615936827,4,1,0,100,0,0
87505,-74.074074074074,4,1,0,100,0,0
87560,-74.646516686702,4,1,0,100,0,0
87614,-75.227875850929,4,1,0,100,0,0
87668,-75.829383886256,4,1,0,100,0,0
87750,-76.732964575733,4,1,0,100,0,0
87831,-77.669902912621,4,1,0,100,0,0
87913,-78.618153317457,4,1,0,100,0,0
87994,-79.601990049751,4,1,0,100,0,0
88076,-80.598306446628,4,1,0,100,0,0
88157,-81.632653061224,4,1,0,100,0,0
88239,-82.680784960213,4,1,0,100,0,0
88320,-83.769633507853,4,1,0,100,0,0
88402,-84.873730799271,4,1,0,100,0,0
88483,-86.021505376344,4,1,0,100,0,0
88524,-86.607113206921,4,1,0,100,0,0
88565,-87.186173235717,4,1,0,100,0,0
88646,-88.397790055249,4,1,0,100,0,0
88687,-89.016315106833,4,1,0,100,0,0
88728,-89.628153137673,4,1,0,100,0,0
88810,-80,4,1,0,100,0,0
88884,-81.967213114754,4,1,0,100,0,0
88939,-84.033613445378,4,1,0,100,0,0
88993,-86.206896551724,4,1,0,100,0,0
89136,-80,4,1,0,100,0,0
89177,-80.645161290323,4,1,0,100,0,0
89217,-81.967213114754,4,1,0,100,0,0
89299,-83.333333333333,4,1,0,100,0,0
89380,-82.686519879613,4,1,0,100,0,0
89421,-82.152974504249,4,1,0,100,0,0
89462,-81.63903659681,4,1,0,100,0,0
89544,-80.605311920939,4,1,0,100,0,0
89625,-79.609577550709,4,1,0,100,0,0
89666,-79.114883297969,4,1,0,100,0,0
89707,-78.626299141437,4,1,0,100,0,0
89788,-77.678571428571,4,1,0,100,0,0
89842,-77.047970479705,4,1,0,100,0,0
89897,-76.43871723532,4,1,0,100,0,0
89971,-75.82800697269,4,1,0,100,0,0
90033,-74.94615936827,4,1,0,100,0,0
90114,-74.074074074074,4,1,0,100,0,0
90155,-74.595274869859,4,1,0,100,0,0
90195,-75.110880709637,4,1,0,100,0,0
90236,-75.646826778048,4,1,0,100,0,0
90277,-76.190476190476,4,1,0,100,0,0
90358,-77.287814129919,4,1,0,100,0,0
90440,-78.43137254902,4,1,0,100,0,0
90521,-79.594701825063,4,1,0,100,0,0
90603,-80.808080808081,4,1,0,100,0,0
90685,-82.05902712227,4,1,0,100,0,0
90766,-83.333333333333,4,1,0,100,0,0
90820,-82.479443390259,4,1,0,100,0,0
90875,-81.627543035994,4,1,0,100,0,0
90929,-80.808080808081,4,1,0,100,0,0
91011,-79.594701825063,4,1,0,100,0,0
91112,-78.149346757761,4,1,0,100,0,0
91174,-77.287814129919,4,1,0,100,0,0
91255,-76.190476190476,4,1,0,100,0,0
91337,-75.110880709637,4,1,0,100,0,0
91418,-74.074074074074,4,1,0,100,0,0
91602,-81.30081300813,4,1,0,100,0,0
91683,-78.740157480315,4,1,0,100,0,0
91765,-74.074074074074,4,1,0,100,0,0
91907,-83.774675012037,4,1,0,100,0,0
91988,-82.686519879613,4,1,0,100,0,0
92029,-82.152974504249,4,1,0,100,0,0
92070,-81.63903659681,4,1,0,100,0,0
92152,-80.605311920939,4,1,0,100,0,0
92233,-79.609577550709,4,1,0,100,0,0
92274,-79.114883297969,4,1,0,100,0,0
92315,-78.626299141437,4,1,0,100,0,0
92396,-77.678571428571,4,1,0,100,0,0
92450,-77.047970479705,4,1,0,100,0,0
92505,-76.43871723532,4,1,0,100,0,0
92579,-75.82800697269,4,1,0,100,0,0
92641,-74.94615936827,4,1,0,100,0,0
92723,-74.074074074074,4,1,0,100,0,0
92778,-74.646516686702,4,1,0,100,0,0
92832,-75.227875850929,4,1,0,100,0,0
92886,-75.829383886256,4,1,0,100,0,0
92968,-76.732964575733,4,1,0,100,0,0
93049,-77.669902912621,4,1,0,100,0,0
93131,-78.618153317457,4,1,0,100,0,0
93212,-79.601990049751,4,1,0,100,0,0
93294,-80.598306446628,4,1,0,100,0,0
93375,-81.632653061224,4,1,0,100,0,0
93457,-82.680784960213,4,1,0,100,0,0
93538,-83.769633507853,4,1,0,100,0,0
93620,-84.873730799271,4,1,0,100,0,0
93701,-86.021505376344,4,1,0,100,0,0
93742,-86.607113206921,4,1,0,100,0,0
93783,-87.186173235717,4,1,0,100,0,0
93864,-88.397790055249,4,1,0,100,0,0
93905,-89.016315106833,4,1,0,100,0,0
93946,-89.628153137673,4,1,0,100,0,0
94047,-90.782560283935,4,1,0,100,0,0
94190,-89.888027562446,4,1,0,100,0,0
94353,-88.889646008654,4,1,0,100,0,0
94516,-87.913198773461,4,1,0,100,0,0
94598,-87.43004590999,4,1,0,100,0,0
94679,-86.95797086958,4,1,0,100,0,0
94761,-86.485232207379,4,1,0,100,0,0
94862,-85.909973986631,4,1,0,100,0,0
95005,-85.108465176969,4,1,0,100,0,0
95168,-84.212904683516,4,1,0,100,0,0
95331,-83.335995144856,4,1,0,100,0,0
95413,-82.901719042928,4,1,0,100,0,0
95494,-82.477159927923,4,1,0,100,0,0
95657,-81.635845927595,4,1,0,100,0,0
95820,-80.811522378814,4,1,0,100,0,0
95902,-80.403094086104,4,1,0,100,0,0
95983,-80.003679739965,4,1,0,100,0,0
96065,-79.603356216629,4,1,0,100,0,0
96146,-79.21182864256,4,1,0,100,0,0
96310,-78.430783105366,4,1,0,100,0,0
96473,-77.669613884671,4,1,0,100,0,0
96656,-66.666666666667,4,1,0,100,0,0
96799,-69.767441860465,4,1,0,100,0,0
96880,-71.439006574142,4,1,0,100,0,0
96962,-73.170731707317,4,1,0,100,0,0
97002,-74.079684896228,4,1,0,100,0,0
97043,-75.011504832029,4,1,0,100,0,0
97125,-76.923076923077,4,1,0,100,0,0
97179,-78.252520403265,4,1,0,100,0,0
97233,-79.654666883857,4,1,0,100,0,0
97288,-81.081081081081,4,1,0,100,0,0
97369,-83.347537071757,4,1,0,100,0,0
97451,-85.714285714286,4,1,0,100,0,0
97614,-90.09009009009,4,1,0,100,0,0
97960,-95.238095238095,4,1,0,100,0,0
98286,-66.666666666667,4,1,0,100,0,0
98429,-79.601990049751,4,1,0,100,0,0
98511,-80.598306446628,4,1,0,100,0,0
98592,-81.632653061224,4,1,0,100,0,0
98674,-82.680784960213,4,1,0,100,0,0
98755,-83.769633507853,4,1,0,100,0,0
98837,-84.873730799271,4,1,0,100,0,0
98918,-86.021505376344,4,1,0,100,0,0
98959,-86.607113206921,4,1,0,100,0,0
99000,-87.186173235717,4,1,0,100,0,0
99081,-88.397790055249,4,1,0,100,0,0
99122,-89.016315106833,4,1,0,100,0,0
99163,-89.628153137673,4,1,0,100,0,0
99244,-80,4,1,0,100,0,0
99319,-81.967213114754,4,1,0,100,0,0
99373,-84.033613445378,4,1,0,100,0,0
99428,-86.206896551724,4,1,0,100,0,0
99570,-80,4,1,0,100,0,0
99611,-80.645161290323,4,1,0,100,0,0
99651,-81.967213114754,4,1,0,100,0,0
99733,-83.333333333333,4,1,0,100,0,0
99814,-82.686519879613,4,1,0,100,0,0
99855,-82.152974504249,4,1,0,100,0,0
99896,-81.63903659681,4,1,0,100,0,0
99978,-80.605311920939,4,1,0,100,0,0
100059,-79.609577550709,4,1,0,100,0,0
100100,-79.114883297969,4,1,0,100,0,0
100141,-78.626299141437,4,1,0,100,0,0
100222,-77.678571428571,4,1,0,100,0,0
100276,-77.047970479705,4,1,0,100,0,0
100331,-76.43871723532,4,1,0,100,0,0
100405,-75.82800697269,4,1,0,100,0,0
100467,-74.94615936827,4,1,0,100,0,0
100549,-74.074074074074,4,1,0,100,0,0
100590,-74.595274869859,4,1,0,100,0,0
100630,-75.110880709637,4,1,0,100,0,0
100671,-75.646826778048,4,1,0,100,0,0
100712,-76.190476190476,4,1,0,100,0,0
100793,-77.287814129919,4,1,0,100,0,0
100875,-78.43137254902,4,1,0,100,0,0
100956,-79.594701825063,4,1,0,100,0,0
101038,-80.808080808081,4,1,0,100,0,0
101120,-82.05902712227,4,1,0,100,0,0
101201,-83.333333333333,4,1,0,100,0,0
101255,-82.479443390259,4,1,0,100,0,0
101310,-81.627543035994,4,1,0,100,0,0
101364,-80.808080808081,4,1,0,100,0,0
101446,-79.594701825063,4,1,0,100,0,0
101547,-78.149346757761,4,1,0,100,0,0
101609,-77.287814129919,4,1,0,100,0,0
101690,-76.190476190476,4,1,0,100,0,0
101772,-75.110880709637,4,1,0,100,0,0
101853,-74.074074074074,4,1,0,100,0,0
102016,-75.82800697269,4,1,0,100,0,0
102098,-76.742134666275,4,1,0,100,0,0
102179,-77.667013837227,4,1,0,100,0,0
102261,-78.626299141437,4,1,0,100,0,0
102362,-79.609577550709,4,1,0,100,0,0
102396,-80.270644318007,4,1,0,100,0,0
102451,-80.94278182664,4,1,0,100,0,0
102505,-81.63903659681,4,1,0,100,0,0
102587,-82.686519879613,4,1,0,100,0,0
102668,-83.774675012037,4,1,0,100,0,0
102709,-84.315942497173,4,1,0,100,0,0
102750,-84.878048780488,4,1,0,100,0,0
102831,-86.025049439684,4,1,0,100,0,0
102886,-86.797472564017,4,1,0,100,0,0
102940,-87.58389261745,4,1,0,100,0,0
102994,-88.39966130398,4,1,0,100,0,0
103157,-74.074074074074,4,1,0,100,0,0
103239,-74.936068729707,4,1,0,100,0,0
103320,-75.829383886256,4,1,0,100,0,0
103402,-76.732964575733,4,1,0,100,0,0
103483,-77.669902912621,4,1,0,100,0,0
103565,-78.618153317457,4,1,0,100,0,0
103646,-79.601990049751,4,1,0,100,0,0
103701,-80.2634413566,4,1,0,100,0,0
103755,-80.948538084301,4,1,0,100,0,0
103810,-81.632653061224,4,1,0,100,0,0
103891,-82.680784960213,4,1,0,100,0,0
103973,-83.769633507853,4,1,0,100,0,0
104054,-84.873730799271,4,1,0,100,0,0
104136,-86.021505376344,4,1,0,100,0,0
104237,-87.200748963488,4,1,0,100,0,0
104299,-88.397790055249,4,1,0,100,0,0
104339,-89.016315106833,4,1,0,100,0,0
104380,-89.64355686935,4,1,0,100,0,0
104482,-90.909090909091,4,1,0,100,0,0
104625,-88.888888888889,4,1,0,100,0,0
104788,-86.95652173913,4,1,0,100,0,0
104951,-85.106382978723,4,1,0,100,0,0
105114,-83.333333333333,4,1,0,100,0,0
105195,-82.479443390259,4,1,0,100,0,0
105277,-81.632653061224,4,1,0,100,0,0
105440,-80,4,1,0,100,0,0
105603,-78.43137254902,4,1,0,100,0,0
105685,-77.665276950566,4,1,0,100,0,0
105766,-76.923076923077,4,1,0,100,0,0
105929,-75.471698113208,4,1,0,100,0,0
106112,-73.90614373158,4,1,0,100,0,0
106255,-72.727272727273,4,1,0,100,0,0
106418,-71.428571428571,4,1,0,100,0,0
106500,-70.792616720955,4,1,0,100,0,0
106581,-70.175438596491,4,1,0,100,0,0
106663,-69.56150645471,4,1,0,100,0,0
106744,-68.965517241379,4,1,0,100,0,0
106826,-68.372483221477,4,1,0,100,0,0
106907,-67.796610169492,4,1,0,100,0,0
106989,-67.223425095371,4,1,0,100,0,0
107096,-66.666666666667,4,1,0,100,0,1
107152,-67.153322261275,4,1,0,100,0,1
107233,-67.653276955603,4,1,0,100,0,1
107315,-68.154497465113,4,1,0,100,0,1
107396,-68.669527896996,4,1,0,100,0,1
107559,-69.716775599129,4,1,0,100,0,1
107641,-70.249158249158,4,1,0,100,0,1
107722,-70.796460176991,4,1,0,100,0,1
107804,-71.345525174739,4,1,0,100,0,1
107885,-71.910112359551,4,1,0,100,0,1
108048,-73.059360730594,4,1,0,100,0,1
108130,-73.644231719542,4,1,0,100,0,1
108211,-74.245939675174,4,1,0,100,0,1
108293,-74.850041615246,4,1,0,100,0,1
108375,-75.471698113208,4,1,0,100,0,1
108456,-76.095995331534,4,1,0,100,0,1
108538,-76.73860911271,4,1,0,100,0,1
108619,-77.384131505549,4,1,0,100,0,1
108701,-78.048780487805,4,1,0,100,0,1
108864,-79.404466501241,4,1,0,100,0,1
108945,-80.104430622744,4,1,0,100,0,1
109027,-80.808080808081,4,1,0,100,0,1
109108,-81.53312283115,4,1,0,100,0,1
109190,-82.262210796915,4,1,0,100,0,1
109271,-83.013702990467,4,1,0,100,0,1
109353,-83.769633507853,4,1,0,100,0,1
109434,-84.549050119951,4,1,0,100,0,1
109516,-85.333333333333,4,1,0,100,0,1
109699,-66.666666666667,4,1,0,100,0,1
109760,-67.153322261275,4,1,0,100,0,1
109841,-67.653276955603,4,1,0,100,0,1
109923,-68.154497465113,4,1,0,100,0,1
110004,-68.669527896996,4,1,0,100,0,1
110167,-69.716775599129,4,1,0,100,0,1
110249,-70.249158249158,4,1,0,100,0,1
110330,-70.796460176991,4,1,0,100,0,1
110412,-71.345525174739,4,1,0,100,0,1
110493,-71.910112359551,4,1,0,100,0,1
110656,-73.059360730594,4,1,0,100,0,1
110738,-73.644231719542,4,1,0,100,0,1
110819,-74.245939675174,4,1,0,100,0,1
110901,-74.850041615246,4,1,0,100,0,1
110983,-75.471698113208,4,1,0,100,0,1
111064,-76.095995331534,4,1,0,100,0,1
111146,-76.73860911271,4,1,0,100,0,1
111227,-77.384131505549,4,1,0,100,0,1
111309,-78.048780487805,4,1,0,100,0,1
111472,-79.404466501241,4,1,0,100,0,1
111553,-80.104430622744,4,1,0,100,0,1
111635,-80.808080808081,4,1,0,100,0,1
111716,-81.53312283115,4,1,0,100,0,1
111798,-82.262210796915,4,1,0,100,0,1
111879,-83.013702990467,4,1,0,100,0,1
111961,-83.769633507853,4,1,0,100,0,1
112042,-84.549050119951,4,1,0,100,0,1
112124,-85.333333333333,4,1,0,100,0,1
112308,-66.666666666667,4,1,0,100,0,1
112369,-67.153322261275,4,1,0,100,0,1
112450,-67.653276955603,4,1,0,100,0,1
112532,-68.154497465113,4,1,0,100,0,1
112613,-68.669527896996,4,1,0,100,0,1
112776,-69.716775599129,4,1,0,100,0,1
112858,-70.249158249158,4,1,0,100,0,1
112939,-70.796460176991,4,1,0,100,0,1
113021,-71.345525174739,4,1,0,100,0,1
113102,-71.910112359551,4,1,0,100,0,1
113265,-73.059360730594,4,1,0,100,0,1
113347,-73.644231719542,4,1,0,100,0,1
113428,-74.245939675174,4,1,0,100,0,1
113510,-74.850041615246,4,1,0,100,0,1
113592,-75.471698113208,4,1,0,100,0,1
113673,-76.095995331534,4,1,0,100,0,1
113755,-76.73860911271,4,1,0,100,0,1
113836,-77.384131505549,4,1,0,100,0,1
113918,-78.048780487805,4,1,0,100,0,1
114081,-79.404466501241,4,1,0,100,0,1
114162,-80.104430622744,4,1,0,100,0,1
114244,-80.808080808081,4,1,0,100,0,1
114325,-81.53312283115,4,1,0,100,0,1
114407,-82.262210796915,4,1,0,100,0,1
114488,-83.013702990467,4,1,0,100,0,1
114570,-83.769633507853,4,1,0,100,0,1
114651,-84.549050119951,4,1,0,100,0,1
114733,-85.333333333333,4,1,0,100,0,1
114917,-66.666666666667,4,1,0,100,0,1
114978,-67.153322261275,4,1,0,100,0,1
115059,-67.653276955603,4,1,0,100,0,1
115141,-68.154497465113,4,1,0,100,0,1
115222,-68.669527896996,4,1,0,100,0,1
115385,-69.716775599129,4,1,0,100,0,1
115467,-70.249158249158,4,1,0,100,0,1
115548,-70.796460176991,4,1,0,100,0,1
115630,-71.345525174739,4,1,0,100,0,1
115711,-71.910112359551,4,1,0,100,0,1
115874,-73.059360730594,4,1,0,100,0,1
115956,-73.644231719542,4,1,0,100,0,1
116037,-74.245939675174,4,1,0,100,0,1
116119,-74.850041615246,4,1,0,100,0,1
116201,-75.471698113208,4,1,0,100,0,1
116282,-76.095995331534,4,1,0,100,0,1
116364,-76.73860911271,4,1,0,100,0,1
116445,-77.384131505549,4,1,0,100,0,1
116527,-78.048780487805,4,1,0,100,0,1
116690,-79.404466501241,4,1,0,100,0,1
116771,-80.104430622744,4,1,0,100,0,1
116853,-80.808080808081,4,1,0,100,0,1
116934,-81.53312283115,4,1,0,100,0,1
117016,-82.262210796915,4,1,0,100,0,1
117097,-83.013702990467,4,1,0,100,0,1
117179,-83.769633507853,4,1,0,100,0,1
117260,-84.549050119951,4,1,0,100,0,1
117342,-85.333333333333,4,1,0,100,0,1
117526,-66.666666666667,4,1,0,100,0,1
117587,-67.153322261275,4,1,0,100,0,1
117668,-67.653276955603,4,1,0,100,0,1
117750,-68.154497465113,4,1,0,100,0,1
117831,-68.669527896996,4,1,0,100,0,1
117994,-69.716775599129,4,1,0,100,0,1
118076,-70.249158249158,4,1,0,100,0,1
118157,-70.796460176991,4,1,0,100,0,1
118239,-71.345525174739,4,1,0,100,0,1
118320,-71.910112359551,4,1,0,100,0,1
118483,-73.059360730594,4,1,0,100,0,1
118565,-73.644231719542,4,1,0,100,0,1
118646,-74.245939675174,4,1,0,100,0,1
118728,-74.850041615246,4,1,0,100,0,1
118810,-75.471698113208,4,1,0,100,0,1
118891,-76.095995331534,4,1,0,100,0,1
118973,-76.73860911271,4,1,0,100,0,1
119054,-77.384131505549,4,1,0,100,0,1
119136,-78.048780487805,4,1,0,100,0,1
119217,-78.740157480315,4,1,0,100,0,1
119299,-79.404466501241,4,1,0,100,0,1
119380,-80.104430622744,4,1,0,100,0,1
119462,-80.808080808081,4,1,0,100,0,1
119543,-81.53312283115,4,1,0,100,0,1
119625,-82.262210796915,4,1,0,100,0,1
119706,-83.013702990467,4,1,0,100,0,1
119788,-83.769633507853,4,1,0,100,0,1
119869,-84.549050119951,4,1,0,100,0,1
119951,-85.333333333333,4,1,0,100,0,1
120134,-66.666666666667,4,1,0,100,0,1
120195,-67.153322261275,4,1,0,100,0,1
120276,-67.653276955603,4,1,0,100,0,1
120358,-68.154497465113,4,1,0,100,0,1
120439,-68.669527896996,4,1,0,100,0,1
120602,-69.716775599129,4,1,0,100,0,1
120684,-70.249158249158,4,1,0,100,0,1
120765,-70.796460176991,4,1,0,100,0,1
120847,-71.345525174739,4,1,0,100,0,1
120928,-71.910112359551,4,1,0,100,0,1
121091,-73.059360730594,4,1,0,100,0,1
121173,-73.644231719542,4,1,0,100,0,1
121254,-74.245939675174,4,1,0,100,0,1
121336,-74.850041615246,4,1,0,100,0,1
121418,-75.471698113208,4,1,0,100,0,1
121499,-76.095995331534,4,1,0,100,0,1
121581,-76.73860911271,4,1,0,100,0,1
121662,-77.384131505549,4,1,0,100,0,1
121744,-78.048780487805,4,1,0,100,0,1
121846,-78.740157480315,4,1,0,100,0,1
121907,-79.404466501241,4,1,0,100,0,1
121988,-80.104430622744,4,1,0,100,0,1
122070,-80.808080808081,4,1,0,100,0,1
122151,-81.53312283115,4,1,0,100,0,1
122233,-82.262210796915,4,1,0,100,0,1
122314,-83.013702990467,4,1,0,100,0,1
122396,-83.769633507853,4,1,0,100,0,1
122477,-84.549050119951,4,1,0,100,0,1
122559,-85.333333333333,4,1,0,100,0,1
122743,-66.666666666667,4,1,0,100,0,1
122804,-67.153322261275,4,1,0,100,0,1
122885,-67.653276955603,4,1,0,100,0,1
122967,-68.154497465113,4,1,0,100,0,1
123048,-68.669527896996,4,1,0,100,0,1
123211,-69.716775599129,4,1,0,100,0,1
123293,-70.249158249158,4,1,0,100,0,1
123374,-70.796460176991,4,1,0,100,0,1
123456,-71.345525174739,4,1,0,100,0,1
123537,-71.910112359551,4,1,0,100,0,1
123700,-73.059360730594,4,1,0,100,0,1
123782,-73.644231719542,4,1,0,100,0,1
123863,-74.245939675174,4,1,0,100,0,1
123945,-74.850041615246,4,1,0,100,0,1
124027,-75.471698113208,4,1,0,100,0,1
124108,-76.095995331534,4,1,0,100,0,1
124190,-76.73860911271,4,1,0,100,0,1
124271,-77.384131505549,4,1,0,100,0,1
124353,-78.048780487805,4,1,0,100,0,1
124455,-78.740157480315,4,1,0,100,0,1
124516,-79.404466501241,4,1,0,100,0,1
124597,-80.104430622744,4,1,0,100,0,1
124679,-80.808080808081,4,1,0,100,0,1
124760,-81.53312283115,4,1,0,100,0,1
124842,-82.262210796915,4,1,0,100,0,1
124923,-83.013702990467,4,1,0,100,0,1
125005,-83.769633507853,4,1,0,100,0,1
125086,-84.549050119951,4,1,0,100,0,1
125168,-85.333333333333,4,1,0,100,0,1
125270,-86.206896551724,4,1,0,100,0,1
125331,-86.95652173913,4,1,0,100,0,1
125413,-86.142260243431,4,1,0,100,0,1
125494,-85.333333333333,4,1,0,100,0,1
125576,-84.549050119951,4,1,0,100,0,1
125657,-83.769633507853,4,1,0,100,0,1
125820,-82.262210796915,4,1,0,100,0,1
125902,-81.53312283115,4,1,0,100,0,1
125983,-80.808080808081,4,1,0,100,0,1
126065,-80.104430622744,4,1,0,100,0,1
126146,-79.404466501241,4,1,0,100,0,1
126310,-78.048780487805,4,1,0,100,0,1
126391,-77.392168790896,4,1,0,100,0,1
126473,-76.73860911271,4,1,0,100,0,1
126554,-76.103767253203,4,1,0,100,0,1
126636,-75.471698113208,4,1,0,100,0,1
126717,-74.857561101623,4,1,0,100,0,1
126799,-74.245939675174,4,1,0,100,0,1
126880,-73.644231719542,4,1,0,100,0,1
126962,-73.059360730594,4,1,0,100,0,1
127043,-72.476656291685,4,1,0,100,0,1
127125,-71.910112359551,4,1,0,100,0,1
127206,-71.345525174739,4,1,0,100,0,1
127288,-70.796460176991,4,1,0,100,0,1
127369,-70.249158249158,4,1,0,100,0,1
127451,-69.716775599129,4,1,0,100,0,1
127532,-69.185977106021,4,1,0,100,0,1
127614,-68.669527896996,4,1,0,100,0,1
127695,-68.154497465113,4,1,0,100,0,1
127777,-67.653276955603,4,1,0,100,0,1
127965,-66.73488530741,4,1,0,100,0,0
128123,-67.296116671826,4,1,0,90,0,0
128266,-67.796316509867,4,1,0,90,0,0
128592,-68.964909497876,4,1,0,90,0,0
128918,-70.174494718531,4,1,0,90,0,0
129081,-70.795339412361,4,1,0,90,0,0
129265,-71.428571428571,4,1,0,90,0,0
129407,-72.070578701146,4,1,0,90,0,0
129570,-72.725583124245,4,1,0,90,0,0
129733,-73.392602595844,4,1,0,90,0,0
129896,-74.071970772522,4,1,0,90,0,0
130060,-74.768319480271,4,1,0,90,0,0
130223,-75.473517725572,4,1,0,90,0,0
130549,-76.924589132657,4,1,0,90,0,0
130712,-77.671251910518,4,1,0,90,0,0
130875,-78.43255161355,4,1,0,90,0,0
131201,-80.000817795224,4,1,0,90,0,0
131527,-81.633078816706,4,1,0,90,0,0
131690,-82.47444409316,4,1,0,90,0,0
131853,-83.333333333333,4,1,0,90,0,0
132016,-84.210299782641,4,1,0,90,0,0
132179,-85.105920222715,4,1,0,90,0,0
132362,-86.134407537036,4,1,0,90,0,0
132505,-86.955555555556,4,1,0,90,0,0
132668,-87.910853496888,4,1,0,90,0,0
132831,-88.887374494571,4,1,0,90,0,0
132994,-89.885833735327,4,1,0,90,0,0
133157,-90.906978905306,4,1,0,90,0,0
133320,-91.951592057338,4,1,0,90,0,0
133483,-93.020491608425,4,1,0,90,0,0
133646,-94.114534478197,4,1,0,90,0,0
133810,-95.241572350006,4,1,0,90,0,0
134136,-97.564016256514,4,1,0,90,0,0
134299,-98.768236660104,4,1,0,90,0,0
134462,-100.002555649263,4,1,0,90,0,0
134625,-101.268115942029,4,1,0,90,0,0
134788,-102.566118843543,4,1,0,90,0,0
134951,-103.897828049493,4,1,0,90,0,0
135114,-105.264573749765,4,1,0,90,0,0
135277,-106.667757060299,4,1,0,90,0,0
135440,-108.108854814201,4,1,0,90,0,0
135603,-109.589424746541,4,1,0,90,0,0
135766,-111.111111111111,4,1,0,90,0,0
136092,-106.668302056503,4,1,0,90,0,0
136418,-102.555031446541,4,1,0,90,0,0
136744,-98.758422287834,4,1,0,90,0,0
136907,-96.963615416063,4,1,0,90,0,0
137070,-95.232880712513,4,1,0,90,0,0
137233,-93.562847409001,4,1,0,90,0,0
137396,-91.950377105801,4,1,0,90,0,0
137560,-90.392544087586,4,1,0,90,0,0
137723,-88.886617606977,4,1,0,90,0,0
137886,-87.43004590999,4,1,0,90,0,0
138049,-86.020441806792,4,1,0,90,0,0
138212,-84.655569616146,4,1,0,90,0,0
138400,352.941176470588,4,1,0,100,1,0
138400,-76.923076923077,4,1,0,90,0,0
138549,-77.667899927105,4,1,0,90,0,0
138725,-78.427287751899,4,1,0,90,0,0
139078,-79.996033488688,4,1,0,90,0,0
139431,-81.6288179939,4,1,0,90,0,0
139608,-82.472871726716,4,1,0,90,0,0
139784,-83.329644222114,4,1,0,90,0,0
139894,-83.769711174734,4,1,0,90,0,0
139961,-84.20942751905,4,1,0,90,0,0
140137,-85.102855851104,4,1,0,90,0,0
140314,-86.020686398465,4,1,0,90,0,0
140380,-86.33104523704,4,1,0,90,0,0
140431,-86.638334432869,4,1,0,90,0,0
140490,-86.953174322098,4,1,0,90,0,0
140667,-87.911574686697,4,1,0,90,0,0
140843,-88.885740819442,4,1,0,90,0,0
141196,-90.906163975595,4,1,0,90,0,0
141394,-91.954210157789,4,1,0,90,0,0
141549,-93.020574233614,4,1,0,90,0,0
141725,-94.111961068613,4,1,0,90,0,0
141902,-95.235685976895,4,1,0,90,0,0
142078,-96.379990100869,4,1,0,90,0,0
142255,-97.558868752483,4,1,0,90,0,0
142431,-98.760034278319,4,1,0,90,0,0
142608,-99.998229179579,4,1,0,90,0,0
142784,-101.260602148224,4,1,0,90,0,0
142961,-102.562705461414,4,1,0,90,0,0
143137,-103.891086376598,4,1,0,90,0,0
143225,-104.568264726034,4,1,0,90,0,0
143314,-105.262176822562,4,1,0,90,0,0
143490,-106.661881646299,4,1,0,90,0,0
143667,-108.107590695894,4,1,0,90,0,0
143725,-108.589889044863,4,1,0,90,0,0
143784,-109.084938281144,4,1,0,90,0,0
143843,-109.584521938251,4,1,0,90,0,0
143948,-109.584521938251,4,1,0,100,0,0
144047,375,4,1,0,100,1,0
144047,-77.208153180976,4,1,0,100,0,0
144206,-79.201647394266,4,1,0,100,0,0
144393,-81.632653061224,4,1,0,100,0,0
144581,-84.203435500168,4,1,0,100,0,0
144768,-86.95652173913,4,1,0,100,0,0
144956,-89.87956138774,4,1,0,100,0,0
145143,-93.023255813953,4,1,0,100,0,0
145331,-96.376252891288,4,1,0,100,0,0
145542,-77.208153180976,4,1,0,100,0,0
145706,-79.201647394266,4,1,0,100,0,0
145893,-81.632653061224,4,1,0,100,0,0
146081,-84.203435500168,4,1,0,100,0,0
146268,-86.95652173913,4,1,0,100,0,0
146456,-89.87956138774,4,1,0,100,0,0
146643,-93.023255813953,4,1,0,100,0,0
146831,-96.376252891288,4,1,0,100,0,0
147018,-76.923076923077,4,1,0,100,0,0
147112,-78.419071518193,4,1,0,100,0,0
147206,-79.991467576792,4,1,0,100,0,0
147299,-81.628210709621,4,1,0,100,0,0
147393,-83.333333333333,4,1,0,100,0,0
147487,-85.091899251191,4,1,0,100,0,0
147581,-86.946440992349,4,1,0,100,0,0
147674,-88.883621711306,4,1,0,100,0,0
147768,-90.909090909091,4,1,0,100,0,0
147815,-88.883621711306,4,1,0,100,0,0
147862,-86.946440992349,4,1,0,100,0,0
147909,-85.091899251191,4,1,0,100,0,0
147956,-83.314818929127,4,1,0,100,0,0
148002,-81.645983017636,4,1,0,100,0,0
148049,-80.008534243653,4,1,0,100,0,0
148096,-78.435473750261,4,1,0,100,0,0
148143,-76.923076923077,4,1,0,100,0,0
148190,-75.467900986114,4,1,0,100,0,0
148237,-74.066758838633,4,1,0,100,0,0
148284,-72.716695753345,4,1,0,100,0,0
148331,-71.414968577414,4,1,0,100,0,0
148377,-70.185289163391,4,1,0,100,0,0
148424,-68.971859481332,4,1,0,100,0,0
148471,-67.799674561562,4,1,0,100,0,0
148518,-66.666666666667,4,1,0,100,0,0
148588,-66.666666666667,4,1,0,80,0,0
149948,-66.666666666667,4,1,0,100,0,0
150042,-83.333333333333,4,1,0,100,0,0
150206,-79.991467576792,4,1,0,100,0,0
150299,-78.435473750261,4,1,0,100,0,0
150393,-76.923076923077,4,1,0,100,0,0
150487,-75.467900986114,4,1,0,100,0,0
150581,-74.066758838633,4,1,0,100,0,0
150674,-72.730799069046,4,1,0,100,0,0
150768,-71.942446043166,4,1,0,100,0,0
150831,-72.737852778586,4,1,0,100,0,0
150893,-74.074074074074,4,1,0,100,0,0
150956,-75.48309178744,4,1,0,100,0,0
151049,-77.663870767319,4,1,0,100,0,0
151143,-79.365079365079,4,1,0,100,0,0
151237,-78.685084805036,4,1,0,100,0,0
151331,-77.412695682092,4,1,0,100,0,0
151424,-76.193701320691,4,1,0,100,0,0
151518,-75,4,1,0,100,0,0
151612,-73.843124384641,4,1,0,100,0,0
151706,-72.721396250808,4,1,0,100,0,0
151799,-71.644642572839,4,1,0,100,0,0
151893,-70.588235294118,4,1,0,100,0,0
151987,-69.562528984387,4,1,0,100,0,0
152081,-68.566204479659,4,1,0,100,0,0
152174,-67.608173076923,4,1,0,100,0,0
152268,-67.114093959732,4,1,0,100,0,0
152362,-68.380743982495,4,1,0,100,0,0
152456,-70.185289163391,4,1,0,100,0,0
152549,-72.066878062842,4,1,0,100,0,0
152643,-66.666666666667,4,1,0,100,0,0
152706,-68.965517241379,4,1,0,100,0,0
152768,-71.428571428571,4,1,0,100,0,0
152831,-74.074074074074,4,1,0,100,0,0
152924,-78.125,4,1,0,100,0,0
152971,-80.645161290323,4,1,0,100,0,0
153018,-83.333333333333,4,1,0,100,0,0
153112,-81.645983017636,4,1,0,100,0,0
153206,-80.008534243653,4,1,0,100,0,0
153299,-78.435473750261,4,1,0,100,0,0
153393,-76.923076923077,4,1,0,100,0,0
153487,-75.48309178744,4,1,0,100,0,0
153581,-74.081390754642,4,1,0,100,0,0
153674,-72.730799069046,4,1,0,100,0,0
153768,-71.942446043166,4,1,0,100,0,0
153862,-73.399882560188,4,1,0,100,0,0
153956,-75.48309178744,4,1,0,100,0,0
154049,-77.663870767319,4,1,0,100,0,0
154143,-78.740157480315,4,1,0,100,0,0
154237,-77.663870767319,4,1,0,100,0,0
154331,-75.757575757576,4,1,0,100,0,0
154424,-73.399882560188,4,1,0,100,0,0
154518,-64.516129032258,4,1,0,100,0,0
154581,-65.582371458552,4,1,0,100,0,0
154643,-66.666666666667,4,1,0,100,0,0
154706,-67.805804176838,4,1,0,100,0,0
154799,-69.560378408459,4,1,0,100,0,0
154893,-71.428571428571,4,1,0,100,0,0
154987,-73.399882560188,4,1,0,100,0,0
155081,-75.48309178744,4,1,0,100,0,0
155174,-77.663870767319,4,1,0,100,0,0
155268,-80,4,1,0,100,0,0
155456,-66.666666666667,4,1,0,100,0,0
155549,-68.948595264385,4,1,0,100,0,0
155596,-70.162297128589,4,1,0,100,0,0
155643,-71.419494217817,4,1,0,100,0,0
155831,-76.933607118412,4,1,0,100,0,0
155924,-80.645161290323,4,1,0,100,0,0
156018,-83.333333333333,4,1,0,100,0,0
156065,-80.051369863014,4,1,0,100,0,0
156112,-76.954732510288,4,1,0,100,0,0
156159,-74.088748019017,4,1,0,100,0,0
156206,-71.428571428571,4,1,0,100,0,0
156393,-83.333333333333,4,1,0,100,0,0
156440,-80.051369863014,4,1,0,100,0,0
156487,-76.954732510288,4,1,0,100,0,0
156534,-74.088748019017,4,1,0,100,0,0
156581,-71.428571428571,4,1,0,100,0,0
156792,-100,4,1,0,100,0,0
157167,-68.965517241379,4,1,0,100,0,0
157237,-71.4353747976,4,1,0,100,0,0
157331,-74.088708880767,4,1,0,100,0,0
157424,-76.915188185827,4,1,0,100,0,0
157518,-79.365079365079,4,1,0,100,0,0
157612,-78.043704474506,4,1,0,100,0,0
157706,-76.180802437786,4,1,0,100,0,0
157799,-74.423220044654,4,1,0,100,0,0
157893,-72.727272727273,4,1,0,100,0,0
157987,-71.106897369045,4,1,0,100,0,0
158081,-69.557152793879,4,1,0,100,0,0
158174,-68.088969586927,4,1,0,100,0,0
158268,-67.114093959732,4,1,0,100,0,0
158362,-68.971859481332,4,1,0,100,0,0
158456,-71.442179462755,4,1,0,100,0,0
158549,-74.066758838633,4,1,0,100,0,0
158643,-76.335877862595,4,1,0,100,0,0
158737,-72.463768115942,4,1,0,100,0,0
158784,-74.626865671642,4,1,0,100,0,0
158831,-76.923076923077,4,1,0,100,0,0
158924,-72.463768115942,4,1,0,100,0,0
158971,-74.626865671642,4,1,0,100,0,0
159042,-76.923076923077,4,1,0,100,0,0
159112,-76.016723679209,4,1,0,100,0,0
159206,-75.122073369225,4,1,0,100,0,0
159299,-74.248236604381,4,1,0,100,0,0
159393,-73.394495412844,4,1,0,100,0,0
159487,-72.568940493469,4,1,0,100,0,0
159581,-71.753169098302,4,1,0,100,0,0
159674,-70.955534531693,4,1,0,100,0,0
159768,-70.175438596491,4,1,0,100,0,0
159862,-69.420340159667,4,1,0,100,0,0
159956,-68.673457708596,4,1,0,100,0,0
160049,-67.942475370853,4,1,0,100,0,0
160143,-67.226890756303,4,1,0,100,0,0
160237,-66.533599467731,4,1,0,100,0,0
160331,-65.847234416155,4,1,0,100,0,0
160424,-65.17488594395,4,1,0,100,0,0
160518,-64.935064935065,4,1,0,100,0,0
160612,-65.432179545901,4,1,0,100,0,0
160706,-66.38489964816,4,1,0,100,0,0
160799,-67.365773695911,4,1,0,100,0,0
160893,-68.376068376068,4,1,0,100,0,0
160987,-69.405885619101,4,1,0,100,0,0
161081,-70.478785885448,4,1,0,100,0,0
161174,-71.585377493557,4,1,0,100,0,0
161268,-72.727272727273,4,1,0,100,0,0
161362,-73.893445651371,4,1,0,100,0,0
161456,-75.110788412909,4,1,0,100,0,0
161549,-76.368912761245,4,1,0,100,0,0
161643,-77.669902912621,4,1,0,100,0,0
161737,-79.001422025596,4,1,0,100,0,0
161831,-80.394468860542,4,1,0,100,0,0
161924,-81.837525233237,4,1,0,100,0,0
162042,-83.333333333333,4,1,0,100,0,0
162206,-79.991467576792,4,1,0,100,0,0
162299,-78.435473750261,4,1,0,100,0,0
162393,-76.923076923077,4,1,0,100,0,0
162487,-75.467900986114,4,1,0,100,0,0
162581,-74.066758838633,4,1,0,100,0,0
162674,-72.730799069046,4,1,0,100,0,0
162768,-71.942446043166,4,1,0,100,0,0
162831,-72.737852778586,4,1,0,100,0,0
162893,-74.074074074074,4,1,0,100,0,0
162956,-75.48309178744,4,1,0,100,0,0
163049,-77.663870767319,4,1,0,100,0,0
163143,-79.365079365079,4,1,0,100,0,0
163237,-78.685084805036,4,1,0,100,0,0
163331,-77.412695682092,4,1,0,100,0,0
163424,-76.193701320691,4,1,0,100,0,0
163518,-75,4,1,0,100,0,0
163612,-73.843124384641,4,1,0,100,0,0
163706,-72.721396250808,4,1,0,100,0,0
163799,-71.644642572839,4,1,0,100,0,0
163893,-70.588235294118,4,1,0,100,0,0
163987,-69.562528984387,4,1,0,100,0,0
164081,-68.566204479659,4,1,0,100,0,0
164174,-67.608173076923,4,1,0,100,0,0
164268,-67.114093959732,4,1,0,100,0,0
164362,-68.380743982495,4,1,0,100,0,0
164456,-70.185289163391,4,1,0,100,0,0
164549,-72.066878062842,4,1,0,100,0,0
164643,-66.666666666667,4,1,0,100,0,0
164706,-68.965517241379,4,1,0,100,0,0
164768,-71.428571428571,4,1,0,100,0,0
164831,-74.074074074074,4,1,0,100,0,0
164924,-78.125,4,1,0,100,0,0
164971,-80.645161290323,4,1,0,100,0,0
165018,-83.333333333333,4,1,0,100,0,0
165112,-81.645983017636,4,1,0,100,0,0
165206,-80.008534243653,4,1,0,100,0,0
165299,-78.435473750261,4,1,0,100,0,0
165393,-76.923076923077,4,1,0,100,0,0
165487,-75.48309178744,4,1,0,100,0,0
165581,-74.081390754642,4,1,0,100,0,0
165674,-72.730799069046,4,1,0,100,0,0
165768,-71.942446043166,4,1,0,100,0,0
165862,-73.399882560188,4,1,0,100,0,0
165956,-75.48309178744,4,1,0,100,0,0
166049,-77.663870767319,4,1,0,100,0,0
166143,-78.740157480315,4,1,0,100,0,0
166237,-77.663870767319,4,1,0,100,0,0
166331,-75.757575757576,4,1,0,100,0,0
166424,-73.399882560188,4,1,0,100,0,0
166518,-64.516129032258,4,1,0,100,0,0
166581,-65.582371458552,4,1,0,100,0,0
166643,-66.666666666667,4,1,0,100,0,0
166706,-67.805804176838,4,1,0,100,0,0
166799,-69.560378408459,4,1,0,100,0,0
166893,-71.428571428571,4,1,0,100,0,0
166987,-73.399882560188,4,1,0,100,0,0
167081,-75.48309178744,4,1,0,100,0,0
167174,-77.663870767319,4,1,0,100,0,0
167268,-80,4,1,0,100,0,0
167456,-66.666666666667,4,1,0,100,0,0
167549,-68.948595264385,4,1,0,100,0,0
167596,-70.162297128589,4,1,0,100,0,0
167643,-71.419494217817,4,1,0,100,0,0
167831,-76.933607118412,4,1,0,100,0,0
167924,-80.645161290323,4,1,0,100,0,0
168018,-83.333333333333,4,1,0,100,0,0
168065,-80.051369863014,4,1,0,100,0,0
168112,-76.954732510288,4,1,0,100,0,0
168159,-74.088748019017,4,1,0,100,0,0
168206,-71.428571428571,4,1,0,100,0,0
168393,-83.333333333333,4,1,0,100,0,0
168440,-80.051369863014,4,1,0,100,0,0
168487,-76.954732510288,4,1,0,100,0,0
168534,-74.088748019017,4,1,0,100,0,0
168581,-71.428571428571,4,1,0,100,0,0
168792,-50,4,1,0,100,0,0
169167,-68.965517241379,4,1,0,100,0,0
169237,-71.4353747976,4,1,0,100,0,0
169331,-74.088708880767,4,1,0,100,0,0
169424,-76.915188185827,4,1,0,100,0,0
169518,-79.365079365079,4,1,0,100,0,0
169612,-78.043704474506,4,1,0,100,0,0
169706,-76.180802437786,4,1,0,100,0,0
169799,-74.423220044654,4,1,0,100,0,0
169893,-72.727272727273,4,1,0,100,0,0
169987,-71.106897369045,4,1,0,100,0,0
170081,-69.557152793879,4,1,0,100,0,0
170174,-68.088969586927,4,1,0,100,0,0
170268,-67.114093959732,4,1,0,100,0,0
170362,-68.971859481332,4,1,0,100,0,0
170456,-71.442179462755,4,1,0,100,0,0
170549,-74.066758838633,4,1,0,100,0,0
170643,-76.335877862595,4,1,0,100,0,0
170737,-72.463768115942,4,1,0,100,0,0
170784,-74.626865671642,4,1,0,100,0,0
170831,-76.923076923077,4,1,0,100,0,0
170924,-72.463768115942,4,1,0,100,0,0
170971,-74.626865671642,4,1,0,100,0,0
171042,-76.923076923077,4,1,0,100,0,0
171112,-76.016723679209,4,1,0,100,0,0
171206,-75.122073369225,4,1,0,100,0,0
171299,-74.248236604381,4,1,0,100,0,0
171393,-73.394495412844,4,1,0,100,0,0
171487,-72.568940493469,4,1,0,100,0,0
171581,-71.753169098302,4,1,0,100,0,0
171674,-70.955534531693,4,1,0,100,0,0
171768,-70.175438596491,4,1,0,100,0,0
171862,-69.420340159667,4,1,0,100,0,0
171956,-68.673457708596,4,1,0,100,0,0
172049,-67.942475370853,4,1,0,100,0,0
172143,-67.226890756303,4,1,0,100,0,0
172237,-66.533599467731,4,1,0,100,0,0
172331,-65.847234416155,4,1,0,100,0,0
172424,-65.17488594395,4,1,0,100,0,0
172518,-64.935064935065,4,1,0,100,0,0
172612,-65.432179545901,4,1,0,100,0,0
172706,-66.38489964816,4,1,0,100,0,0
172799,-67.365773695911,4,1,0,100,0,0
172893,-68.376068376068,4,1,0,100,0,0
172987,-69.405885619101,4,1,0,100,0,0
173081,-70.478785885448,4,1,0,100,0,0
173174,-71.585377493557,4,1,0,100,0,0
173268,-72.727272727273,4,1,0,100,0,0
173362,-73.893445651371,4,1,0,100,0,0
173456,-75.110788412909,4,1,0,100,0,0
173549,-76.368912761245,4,1,0,100,0,0
173643,-77.669902912621,4,1,0,100,0,0
173737,-79.001422025596,4,1,0,100,0,0
173831,-80.394468860542,4,1,0,100,0,0
173924,-81.837525233237,4,1,0,100,0,0
174042,-82.671957671958,4,1,0,100,0,0
174206,-78.419071518193,4,1,0,100,0,0
174299,-76.196281621457,4,1,0,100,0,0
174393,-74.074074074074,4,1,0,100,0,0
174487,-72.066878062842,4,1,0,100,0,0
174581,-70.165590794274,4,1,0,100,0,0
174674,-68.380743982495,4,1,0,100,0,0
174768,-66.666666666667,4,1,0,100,0,0
174815,-67.512827437213,4,1,0,100,0,0
174862,-68.380743982495,4,1,0,100,0,0
174956,-70.185289163391,4,1,0,100,0,0
175049,-72.066878062842,4,1,0,100,0,0
175143,-74.074074074074,4,1,0,100,0,0
175237,-76.196281621457,4,1,0,100,0,0
175331,-78.443677439598,4,1,0,100,0,0
175424,-80.801551389787,4,1,0,100,0,0
175518,-83.333333333333,4,1,0,100,0,0
175635,-66.666666666667,4,1,0,100,0,0
175659,-68.965517241379,4,1,0,100,0,0
175706,-71.428571428571,4,1,0,100,0,0
175799,-74.074074074074,4,1,0,100,0,0
175917,-67.567567567568,4,1,0,100,0,0
175941,-69.93006993007,4,1,0,100,0,0
175988,-72.463768115942,4,1,0,100,0,0
176081,-75.187969924812,4,1,0,100,0,0
176198,-68.965517241379,4,1,0,100,0,0
176222,-71.428571428571,4,1,0,100,0,0
176269,-74.074074074074,4,1,0,100,0,0
176362,-66.666666666667,4,1,0,100,0,0
176409,-67.634342186535,4,1,0,100,0,0
176456,-68.630523346913,4,1,0,100,0,0
176549,-70.713593800452,4,1,0,100,0,0
176643,-72.927072927073,4,1,0,100,0,0
176737,-75.257731958763,4,1,0,100,0,0
176831,-77.769886363636,4,1,0,100,0,0
176924,-80.455547391624,4,1,0,100,0,0
177018,-83.333333333333,4,1,0,100,0,0
177112,-80.827675396056,4,1,0,100,0,0
177206,-78.443677439598,4,1,0,100,0,0
177299,-76.196281621457,4,1,0,100,0,0
177393,-74.074074074074,4,1,0,100,0,0
177487,-72.087658592849,4,1,0,100,0,0
177581,-70.185289163391,4,1,0,100,0,0
177674,-68.493150684932,4,1,0,100,0,0
177768,-67.567567567568,4,1,0,100,0,0
177862,-68.362045392398,4,1,0,100,0,0
177956,-70.165590794274,4,1,0,100,0,0
178049,-72.066878062842,4,1,0,100,0,0
178143,-74.074074074074,4,1,0,100,0,0
178237,-76.173065204144,4,1,0,100,0,0
178331,-78.419071518193,4,1,0,100,0,0
178424,-80.801551389787,4,1,0,100,0,0
178518,-83.333333333333,4,1,0,100,0,0
178612,-78.740157480315,4,1,0,100,0,0
178706,-75.013347570742,4,1,0,100,0,0
178752,-73.177083333333,4,1,0,100,0,0
178799,-71.428571428571,4,1,0,100,0,0
178893,-76.923076923077,4,1,0,100,0,0
178987,-73.529411764706,4,1,0,100,0,0
179033,-71.428571428571,4,1,0,100,0,0
179080,-69.93006993007,4,1,0,100,0,0
179174,-75.757575757576,4,1,0,100,0,0
179268,-74.009119607155,4,1,0,100,0,0
179315,-73.164811539929,4,1,0,100,0,0
179362,-72.339550191991,4,1,0,100,0,0
179456,-70.743646482934,4,1,0,100,0,0
179549,-69.232536010762,4,1,0,100,0,0
179643,-67.769391360206,4,1,0,100,0,0
179737,-66.366810304155,4,1,0,100,0,0
179831,-65.021108748575,4,1,0,100,0,0
179924,-63.742372062111,4,1,0,100,0,0
180018,-62.5,4,1,0,100,0,0
180206,-71.428571428571,4,1,0,100,0,0
180299,-66.666666666667,4,1,0,100,0,0
180393,-62.5,4,1,0,100,0,0
180581,-66.666666666667,4,1,0,100,0,0
180674,-68.969741516599,4,1,0,100,0,0
180721,-70.181999501371,4,1,0,100,0,0
180768,-71.437634817917,4,1,0,100,0,0
180862,-74.059458037359,4,1,0,100,0,0
180956,-76.912568306011,4,1,0,100,0,0
181002,-78.423178715699,4,1,0,100,0,0
181049,-79.994316567207,4,1,0,100,0,0
181143,-66.666666666667,4,1,0,100,0,0
181190,-68.343357025697,4,1,0,100,0,0
181237,-70.145903479237,4,1,0,100,0,0
181284,-72.046109510086,4,1,0,100,0,0
181331,-74.052132701422,4,1,0,100,0,0
181424,-78.419071518193,4,1,0,100,0,0
181518,-81.967213114754,4,1,0,100,0,0
181612,-81.350784583122,4,1,0,100,0,0
181706,-79.460375759288,4,1,0,100,0,0
181799,-77.674595229054,4,1,0,100,0,0
181893,-75.949367088608,4,1,0,100,0,0
181987,-74.299111712842,4,1,0,100,0,0
182081,-72.719045926117,4,1,0,100,0,0
182174,-71.220562167637,4,1,0,100,0,0
182268,-69.767441860465,4,1,0,100,0,0
182362,-68.372432235323,4,1,0,100,0,0
182456,-67.032115831496,4,1,0,100,0,0
182549,-65.756787561738,4,1,0,100,0,0
182643,-64.516129032258,4,1,0,100,0,0
182713,-66.666666666667,4,1,0,100,0,0
182760,-68.965517241379,4,1,0,100,0,0
182854,-64.516129032258,4,1,0,100,0,0
182901,-66.666666666667,4,1,0,100,0,0
182948,-68.965517241379,4,1,0,100,0,0
183018,-64.516129032258,4,1,0,100,0,0
183112,-66.374618345945,4,1,0,100,0,0
183206,-68.365161113896,4,1,0,100,0,0
183299,-70.478785885448,4,1,0,100,0,0
183393,-72.727272727273,4,1,0,100,0,0
183487,-75.097626914989,4,1,0,100,0,0
183581,-77.655829364258,4,1,0,100,0,0
183674,-80.394468860542,4,1,0,100,0,0
183768,-66.666666666667,4,1,0,100,0,0
183815,-67.327728677157,4,1,0,100,0,0
183862,-68.016840882695,4,1,0,100,0,0
183909,-68.720205353869,4,1,0,100,0,0
183956,-69.438268860234,4,1,0,100,0,0
184049,-70.920375416288,4,1,0,100,0,0
184143,-72.46713070379,4,1,0,100,0,0
184237,-74.065291281322,4,1,0,100,0,0
184331,-75.753900881235,4,1,0,100,0,0
184424,-77.521303880202,4,1,0,100,0,0
184518,-79.373146971622,4,1,0,100,0,0
184612,-81.29446468853,4,1,0,100,0,0
184729,-72.463768115942,4,1,0,100,0,0
184776,-74.626865671642,4,1,0,100,0,0
184823,-76.923076923077,4,1,0,100,0,0
184917,-72.463768115942,4,1,0,100,0,0
184963,-74.626865671642,4,1,0,100,0,0
185010,-76.923076923077,4,1,0,100,0,0
185081,-78.435473750261,4,1,0,100,0,0
185174,-75.013347570742,4,1,0,100,0,0
185268,-73.177083333333,4,1,0,100,0,0
185362,-71.428571428571,4,1,0,100,0,0
185409,-70.585280080382,4,1,0,100,0,0
185456,-69.761668321748,4,1,0,100,0,0
185502,-68.973981345115,4,1,0,100,0,0
185549,-68.18733317156,4,1,0,100,0,0
185643,-66.666666666667,4,1,0,100,0,0
185737,-69.565217391304,4,1,0,100,0,0
185831,-72.727272727273,4,1,0,100,0,0
185924,-76.151898734177,4,1,0,100,0,0
186047,352.941176470588,4,1,0,100,1,0
186047,-84.745663385424,4,1,0,100,0,0
186108,-84.740008015663,4,1,0,100,0,0
186196,-84.700517800135,4,1,0,100,0,0
186284,-84.594112981095,4,1,0,100,0,0
186372,-84.388185654008,4,1,0,100,0,0
186461,-84.046643777416,4,1,0,100,0,0
186549,-83.547573702071,4,1,0,100,0,0
186637,-82.86175178773,4,1,0,100,0,0
186725,-81.967213114754,4,1,0,100,0,0
186814,-80.833253903476,4,1,0,100,0,0
186902,-79.474965134352,4,1,0,100,0,0
186990,-77.877693672855,4,1,0,100,0,0
187078,-76.045627376426,4,1,0,100,0,0
187166,-73.990303809267,4,1,0,100,0,0
187255,-71.703329652258,4,1,0,100,0,0
187343,-69.260649173005,4,1,0,100,0,0
187453,-66.322459516545,4,1,0,100,0,0
187696,-62.744227353464,4,1,0,100,0,0
187961,-59.257706018033,4,1,0,100,0,0
188225,-56.149413868468,4,1,0,100,0,0
188490,-53.340883352208,4,1,0,100,0,0
188666,-51.6258677384,4,1,0,100,0,0
188870,326.086956521739,4,1,0,100,1,0
188870,-84.74566672527,4,1,0,100,0,0
188926,-84.740048379963,4,1,0,100,0,0
189007,-84.700899947062,4,1,0,100,0,0
189089,-84.593613038544,4,1,0,100,0,0
189170,-84.388185654008,4,1,0,100,0,0
189252,-84.04762494648,4,1,0,100,0,0
189333,-83.55091383812,4,1,0,100,0,0
189415,-82.859144737339,4,1,0,100,0,0
189496,-81.967213114754,4,1,0,100,0,0
189578,-80.836190705431,4,1,0,100,0,0
189659,-79.483358171883,4,1,0,100,0,0
189741,-77.872009904037,4,1,0,100,0,0
189822,-76.045627376426,4,1,0,100,0,0
189904,-73.970857769411,4,1,0,100,0,0
189985,-71.716718960108,4,1,0,100,0,0
190067,-69.252291884185,4,1,0,100,0,0
190148,-66.666666666667,4,1,0,100,0,0
190393,-62.752646775746,4,1,0,100,0,0
190638,-59.259259259259,4,1,0,100,0,0
190882,-56.134309083082,4,1,0,100,0,0
191127,-53.333333333333,4,1,0,100,0,0
191290,-51.612903225806,4,1,0,100,0,0
191478,294.117647058824,4,1,0,100,1,0
191478,-84.745762711864,4,1,0,100,0,0
191528,-84.740265981813,4,1,0,100,0,0
191601,-84.700899947062,4,1,0,100,0,0
191675,-84.595565577568,4,1,0,100,0,0
191748,-84.388185654008,4,1,0,100,0,0
191822,-84.052979568842,4,1,0,100,0,0
191895,-83.55091383812,4,1,0,100,0,0
191969,-82.869346076151,4,1,0,100,0,0
192042,-81.967213114754,4,1,0,100,0,0
192116,-80.852242323561,4,1,0,100,0,0
192189,-79.483358171883,4,1,0,100,0,0
192263,-77.894264205122,4,1,0,100,0,0
192336,-76.045627376426,4,1,0,100,0,0
192410,-73.998906837137,4,1,0,100,0,0
192484,-71.716718960108,4,1,0,100,0,0
192557,-69.28502631458,4,1,0,100,0,0
192631,-66.666666666667,4,1,0,100,0,0
192851,-62.736729794612,4,1,0,100,0,0
193072,-59.259259259259,4,1,0,100,0,0
193292,-56.133651551313,4,1,0,100,0,0
193513,-53.333333333333,4,1,0,100,0,0
193660,-51.612903225806,4,1,0,100,0,0
193830,270.27027027027,4,1,0,100,1,8
193830,-84.745762711864,4,1,0,100,0,0
193875,-53.857996243392,4,1,0,100,0,0
194078,-52.426355762049,4,1,0,100,0,0
194281,-51.075370426368,4,1,0,100,0,0
194483,-49.786071874324,4,1,0,100,0,0
194618,-48.964099033401,4,1,0,100,0,0
194906,-100,4,1,0,100,0,0
195919,-100,4,1,0,90,0,0
195970,-100,4,1,0,90,0,0
196105,-101.264637002342,4,1,0,90,0,0
196240,-102.561669829222,4,1,0,90,0,0
196510,-105.258033106134,4,1,0,90,0,0
196781,-108.1,4,1,0,90,0,0
196916,-109.590429845904,4,1,0,90,0,0
197051,-111.111111111111,4,1,0,90,0,0
197118,-111.881598012834,4,1,0,90,0,0
197186,-112.674588284344,4,1,0,90,0,0
197321,-114.282693730838,4,1,0,90,0,0
197456,-115.937365937366,4,1,0,90,0,0
197591,-117.64065730765,4,1,0,90,0,0
197727,-119.39474265518,4,1,0,90,0,0
197862,-121.215519174703,4,1,0,90,0,0
198132,-111.111111111111,4,1,0,90,0,0
198267,-112.674588284344,4,1,0,90,0,0
198402,-114.282693730838,4,1,0,90,0,0
198537,-115.937365937366,4,1,0,90,0,0
198672,-117.64065730765,4,1,0,90,0,0
198824,-119.407931072573,4,1,0,90,0,0
198943,-121.215519174703,4,1,0,90,0,0
199078,-123.078674712513,4,1,0,90,0,0
199213,-125,4,1,0,90,0,0
199348,-126.982262422178,4,1,0,90,0,0
199483,-129.028407734543,4,1,0,90,0,0
199618,-131.141574669416,4,1,0,90,0,0
199686,-132.232415902141,4,1,0,90,0,0
199754,-133.32511100148,4,1,0,90,0,0
199889,-135.599598595083,4,1,0,90,0,0
200024,-137.935434477479,4,1,0,90,0,0
200159,-140.353155024669,4,1,0,90,0,0
200294,-100,4,1,0,90,0,0
200429,-101.264637002342,4,1,0,90,0,0
200564,-102.561669829222,4,1,0,90,0,0
200699,-103.892359442576,4,1,0,90,0,0
200835,-105.268283182394,4,1,0,90,0,0
201105,-108.110811081108,4,1,0,90,0,0
201240,-109.590429845904,4,1,0,90,0,0
201375,-111.111111111111,4,1,0,90,0,0
201510,-112.674588284344,4,1,0,90,0,0
201645,-114.282693730838,4,1,0,90,0,0
201781,-115.937365937366,4,1,0,90,0,0
201916,-117.653461036134,4,1,0,90,0,0
202051,-119.407931072573,4,1,0,90,0,0
202186,-121.215519174703,4,1,0,90,0,0
202321,-123.078674712513,4,1,0,90,0,0
202456,-111.111111111111,4,1,0,90,0,0
202727,-114.282693730838,4,1,0,90,0,0
202997,-117.653461036134,4,1,0,90,0,0
203267,-121.215519174703,4,1,0,90,0,0
203402,-123.078674712513,4,1,0,90,0,0
203537,-125,4,1,0,90,0,0
203672,-126.982262422178,4,1,0,90,0,0
203824,-129.043810433329,4,1,0,90,0,0
203943,-131.157486047076,4,1,0,90,0,0
204078,-100,4,1,0,90,0,0
204168,-103.448275862069,4,1,0,90,0,0
204258,-107.142857142857,4,1,0,90,0,0
204348,-111.111111111111,4,1,0,90,0,0
204438,-115.384615384615,4,1,0,90,0,0
204528,-120,4,1,0,90,0,0
204568,-120,4,1,0,100,0,0
204635,-76.923076923077,4,1,0,100,0,0
206240,-117.647058823529,4,1,0,100,0,0
206308,-110.294117647059,4,1,0,100,0,0
206375,-103.896103896104,4,1,0,100,0,0
206443,-98.119378577269,4,1,0,100,0,0
206510,-93.023255813953,4,1,0,100,0,0
206578,-88.365243004418,4,1,0,100,0,0
206645,-84.210526315789,4,1,0,100,0,0
206713,-80.375083724046,4,1,0,100,0,0
206797,-76.923076923077,4,1,0,100,0,0
208402,-86.95652173913,4,1,0,100,0,0
208492,-92.307692307692,4,1,0,100,0,0
208582,-98.360655737705,4,1,0,100,0,0
208672,-105.263157894737,4,1,0,100,0,0
208960,-77.203343414379,4,1,0,100,0,0
209010,-78.0396215969,4,1,0,100,0,0
209078,-79.206469424153,4,1,0,100,0,0
209213,-81.629569946621,4,1,0,100,0,0
209348,-84.205605049219,4,1,0,100,0,0
209483,-86.949525290994,4,1,0,100,0,0
209551,-88.400501717838,4,1,0,100,0,0
209618,-89.87829558371,4,1,0,100,0,0
209686,-91.429538340055,4,1,0,100,0,0
209754,-93.035268459265,4,1,0,100,0,0
209821,-94.673519448663,4,1,0,100,0,0
209889,-96.396289248335,4,1,0,100,0,0
210024,-100.009254403554,4,1,0,100,0,0
210159,-103.903595923338,4,1,0,100,0,0
210294,-108.113515856871,4,1,0,100,0,0
210362,-110.365957446809,4,1,0,100,0,0
210429,-112.67899346587,4,1,0,100,0,0
210497,-115.127840909091,4,1,0,100,0,0
210564,-117.647058823529,4,1,0,100,0,0
210632,-110.306861045978,4,1,0,100,0,0
210699,-103.91855551287,4,1,0,100,0,0
210767,-98.149492017417,4,1,0,100,0,0
210835,-92.987280852527,4,1,0,100,0,0
210902,-88.405915515974,4,1,0,100,0,0
210970,-84.195782429383,4,1,0,100,0,0
211037,-80.422179277538,4,1,0,100,0,0
211122,-77.675489067894,4,1,0,100,0,0
211172,-79.976303317536,4,1,0,100,0,0
211240,-83.333333333333,4,1,0,100,0,0
211375,-90.909090909091,4,1,0,100,0,0
211510,-100,4,1,0,100,0,0
211933,-77.675489067894,4,1,0,100,0,0
211983,-79.976303317536,4,1,0,100,0,0
212051,-83.333333333333,4,1,0,100,0,0
212186,-90.909090909091,4,1,0,100,0,0
212321,-100,4,1,0,100,0,0
212591,-100,4,1,0,100,0,0
212659,-92.97520661157,4,1,0,100,0,0
212726,-87.719298245614,4,1,0,100,0,0
213149,-104.166666666667,4,1,0,100,0,0
213216,-107.52688172043,4,1,0,100,0,0
213267,-111.111111111111,4,1,0,100,0,0
213402,-108.845592307305,4,1,0,100,0,0
213537,-106.67061377541,4,1,0,100,0,0
213672,-104.580854254341,4,1,0,100,0,0
213808,-102.571401461239,4,1,0,100,0,0
213943,-100.623661919389,4,1,0,100,0,0
214078,-98.762048330364,4,1,0,100,0,0
214213,-96.968066020811,4,1,0,100,0,0
214348,-95.238095238095,4,1,0,100,0,0
214483,-93.568770016446,4,1,0,100,0,0
214618,-91.956956318319,4,1,0,100,0,0
214754,-90.399732396722,4,1,0,100,0,0
214889,-88.88340733432,4,1,0,100,0,0
215024,-87.427716446278,4,1,0,100,0,0
215159,-86.018938489695,4,1,0,100,0,0
215294,-84.654841614785,4,1,0,100,0,0
215429,-83.333333333333,4,1,0,100,0,0
215564,-84.654841614785,4,1,0,100,0,0
215699,-86.018938489695,4,1,0,100,0,0
215835,-87.438324031384,4,1,0,100,0,0
215970,-88.894371119609,4,1,0,100,0,0
216105,-90.399732396722,4,1,0,100,0,0
216240,-91.956956318319,4,1,0,100,0,0
216375,-93.568770016446,4,1,0,100,0,0
216510,-95.238095238095,4,1,0,100,0,0
216645,-96.968066020811,4,1,0,100,0,0
216781,-98.762048330364,4,1,0,100,0,0
216916,-100.637713540939,4,1,0,100,0,0
217051,-102.571401461239,4,1,0,100,0,0
217186,-104.580854254341,4,1,0,100,0,0
217321,-106.67061377541,4,1,0,100,0,0
217456,-108.845592307305,4,1,0,100,0,0
217608,-76.923076923077,4,1,0,100,0,0
217659,-79.220969395226,4,1,0,100,0,0
217727,-81.623415811708,4,1,0,100,0,0
217794,-84.215442092154,4,1,0,100,0,0
217862,-86.977491961415,4,1,0,100,0,0
217997,-91.743119266055,4,1,0,100,0,0
218149,-76.923076923077,4,1,0,100,0,0
218200,-79.220969395226,4,1,0,100,0,0
218268,-81.623415811708,4,1,0,100,0,0
218335,-84.215442092154,4,1,0,100,0,0
218403,-86.977491961415,4,1,0,100,0,0
218538,-91.743119266055,4,1,0,100,0,0
218689,-76.923076923077,4,1,0,100,0,0
218740,-79.220969395226,4,1,0,100,0,0
218808,-81.623415811708,4,1,0,100,0,0
218875,-84.215442092154,4,1,0,100,0,0
218943,-86.977491961415,4,1,0,100,0,0
219078,-91.743119266055,4,1,0,100,0,0
219230,-76.923076923077,4,1,0,100,0,0
219281,-79.220969395226,4,1,0,100,0,0
219349,-81.623415811708,4,1,0,100,0,0
219416,-84.215442092154,4,1,0,100,0,0
219484,-86.977491961415,4,1,0,100,0,0
219619,-91.743119266055,4,1,0,100,0,0
219754,-76.923076923077,4,1,0,100,0,0
219799,-77.668509080468,4,1,0,100,0,0
219844,-78.445588341913,4,1,0,100,0,0
219889,-79.220969395226,4,1,0,100,0,0
219956,-80.404250575908,4,1,0,100,0,0
220024,-81.64189240172,4,1,0,100,0,0
220091,-82.899172540607,4,1,0,100,0,0
220159,-84.215442092154,4,1,0,100,0,0
220227,-85.553886297146,4,1,0,100,0,0
220294,-86.95652173913,4,1,0,100,0,0
220339,-87.910302242444,4,1,0,100,0,0
220384,-88.885237821408,4,1,0,100,0,0
220429,-89.882040206014,4,1,0,100,0,0
220497,-91.431468649654,4,1,0,100,0,0
220564,-93.011261067652,4,1,0,100,0,0
220632,-94.671449820632,4,1,0,100,0,0
220699,-96.366227288921,4,1,0,100,0,0
220767,-98.149492017417,4,1,0,100,0,0
220835,-100,4,1,0,100,0,0
220880,-98.362147406733,4,1,0,100,0,0
220925,-96.777081468218,4,1,0,100,0,0
220970,-95.242290748899,4,1,0,100,0,0
221037,-93.045274573937,4,1,0,100,0,0
221105,-90.916736753574,4,1,0,100,0,0
221172,-88.912650106925,4,1,0,100,0,0
221240,-86.967015285599,4,1,0,100,0,0
221308,-85.131516774295,4,1,0,100,0,0
221375,-83.346183500386,4,1,0,100,0,0
221420,-82.205323193916,4,1,0,100,0,0
221465,-81.095273818455,4,1,0,100,0,0
221510,-80.014803849001,4,1,0,100,0,0
221578,-78.435640690756,4,1,0,100,0,0
221645,-76.939501779359,4,1,0,100,0,0
221690,-75.966268446943,4,1,0,100,0,0
221736,-75.017349063151,4,1,0,100,0,0
221781,-74.091843728581,4,1,0,100,0,0
221826,-73.169080817653,4,1,0,100,0,0
221871,-72.288350942892,4,1,0,100,0,0
221916,-71.428571428571,4,1,0,100,0,0
222000,-71.428571428571,4,1,0,90,0,0
222997,-125,4,1,0,90,0,0
223132,-117.655592630205,4,1,0,90,0,0
223199,-114.321962221596,4,1,0,90,0,0
223267,-111.126335982461,4,1,0,90,0,0
223402,-105.283655718551,4,1,0,90,0,0
223470,-102.567345390161,4,1,0,90,0,0
223537,-100.02466699556,4,1,0,90,0,0
223672,-95.266063667332,4,1,0,90,0,0
223740,-93.036595158885,4,1,0,90,0,0
223808,-90.909090909091,4,1,0,90,0,0
224100,-83.333333333333,4,1,0,100,0,1
239213,-83.333333333333,4,1,0,100,0,1
239281,-82.73064707458,4,1,0,100,0,1
239348,-82.099187362345,4,1,0,100,0,1
239416,-81.468083502902,4,1,0,100,0,1
239483,-80.855678970792,4,1,0,100,0,1
239551,-80.243476969899,4,1,0,100,0,1
239618,-79.64927792514,4,1,0,100,0,1
239686,-79.055141143777,4,1,0,100,0,1
239754,-78.469802555168,4,1,0,100,0,1
239821,-77.90148812741,4,1,0,100,0,1
239889,-77.333047179597,4,1,0,100,0,1
239956,-76.781021379359,4,1,0,100,0,1
240024,-76.228756787251,4,1,0,100,0,1
240091,-75.692329237125,4,1,0,100,0,1
240159,-75.155560190496,4,1,0,100,0,1
240227,-74.626350488419,4,1,0,100,0,1
240316,-74.478831848655,4,1,0,100,0,0
240497,-79.07951830725,4,1,0,100,0,0
240699,-84.934806514112,4,1,0,100,0,0
240902,-91.762842272007,4,1,0,100,0,0
241105,-99.78468163642,4,1,0,100,0,0
241172,-96.411355115158,4,1,0,100,0,0
241240,-93.023255813953,4,1,0,100,0,0
241285,-90.909090909091,4,1,0,100,0,0
241330,-88.888888888889,4,1,0,100,0,0
241392,-86.95652173913,4,1,0,100,0,0
241667,-58.823529411765,4,1,0,100,0,1
241797,-80,4,1,0,100,0,1
248943,-80,4,1,0,100,0,1
249078,-80.807325733508,4,1,0,100,0,1
249145,-81.214079110477,4,1,0,100,0,1
249213,-81.63111195016,4,1,0,100,0,1
249348,-82.471867251574,4,1,0,100,0,1
249416,-82.901951761954,4,1,0,100,0,1
249483,-83.330121410676,4,1,0,100,0,1
249618,-84.206426484908,4,1,0,100,0,1
249686,-84.654841614785,4,1,0,100,0,1
249754,-85.101358000394,4,1,0,100,0,1
249821,-85.559381059797,4,1,0,100,0,1
249889,-86.022361039271,4,1,0,100,0,1
249956,-86.483459338374,4,1,0,100,0,1
250024,-86.95652173913,4,1,0,100,0,1
251099,-86.95652173913,4,1,0,90,0,1
251127,-87.435233160622,4,1,0,90,0,0
251240,-90.909090909091,4,1,0,90,0,0
251375,-95.238095238095,4,1,0,90,0,0
251510,-100,4,1,0,90,0,0
251578,-102.58358662614,4,1,0,90,0,0
251713,-102.549521372382,4,1,0,90,0,0
251781,-99.972281252887,4,1,0,90,0,0
251848,-97.556577405103,4,1,0,90,0,0
251916,-95.221332394614,4,1,0,90,0,0
251983,-93.027254750236,4,1,0,90,0,0
252051,-90.901453415105,4,1,0,90,0,0
252118,-88.899843891217,4,1,0,90,0,0
252169,-88.899843891217,4,1,0,100,0,0
252208,-86.95652173913,4,1,0,100,0,1
253250,-86.95652173913,4,1,0,90,0,1
253289,-86.95652173913,4,1,0,90,0,0
253335,-88.16213350732,4,1,0,90,0,0
253402,-89.383165205887,4,1,0,90,0,0
253537,-91.949134521329,4,1,0,90,0,0
253605,-93.298235014888,4,1,0,90,0,0
253740,-96.097430882745,4,1,0,90,0,0
253808,-97.54997067184,4,1,0,90,0,0
253875,-99.069788754983,4,1,0,90,0,0
253943,-100.637713540939,4,1,0,90,0,0
254010,-102.231889540382,4,1,0,90,0,0
254078,-103.902345251826,4,1,0,90,0,0
254145,-105.602500854784,4,1,0,90,0,0
254213,-107.38588387225,4,1,0,90,0,0
254297,-107.38588387225,4,1,0,100,0,0
254370,-80,4,1,0,100,0,1
254483,-80.603970547115,4,1,0,100,0,1
254551,-80.911659587208,4,1,0,100,0,1
254618,-81.217129977461,4,1,0,100,0,1
254686,-81.529527113659,4,1,0,100,0,1
254754,-81.839689599697,4,1,0,100,0,1
254889,-82.476586491693,4,1,0,100,0,1
254956,-82.794010646038,4,1,0,100,0,1
255024,-83.118680558225,4,1,0,100,0,1
255091,-83.441076011655,4,1,0,100,0,1
255159,-83.770850688727,4,1,0,100,0,1
255294,-84.43333593689,4,1,0,100,0,1
255429,-85.106382978723,4,1,0,100,0,1
255564,-85.790246418793,4,1,0,100,0,1
255632,-86.138889995617,4,1,0,100,0,1
255699,-86.485189111347,4,1,0,100,0,1
255767,-86.839515594561,4,1,0,100,0,1
255835,-87.196757345379,4,1,0,100,0,1
255970,-87.914769030579,4,1,0,100,0,1
256037,-88.275524161444,4,1,0,100,0,1
256105,-88.644703663462,4,1,0,100,0,1
256172,-89.011486681214,4,1,0,100,0,1
256240,-89.386860710299,4,1,0,100,0,1
256375,-90.141549750881,4,1,0,100,0,1
256510,-90.909090909091,4,1,0,100,0,1
256578,-90.135912615692,4,1,0,100,0,1
256645,-89.386860710299,4,1,0,100,0,1
256713,-88.639252183182,4,1,0,100,0,1
256781,-87.904045537711,4,1,0,100,0,1
256848,-87.191482497177,4,1,0,100,0,1
256916,-86.48,4,1,0,100,0,1
256983,-85.790246418793,4,1,0,100,0,1
257051,-85.101358000394,4,1,0,100,0,1
257118,-84.43333593689,4,1,0,100,0,1
257186,-83.765982177451,4,1,0,100,0,1
257254,-83.109095102637,4,1,0,100,0,1
257321,-82.471867251574,4,1,0,100,0,1
257389,-81.835042961505,4,1,0,100,0,1
257456,-81.217129977461,4,1,0,100,0,1
257524,-80.599463167313,4,1,0,100,0,1
257591,-80,4,1,0,100,0,1
257659,-78.811275402433,4,1,0,100,0,1
257727,-77.657360223929,4,1,0,100,0,1
257794,-76.552992783359,4,1,0,100,0,1
257862,-75.463802482913,4,1,0,100,0,1
257929,-74.420524107573,4,1,0,100,0,1
257997,-73.390761717425,4,1,0,100,0,1
258064,-72.403640256959,4,1,0,100,0,1
258132,-71.428571428571,4,1,0,100,0,1
258335,-77.686663789383,4,1,0,100,0,1
258537,-85.106382978723,4,1,0,100,0,1
258694,-90.909090909091,4,1,0,100,0,0
258717,-88.235294117647,4,1,0,100,0,0
258762,-85.714285714286,4,1,0,100,0,0
258807,-83.333333333333,4,1,0,100,0,0
258942,-83.333333333333,4,1,0,100,0,0
258987,-85.714285714286,4,1,0,100,0,0
259032,-88.235294117647,4,1,0,100,0,0
259077,-90.909090909091,4,1,0,100,0,0
259212,-95.238095238095,4,1,0,100,0,0
259280,-91.930541368744,4,1,0,100,0,0
259347,-88.888888888889,4,1,0,100,0,0
259415,-86.000955566173,4,1,0,100,0,0
259482,-83.333333333333,4,1,0,100,0,0
259618,-95.238095238095,4,1,0,100,0,0
259686,-91.930541368744,4,1,0,100,0,0
259753,-88.888888888889,4,1,0,100,0,0
259821,-86.000955566173,4,1,0,100,0,0
259888,-83.333333333333,4,1,0,100,0,0
260023,-95.238095238095,4,1,0,100,0,0
260091,-91.930541368744,4,1,0,100,0,0
260158,-88.888888888889,4,1,0,100,0,0
260226,-86.000955566173,4,1,0,100,0,0
260293,-83.333333333333,4,1,0,100,0,0
260344,-84.033613445378,4,1,0,100,0,0
260428,-86.327106285593,4,1,0,100,0,0
260479,-86.95652173913,4,1,0,100,0,0
260564,-89.568722734552,4,1,0,100,0,0
260614,-90.09009009009,4,1,0,100,0,0
260699,-93.036595158885,4,1,0,100,0,0
260749,-94.339622641509,4,1,0,100,0,0
260834,-96.783817650218,4,1,0,100,0,0
260901,-98.757915245982,4,1,0,100,0,0
260969,-100.84556080577,4,1,0,100,0,0
261104,-83.333333333333,4,1,0,100,0,0
261149,-85.714285714286,4,1,0,100,0,0
261194,-88.235294117647,4,1,0,100,0,0
261239,-90.909090909091,4,1,0,100,0,0
261374,-95.238095238095,4,1,0,100,0,0
261442,-91.930541368744,4,1,0,100,0,0
261509,-88.888888888889,4,1,0,100,0,0
261577,-86.000955566173,4,1,0,100,0,0
261644,-83.333333333333,4,1,0,100,0,0
261780,-95.238095238095,4,1,0,100,0,0
261848,-91.930541368744,4,1,0,100,0,0
261915,-88.888888888889,4,1,0,100,0,0
261983,-86.000955566173,4,1,0,100,0,0
262050,-83.333333333333,4,1,0,100,0,0
262185,-95.238095238095,4,1,0,100,0,0
262253,-91.930541368744,4,1,0,100,0,0
262320,-88.888888888889,4,1,0,100,0,0
262388,-86.000955566173,4,1,0,100,0,0
262455,-83.333333333333,4,1,0,100,0,0
262506,-84.745762711864,4,1,0,100,0,0
262591,-88.921761998685,4,1,0,100,0,0
262641,-90.909090909091,4,1,0,100,0,0
262726,-95.263250572284,4,1,0,100,0,0
262793,-98.758671047828,4,1,0,100,0,0
262861,-102.57868790292,4,1,0,100,0,0
262928,-106.643012024443,4,1,0,100,0,0
263014,-90.909090909091,4,1,0,100,0,0
263041,-88.235294117647,4,1,0,100,0,0
263086,-85.714285714286,4,1,0,100,0,0
263131,-83.333333333333,4,1,0,100,0,0
263266,-83.333333333333,4,1,0,100,0,0
263311,-85.714285714286,4,1,0,100,0,0
263356,-88.235294117647,4,1,0,100,0,0
263401,-90.909090909091,4,1,0,100,0,0
263536,-95.238095238095,4,1,0,100,0,0
263604,-91.930541368744,4,1,0,100,0,0
263671,-88.888888888889,4,1,0,100,0,0
263739,-86.000955566173,4,1,0,100,0,0
263806,-83.333333333333,4,1,0,100,0,0
263942,-95.238095238095,4,1,0,100,0,0
264010,-91.930541368744,4,1,0,100,0,0
264077,-88.888888888889,4,1,0,100,0,0
264145,-86.000955566173,4,1,0,100,0,0
264212,-83.333333333333,4,1,0,100,0,0
264347,-95.238095238095,4,1,0,100,0,0
264415,-91.930541368744,4,1,0,100,0,0
264482,-88.888888888889,4,1,0,100,0,0
264550,-86.000955566173,4,1,0,100,0,0
264617,-83.333333333333,4,1,0,100,0,0
264668,-84.033613445378,4,1,0,100,0,0
264753,-86.327106285593,4,1,0,100,0,0
264803,-86.95652173913,4,1,0,100,0,0
264889,-89.568722734552,4,1,0,100,0,0
264939,-90.09009009009,4,1,0,100,0,0
265024,-93.036595158885,4,1,0,100,0,0
265074,-94.339622641509,4,1,0,100,0,0
265158,-83.333333333333,4,1,0,100,0,0
265226,-84.664786967419,4,1,0,100,0,0
265293,-86.018938489695,4,1,0,100,0,0
265361,-87.438324031384,4,1,0,100,0,0
265428,-88.88340733432,4,1,0,100,0,0
265496,-90.399732396722,4,1,0,100,0,0
265564,-91.968691509273,4,1,0,100,0,0
265631,-93.568770016446,4,1,0,100,0,0
265699,-95.250682879549,4,1,0,100,0,0
265766,-96.968066020811,4,1,0,100,0,0
265834,-98.775584795322,4,1,0,100,0,0
265969,-102.571401461239,4,1,0,100,0,0
266104,-106.67061377541,4,1,0,100,0,0
266239,-108.695652173913,4,1,0,100,0,0
266374,-103.10379013193,4,1,0,100,0,0
266442,-99.49223636765,4,1,0,100,0,0
266509,-96.172997581448,4,1,0,100,0,0
266577,-93.023255813953,4,1,0,100,0,0
266645,-90.073284477015,4,1,0,100,0,0
266712,-87.344143678532,4,1,0,100,0,0
266780,-84.738326543403,4,1,0,100,0,0
266933,-62.5,4,1,0,100,0,0
267338,-86.95652173913,4,1,0,100,0,0
267366,-84.507042253521,4,1,0,100,0,0
267411,-82.191780821918,4,1,0,100,0,0
267456,-80,4,1,0,100,0,0
267592,-80,4,1,0,100,0,0
267637,-82.175226586103,4,1,0,100,0,0
267682,-84.524549409571,4,1,0,100,0,0
267727,-86.95652173913,4,1,0,100,0,0
267879,-90.909090909091,4,1,0,100,0,0
267929,-87.933561309233,4,1,0,100,0,0
267997,-85.106382978723,4,1,0,100,0,0
268065,-82.493125572869,4,1,0,100,0,0
268132,-80,4,1,0,100,0,0
268284,-90.909090909091,4,1,0,100,0,0
268334,-87.933561309233,4,1,0,100,0,0
268402,-85.106382978723,4,1,0,100,0,0
268470,-82.493125572869,4,1,0,100,0,0
268537,-80,4,1,0,100,0,0
268689,-90.909090909091,4,1,0,100,0,0
268740,-87.933561309233,4,1,0,100,0,0
268808,-85.106382978723,4,1,0,100,0,0
268876,-82.493125572869,4,1,0,100,0,0
268943,-80,4,1,0,100,0,0
268994,-80.645161290323,4,1,0,100,0,0
269078,-82.755102040816,4,1,0,100,0,0
269129,-83.333333333333,4,1,0,100,0,0
269213,-85.706737120211,4,1,0,100,0,0
269264,-86.206896551724,4,1,0,100,0,0
269348,-88.876712328767,4,1,0,100,0,0
269399,-89.285714285714,4,1,0,100,0,0
269483,-92.290184921764,4,1,0,100,0,0
269551,-94.110821003771,4,1,0,100,0,0
269619,-95.976331360947,4,1,0,100,0,0
269754,-80,4,1,0,100,0,0
269799,-82.175226586103,4,1,0,100,0,0
269844,-84.524549409571,4,1,0,100,0,0
269889,-86.95652173913,4,1,0,100,0,0
270041,-90.909090909091,4,1,0,100,0,0
270091,-87.933561309233,4,1,0,100,0,0
270159,-85.106382978723,4,1,0,100,0,0
270227,-82.493125572869,4,1,0,100,0,0
270294,-80,4,1,0,100,0,0
270446,-90.909090909091,4,1,0,100,0,0
270496,-87.933561309233,4,1,0,100,0,0
270564,-85.106382978723,4,1,0,100,0,0
270632,-82.493125572869,4,1,0,100,0,0
270699,-80,4,1,0,100,0,0
270852,-90.909090909091,4,1,0,100,0,0
270902,-87.933561309233,4,1,0,100,0,0
270970,-85.106382978723,4,1,0,100,0,0
271038,-82.493125572869,4,1,0,100,0,0
271105,-80,4,1,0,100,0,0
271156,-81.30081300813,4,1,0,100,0,0
271240,-85.106382978723,4,1,0,100,0,0
271291,-86.206896551724,4,1,0,100,0,0
271375,-90.909090909091,4,1,0,100,0,0
271443,-94.142259414226,4,1,0,100,0,0
271510,-97.560975609756,4,1,0,100,0,0
271578,-101.294316263365,4,1,0,100,0,0
271662,-86.95652173913,4,1,0,100,0,0
271690,-84.507042253521,4,1,0,100,0,0
271735,-82.191780821918,4,1,0,100,0,0
271780,-80,4,1,0,100,0,0
271916,-80,4,1,0,100,0,0
271961,-82.175226586103,4,1,0,100,0,0
272006,-84.524549409571,4,1,0,100,0,0
272051,-86.95652173913,4,1,0,100,0,0
272203,-90.909090909091,4,1,0,100,0,0
272253,-87.933561309233,4,1,0,100,0,0
272321,-85.106382978723,4,1,0,100,0,0
272389,-82.493125572869,4,1,0,100,0,0
272456,-80,4,1,0,100,0,0
272608,-90.909090909091,4,1,0,100,0,0
272658,-87.933561309233,4,1,0,100,0,0
272726,-85.106382978723,4,1,0,100,0,0
272794,-82.493125572869,4,1,0,100,0,0
272861,-80,4,1,0,100,0,0
273014,-90.909090909091,4,1,0,100,0,0
273064,-87.933561309233,4,1,0,100,0,0
273132,-85.106382978723,4,1,0,100,0,0
273200,-82.493125572869,4,1,0,100,0,0
273267,-80,4,1,0,100,0,0
273318,-80.645161290323,4,1,0,100,0,0
273402,-82.755102040816,4,1,0,100,0,0
273453,-83.333333333333,4,1,0,100,0,0
273537,-85.706737120211,4,1,0,100,0,0
273588,-86.206896551724,4,1,0,100,0,0
273672,-88.876712328767,4,1,0,100,0,0
273723,-89.285714285714,4,1,0,100,0,0
273808,-80,4,1,0,100,0,0
273875,-81.00412139378,4,1,0,100,0,0
273943,-82.049335863378,4,1,0,100,0,0
274010,-83.105900442053,4,1,0,100,0,0
274078,-84.206426484907,4,1,0,100,0,0
274146,-85.319652722968,4,1,0,100,0,0
274213,-86.48,4,1,0,100,0,0
274281,-87.672343876723,4,1,0,100,0,0
274348,-88.879753340185,4,1,0,100,0,0
274416,-90.139670627476,4,1,0,100,0,0
274483,-91.416490486258,4,1,0,100,0,0
274551,-92.749892749893,4,1,0,100,0,0
274619,-94.102285092492,4,1,0,100,0,0
274686,-95.515794124144,4,1,0,100,0,0
274754,-96.972415339762,4,1,0,100,0,0
274821,-98.451730418944,4,1,0,100,0,0
274889,-99.009900990099,4,1,0,100,0,0
274956,-97.876771243605,4,1,0,100,0,0
275024,-95.812098382451,4,1,0,100,0,0
275092,-93.832732954299,4,1,0,100,0,0
275159,-91.960867715866,4,1,0,100,0,0
275227,-90.135912615692,4,1,0,100,0,0
275294,-88.407278675118,4,1,0,100,0,0
275362,-86.719345393285,4,1,0,100,0,0
275429,-85.11811023622,4,1,0,100,0,0
275497,-83.552326480136,4,1,0,100,0,0
275565,-82.043108682453,4,1,0,100,0,0
275632,-80.60847843108,4,1,0,100,0,0
275700,-79.202842803238,4,1,0,100,0,0
275767,-77.865014766261,4,1,0,100,0,0
275835,-76.552652078465,4,1,0,100,0,0
275902,-75.302149002125,4,1,0,100,0,0
275987,-74.074074074074,4,1,0,100,0,0
276262,-74.074074074074,4,1,0,100,0,1
276375,-74.956508584827,4,1,0,100,0,1
276510,-75.860221227083,4,1,0,100,0,1
276645,-76.785991011932,4,1,0,100,0,1
276781,-77.734635447308,4,1,0,100,0,1
276916,-78.714306517163,4,1,0,100,0,1
277051,-79.711504946779,4,1,0,100,0,1
277186,-80.734293744654,4,1,0,100,0,1
277254,-81.251708116972,4,1,0,100,0,1
277321,-81.783670774648,4,1,0,100,0,1
277456,-82.860686464416,4,1,0,100,0,1
277524,-83.413997727368,4,1,0,100,0,1
277591,-83.966447312678,4,1,0,100,0,1
277659,-84.534675424379,4,1,0,100,0,1
277727,-85.102119681118,4,1,0,100,0,1
277862,-86.277696359389,4,1,0,100,0,1
277997,-87.477196492673,4,1,0,100,0,1
278132,-88.710519641339,4,1,0,100,0,1
278267,-89.979116854817,4,1,0,100,0,1
278402,-91.284523389164,4,1,0,100,0,1
278537,-92.628364905284,4,1,0,100,0,1
278672,-94.012364222809,4,1,0,100,0,1
278808,-95.438348688646,4,1,0,100,0,1
278943,-96.919315403423,4,1,0,100,0,1
279078,-98.435559970201,4,1,0,100,0,1
279145,-99.205819540844,4,1,0,100,0,1
279213,-100,4,1,0,100,0,1
279348,-97.563909774436,4,1,0,100,0,1
279483,-95.2436876101,4,1,0,100,0,1
279618,-93.031258961858,4,1,0,100,0,1
279754,-90.903995964804,4,1,0,100,0,1
279889,-88.886453309952,4,1,0,100,0,1
280024,-86.95652173913,4,1,0,100,0,1
280316,264.31718061674,4,1,0,100,1,0
280316,-74.074074074074,4,1,0,100,0,1
280338,-74.34916347813,4,1,0,100,0,1
280382,-74.626303701194,4,1,0,100,0,1
280426,-74.905517762661,4,1,0,100,0,1
280492,-75.328278509397,4,1,0,100,0,1
280558,-75.755838397737,4,1,0,100,0,1
280690,-76.625686229027,4,1,0,100,0,1
280823,-77.515741718487,4,1,0,100,0,1
280955,-78.426717315606,4,1,0,100,0,1
281087,-79.359359359359,4,1,0,100,0,1
281219,-80.321773401011,4,1,0,100,0,1
281351,-81.300312772394,4,1,0,100,0,1
281483,-82.302988777809,4,1,0,100,0,1
281549,-82.813658821932,4,1,0,100,0,1
281616,-83.330705599176,4,1,0,100,0,1
281748,-84.384413151536,4,1,0,100,0,1
281814,-84.921323521536,4,1,0,100,0,1
281880,-85.465110011535,4,1,0,100,0,1
281946,-86.015905564778,4,1,0,100,0,1
282012,-86.582355896293,4,1,0,100,0,1
282144,-87.720462944522,4,1,0,100,0,1
282276,-88.888888888889,4,1,0,100,0,1
282409,-90.088861616781,4,1,0,100,0,1
282541,-91.321676227337,4,1,0,100,0,1
282673,-92.588699694018,4,1,0,100,0,1
282805,-93.90138459534,4,1,0,100,0,1
282937,-95.241527612595,4,1,0,100,0,1
283069,-96.620477008763,4,1,0,100,0,1
283201,-98.039943115068,4,1,0,100,0,1
283334,-99.501738268258,4,1,0,100,0,1
283400,-100.249105370307,4,1,0,100,0,1
283466,-101.007784530316,4,1,0,100,0,1
283598,-102.560122120024,4,1,0,100,0,1
283730,-104.173236623568,4,1,0,100,0,1
283862,-105.825190880453,4,1,0,100,0,1
283994,-107.530381944444,4,1,0,100,0,1
284127,-109.291425420458,4,1,0,100,0,1
284280,-111.111111111111,4,1,0,100,0,0
284545,258.620689655172,4,1,0,100,1,0
284545,-76.923076923077,4,1,0,100,0,1
284588,-78.417484569463,4,1,0,100,0,1
284653,-79.995871180842,4,1,0,100,0,1
284717,-81.613310867734,4,1,0,100,0,1
284782,-83.324373723256,4,1,0,100,0,1
284911,-86.941889163114,4,1,0,100,0,1
285041,-90.919755983107,4,1,0,100,0,1
285170,-95.243947400762,4,1,0,100,0,1
285315,-76.923076923077,4,1,0,100,0,1
285363,-78.417484569463,4,1,0,100,0,1
285428,-79.995871180842,4,1,0,100,0,1
285492,-81.613310867734,4,1,0,100,0,1
285557,-83.324373723256,4,1,0,100,0,1
285686,-86.941889163114,4,1,0,100,0,1
285816,-90.919755983107,4,1,0,100,0,1
285945,-95.243947400762,4,1,0,100,0,1
286091,-76.923076923077,4,1,0,100,0,1
286139,-78.417484569463,4,1,0,100,0,1
286204,-79.995871180842,4,1,0,100,0,1
286268,-81.613310867734,4,1,0,100,0,1
286333,-83.324373723256,4,1,0,100,0,1
286462,-86.941889163114,4,1,0,100,0,1
286613,253.164556962025,4,1,0,100,1,0
286613,-92.592592592593,4,1,0,100,0,1
286718,-97.087378640777,4,1,0,100,0,1
286861,-78.740157480315,4,1,0,100,0,1
286908,-80.261404733202,4,1,0,100,0,1
286971,-81.842590495908,4,1,0,100,0,1
287035,-83.513968508962,4,1,0,100,0,1
287098,-85.227272727273,4,1,0,100,0,1
287225,-88.873796866584,4,1,0,100,0,1
287351,-92.879256965944,4,1,0,100,0,1
287478,-97.262801783792,4,1,0,100,0,1
287620,-78.740157480315,4,1,0,100,0,1
287667,-80.261404733202,4,1,0,100,0,1
287730,-81.842590495908,4,1,0,100,0,1
287794,-83.513968508962,4,1,0,100,0,1
287857,-85.227272727273,4,1,0,100,0,1
287984,-88.873796866584,4,1,0,100,0,1
288110,-92.879256965944,4,1,0,100,0,1
288237,-97.262801783792,4,1,0,100,0,1
288385,-62.5,4,1,0,100,0,0
288638,-76.923076923077,4,1,0,100,0,1
288680,-77.479338842975,4,1,0,100,0,1
288744,-78.043704474506,4,1,0,100,0,1
288807,-78.625509609785,4,1,0,100,0,1
288870,-79.206758976766,4,1,0,100,0,1
288933,-79.796666272609,4,1,0,100,0,1
288997,-80.405002977963,4,1,0,100,0,1
289060,-81.012962073932,4,1,0,100,0,1
289123,-81.630185028419,4,1,0,100,0,1
289187,-82.256885205947,4,1,0,100,0,1
289250,-82.903463522476,4,1,0,100,0,1
289313,-83.549944300037,4,1,0,100,0,1
289376,-84.206586826347,4,1,0,100,0,1
289440,-84.88430583501,4,1,0,100,0,1
289503,-85.562175180631,4,1,0,100,0,1
289566,-86.250958343982,4,1,0,100,0,1
289630,-86.950921035682,4,1,0,100,0,1
289672,-87.435233160622,4,1,0,100,0,1
289714,-87.913519145611,4,1,0,100,0,1
289756,-88.397066526977,4,1,0,100,0,1
289820,-89.132444209692,4,1,0,100,0,1
289883,-89.892129444666,4,1,0,100,0,1
289946,-90.652699435939,4,1,0,100,0,1
290009,-91.426249492076,4,1,0,100,0,1
290073,-92.225713895341,4,1,0,100,0,1
290136,-93.026460859978,4,1,0,100,0,1
290199,-93.841234533574,4,1,0,100,0,1
290263,-94.670406732118,4,1,0,100,0,1
290326,-95.527879988678,4,1,0,100,0,1
290389,-96.387262601742,4,1,0,100,0,1
290452,-97.262247838617,4,1,0,100,0,1
290516,-98.167539267016,4,1,0,100,0,1
290558,-98.770851624232,4,1,0,100,0,1
290600,-99.381625441696,4,1,0,100,0,1
290663,248.96265560166,4,1,0,100,1,0
290663,-101.757253780139,4,1,0,100,0,1
290704,-100.950720642193,4,1,0,100,0,1
290766,-99.883669621726,4,1,0,100,0,1
290829,-98.822268744977,4,1,0,100,0,1
290891,-97.799511002445,4,1,0,100,0,1
290953,-96.797706399728,4,1,0,100,0,1
291015,-95.816217568231,4,1,0,100,0,1
291078,-94.839078270806,4,1,0,100,0,1
291140,-93.896713615023,4,1,0,100,0,1
291202,-92.972892241057,4,1,0,100,0,1
291264,-92.067072156181,4,1,0,100,0,1
291327,-91.164544680695,4,1,0,100,0,1
291389,-90.293453724605,4,1,0,100,0,1
291451,-89.438852021803,4,1,0,100,0,1
291513,-88.600275763911,4,1,0,100,0,1
291576,-87.764129496149,4,1,0,100,0,1
291638,-86.95652173913,4,1,0,100,0,1
291679,-86.134332660709,4,1,0,100,0,1
291721,-85.308056872038,4,1,0,100,0,1
291762,-84.516603496068,4,1,0,100,0,1
291825,-83.328685370071,4,1,0,100,0,1
291887,-82.191780821918,4,1,0,100,0,1
291928,-81.45684531923,4,1,0,100,0,1
291970,-80.717488789238,4,1,0,100,0,1
292011,-80.008568521395,4,1,0,100,0,1
292073,-78.959885841129,4,1,0,100,0,1
292136,-77.922077922078,4,1,0,100,0,1
292177,-77.261209081036,4,1,0,100,0,1
292219,-76.595744680851,4,1,0,100,0,1
292260,-75.957089836799,4,1,0,100,0,1
292302,-75.313807531381,4,1,0,100,0,1
292343,-74.696265186741,4,1,0,100,0,1
292405,-74.074074074074,4,1,0,100,0,0
292654,-83.333333333333,4,1,0,100,0,1
292774,-87.719298245614,4,1,0,100,0,1
292883,-74.074074074074,4,1,0,100,0,1
292945,-76.181734740707,4,1,0,100,0,1
293007,-78.412848370335,4,1,0,100,0,1
293069,-80.778588807786,4,1,0,100,0,1
293132,-83.333333333333,4,1,0,100,0,1
293256,-87.719298245614,4,1,0,100,0,1
293381,-74.074074074074,4,1,0,100,0,1
293443,-76.181734740707,4,1,0,100,0,1
293505,-78.412848370335,4,1,0,100,0,1
293567,-80.778588807786,4,1,0,100,0,1
293630,-83.333333333333,4,1,0,100,0,1
293754,-87.719298245614,4,1,0,100,0,1
293878,-74.074074074074,4,1,0,100,0,1
293940,-76.181734740707,4,1,0,100,0,1
294002,-78.412848370335,4,1,0,100,0,1
294064,-80.778588807786,4,1,0,100,0,1
294127,-83.333333333333,4,1,0,100,0,1
294251,-87.719298245614,4,1,0,100,0,1
294376,-71.428571428571,4,1,0,100,0,1
294418,-73.185011709602,4,1,0,100,0,1
294459,-74.9850029994,4,1,0,100,0,1
294501,-76.923076923077,4,1,0,100,0,1
294542,-78.914141414141,4,1,0,100,0,1
294584,-81.0635538262,4,1,0,100,0,1
294646,240,4,1,0,100,1,0
294646,-86.206896551724,4,1,0,100,0,1
294761,-91.743119266055,4,1,0,100,0,1
294866,-76.923076923077,4,1,0,100,0,1
294926,-79.129574678536,4,1,0,100,0,1
294986,-81.466395112016,4,1,0,100,0,1
295046,-83.945435466946,4,1,0,100,0,1
295106,-86.580086580087,4,1,0,100,0,1
295226,-92.378752886836,4,1,0,100,0,1
295346,-76.923076923077,4,1,0,100,0,1
295406,-79.129574678536,4,1,0,100,0,1
295466,-81.466395112016,4,1,0,100,0,1
295526,-83.945435466946,4,1,0,100,0,1
295586,-86.580086580087,4,1,0,100,0,1
295706,-82.474226804124,4,1,0,100,0,1
295946,-74.766355140187,4,1,0,100,0,1
296186,-68.376068376068,4,1,0,100,0,1
296431,-62.992125984252,4,1,0,100,0,1
296566,240,4,1,0,100,1,8
296566,-60.606060606061,4,1,0,100,0,9
296806,240,4,1,0,100,1,0
296806,-58.139534883721,4,1,0,100,0,0
296911,-58.139534883721,4,1,0,100,0,0
296971,-58.328584358553,4,1,0,100,0,0
297031,-58.518867289971,4,1,0,99,0,0
297091,-58.710395789047,4,1,0,99,0,0
297151,-58.903182125931,4,1,0,98,0,0
297211,-59.097238732466,4,1,0,98,0,0
297271,-59.292578204866,4,1,0,97,0,0
297331,-59.489213306438,4,1,0,97,0,0
297391,-59.687156970362,4,1,0,96,0,0
297451,-59.88642230253,4,1,0,96,0,0
297511,-60.087022584433,4,1,0,95,0,0
297571,-60.288971276117,4,1,0,95,0,0
297631,-60.492282019191,4,1,0,94,0,0
297691,-60.6969686399,4,1,0,94,0,0
297751,-60.903045152258,4,1,0,93,0,0
297811,-61.110525761247,4,1,0,93,0,0
297871,-61.319424866084,4,1,0,92,0,0
297931,-61.529757063545,4,1,0,92,0,0
297991,-61.741537151373,4,1,0,91,0,0
298051,-61.954780131743,4,1,0,91,0,0
298111,-62.169501214806,4,1,0,90,0,0
298171,-62.385715822308,4,1,0,90,0,0
298231,-62.603439591279,4,1,0,89,0,0
298291,-62.822688377803,4,1,0,89,0,0
298351,-63.04347826087,4,1,0,88,0,0
298411,-63.265825546304,4,1,0,88,0,0
298471,-63.48974677078,4,1,0,87,0,0
298531,-63.715258705921,4,1,0,87,0,0
298591,-63.942378362487,4,1,0,86,0,0
298651,-64.171122994652,4,1,0,86,0,0
298711,-64.401510104375,4,1,0,85,0,0
298771,-64.63355744586,4,1,0,85,0,0
298831,-64.867283030122,4,1,0,84,0,0
298891,-65.102705129644,4,1,0,84,0,0
298951,-65.339842283139,4,1,0,83,0,0
299011,-65.578713300418,4,1,0,83,0,0
299071,-65.819337267363,4,1,0,82,0,0
299131,-66.061733551008,4,1,0,82,0,0
299191,-66.30592180474,4,1,0,81,0,0
299251,-66.551921973609,4,1,0,81,0,0
299311,-66.799754299754,4,1,0,80,0,0
299371,-67.049439327964,4,1,0,80,0,0
299431,-67.300997911348,4,1,0,79,0,0
299491,-67.554451217145,4,1,0,79,0,0
299551,-67.809820732658,4,1,0,79,0,0
299611,-68.06712827133,4,1,0,78,0,0
299671,-68.326395978952,4,1,0,78,0,0
299731,-68.587646340021,4,1,0,77,0,0
299791,-68.850902184236,4,1,0,77,0,0
299851,-69.116186693148,4,1,0,76,0,0
299911,-69.38352340697,4,1,0,76,0,0
299971,-69.652936231536,4,1,0,75,0,0
300031,-69.924449445427,4,1,0,75,0,0
300091,-70.198087707266,4,1,0,74,0,0
300151,-70.473876063183,4,1,0,74,0,0
300211,-70.751839954459,4,1,0,73,0,0
300271,-71.032005225343,4,1,0,73,0,0
300331,-71.314398131071,4,1,0,72,0,0
300391,-71.599045346062,4,1,0,72,0,0
300451,-71.88597397232,4,1,0,71,0,0
300511,-72.175211548034,4,1,0,71,0,0
300571,-72.466786056391,4,1,0,70,0,0
300631,-72.760725934599,4,1,0,70,0,0
300691,-73.057060083134,4,1,0,69,0,0
300751,-73.355817875211,4,1,0,69,0,0
300811,-73.65702916649,4,1,0,68,0,0
300871,-73.960724305024,4,1,0,68,0,0
300931,-74.266934141449,4,1,0,67,0,0
300991,-74.575690039431,4,1,0,67,0,0
301051,-74.887023886378,4,1,0,66,0,0
301111,-75.200968104417,4,1,0,66,0,0
301171,-75.517555661647,4,1,0,65,0,0
301231,-75.836820083682,4,1,0,65,0,0
301291,-76.158795465488,4,1,0,64,0,0
301351,-76.483516483516,4,1,0,64,0,0
301411,-76.811018408158,4,1,0,63,0,0
301471,-77.14133711651,4,1,0,63,0,0
301531,-77.474509105481,4,1,0,62,0,0
301591,-77.810571505232,4,1,0,62,0,0
301651,-78.149562092971,4,1,0,61,0,0
301711,-78.491519307109,4,1,0,61,0,0
301771,-78.836482261791,4,1,0,60,0,0
301831,-79.184490761809,4,1,0,60,0,0
301891,-79.535585317914,4,1,0,59,0,0
301951,-79.889807162534,4,1,0,59,0,0
302011,-80.247198265923,4,1,0,58,0,0
302071,-80.607801352729,4,1,0,58,0,0
302131,-80.971659919028,4,1,0,58,0,0
302191,-81.338818249813,4,1,0,57,0,0
302251,-81.709321436957,4,1,0,57,0,0
302311,-82.083215397679,4,1,0,56,0,0
302371,-82.460546893512,4,1,0,56,0,0
302431,-82.8413635498,4,1,0,55,0,0
302491,-83.225713875735,4,1,0,55,0,0
302551,-83.613647284959,4,1,0,54,0,0
302611,-84.005214116738,4,1,0,54,0,0
302671,-84.400465657742,4,1,0,53,0,0
302731,-84.799454164433,4,1,0,53,0,0
302791,-85.202232886103,4,1,0,52,0,0
302851,-85.608856088561,4,1,0,52,0,0
302911,-86.019379078505,4,1,0,51,0,0
302971,-86.433858228603,4,1,0,51,0,0
303031,-86.852351003294,4,1,0,50,0,0
303091,-87.274915985354,4,1,0,50,0,0
303151,-87.701612903226,4,1,0,49,0,0
303211,-88.13250265917,4,1,0,49,0,0
303271,-88.567647358241,4,1,0,48,0,0
303331,-89.007110338125,4,1,0,48,0,0
303391,-89.450956199877,4,1,0,47,0,0
303451,-89.899250839576,4,1,0,47,0,0
303511,-90.352061480943,4,1,0,46,0,0
303571,-90.80945670894,4,1,0,46,0,0
303631,-91.271506504406,4,1,0,45,0,0
303691,-91.738282279749,4,1,0,45,0,0
303751,-92.209856915739,4,1,0,44,0,0
303811,-92.686304799446,4,1,0,44,0,0
303871,-93.167701863354,4,1,0,43,0,0
303931,-93.654125625706,4,1,0,43,0,0
303991,-94.145655232118,4,1,0,42,0,0
304051,-94.642371498504,4,1,0,42,0,0
304111,-95.144356955381,4,1,0,41,0,0
304171,-95.651695893574,4,1,0,41,0,0
304231,-96.164474411407,4,1,0,40,0,0
304291,-96.682780463411,4,1,0,40,0,0
304351,-97.206703910615,4,1,0,39,0,0
304411,-97.736336572488,4,1,0,39,0,0
304471,-98.271772280583,4,1,0,38,0,0
304531,-98.813106933954,4,1,0,38,0,0
304591,-99.360438556418,4,1,0,37,0,0
304651,-99.913867355728,4,1,0,37,0,0
304711,-100.473495784733,4,1,0,36,0,0
304771,-101.039428604611,4,1,0,36,0,0
304831,-101.611772950245,4,1,0,36,0,0
304891,-102.190638397839,4,1,0,35,0,0
304951,-102.776137034849,4,1,0,35,0,0
305011,-103.368383532347,4,1,0,34,0,0
305071,-103.967495219885,4,1,0,34,0,0
305131,-104.573592162991,4,1,0,33,0,0
305191,-105.18679724338,4,1,0,33,0,0
305251,-105.807236242019,4,1,0,32,0,0
305311,-106.435037925128,4,1,0,32,0,0
305371,-107.070334133284,4,1,0,31,0,0
305431,-107.713259873715,4,1,0,31,0,0
305491,-108.363953415956,4,1,0,30,0,0
305551,-109.022556390977,4,1,0,30,0,0
305611,-109.689213893967,4,1,0,29,0,0
305671,-110.364074590892,4,1,0,29,0,0
305731,-111.047290829025,4,1,0,28,0,0
305791,-111.739018751605,4,1,0,28,0,0
305851,-112.439418416801,4,1,0,27,0,0
305911,-113.148653921186,4,1,0,27,0,0
305971,-113.86689352791,4,1,0,26,0,0
306031,-114.594309799789,4,1,0,26,0,0
306091,-115.331079737522,4,1,0,25,0,0
306151,-116.077384923282,4,1,0,25,0,0
306211,-116.833411669912,4,1,0,24,0,0
306271,-117.599351175994,4,1,0,24,0,0
306331,-118.375399687054,4,1,0,23,0,0
306406,-119.359983536554,4,1,0,23,0,0
306451,-119.958634953464,4,1,0,22,0,0
306511,-120.766240977235,4,1,0,22,0,0
306571,-121.584794913004,4,1,0,21,0,0
306631,-122.414520894892,4,1,0,21,0,0
306691,-123.255649217256,4,1,0,20,0,0
306751,-124.108416547789,4,1,0,20,0,0
306811,-124.973066149537,4,1,0,19,0,0
306871,-125.849848112252,4,1,0,19,0,0
306931,-126.739019593561,4,1,0,18,0,0
306991,-127.640845070423,4,1,0,18,0,0
307051,-128.555596601404,4,1,0,17,0,0
307111,-129.483554100313,4,1,0,17,0,0
307171,-130.425005621767,4,1,0,16,0,0
307231,-131.380247659317,4,1,0,16,0,0
307291,-132.349585456758,4,1,0,15,0,0
307366,-133.333333333333,4,1,0,50,0,0

[HitObjects]
394,332,2040,5,0,0:0:0:0:
400,314,2137,1,8,0:0:0:0:
430,294,2624,1,0,0:0:0:0:
448,318,3014,1,8,0:0:0:0:
401,297,3208,1,0,0:0:0:0:
429,342,3403,1,8,0:0:0:0:
396,322,3598,1,8,0:0:0:0:
396,322,3793,1,0,0:0:0:0:
396,322,3988,1,8,0:0:0:0:
404,308,4182,1,8,0:0:0:0:
404,308,4377,1,0,0:0:0:0:
404,308,4572,1,0,0:0:0:0:
404,308,4767,1,8,0:0:0:0:
398,291,4962,1,0,0:0:0:0:
404,308,5156,1,0,0:0:0:0:
426,308,5221,1,8,0:0:0:0:
424,322,5741,1,0,0:0:0:0:
414,336,6130,1,8,0:0:0:0:
414,336,6325,1,0,0:0:0:0:
415,298,6520,1,8,0:0:0:0:
423,316,6715,1,8,0:0:0:0:
291,278,6910,1,0,0:0:0:0:
397,305,7104,1,8,0:0:0:0:
398,290,7494,1,8,0:0:0:0:
427,318,7884,1,0,0:0:0:0:
441,323,8273,1,0,0:0:0:0:
429,328,8468,1,8,0:0:0:0:
429,328,8663,1,0,0:0:0:0:
429,328,8858,1,8,0:0:0:0:
451,330,9247,1,0,0:0:0:0:
456,307,9442,1,8,0:0:0:0:
394,336,9832,1,8,0:0:0:0:
394,336,10027,1,0,0:0:0:0:
394,336,10221,1,0,0:0:0:0:
394,336,10416,1,8,0:0:0:0:
345,222,10806,1,0,0:0:0:0:
433,267,11001,1,8,0:0:0:0:
411,308,11260,1,0,0:0:0:0:
423,303,11325,1,0,0:0:0:0:
411,308,11390,1,8,0:0:0:0:
406,309,11650,1,0,0:0:0:0:
321,277,11910,1,8,0:0:0:0:
396,308,12169,1,0,0:0:0:0:
396,308,12429,1,8,0:0:0:0:
384,319,12689,1,0,0:0:0:0:
405,317,12754,1,8,0:0:0:0:
405,317,12819,1,8,0:0:0:0:
405,307,12949,1,0,0:0:0:0:
408,324,13143,1,0,0:0:0:0:
408,324,13338,1,8,0:0:0:0:
408,324,13533,1,0,0:0:0:0:
408,324,13728,1,8,0:0:0:0:
386,285,13923,1,8,0:0:0:0:
433,267,14117,1,8,0:0:0:0:
386,285,14312,1,0,0:0:0:0:
341,268,14507,1,8,0:0:0:0:
435,315,14598,1,8,0:0:0:0:
405,309,14689,1,8,0:0:0:0:
405,309,14872,1,0,0:0:0:0:
402,294,15055,1,8,0:0:0:0:
383,330,15238,1,0,0:0:0:0:
414,333,15421,1,0,0:0:0:0:
414,333,15604,1,8,0:0:0:0:
410,319,15787,1,8,0:0:0:0:
377,293,15970,1,8,0:0:0:0:
377,293,16153,1,0,0:0:0:0:
377,293,16336,1,8,0:0:0:0:
391,328,16519,1,0,0:0:0:0:
391,328,16702,1,8,0:0:0:0:
391,328,16885,1,8,0:0:0:0:
396,318,17067,1,0,0:0:0:0:
404,318,17250,1,0,0:0:0:0:
416,274,17433,1,8,0:0:0:0:
384,319,17605,1,0,0:0:0:0:
384,319,17691,1,8,0:0:0:0:
368,303,17777,1,0,0:0:0:0:
368,303,17950,1,8,0:0:0:0:
394,303,18122,1,0,0:0:0:0:
416,320,18381,1,8,0:0:0:0:
410,302,18467,1,8,0:0:0:0:
416,298,18639,1,8,0:0:0:0:
416,298,18812,1,0,0:0:0:0:
415,308,18984,1,0,0:0:0:0:
385,324,19157,1,8,0:0:0:0:
386,274,19272,1,0,0:0:0:0:
386,274,19387,1,0,0:0:0:0:
386,274,19501,1,8,0:0:0:0:
386,274,19616,1,0,0:0:0:0:
386,274,19731,1,0,0:0:0:0:
405,286,19846,1,8,0:0:0:0:
417,317,19961,1,8,0:0:0:0:
417,316,20076,1,8,0:0:0:0:
417,317,20191,1,0,0:0:0:0:
391,324,20354,1,8,0:0:0:0:
391,324,20517,1,0,0:0:0:0:
404,324,20680,1,8,0:0:0:0:
404,324,20843,1,0,0:0:0:0:
404,324,21006,1,0,0:0:0:0:
404,324,21169,1,8,0:0:0:0:
394,289,21332,1,0,0:0:0:0:
355,228,21495,1,8,0:0:0:0:
393,289,21649,1,8,0:0:0:0:
346,298,21804,1,0,0:0:0:0:
346,298,21958,1,8,0:0:0:0:
346,298,22113,1,0,0:0:0:0:
346,298,22268,1,0,0:0:0:0:
346,298,22422,1,8,0:0:0:0:
366,277,22577,1,0,0:0:0:0:
370,316,22732,1,8,0:0:0:0:
413,330,22879,1,8,0:0:0:0:
370,316,23026,1,0,0:0:0:0:
370,316,23173,1,8,0:0:0:0:
416,313,23320,1,8,0:0:0:0:
384,303,23467,1,0,0:0:0:0:
370,316,23614,1,8,0:0:0:0:
437,338,23761,1,8,0:0:0:0:
436,321,23908,1,4,0:0:0:0:
410,294,24088,1,4,0:0:0:0:
410,294,24268,1,4,0:0:0:0:
425,293,24448,1,12,0:0:0:0:
425,293,24628,1,12,0:0:0:0:
425,293,24808,1,12,0:0:0:0:
425,293,24989,1,4,0:0:0:0:
423,345,25259,1,0,0:0:0:0:
423,345,25529,1,8,0:0:0:0:
381,305,25799,1,8,0:0:0:0:
381,305,25935,1,0,0:0:0:0:
375,310,26205,1,8,0:0:0:0:
395,321,26340,1,8,0:0:0:0:
375,310,26475,1,0,0:0:0:0:
375,310,26610,1,8,0:0:0:0:
426,320,26745,1,0,0:0:0:0:
451,239,26880,1,8,0:0:0:0:
438,302,27151,1,8,0:0:0:0:
410,305,27286,1,0,0:0:0:0:
433,298,27421,1,0,0:0:0:0:
430,329,27691,1,0,0:0:0:0:
436,355,27962,1,8,0:0:0:0:
429,334,28097,1,8,0:0:0:0:
444,320,28232,1,0,0:0:0:0:
446,306,28367,1,8,0:0:0:0:
455,349,28502,1,8,0:0:0:0:
389,312,28637,1,8,0:0:0:0:
452,317,28772,1,0,0:0:0:0:
400,335,28907,1,8,0:0:0:0:
379,308,29043,1,0,0:0:0:0:
379,308,29178,1,0,0:0:0:0:
413,293,29313,1,8,0:0:0:0:
403,314,29448,1,0,0:0:0:0:
426,298,29583,1,0,0:0:0:0:
403,314,29718,1,0,0:0:0:0:
431,272,29853,1,8,0:0:0:0:
414,333,30124,1,0,0:0:0:0:
416,300,30259,1,8,0:0:0:0:
416,300,30326,1,8,0:0:0:0:
414,343,30394,1,8,0:0:0:0:
403,327,30529,1,0,0:0:0:0:
403,327,30664,1,0,0:0:0:0:
420,295,30799,1,8,0:0:0:0:
375,318,30935,1,0,0:0:0:0:
423,325,31070,1,0,0:0:0:0:
375,318,31205,1,8,0:0:0:0:
408,309,31340,1,0,0:0:0:0:
408,309,31475,1,8,0:0:0:0:
437,293,31745,1,0,0:0:0:0:
389,314,32016,1,8,0:0:0:0:
381,323,32286,1,0,0:0:0:0:
381,323,32421,1,8,0:0:0:0:
406,328,32556,1,8,0:0:0:0:
395,293,32624,1,8,0:0:0:0:
409,269,32691,1,0,0:0:0:0:
395,303,32826,1,8,0:0:0:0:
395,303,32962,1,0,0:0:0:0:
439,294,33097,1,8,0:0:0:0:
422,265,33187,1,8,0:0:0:0:
422,265,33277,1,8,0:0:0:0:
422,265,33367,1,0,0:0:0:0:
422,265,33457,1,0,0:0:0:0:
422,265,33547,1,0,0:0:0:0:
444,320,33637,1,12,0:0:0:0:
426,312,33772,1,12,0:0:0:0:
451,300,33907,1,4,0:0:0:0:
426,312,34043,1,12,0:0:0:0:
406,321,34448,1,12,0:0:0:0:
435,316,34583,1,4,0:0:0:0:
435,316,34718,1,4,0:0:0:0:
406,321,34853,1,12,0:0:0:0:
400,332,35259,1,0,0:0:0:0:
400,332,35326,1,0,0:0:0:0:
400,332,35394,1,8,0:0:0:0:
400,332,35462,1,8,0:0:0:0:
400,332,35529,1,8,0:0:0:0:
400,332,35597,1,8,0:0:0:0:
400,332,35664,1,0,0:0:0:0:
400,332,35732,1,0,0:0:0:0:
431,297,35799,1,12,0:0:0:0:
431,297,35935,1,12,0:0:0:0:
450,322,36070,1,4,0:0:0:0:
431,297,36205,1,12,0:0:0:0:
399,292,36610,1,4,0:0:0:0:
425,315,36745,1,12,0:0:0:0:
430,294,36880,1,12,0:0:0:0:
399,292,37016,1,4,0:0:0:0:
439,266,37421,1,8,0:0:0:0:
439,266,37511,1,8,0:0:0:0:
439,266,37601,1,8,0:0:0:0:
439,266,37691,1,0,0:0:0:0:
419,318,37962,1,12,0:0:0:0:
419,318,38097,1,12,0:0:0:0:
429,281,38232,1,4,0:0:0:0:
429,281,38367,1,12,0:0:0:0:
431,319,38772,1,12,0:0:0:0:
431,319,38907,1,4,0:0:0:0:
431,319,39043,1,4,0:0:0:0:
446,293,39178,1,12,0:0:0:0:
425,326,39583,1,0,0:0:0:0:
425,326,39651,1,0,0:0:0:0:
425,326,39718,1,0,0:0:0:0:
425,326,39786,1,0,0:0:0:0:
415,333,39853,1,8,0:0:0:0:
415,333,39921,1,8,0:0:0:0:
415,333,39989,1,0,0:0:0:0:
415,333,40056,1,0,0:0:0:0:
456,284,40124,1,12,0:0:0:0:
415,333,40259,1,12,0:0:0:0:
415,333,40394,1,12,0:0:0:0:
448,293,40529,1,4,0:0:0:0:
408,323,40935,1,4,0:0:0:0:
408,323,41070,1,12,0:0:0:0:
457,294,41205,1,4,0:0:0:0:
411,313,41340,1,12,0:0:0:0:
444,331,41610,1,0,0:0:0:0:
363,318,41678,1,0,0:0:0:0:
366,308,41745,1,8,0:0:0:0:
421,305,42151,1,8,0:0:0:0:
421,305,42218,1,8,0:0:0:0:
443,277,42286,1,4,0:0:0:0:
370,314,42421,1,8,0:0:0:0:
380,321,42556,1,0,0:0:0:0:
380,321,42624,1,0,0:0:0:0:
380,321,42691,1,8,0:0:0:0:
380,321,42759,1,8,0:0:0:0:
380,321,42826,1,0,0:0:0:0:
387,323,42962,1,8,0:0:0:0:
408,298,43029,1,0,0:0:0:0:
387,323,43097,1,8,0:0:0:0:
408,298,43232,1,8,0:0:0:0:
408,298,43299,1,8,0:0:0:0:
413,261,43367,1,0,0:0:0:0:
409,327,43502,1,8,0:0:0:0:
409,327,43570,1,0,0:0:0:0:
409,327,43637,1,8,0:0:0:0:
409,327,43705,1,8,0:0:0:0:
409,327,43772,1,0,0:0:0:0:
409,327,43840,1,8,0:0:0:0:
413,311,43907,1,0,0:0:0:0:
438,325,44043,1,8,0:0:0:0:
438,325,44110,1,0,0:0:0:0:
438,325,44178,1,0,0:0:0:0:
434,343,44245,1,0,0:0:0:0:
434,343,44313,1,8,0:0:0:0:
434,343,44380,1,8,0:0:0:0:
434,343,44448,1,0,0:0:0:0:
461,348,44583,1,8,0:0:0:0:
461,348,44651,1,8,0:0:0:0:
448,339,44718,1,0,0:0:0:0:
427,314,44786,1,8,0:0:0:0:
442,346,44853,1,8,0:0:0:0:
442,346,44921,1,8,0:0:0:0:
448,339,44989,1,0,0:0:0:0:
406,292,45124,1,8,0:0:0:0:
406,292,45191,1,0,0:0:0:0:
406,292,45259,1,0,0:0:0:0:
406,292,45394,1,8,0:0:0:0:
406,292,45462,1,8,0:0:0:0:
406,292,45529,1,0,0:0:0:0:
416,328,45664,1,8,0:0:0:0:
415,335,45732,1,0,0:0:0:0:
415,335,45799,1,8,0:0:0:0:
435,332,45867,1,0,0:0:0:0:
434,322,45935,1,8,0:0:0:0:
435,332,46002,1,8,0:0:0:0:
446,305,46070,1,0,0:0:0:0:
457,321,46205,1,8,0:0:0:0:
431,343,46272,1,8,0:0:0:0:
431,343,46340,1,0,0:0:0:0:
431,343,46407,1,0,0:0:0:0:
431,343,46475,1,8,0:0:0:0:
431,343,46543,1,8,0:0:0:0:
457,273,46610,1,4,0:0:0:0:
426,307,46745,1,8,0:0:0:0:
421,323,46880,1,0,0:0:0:0:
421,323,47016,1,0,0:0:0:0:
421,323,47151,1,8,0:0:0:0:
421,344,47286,1,8,0:0:0:0:
421,344,47421,1,0,0:0:0:0:
421,344,47556,1,8,0:0:0:0:
420,332,47691,1,0,0:0:0:0:
421,317,47826,1,8,0:0:0:0:
408,311,47962,1,8,0:0:0:0:
408,311,48097,1,0,0:0:0:0:
408,311,48232,1,8,0:0:0:0:
408,311,48367,1,8,0:0:0:0:
425,283,48502,1,0,0:0:0:0:
425,283,48637,1,0,0:0:0:0:
426,318,48772,1,8,0:0:0:0:
426,318,48840,1,8,0:0:0:0:
426,318,48907,1,0,0:0:0:0:
426,318,48975,1,0,0:0:0:0:
426,318,49043,1,8,0:0:0:0:
427,298,49110,1,0,0:0:0:0:
427,298,49178,1,0,0:0:0:0:
427,298,49245,1,0,0:0:0:0:
393,284,49313,1,8,0:0:0:0:
393,284,49380,1,8,0:0:0:0:
393,284,49448,1,8,0:0:0:0:
393,284,49516,1,0,0:0:0:0:
393,284,49583,1,8,0:0:0:0:
404,270,49651,1,8,0:0:0:0:
404,270,49718,1,0,0:0:0:0:
404,270,49786,1,0,0:0:0:0:
450,338,49853,1,8,0:0:0:0:
391,321,49921,1,8,0:0:0:0:
456,316,49989,1,0,0:0:0:0:
391,321,50056,1,8,0:0:0:0:
391,321,50124,1,0,0:0:0:0:
391,321,50191,1,0,0:0:0:0:
391,321,50259,1,8,0:0:0:0:
391,321,50326,1,8,0:0:0:0:
256,192,50394,12,0,50799,0:0:0:0:
415,326,50935,5,0,0:0:0:0:
415,326,50980,1,0,0:0:0:0:
415,326,51025,1,0,0:0:0:0:
415,326,51070,1,8,0:0:0:0:
431,298,51205,1,8,0:0:0:0:
431,298,51250,1,8,0:0:0:0:
431,298,51295,1,8,0:0:0:0:
431,298,51340,1,0,0:0:0:0:
414,320,51475,1,8,0:0:0:0:
382,323,51543,1,8,0:0:0:0:
382,323,51610,1,0,0:0:0:0:
382,323,51678,1,0,0:0:0:0:
382,323,51745,1,8,0:0:0:0:
374,325,51880,1,0,0:0:0:0:
374,325,51948,1,8,0:0:0:0:
374,325,52016,1,8,0:0:0:0:
374,325,52083,1,0,0:0:0:0:
374,325,52151,1,8,0:0:0:0:
443,332,52286,1,0,0:0:0:0:
403,333,52353,1,0,0:0:0:0:
403,333,52421,1,8,0:0:0:0:
403,333,52489,1,0,0:0:0:0:
403,333,52556,1,8,0:0:0:0:
418,303,52590,1,8,0:0:0:0:
440,316,52691,1,0,0:0:0:0:
442,308,52725,1,0,0:0:0:0:
417,298,52826,1,8,0:0:0:0:
406,307,52860,1,8,0:0:0:0:
411,328,52962,1,8,0:0:0:0:
416,340,52995,1,8,0:0:0:0:
444,324,53097,1,0,0:0:0:0:
448,343,53164,1,8,0:0:0:0:
390,321,53232,1,0,0:0:0:0:
390,321,53367,1,0,0:0:0:0:
421,286,53412,1,0,0:0:0:0:
435,288,53457,1,8,0:0:0:0:
366,278,53502,1,8,0:0:0:0:
389,305,53637,1,8,0:0:0:0:
393,296,53705,1,0,0:0:0:0:
393,296,53772,1,0,0:0:0:0:
393,296,53840,1,0,0:0:0:0:
393,296,53907,1,8,0:0:0:0:
428,307,54043,1,0,0:0:0:0:
428,307,54110,1,8,0:0:0:0:
428,307,54178,1,0,0:0:0:0:
433,323,54245,1,8,0:0:0:0:
428,307,54313,1,8,0:0:0:0:
426,331,54448,1,0,0:0:0:0:
426,331,54516,1,8,0:0:0:0:
426,323,54583,1,0,0:0:0:0:
426,323,54651,1,0,0:0:0:0:
426,323,54718,1,8,0:0:0:0:
424,302,54752,1,8,0:0:0:0:
433,330,54853,1,8,0:0:0:0:
425,297,54887,1,8,0:0:0:0:
385,309,54989,1,0,0:0:0:0:
385,309,55056,1,0,0:0:0:0:
385,309,55124,1,8,0:0:0:0:
385,309,55191,1,8,0:0:0:0:
407,328,55259,1,0,0:0:0:0:
405,298,55304,1,0,0:0:0:0:
406,298,55349,1,0,0:0:0:0:
406,298,55394,1,8,0:0:0:0:
426,329,55529,1,0,0:0:0:0:
426,329,55574,1,8,0:0:0:0:
426,329,55619,1,8,0:0:0:0:
426,329,55664,1,0,0:0:0:0:
454,311,55799,1,8,0:0:0:0:
376,297,55867,1,8,0:0:0:0:
376,297,55935,1,0,0:0:0:0:
376,297,56002,1,8,0:0:0:0:
376,297,56070,1,8,0:0:0:0:
415,318,56205,1,0,0:0:0:0:
415,318,56272,1,8,0:0:0:0:
432,324,56340,1,8,0:0:0:0:
415,318,56407,1,0,0:0:0:0:
415,318,56475,1,8,0:0:0:0:
417,301,56610,1,0,0:0:0:0:
415,318,56678,1,0,0:0:0:0:
416,314,56745,1,8,0:0:0:0:
416,314,56813,1,0,0:0:0:0:
418,307,56880,1,8,0:0:0:0:
291,263,56914,1,8,0:0:0:0:
402,320,57016,1,0,0:0:0:0:
329,266,57049,1,0,0:0:0:0:
428,311,57151,1,0,0:0:0:0:
428,311,57185,1,0,0:0:0:0:
402,320,57286,1,8,0:0:0:0:
380,289,57320,1,8,0:0:0:0:
421,333,57421,1,0,0:0:0:0:
421,332,57489,1,8,0:0:0:0:
421,333,57556,1,8,0:0:0:0:
421,333,57624,1,8,0:0:0:0:
421,332,57691,1,0,0:0:0:0:
421,333,57759,1,8,0:0:0:0:
421,333,57826,1,0,0:0:0:0:
421,318,57894,1,0,0:0:0:0:
456,300,57962,1,8,0:0:0:0:
409,321,58029,1,8,0:0:0:0:
409,317,58097,1,0,0:0:0:0:
410,310,58232,1,8,0:0:0:0:
416,300,58367,1,0,0:0:0:0:
447,315,58502,1,8,0:0:0:0:
381,321,58637,1,0,0:0:0:0:
381,321,58705,1,8,0:0:0:0:
381,321,58772,1,8,0:0:0:0:
381,321,58840,1,8,0:0:0:0:
396,307,58907,1,0,0:0:0:0:
396,307,58975,1,0,0:0:0:0:
414,256,59043,1,8,0:0:0:0:
439,304,59178,1,4,0:0:0:0:
430,331,59583,1,0,0:0:0:0:
404,317,59628,1,0,0:0:0:0:
404,317,59673,1,0,0:0:0:0:
405,315,59718,1,8,0:0:0:0:
406,262,59853,1,8,0:0:0:0:
406,262,59898,1,8,0:0:0:0:
408,291,59944,1,8,0:0:0:0:
409,288,59989,1,0,0:0:0:0:
435,315,60124,1,0,0:0:0:0:
382,306,60191,1,8,0:0:0:0:
382,306,60259,1,0,0:0:0:0:
382,306,60326,1,0,0:0:0:0:
382,306,60394,1,8,0:0:0:0:
413,321,60529,1,0,0:0:0:0:
433,332,60597,1,8,0:0:0:0:
413,321,60664,1,8,0:0:0:0:
433,332,60732,1,0,0:0:0:0:
433,332,60799,1,8,0:0:0:0:
435,341,60935,1,0,0:0:0:0:
424,298,61002,1,0,0:0:0:0:
435,341,61070,1,8,0:0:0:0:
396,302,61137,1,8,0:0:0:0:
396,302,61205,1,0,0:0:0:0:
396,302,61239,1,0,0:0:0:0:
396,302,61340,1,0,0:0:0:0:
396,302,61374,1,0,0:0:0:0:
451,300,61475,1,8,0:0:0:0:
451,300,61509,1,8,0:0:0:0:
426,334,61610,1,8,0:0:0:0:
435,313,61644,1,8,0:0:0:0:
462,323,61745,1,0,0:0:0:0:
463,338,61813,1,8,0:0:0:0:
404,319,61880,1,0,0:0:0:0:
430,339,62016,1,0,0:0:0:0:
427,247,62061,1,0,0:0:0:0:
427,247,62106,1,8,0:0:0:0:
427,247,62151,1,8,0:0:0:0:
433,316,62286,1,0,0:0:0:0:
433,316,62353,1,0,0:0:0:0:
433,316,62421,1,0,0:0:0:0:
424,325,62489,1,0,0:0:0:0:
426,314,62556,1,8,0:0:0:0:
446,324,62691,1,0,0:0:0:0:
434,316,62759,1,8,0:0:0:0:
434,316,62826,1,0,0:0:0:0:
434,316,62894,1,8,0:0:0:0:
443,336,62962,1,8,0:0:0:0:
460,323,63097,1,0,0:0:0:0:
460,323,63164,1,8,0:0:0:0:
434,316,63232,1,0,0:0:0:0:
434,316,63299,1,0,0:0:0:0:
439,308,63367,1,8,0:0:0:0:
400,301,63401,1,8,0:0:0:0:
410,324,63502,1,8,0:0:0:0:
400,301,63536,1,8,0:0:0:0:
410,324,63637,1,0,0:0:0:0:
452,303,63705,1,0,0:0:0:0:
410,324,63772,1,8,0:0:0:0:
410,324,63840,1,8,0:0:0:0:
423,285,63907,1,0,0:0:0:0:
423,285,63953,1,0,0:0:0:0:
423,285,63998,1,0,0:0:0:0:
423,285,64043,1,8,0:0:0:0:
421,314,64178,1,0,0:0:0:0:
421,314,64223,1,8,0:0:0:0:
421,314,64268,1,8,0:0:0:0:
421,314,64313,1,0,0:0:0:0:
432,330,64448,1,0,0:0:0:0:
432,330,64516,1,8,0:0:0:0:
432,330,64583,1,0,0:0:0:0:
432,330,64651,1,8,0:0:0:0:
432,330,64718,1,8,0:0:0:0:
416,316,64853,1,0,0:0:0:0:
416,316,64921,1,8,0:0:0:0:
417,327,64989,1,8,0:0:0:0:
416,316,65056,1,0,0:0:0:0:
416,316,65124,1,8,0:0:0:0:
419,334,65259,1,0,0:0:0:0:
419,334,65326,1,0,0:0:0:0:
419,334,65394,1,8,0:0:0:0:
404,318,65462,1,8,0:0:0:0:
404,318,65529,1,0,0:0:0:0:
388,310,65563,1,0,0:0:0:0:
416,322,65664,1,0,0:0:0:0:
416,322,65698,1,0,0:0:0:0:
416,322,65799,1,8,0:0:0:0:
416,322,65833,1,8,0:0:0:0:
399,264,65935,1,0,0:0:0:0:
388,310,65968,1,0,0:0:0:0:
430,343,66070,1,8,0:0:0:0:
430,343,66137,1,0,0:0:0:0:
430,343,66205,1,0,0:0:0:0:
430,343,66272,1,0,0:0:0:0:
408,317,66340,1,8,0:0:0:0:
385,263,66407,1,8,0:0:0:0:
401,256,66475,1,0,0:0:0:0:
408,317,66543,1,0,0:0:0:0:
394,324,66610,1,8,0:0:0:0:
394,324,66678,1,8,0:0:0:0:
394,324,66745,1,8,0:0:0:0:
394,324,66813,1,0,0:0:0:0:
394,324,66880,1,8,0:0:0:0:
399,318,66948,1,8,0:0:0:0:
399,318,67016,1,0,0:0:0:0:
399,318,67083,1,8,0:0:0:0:
406,310,67151,1,0,0:0:0:0:
421,330,67218,1,0,0:0:0:0:
421,330,67286,1,0,0:0:0:0:
421,330,67353,1,0,0:0:0:0:
421,330,67421,1,8,0:0:0:0:
434,277,67489,1,0,0:0:0:0:
422,280,67556,1,8,0:0:0:0:
427,272,67624,1,8,0:0:0:0:
394,323,67691,1,0,0:0:0:0:
394,323,67759,1,0,0:0:0:0:
394,323,67826,1,8,0:0:0:0:
404,300,67894,1,8,0:0:0:0:
419,273,67962,1,0,0:0:0:0:
403,336,68029,1,8,0:0:0:0:
403,336,68097,1,8,0:0:0:0:
403,336,68164,1,8,0:0:0:0:
436,309,68232,1,4,0:0:0:0:
432,314,68367,1,8,0:0:0:0:
423,302,68502,1,0,0:0:0:0:
423,302,68570,1,0,0:0:0:0:
423,302,68637,1,8,0:0:0:0:
416,322,68772,1,0,0:0:0:0:
416,322,68840,1,8,0:0:0:0:
416,322,68907,1,8,0:0:0:0:
416,322,68975,1,8,0:0:0:0:
416,322,69043,1,0,0:0:0:0:
426,304,69110,1,0,0:0:0:0:
414,332,69178,1,8,0:0:0:0:
414,332,69313,1,8,0:0:0:0:
421,299,69380,1,0,0:0:0:0:
417,318,69448,1,8,0:0:0:0:
417,318,69516,1,8,0:0:0:0:
417,318,69583,1,0,0:0:0:0:
417,318,69718,1,8,0:0:0:0:
392,261,69786,1,8,0:0:0:0:
391,290,69853,1,0,0:0:0:0:
391,290,69921,1,8,0:0:0:0:
391,290,69989,1,0,0:0:0:0:
391,290,70056,1,0,0:0:0:0:
391,290,70124,1,8,0:0:0:0:
428,327,70191,1,8,0:0:0:0:
428,327,70259,1,0,0:0:0:0:
441,328,70394,1,0,0:0:0:0:
403,317,70462,1,0,0:0:0:0:
441,328,70529,1,8,0:0:0:0:
403,317,70597,1,0,0:0:0:0:
403,317,70664,1,8,0:0:0:0:
403,317,70732,1,8,0:0:0:0:
403,317,70799,1,0,0:0:0:0:
407,313,70935,1,8,0:0:0:0:
407,313,71002,1,0,0:0:0:0:
407,313,71070,1,8,0:0:0:0:
407,313,71137,1,8,0:0:0:0:
407,313,71205,1,0,0:0:0:0:
431,312,71340,1,8,0:0:0:0:
433,314,71475,1,8,0:0:0:0:
439,331,71543,1,8,0:0:0:0:
432,328,71610,1,0,0:0:0:0:
432,328,71678,1,8,0:0:0:0:
439,331,71745,1,0,0:0:0:0:
436,312,71880,1,8,0:0:0:0:
419,303,71948,1,8,0:0:0:0:
415,320,72016,1,0,0:0:0:0:
411,315,72083,1,0,0:0:0:0:
416,234,72151,1,0,0:0:0:0:
423,283,72218,1,0,0:0:0:0:
446,333,72286,1,8,0:0:0:0:
441,305,72353,1,0,0:0:0:0:
446,333,72421,1,8,0:0:0:0:
438,338,72489,1,8,0:0:0:0:
459,304,72556,1,4,0:0:0:0:
441,318,72691,1,8,0:0:0:0:
441,318,72826,1,0,0:0:0:0:
441,318,72894,1,0,0:0:0:0:
441,318,72962,1,8,0:0:0:0:
412,316,73097,1,8,0:0:0:0:
412,316,73164,1,8,0:0:0:0:
412,316,73232,1,0,0:0:0:0:
422,324,73299,1,8,0:0:0:0:
422,324,73367,1,0,0:0:0:0:
390,297,73435,1,0,0:0:0:0:
422,324,73502,1,8,0:0:0:0:
422,324,73637,1,8,0:0:0:0:
428,301,73705,1,8,0:0:0:0:
432,328,73772,1,0,0:0:0:0:
395,296,73840,1,0,0:0:0:0:
395,296,73907,1,8,0:0:0:0:
379,283,74043,1,8,0:0:0:0:
419,326,74110,1,0,0:0:0:0:
419,326,74178,1,8,0:0:0:0:
436,330,74245,1,8,0:0:0:0:
436,336,74313,1,0,0:0:0:0:
436,336,74380,1,0,0:0:0:0:
426,320,74448,1,8,0:0:0:0:
430,315,74516,1,0,0:0:0:0:
420,293,74583,1,0,0:0:0:0:
421,307,74718,1,8,0:0:0:0:
441,313,74786,1,8,0:0:0:0:
392,328,74853,1,8,0:0:0:0:
383,304,74921,1,8,0:0:0:0:
383,304,74989,1,0,0:0:0:0:
407,320,75056,1,8,0:0:0:0:
407,320,75124,1,0,0:0:0:0:
410,315,75191,1,0,0:0:0:0:
410,315,75259,1,8,0:0:0:0:
422,322,75326,1,8,0:0:0:0:
386,298,75394,1,0,0:0:0:0:
430,311,75462,1,0,0:0:0:0:
418,310,75529,1,8,0:0:0:0:
405,309,75597,1,0,0:0:0:0:
428,333,75664,1,8,0:0:0:0:
448,321,75799,1,4,0:0:0:0:
448,321,75935,1,12,0:0:0:0:
451,312,76205,1,12,0:0:0:0:
439,328,76475,1,12,0:0:0:0:
460,266,76745,1,12,0:0:0:0:
380,328,76880,1,0,0:0:0:0:
380,328,76948,1,0,0:0:0:0:
380,328,77016,1,8,0:0:0:0:
380,328,77083,1,0,0:0:0:0:
380,328,77151,1,8,0:0:0:0:
380,328,77218,1,8,0:0:0:0:
431,321,77286,1,8,0:0:0:0:
390,299,77353,1,0,0:0:0:0:
431,321,77421,1,8,0:0:0:0:
431,321,77489,1,8,0:0:0:0:
431,321,77556,1,0,0:0:0:0:
431,321,77624,1,8,0:0:0:0:
431,321,77691,1,0,0:0:0:0:
431,321,77759,1,0,0:0:0:0:
442,311,77826,1,8,0:0:0:0:
420,318,77894,1,0,0:0:0:0:
420,318,77962,1,8,0:0:0:0:
454,348,78029,1,8,0:0:0:0:
415,294,78097,1,0,0:0:0:0:
415,294,78164,1,0,0:0:0:0:
426,323,78232,1,8,0:0:0:0:
433,334,78299,1,0,0:0:0:0:
431,332,78367,1,8,0:0:0:0:
426,323,78435,1,8,0:0:0:0:
426,323,78502,1,8,0:0:0:0:
428,308,78570,1,8,0:0:0:0:
428,308,78637,1,0,0:0:0:0:
402,333,78705,1,0,0:0:0:0:
402,333,78772,1,8,0:0:0:0:
438,309,78840,1,0,0:0:0:0:
432,336,78907,1,0,0:0:0:0:
423,306,78975,1,0,0:0:0:0:
423,306,79043,1,8,0:0:0:0:
412,319,79110,1,8,0:0:0:0:
423,306,79178,1,8,0:0:0:0:
436,329,79245,1,0,0:0:0:0:
436,329,79313,1,8,0:0:0:0:
417,319,79380,1,8,0:0:0:0:
417,319,79448,1,0,0:0:0:0:
419,325,79516,1,0,0:0:0:0:
417,319,79583,1,8,0:0:0:0:
417,319,79651,1,8,0:0:0:0:
419,325,79718,1,0,0:0:0:0:
435,329,79786,1,8,0:0:0:0:
417,319,79853,1,0,0:0:0:0:
407,304,79921,1,0,0:0:0:0:
407,304,79989,1,8,0:0:0:0:
400,319,80056,1,0,0:0:0:0:
400,319,80124,1,8,0:0:0:0:
414,272,80191,1,8,0:0:0:0:
411,322,80259,1,0,0:0:0:0:
443,328,80326,1,0,0:0:0:0:
443,328,80394,1,8,0:0:0:0:
400,319,80462,1,0,0:0:0:0:
400,319,80529,1,8,0:0:0:0:
415,319,80597,1,8,0:0:0:0:
437,331,80664,1,8,0:0:0:0:
400,319,80732,1,8,0:0:0:0:
395,319,80799,1,0,0:0:0:0:
395,319,80867,1,0,0:0:0:0:
422,342,80935,1,8,0:0:0:0:
396,308,81002,1,0,0:0:0:0:
417,334,81070,1,8,0:0:0:0:
437,307,81137,1,8,0:0:0:0:
438,319,81205,1,0,0:0:0:0:
386,293,81278,1,0,0:0:0:0:
386,293,81352,1,8,0:0:0:0:
387,324,81425,1,0,0:0:0:0:
387,324,81499,1,8,0:0:0:0:
407,315,81572,1,8,0:0:0:0:
414,337,81646,1,8,0:0:0:0:
407,315,81719,1,0,0:0:0:0:
407,315,81793,1,8,0:0:0:0:
428,329,81866,1,8,0:0:0:0:
407,315,81940,1,0,0:0:0:0:
393,310,82013,1,8,0:0:0:0:
393,309,82087,1,0,0:0:0:0:
407,315,82160,1,0,0:0:0:0:
426,329,82234,1,8,0:0:0:0:
402,307,82307,1,0,0:0:0:0:
431,322,82381,1,8,0:0:0:0:
419,323,82458,1,8,0:0:0:0:
419,323,82535,1,8,0:0:0:0:
419,323,82612,1,8,0:0:0:0:
417,314,82690,1,0,0:0:0:0:
417,314,82767,1,0,0:0:0:0:
417,313,82844,1,8,0:0:0:0:
417,314,82922,1,8,0:0:0:0:
426,334,82999,1,0,0:0:0:0:
426,334,83076,1,8,0:0:0:0:
426,334,83154,1,0,0:0:0:0:
426,334,83231,1,0,0:0:0:0:
426,334,83308,1,8,0:0:0:0:
401,283,83386,1,0,0:0:0:0:
401,283,83463,1,0,0:0:0:0:
428,320,83540,1,0,0:0:0:0:
428,320,83618,1,8,0:0:0:0:
428,320,83699,1,8,0:0:0:0:
428,320,83781,1,8,0:0:0:0:
428,320,83862,1,8,0:0:0:0:
428,320,83944,1,0,0:0:0:0:
420,338,84025,1,0,0:0:0:0:
420,338,84107,1,0,0:0:0:0:
420,338,84188,1,0,0:0:0:0:
420,338,84270,1,8,0:0:0:0:
420,338,84351,1,8,0:0:0:0:
420,338,84433,1,8,0:0:0:0:
420,338,84514,1,8,0:0:0:0:
419,294,84596,1,0,0:0:0:0:
419,294,84677,1,0,0:0:0:0:
419,294,84759,1,0,0:0:0:0:
419,294,84840,1,0,0:0:0:0:
442,276,84922,1,12,0:0:0:0:
272,258,85574,1,4,0:0:0:0:
424,300,85819,1,4,0:0:0:0:
424,300,86063,1,4,0:0:0:0:
405,282,86226,1,12,0:0:0:0:
442,318,86389,1,0,0:0:0:0:
467,305,86471,1,0,0:0:0:0:
451,312,86552,1,8,0:0:0:0:
422,297,86593,1,8,0:0:0:0:
422,297,86634,1,8,0:0:0:0:
467,219,86715,1,0,0:0:0:0:
405,289,86797,1,8,0:0:0:0:
405,289,86838,1,8,0:0:0:0:
423,320,86878,1,8,0:0:0:0:
423,320,86960,1,0,0:0:0:0:
407,333,87041,1,8,0:0:0:0:
407,333,87082,1,8,0:0:0:0:
407,333,87123,1,0,0:0:0:0:
416,307,87204,1,8,0:0:0:0:
416,307,87259,1,0,0:0:0:0:
416,306,87313,1,0,0:0:0:0:
416,307,87368,1,8,0:0:0:0:
431,280,87449,1,8,0:0:0:0:
435,278,87531,1,0,0:0:0:0:
396,295,87585,1,8,0:0:0:0:
396,295,87639,1,8,0:0:0:0:
396,295,87694,1,0,0:0:0:0:
409,283,87775,1,0,0:0:0:0:
409,283,87857,1,8,0:0:0:0:
415,318,87938,1,8,0:0:0:0:
415,318,88020,1,0,0:0:0:0:
415,318,88101,1,8,0:0:0:0:
428,316,88183,1,8,0:0:0:0:
429,327,88264,1,0,0:0:0:0:
429,327,88346,1,8,0:0:0:0:
458,329,88427,1,0,0:0:0:0:
429,327,88509,1,8,0:0:0:0:
365,294,88550,1,0,0:0:0:0:
413,316,88590,1,0,0:0:0:0:
365,294,88672,1,8,0:0:0:0:
365,294,88713,1,8,0:0:0:0:
432,307,88753,1,8,0:0:0:0:
456,284,88835,1,0,0:0:0:0:
406,298,88889,1,8,0:0:0:0:
406,298,88944,1,8,0:0:0:0:
421,267,88998,1,0,0:0:0:0:
421,280,89161,1,8,0:0:0:0:
421,280,89202,1,8,0:0:0:0:
342,258,89243,1,8,0:0:0:0:
421,280,89324,1,0,0:0:0:0:
412,309,89406,1,8,0:0:0:0:
450,283,89446,1,8,0:0:0:0:
429,339,89487,1,8,0:0:0:0:
437,319,89569,1,0,0:0:0:0:
440,299,89650,1,8,0:0:0:0:
440,299,89691,1,8,0:0:0:0:
416,306,89732,1,0,0:0:0:0:
416,306,89813,1,8,0:0:0:0:
383,257,89868,1,0,0:0:0:0:
383,257,89922,1,0,0:0:0:0:
383,257,89976,1,8,0:0:0:0:
431,270,90058,1,8,0:0:0:0:
431,270,90139,1,0,0:0:0:0:
412,291,90180,1,0,0:0:0:0:
445,331,90221,1,8,0:0:0:0:
406,299,90262,1,8,0:0:0:0:
445,331,90302,1,0,0:0:0:0:
412,253,90384,1,8,0:0:0:0:
412,253,90465,1,8,0:0:0:0:
461,286,90547,1,8,0:0:0:0:
415,301,90628,1,0,0:0:0:0:
415,301,90710,1,8,0:0:0:0:
418,290,90791,1,0,0:0:0:0:
418,290,90846,1,0,0:0:0:0:
418,289,90900,1,0,0:0:0:0:
441,320,90954,1,8,0:0:0:0:
451,326,91036,1,0,0:0:0:0:
441,320,91118,1,8,0:0:0:0:
421,282,91199,1,8,0:0:0:0:
347,279,91281,1,0,0:0:0:0:
347,279,91362,1,0,0:0:0:0:
426,313,91444,1,12,0:0:0:0:
347,279,91607,1,0,0:0:0:0:
347,279,91688,1,0,0:0:0:0:
426,313,91770,1,12,0:0:0:0:
370,297,91933,1,0,0:0:0:0:
426,279,92014,1,8,0:0:0:0:
426,279,92055,1,8,0:0:0:0:
426,279,92096,1,8,0:0:0:0:
391,306,92177,1,0,0:0:0:0:
396,299,92259,1,8,0:0:0:0:
396,299,92300,1,8,0:0:0:0:
396,299,92340,1,8,0:0:0:0:
456,319,92422,1,0,0:0:0:0:
431,298,92476,1,0,0:0:0:0:
431,298,92531,1,0,0:0:0:0:
431,298,92585,1,8,0:0:0:0:
413,287,92666,1,0,0:0:0:0:
413,287,92748,1,8,0:0:0:0:
397,313,92802,1,8,0:0:0:0:
397,313,92857,1,8,0:0:0:0:
397,313,92911,1,0,0:0:0:0:
397,299,92993,1,0,0:0:0:0:
380,306,93074,1,8,0:0:0:0:
409,316,93156,1,8,0:0:0:0:
409,316,93237,1,0,0:0:0:0:
409,316,93319,1,8,0:0:0:0:
409,316,93400,1,8,0:0:0:0:
409,316,93482,1,0,0:0:0:0:
409,316,93563,1,8,0:0:0:0:
409,316,93645,1,0,0:0:0:0:
385,305,93726,1,8,0:0:0:0:
404,286,93767,1,0,0:0:0:0:
404,286,93808,1,0,0:0:0:0:
404,286,93889,1,8,0:0:0:0:
404,286,93930,1,8,0:0:0:0:
404,286,93971,1,8,0:0:0:0:
460,287,94052,1,4,0:0:0:0:
411,317,94215,1,0,0:0:0:0:
411,317,94378,1,8,0:0:0:0:
443,336,94541,1,0,0:0:0:0:
449,311,94623,1,8,0:0:0:0:
455,297,94704,1,8,0:0:0:0:
411,329,94786,1,0,0:0:0:0:
411,329,94868,1,8,0:0:0:0:
459,323,95031,1,8,0:0:0:0:
392,305,95194,1,0,0:0:0:0:
420,324,95357,1,8,0:0:0:0:
452,290,95438,1,8,0:0:0:0:
420,324,95520,1,0,0:0:0:0:
448,296,95683,1,8,0:0:0:0:
391,316,95846,1,0,0:0:0:0:
391,316,95927,1,0,0:0:0:0:
391,316,96009,1,8,0:0:0:0:
428,325,96090,1,0,0:0:0:0:
428,325,96172,1,8,0:0:0:0:
388,321,96335,1,8,0:0:0:0:
397,314,96498,1,0,0:0:0:0:
426,298,96661,1,12,0:0:0:0:
431,278,96824,1,0,0:0:0:0:
383,282,96906,1,8,0:0:0:0:
383,282,96987,1,0,0:0:0:0:
406,305,97028,1,0,0:0:0:0:
341,294,97069,1,0,0:0:0:0:
341,294,97150,1,8,0:0:0:0:
341,294,97204,1,8,0:0:0:0:
341,294,97259,1,8,0:0:0:0:
380,270,97313,1,0,0:0:0:0:
380,270,97395,1,0,0:0:0:0:
380,270,97476,1,8,0:0:0:0:
380,270,97639,1,8,0:0:0:0:
406,300,97965,1,0,0:0:0:0:
432,290,98291,1,12,0:0:0:0:
406,298,98454,1,0,0:0:0:0:
429,327,98536,1,8,0:0:0:0:
429,327,98618,1,8,0:0:0:0:
429,327,98699,1,0,0:0:0:0:
429,327,98781,1,8,0:0:0:0:
436,334,98862,1,0,0:0:0:0:
413,228,98944,1,8,0:0:0:0:
413,228,98984,1,8,0:0:0:0:
413,228,99025,1,8,0:0:0:0:
371,273,99107,1,0,0:0:0:0:
371,273,99147,1,0,0:0:0:0:
411,291,99188,1,8,0:0:0:0:
430,295,99270,1,0,0:0:0:0:
419,328,99324,1,8,0:0:0:0:
419,328,99378,1,8,0:0:0:0:
419,328,99433,1,0,0:0:0:0:
426,329,99596,1,8,0:0:0:0:
418,303,99637,1,8,0:0:0:0:
418,303,99677,1,8,0:0:0:0:
418,303,99759,1,0,0:0:0:0:
418,303,99840,1,8,0:0:0:0:
418,303,99881,1,8,0:0:0:0:
418,303,99922,1,8,0:0:0:0:
434,283,100003,1,0,0:0:0:0:
425,293,100085,1,8,0:0:0:0:
425,293,100126,1,0,0:0:0:0:
425,293,100166,1,0,0:0:0:0:
412,278,100248,1,8,0:0:0:0:
411,280,100302,1,8,0:0:0:0:
411,280,100357,1,8,0:0:0:0:
412,278,100411,1,0,0:0:0:0:
406,269,100493,1,8,0:0:0:0:
404,287,100574,1,0,0:0:0:0:
404,287,100615,1,0,0:0:0:0:
431,303,100656,1,8,0:0:0:0:
429,289,100696,1,8,0:0:0:0:
431,303,100737,1,0,0:0:0:0:
422,322,100819,1,8,0:0:0:0:
445,308,100900,1,8,0:0:0:0:
416,313,100982,1,0,0:0:0:0:
413,307,101063,1,0,0:0:0:0:
413,307,101145,1,8,0:0:0:0:
413,307,101226,1,0,0:0:0:0:
387,283,101281,1,0,0:0:0:0:
387,283,101335,1,0,0:0:0:0:
391,296,101389,1,8,0:0:0:0:
391,296,101471,1,0,0:0:0:0:
391,296,101552,1,8,0:0:0:0:
391,296,101634,1,8,0:0:0:0:
426,306,101715,1,0,0:0:0:0:
439,317,101797,1,0,0:0:0:0:
433,308,101878,1,12,0:0:0:0:
437,318,102041,1,0,0:0:0:0:
437,318,102123,1,0,0:0:0:0:
426,325,102204,1,8,0:0:0:0:
426,325,102286,1,8,0:0:0:0:
400,292,102368,1,0,0:0:0:0:
400,292,102422,1,8,0:0:0:0:
400,292,102476,1,8,0:0:0:0:
400,292,102531,1,0,0:0:0:0:
400,292,102612,1,0,0:0:0:0:
414,286,102694,1,8,0:0:0:0:
410,303,102734,1,8,0:0:0:0:
410,303,102775,1,0,0:0:0:0:
386,272,102857,1,8,0:0:0:0:
386,272,102911,1,0,0:0:0:0:
386,272,102965,1,0,0:0:0:0:
386,272,103020,1,8,0:0:0:0:
456,320,103183,1,0,0:0:0:0:
416,292,103264,1,8,0:0:0:0:
416,292,103346,1,0,0:0:0:0:
372,299,103427,1,0,0:0:0:0:
372,299,103509,1,8,0:0:0:0:
372,299,103590,1,8,0:0:0:0:
372,299,103672,1,0,0:0:0:0:
372,299,103726,1,8,0:0:0:0:
452,280,103781,1,8,0:0:0:0:
420,236,103835,1,0,0:0:0:0:
409,302,103916,1,8,0:0:0:0:
409,302,103998,1,8,0:0:0:0:
415,308,104079,1,0,0:0:0:0:
407,312,104161,1,8,0:0:0:0:
407,312,104243,1,0,0:0:0:0:
407,312,104324,1,8,0:0:0:0:
425,310,104365,1,8,0:0:0:0:
442,297,104406,1,0,0:0:0:0:
448,288,104487,1,8,0:0:0:0:
378,269,104650,1,0,0:0:0:0:
376,297,104813,1,8,0:0:0:0:
376,297,104976,1,0,0:0:0:0:
433,320,105139,1,8,0:0:0:0:
383,309,105221,1,8,0:0:0:0:
383,309,105302,1,0,0:0:0:0:
391,305,105465,1,8,0:0:0:0:
414,313,105628,1,0,0:0:0:0:
414,313,105710,1,0,0:0:0:0:
414,313,105791,1,8,0:0:0:0:
410,322,105954,1,8,0:0:0:0:
410,322,106118,1,8,0:0:0:0:
419,289,106281,1,8,0:0:0:0:
419,289,106444,1,8,0:0:0:0:
419,289,106525,1,8,0:0:0:0:
419,289,106607,1,8,0:0:0:0:
419,289,106688,1,8,0:0:0:0:
419,289,106770,1,8,0:0:0:0:
419,289,106851,1,8,0:0:0:0:
419,289,106933,1,8,0:0:0:0:
419,289,107014,1,8,0:0:0:0:
385,327,107096,1,0,0:0:0:0:
385,327,107177,1,0,0:0:0:0:
422,313,107259,1,8,0:0:0:0:
385,327,107340,1,0,0:0:0:0:
347,263,107422,1,8,0:0:0:0:
396,315,107585,1,0,0:0:0:0:
396,315,107666,1,8,0:0:0:0:
396,315,107748,1,8,0:0:0:0:
423,270,107829,1,0,0:0:0:0:
423,270,107911,1,8,0:0:0:0:
403,319,108074,1,8,0:0:0:0:
403,319,108156,1,8,0:0:0:0:
403,319,108237,1,0,0:0:0:0:
409,336,108400,1,8,0:0:0:0:
409,336,108482,1,8,0:0:0:0:
409,336,108563,1,0,0:0:0:0:
409,336,108645,1,0,0:0:0:0:
409,336,108726,1,8,0:0:0:0:
406,327,108889,1,0,0:0:0:0:
393,333,108971,1,8,0:0:0:0:
411,332,109052,1,0,0:0:0:0:
411,332,109134,1,0,0:0:0:0:
411,332,109215,1,8,0:0:0:0:
422,324,109297,1,0,0:0:0:0:
382,320,109378,1,8,0:0:0:0:
382,320,109460,1,8,0:0:0:0:
382,320,109541,1,0,0:0:0:0:
418,335,109704,1,0,0:0:0:0:
408,322,109786,1,8,0:0:0:0:
383,328,109867,1,8,0:0:0:0:
383,328,109949,1,0,0:0:0:0:
383,328,110031,1,8,0:0:0:0:
371,318,110194,1,0,0:0:0:0:
397,321,110275,1,8,0:0:0:0:
371,318,110357,1,8,0:0:0:0:
398,318,110438,1,0,0:0:0:0:
397,321,110520,1,0,0:0:0:0:
394,322,110683,1,8,0:0:0:0:
394,322,110764,1,8,0:0:0:0:
394,322,110846,1,0,0:0:0:0:
401,327,111009,1,8,0:0:0:0:
401,327,111090,1,0,0:0:0:0:
401,327,111172,1,0,0:0:0:0:
401,327,111253,1,0,0:0:0:0:
407,317,111335,1,8,0:0:0:0:
407,317,111498,1,0,0:0:0:0:
407,317,111579,1,8,0:0:0:0:
411,346,111661,1,8,0:0:0:0:
391,303,111742,1,8,0:0:0:0:
371,311,111824,1,0,0:0:0:0:
411,300,111906,1,0,0:0:0:0:
417,340,111987,1,8,0:0:0:0:
411,300,112069,1,8,0:0:0:0:
424,330,112150,1,0,0:0:0:0:
427,310,112313,1,0,0:0:0:0:
391,323,112395,1,8,0:0:0:0:
391,323,112476,1,0,0:0:0:0:
391,323,112558,1,0,0:0:0:0:
391,323,112639,1,8,0:0:0:0:
374,306,112802,1,0,0:0:0:0:
425,298,112884,1,8,0:0:0:0:
374,306,112965,1,8,0:0:0:0:
374,306,113047,1,0,0:0:0:0:
426,309,113128,1,8,0:0:0:0:
363,318,113291,1,8,0:0:0:0:
363,318,113373,1,0,0:0:0:0:
363,318,113454,1,0,0:0:0:0:
413,342,113617,1,8,0:0:0:0:
413,342,113699,1,8,0:0:0:0:
413,342,113781,1,0,0:0:0:0:
413,342,113862,1,0,0:0:0:0:
413,342,113944,1,8,0:0:0:0:
441,343,114107,1,0,0:0:0:0:
441,343,114188,1,8,0:0:0:0:
386,295,114270,1,8,0:0:0:0:
402,340,114351,1,0,0:0:0:0:
395,314,114433,1,8,0:0:0:0:
435,320,114514,1,0,0:0:0:0:
386,295,114596,1,8,0:0:0:0:
415,323,114677,1,8,0:0:0:0:
422,329,114759,1,0,0:0:0:0:
410,330,114922,1,0,0:0:0:0:
373,308,115003,1,0,0:0:0:0:
373,308,115085,1,8,0:0:0:0:
373,308,115166,1,0,0:0:0:0:
373,308,115248,1,8,0:0:0:0:
416,312,115411,1,0,0:0:0:0:
416,312,115492,1,8,0:0:0:0:
388,283,115574,1,0,0:0:0:0:
416,312,115656,1,0,0:0:0:0:
416,312,115737,1,8,0:0:0:0:
388,283,115900,1,8,0:0:0:0:
388,283,115982,1,0,0:0:0:0:
388,283,116063,1,0,0:0:0:0:
440,315,116226,1,8,0:0:0:0:
367,316,116308,1,8,0:0:0:0:
386,320,116389,1,0,0:0:0:0:
405,328,116471,1,8,0:0:0:0:
386,320,116552,1,8,0:0:0:0:
399,333,116715,1,0,0:0:0:0:
399,333,116797,1,0,0:0:0:0:
399,333,116878,1,8,0:0:0:0:
402,321,116960,1,8,0:0:0:0:
413,301,117041,1,0,0:0:0:0:
415,315,117123,1,8,0:0:0:0:
405,328,117204,1,8,0:0:0:0:
405,328,117286,1,0,0:0:0:0:
405,328,117367,1,8,0:0:0:0:
385,327,117531,1,0,0:0:0:0:
385,327,117612,1,0,0:0:0:0:
422,313,117694,1,8,0:0:0:0:
385,327,117775,1,0,0:0:0:0:
347,263,117857,1,8,0:0:0:0:
396,315,118020,1,0,0:0:0:0:
396,315,118101,1,8,0:0:0:0:
396,315,118183,1,8,0:0:0:0:
423,270,118264,1,0,0:0:0:0:
423,270,118346,1,8,0:0:0:0:
403,319,118509,1,8,0:0:0:0:
403,319,118590,1,8,0:0:0:0:
403,319,118672,1,0,0:0:0:0:
415,311,118753,1,0,0:0:0:0:
409,336,118835,1,8,0:0:0:0:
415,311,118916,1,0,0:0:0:0:
409,336,118998,1,0,0:0:0:0:
409,336,119079,1,0,0:0:0:0:
409,336,119161,1,8,0:0:0:0:
418,311,119242,1,8,0:0:0:0:
406,327,119324,1,0,0:0:0:0:
393,333,119406,1,8,0:0:0:0:
411,332,119487,1,0,0:0:0:0:
411,332,119569,1,0,0:0:0:0:
411,332,119650,1,8,0:0:0:0:
422,324,119732,1,0,0:0:0:0:
382,320,119813,1,8,0:0:0:0:
382,320,119895,1,8,0:0:0:0:
382,320,119976,1,0,0:0:0:0:
418,335,120139,1,0,0:0:0:0:
408,322,120221,1,8,0:0:0:0:
383,328,120302,1,8,0:0:0:0:
383,328,120384,1,0,0:0:0:0:
383,328,120465,1,8,0:0:0:0:
371,318,120628,1,0,0:0:0:0:
386,314,120710,1,8,0:0:0:0:
371,318,120791,1,8,0:0:0:0:
398,318,120873,1,0,0:0:0:0:
386,314,120954,1,0,0:0:0:0:
394,322,121117,1,8,0:0:0:0:
394,322,121199,1,8,0:0:0:0:
394,322,121281,1,0,0:0:0:0:
417,311,121362,1,0,0:0:0:0:
401,327,121444,1,8,0:0:0:0:
411,331,121525,1,8,0:0:0:0:
411,331,121607,1,8,0:0:0:0:
401,327,121688,1,0,0:0:0:0:
407,317,121770,1,8,0:0:0:0:
359,307,121851,1,8,0:0:0:0:
407,317,121933,1,0,0:0:0:0:
407,317,122014,1,8,0:0:0:0:
411,346,122096,1,8,0:0:0:0:
391,303,122177,1,8,0:0:0:0:
371,311,122259,1,0,0:0:0:0:
411,300,122340,1,0,0:0:0:0:
417,340,122422,1,8,0:0:0:0:
411,300,122503,1,8,0:0:0:0:
424,330,122585,1,0,0:0:0:0:
427,310,122748,1,0,0:0:0:0:
391,323,122829,1,8,0:0:0:0:
391,323,122911,1,0,0:0:0:0:
391,323,122992,1,0,0:0:0:0:
391,323,123074,1,8,0:0:0:0:
374,306,123237,1,0,0:0:0:0:
425,298,123319,1,8,0:0:0:0:
374,306,123400,1,8,0:0:0:0:
374,306,123482,1,0,0:0:0:0:
374,306,123563,1,8,0:0:0:0:
363,318,123726,1,8,0:0:0:0:
363,318,123808,1,0,0:0:0:0:
363,318,123889,1,0,0:0:0:0:
445,322,123971,1,0,0:0:0:0:
413,342,124052,1,8,0:0:0:0:
413,342,124134,1,8,0:0:0:0:
413,342,124215,1,0,0:0:0:0:
413,342,124297,1,0,0:0:0:0:
413,342,124378,1,8,0:0:0:0:
444,303,124460,1,8,0:0:0:0:
441,343,124541,1,0,0:0:0:0:
441,343,124623,1,8,0:0:0:0:
386,295,124704,1,8,0:0:0:0:
402,340,124786,1,0,0:0:0:0:
395,314,124867,1,8,0:0:0:0:
435,320,124949,1,0,0:0:0:0:
386,295,125031,1,8,0:0:0:0:
415,323,125112,1,8,0:0:0:0:
422,329,125194,1,0,0:0:0:0:
440,336,125275,1,8,0:0:0:0:
410,330,125357,1,0,0:0:0:0:
373,308,125438,1,0,0:0:0:0:
373,308,125520,1,8,0:0:0:0:
373,308,125601,1,0,0:0:0:0:
373,308,125683,1,8,0:0:0:0:
416,312,125846,1,0,0:0:0:0:
425,319,125927,1,0,0:0:0:0:
425,319,126009,1,8,0:0:0:0:
401,300,126090,1,8,0:0:0:0:
426,338,126172,1,0,0:0:0:0:
388,283,126335,1,8,0:0:0:0:
388,283,126416,1,0,0:0:0:0:
388,283,126498,1,0,0:0:0:0:
440,315,126579,1,0,0:0:0:0:
440,315,126661,1,8,0:0:0:0:
367,316,126742,1,8,0:0:0:0:
386,320,126824,1,0,0:0:0:0:
405,328,126906,1,8,0:0:0:0:
386,320,126987,1,8,0:0:0:0:
437,294,127069,1,8,0:0:0:0:
399,333,127150,1,0,0:0:0:0:
399,333,127232,1,0,0:0:0:0:
399,333,127313,1,8,0:0:0:0:
402,321,127395,1,8,0:0:0:0:
413,301,127476,1,0,0:0:0:0:
405,328,127558,1,0,0:0:0:0:
405,328,127639,1,8,0:0:0:0:
405,328,127721,1,0,0:0:0:0:
426,309,127802,1,0,0:0:0:0:
468,277,127965,1,12,0:0:0:0:
414,293,128291,1,0,0:0:0:0:
423,271,128617,1,8,0:0:0:0:
356,302,128944,1,0,0:0:0:0:
381,255,129107,1,8,0:0:0:0:
368,306,129433,1,0,0:0:0:0:
368,306,129596,1,8,0:0:0:0:
389,249,129759,1,8,0:0:0:0:
412,333,129922,1,0,0:0:0:0:
450,319,130085,1,8,0:0:0:0:
387,238,130248,1,8,0:0:0:0:
410,322,130574,1,8,0:0:0:0:
355,301,130737,1,0,0:0:0:0:
355,301,130900,1,8,0:0:0:0:
403,270,131226,1,0,0:0:0:0:
427,313,131552,1,0,0:0:0:0:
351,305,131715,1,8,0:0:0:0:
440,309,131878,1,0,0:0:0:0:
441,348,132041,1,8,0:0:0:0:
372,271,132204,1,8,0:0:0:0:
441,345,132368,1,0,0:0:0:0:
384,313,132531,1,0,0:0:0:0:
384,313,132694,1,8,0:0:0:0:
443,323,132857,1,8,0:0:0:0:
436,301,133020,1,0,0:0:0:0:
384,313,133183,1,8,0:0:0:0:
395,333,133346,1,0,0:0:0:0:
395,333,133509,1,0,0:0:0:0:
397,323,133672,1,0,0:0:0:0:
407,299,133835,1,8,0:0:0:0:
382,312,134161,1,0,0:0:0:0:
382,312,134324,1,8,0:0:0:0:
454,329,134487,1,8,0:0:0:0:
378,313,134650,1,0,0:0:0:0:
433,287,134813,1,0,0:0:0:0:
378,313,134976,1,8,0:0:0:0:
378,313,135139,1,8,0:0:0:0:
386,318,135302,1,8,0:0:0:0:
372,291,135465,1,0,0:0:0:0:
372,291,135628,1,0,0:0:0:0:
413,252,135791,1,8,0:0:0:0:
391,311,136117,1,0,0:0:0:0:
423,255,136444,1,8,0:0:0:0:
390,295,136770,1,0,0:0:0:0:
390,295,136933,1,8,0:0:0:0:
390,295,137096,1,8,0:0:0:0:
390,295,137259,1,8,0:0:0:0:
390,295,137422,1,0,0:0:0:0:
410,317,137585,1,8,0:0:0:0:
396,322,137748,1,0,0:0:0:0:
396,322,137911,1,8,0:0:0:0:
396,322,138074,1,0,0:0:0:0:
414,263,138237,1,0,0:0:0:0:
421,306,138400,1,12,0:0:0:0:
429,323,138576,1,0,0:0:0:0:
436,290,138752,1,0,0:0:0:0:
433,324,139105,1,8,0:0:0:0:
409,313,139458,1,0,0:0:0:0:
440,282,139635,1,8,0:0:0:0:
418,349,139811,1,0,0:0:0:0:
443,314,139900,1,8,0:0:0:0:
405,317,139988,1,0,0:0:0:0:
441,295,140164,1,8,0:0:0:0:
377,288,140341,1,8,0:0:0:0:
377,288,140400,1,8,0:0:0:0:
377,288,140458,1,8,0:0:0:0:
387,269,140517,1,0,0:0:0:0:
415,296,140694,1,8,0:0:0:0:
390,313,140870,1,0,0:0:0:0:
386,320,141223,1,8,0:0:0:0:
421,337,141400,1,0,0:0:0:0:
421,337,141576,1,8,0:0:0:0:
421,337,141752,1,8,0:0:0:0:
447,301,141929,1,0,0:0:0:0:
418,333,142105,1,0,0:0:0:0:
433,285,142282,1,8,0:0:0:0:
432,338,142458,1,8,0:0:0:0:
336,311,142635,1,0,0:0:0:0:
336,311,142811,1,8,0:0:0:0:
336,311,142988,1,8,0:0:0:0:
336,311,143164,1,8,0:0:0:0:
336,311,143252,1,8,0:0:0:0:
361,277,143341,1,0,0:0:0:0:
423,305,143517,1,8,0:0:0:0:
406,295,143694,1,0,0:0:0:0:
406,295,143752,1,8,0:0:0:0:
406,295,143811,1,8,0:0:0:0:
452,291,143870,1,0,0:0:0:0:
417,269,144047,1,12,0:0:0:0:
380,245,144234,1,0,0:0:0:0:
461,328,144422,1,0,0:0:0:0:
380,245,144609,1,0,0:0:0:0:
462,328,144797,1,8,0:0:0:0:
372,279,144984,1,8,0:0:0:0:
399,311,145172,1,0,0:0:0:0:
449,305,145359,1,0,0:0:0:0:
431,323,145547,1,12,0:0:0:0:
411,313,145734,1,0,0:0:0:0:
411,313,145922,1,0,0:0:0:0:
380,299,146109,1,8,0:0:0:0:
380,299,146297,1,0,0:0:0:0:
380,299,146484,1,8,0:0:0:0:
449,302,146672,1,8,0:0:0:0:
418,305,146859,1,0,0:0:0:0:
410,311,147047,1,8,0:0:0:0:
410,311,147140,1,8,0:0:0:0:
410,311,147234,1,0,0:0:0:0:
410,311,147328,1,0,0:0:0:0:
410,311,147422,1,8,0:0:0:0:
410,311,147515,1,0,0:0:0:0:
410,311,147609,1,0,0:0:0:0:
410,311,147703,1,0,0:0:0:0:
331,275,147797,1,8,0:0:0:0:
388,316,147843,1,8,0:0:0:0:
388,316,147890,1,8,0:0:0:0:
388,316,147937,1,8,0:0:0:0:
388,316,147984,1,0,0:0:0:0:
388,316,148031,1,0,0:0:0:0:
388,316,148078,1,0,0:0:0:0:
388,316,148125,1,0,0:0:0:0:
391,299,148172,1,8,0:0:0:0:
390,299,148218,1,8,0:0:0:0:
388,298,148265,1,0,0:0:0:0:
388,298,148312,1,0,0:0:0:0:
387,298,148359,1,8,0:0:0:0:
396,291,148406,1,8,0:0:0:0:
396,290,148453,1,8,0:0:0:0:
396,290,148500,1,8,0:0:0:0:
422,263,148547,1,0,0:0:0:0:
256,192,148640,12,0,149859,0:0:0:0:
451,323,150047,5,12,0:0:0:0:
348,214,150234,1,0,0:0:0:0:
366,323,150328,1,8,0:0:0:0:
366,323,150422,1,8,0:0:0:0:
366,323,150515,1,8,0:0:0:0:
366,323,150609,1,0,0:0:0:0:
366,323,150703,1,0,0:0:0:0:
346,268,150797,1,8,0:0:0:0:
346,268,150859,1,8,0:0:0:0:
346,268,150922,1,0,0:0:0:0:
391,322,150984,1,8,0:0:0:0:
391,322,151078,1,8,0:0:0:0:
391,322,151172,1,0,0:0:0:0:
391,322,151265,1,0,0:0:0:0:
391,322,151359,1,8,0:0:0:0:
391,322,151453,1,8,0:0:0:0:
411,344,151547,1,0,0:0:0:0:
411,343,151640,1,8,0:0:0:0:
396,328,151734,1,0,0:0:0:0:
396,328,151828,1,8,0:0:0:0:
369,326,151922,1,0,0:0:0:0:
361,303,152015,1,8,0:0:0:0:
369,326,152109,1,8,0:0:0:0:
361,303,152203,1,0,0:0:0:0:
361,303,152297,1,8,0:0:0:0:
361,303,152390,1,8,0:0:0:0:
401,326,152484,1,0,0:0:0:0:
401,326,152578,1,0,0:0:0:0:
402,310,152672,1,8,0:0:0:0:
404,309,152734,1,8,0:0:0:0:
409,306,152797,1,8,0:0:0:0:
389,325,152859,1,0,0:0:0:0:
405,290,152953,1,8,0:0:0:0:
405,290,153000,1,8,0:0:0:0:
405,290,153047,1,0,0:0:0:0:
391,289,153140,1,0,0:0:0:0:
445,325,153234,1,8,0:0:0:0:
391,289,153328,1,0,0:0:0:0:
370,305,153422,1,8,0:0:0:0:
421,311,153515,1,8,0:0:0:0:
370,305,153609,1,8,0:0:0:0:
421,311,153703,1,0,0:0:0:0:
421,311,153797,1,8,0:0:0:0:
422,325,153890,1,8,0:0:0:0:
422,325,153984,1,0,0:0:0:0:
426,277,154078,1,0,0:0:0:0:
409,308,154172,1,8,0:0:0:0:
409,308,154265,1,8,0:0:0:0:
409,308,154359,1,0,0:0:0:0:
374,284,154453,1,8,0:0:0:0:
400,308,154547,1,0,0:0:0:0:
409,284,154609,1,0,0:0:0:0:
409,284,154672,1,8,0:0:0:0:
409,284,154734,1,8,0:0:0:0:
405,315,154828,1,8,0:0:0:0:
405,315,154922,1,0,0:0:0:0:
419,291,155015,1,8,0:0:0:0:
419,290,155109,1,8,0:0:0:0:
419,291,155203,1,0,0:0:0:0:
419,290,155297,1,8,0:0:0:0:
442,325,155484,1,0,0:0:0:0:
391,332,155578,1,0,0:0:0:0:
360,295,155625,1,0,0:0:0:0:
360,295,155672,1,8,0:0:0:0:
453,309,155859,1,0,0:0:0:0:
436,315,155953,1,8,0:0:0:0:
325,250,156047,1,0,0:0:0:0:
325,250,156093,1,0,0:0:0:0:
424,291,156140,1,8,0:0:0:0:
424,291,156187,1,8,0:0:0:0:
325,250,156234,1,8,0:0:0:0:
431,316,156422,1,0,0:0:0:0:
431,316,156468,1,0,0:0:0:0:
431,316,156515,1,8,0:0:0:0:
431,316,156562,1,8,0:0:0:0:
431,316,156609,1,8,0:0:0:0:
354,247,156797,1,8,0:0:0:0:
416,314,157172,1,0,0:0:0:0:
425,299,157265,1,8,0:0:0:0:
425,299,157359,1,8,0:0:0:0:
425,299,157453,1,8,0:0:0:0:
354,294,157547,1,0,0:0:0:0:
354,294,157640,1,0,0:0:0:0:
354,294,157734,1,8,0:0:0:0:
423,332,157828,1,8,0:0:0:0:
423,332,157922,1,0,0:0:0:0:
421,321,158015,1,8,0:0:0:0:
421,319,158109,1,0,0:0:0:0:
421,321,158203,1,0,0:0:0:0:
427,303,158297,1,8,0:0:0:0:
396,325,158390,1,8,0:0:0:0:
396,325,158484,1,8,0:0:0:0:
396,325,158578,1,8,0:0:0:0:
426,286,158672,1,0,0:0:0:0:
391,288,158765,1,8,0:0:0:0:
391,288,158812,1,0,0:0:0:0:
391,288,158859,1,0,0:0:0:0:
391,288,158953,1,8,0:0:0:0:
391,288,159000,1,8,0:0:0:0:
391,288,159047,1,0,0:0:0:0:
386,276,159140,1,0,0:0:0:0:
386,276,159234,1,8,0:0:0:0:
386,276,159328,1,0,0:0:0:0:
386,276,159422,1,8,0:0:0:0:
424,323,159515,1,8,0:0:0:0:
424,323,159609,1,0,0:0:0:0:
424,323,159703,1,0,0:0:0:0:
412,326,159797,1,8,0:0:0:0:
412,326,159890,1,0,0:0:0:0:
412,326,159984,1,0,0:0:0:0:
407,315,160078,1,0,0:0:0:0:
407,315,160172,1,8,0:0:0:0:
407,315,160265,1,8,0:0:0:0:
401,331,160359,1,8,0:0:0:0:
401,331,160453,1,0,0:0:0:0:
401,331,160547,1,8,0:0:0:0:
401,331,160640,1,8,0:0:0:0:
401,331,160734,1,0,0:0:0:0:
401,331,160828,1,0,0:0:0:0:
441,322,160922,1,8,0:0:0:0:
401,331,161015,1,8,0:0:0:0:
406,330,161109,1,0,0:0:0:0:
407,328,161203,1,8,0:0:0:0:
425,315,161297,1,8,0:0:0:0:
407,328,161390,1,0,0:0:0:0:
427,327,161484,1,0,0:0:0:0:
443,343,161578,1,0,0:0:0:0:
443,343,161672,1,8,0:0:0:0:
434,333,161765,1,8,0:0:0:0:
418,302,161859,1,0,0:0:0:0:
418,302,161953,1,0,0:0:0:0:
418,302,162047,1,12,0:0:0:0:
392,305,162234,1,0,0:0:0:0:
392,305,162328,1,0,0:0:0:0:
392,305,162422,1,8,0:0:0:0:
392,305,162515,1,8,0:0:0:0:
392,305,162609,1,8,0:0:0:0:
392,305,162703,1,0,0:0:0:0:
392,305,162797,1,8,0:0:0:0:
433,303,162859,1,8,0:0:0:0:
392,305,162922,1,0,0:0:0:0:
392,305,162984,1,8,0:0:0:0:
392,312,163078,1,8,0:0:0:0:
392,312,163172,1,0,0:0:0:0:
390,296,163265,1,8,0:0:0:0:
390,296,163359,1,0,0:0:0:0:
390,296,163453,1,0,0:0:0:0:
376,323,163547,1,8,0:0:0:0:
376,323,163640,1,8,0:0:0:0:
381,312,163734,1,0,0:0:0:0:
381,308,163828,1,8,0:0:0:0:
381,312,163922,1,8,0:0:0:0:
407,332,164015,1,0,0:0:0:0:
407,332,164109,1,8,0:0:0:0:
407,332,164203,1,0,0:0:0:0:
407,332,164297,1,8,0:0:0:0:
407,332,164390,1,8,0:0:0:0:
402,314,164484,1,0,0:0:0:0:
409,276,164578,1,0,0:0:0:0:
366,303,164672,1,8,0:0:0:0:
366,303,164734,1,8,0:0:0:0:
366,303,164797,1,8,0:0:0:0:
366,303,164859,1,0,0:0:0:0:
400,300,164953,1,8,0:0:0:0:
400,300,165000,1,8,0:0:0:0:
400,300,165047,1,0,0:0:0:0:
379,280,165140,1,0,0:0:0:0:
379,277,165234,1,8,0:0:0:0:
379,280,165328,1,8,0:0:0:0:
379,277,165422,1,8,0:0:0:0:
379,280,165515,1,0,0:0:0:0:
398,263,165609,1,0,0:0:0:0:
398,263,165703,1,0,0:0:0:0:
376,290,165797,1,8,0:0:0:0:
430,330,165890,1,8,0:0:0:0:
430,330,165984,1,0,0:0:0:0:
430,330,166078,1,8,0:0:0:0:
403,332,166172,1,8,0:0:0:0:
403,332,166265,1,8,0:0:0:0:
403,332,166359,1,0,0:0:0:0:
411,325,166453,1,8,0:0:0:0:
414,320,166547,1,0,0:0:0:0:
416,331,166609,1,0,0:0:0:0:
417,327,166672,1,8,0:0:0:0:
417,327,166734,1,8,0:0:0:0:
442,312,166828,1,8,0:0:0:0:
338,298,166922,1,0,0:0:0:0:
338,298,167015,1,8,0:0:0:0:
338,298,167109,1,8,0:0:0:0:
346,291,167203,1,0,0:0:0:0:
346,289,167297,1,8,0:0:0:0:
387,322,167484,1,0,0:0:0:0:
387,322,167578,1,0,0:0:0:0:
418,314,167625,1,0,0:0:0:0:
403,308,167672,1,8,0:0:0:0:
409,305,167859,1,0,0:0:0:0:
409,305,167953,1,8,0:0:0:0:
418,293,168047,1,0,0:0:0:0:
394,268,168093,1,0,0:0:0:0:
394,268,168140,1,8,0:0:0:0:
394,268,168187,1,8,0:0:0:0:
394,268,168234,1,8,0:0:0:0:
423,320,168422,1,0,0:0:0:0:
423,320,168468,1,0,0:0:0:0:
423,320,168515,1,8,0:0:0:0:
423,320,168562,1,8,0:0:0:0:
423,320,168609,1,8,0:0:0:0:
480,245,168797,1,12,0:0:0:0:
407,319,169172,1,0,0:0:0:0:
407,319,169265,1,8,0:0:0:0:
400,278,169359,1,0,0:0:0:0:
401,333,169453,1,0,0:0:0:0:
412,331,169547,1,8,0:0:0:0:
421,303,169640,1,0,0:0:0:0:
410,319,169734,1,8,0:0:0:0:
402,312,169828,1,8,0:0:0:0:
432,319,169922,1,0,0:0:0:0:
432,318,170015,1,8,0:0:0:0:
432,338,170109,1,8,0:0:0:0:
431,338,170203,1,0,0:0:0:0:
432,338,170297,1,8,0:0:0:0:
431,338,170390,1,8,0:0:0:0:
419,337,170484,1,0,0:0:0:0:
417,335,170578,1,8,0:0:0:0:
438,327,170672,1,0,0:0:0:0:
428,305,170765,1,8,0:0:0:0:
427,304,170812,1,0,0:0:0:0:
427,304,170859,1,0,0:0:0:0:
441,283,170953,1,8,0:0:0:0:
441,283,171000,1,8,0:0:0:0:
441,283,171047,1,0,0:0:0:0:
397,318,171140,1,0,0:0:0:0:
417,318,171234,1,8,0:0:0:0:
397,318,171328,1,0,0:0:0:0:
412,312,171422,1,8,0:0:0:0:
445,334,171515,1,8,0:0:0:0:
336,300,171609,1,0,0:0:0:0:
336,300,171703,1,8,0:0:0:0:
428,316,171797,1,0,0:0:0:0:
336,300,171890,1,0,0:0:0:0:
336,300,171984,1,8,0:0:0:0:
414,327,172078,1,0,0:0:0:0:
359,285,172172,1,8,0:0:0:0:
414,327,172265,1,8,0:0:0:0:
414,327,172359,1,8,0:0:0:0:
419,328,172453,1,0,0:0:0:0:
432,333,172547,1,8,0:0:0:0:
438,329,172640,1,8,0:0:0:0:
438,328,172734,1,0,0:0:0:0:
444,330,172828,1,0,0:0:0:0:
440,321,172922,1,8,0:0:0:0:
438,315,173015,1,8,0:0:0:0:
378,322,173109,1,0,0:0:0:0:
378,322,173203,1,8,0:0:0:0:
378,322,173297,1,8,0:0:0:0:
386,316,173390,1,0,0:0:0:0:
386,315,173484,1,8,0:0:0:0:
443,326,173578,1,0,0:0:0:0:
427,317,173672,1,8,0:0:0:0:
427,317,173765,1,8,0:0:0:0:
427,317,173859,1,0,0:0:0:0:
427,317,173953,1,0,0:0:0:0:
452,320,174047,1,12,0:0:0:0:
421,316,174234,1,0,0:0:0:0:
431,278,174328,1,8,0:0:0:0:
417,336,174422,1,8,0:0:0:0:
418,336,174515,1,8,0:0:0:0:
417,336,174609,1,0,0:0:0:0:
421,319,174703,1,0,0:0:0:0:
417,336,174797,1,8,0:0:0:0:
421,309,174843,1,8,0:0:0:0:
417,348,174890,1,0,0:0:0:0:
417,336,174984,1,8,0:0:0:0:
416,330,175078,1,0,0:0:0:0:
417,336,175172,1,8,0:0:0:0:
408,306,175265,1,8,0:0:0:0:
425,328,175359,1,0,0:0:0:0:
353,313,175453,1,8,0:0:0:0:
353,313,175547,1,0,0:0:0:0:
365,319,175640,1,8,0:0:0:0:
365,319,175687,1,8,0:0:0:0:
365,319,175734,1,8,0:0:0:0:
378,305,175828,1,0,0:0:0:0:
376,324,175922,1,8,0:0:0:0:
376,324,175968,1,8,0:0:0:0:
376,324,176015,1,8,0:0:0:0:
388,293,176109,1,0,0:0:0:0:
413,310,176203,1,8,0:0:0:0:
413,310,176250,1,8,0:0:0:0:
413,310,176297,1,0,0:0:0:0:
388,303,176390,1,8,0:0:0:0:
419,325,176437,1,0,0:0:0:0:
419,325,176484,1,8,0:0:0:0:
395,315,176578,1,0,0:0:0:0:
395,315,176672,1,8,0:0:0:0:
406,304,176765,1,8,0:0:0:0:
406,304,176859,1,0,0:0:0:0:
406,328,176953,1,8,0:0:0:0:
437,310,177047,1,0,0:0:0:0:
347,273,177140,1,0,0:0:0:0:
354,269,177234,1,8,0:0:0:0:
354,269,177328,1,0,0:0:0:0:
360,266,177422,1,8,0:0:0:0:
361,266,177515,1,8,0:0:0:0:
370,326,177609,1,0,0:0:0:0:
370,326,177703,1,8,0:0:0:0:
370,326,177797,1,8,0:0:0:0:
378,324,177890,1,0,0:0:0:0:
378,324,177984,1,8,0:0:0:0:
378,324,178078,1,0,0:0:0:0:
416,309,178172,1,8,0:0:0:0:
405,294,178265,1,0,0:0:0:0:
441,307,178359,1,0,0:0:0:0:
421,307,178453,1,8,0:0:0:0:
423,305,178547,1,0,0:0:0:0:
405,318,178640,1,8,0:0:0:0:
402,289,178734,1,8,0:0:0:0:
402,289,178781,1,8,0:0:0:0:
372,299,178828,1,0,0:0:0:0:
376,294,178922,1,8,0:0:0:0:
377,295,179015,1,8,0:0:0:0:
372,299,179062,1,8,0:0:0:0:
376,294,179109,1,0,0:0:0:0:
387,296,179203,1,8,0:0:0:0:
344,271,179297,1,0,0:0:0:0:
344,271,179343,1,0,0:0:0:0:
344,271,179390,1,8,0:0:0:0:
419,318,179484,1,8,0:0:0:0:
419,318,179578,1,0,0:0:0:0:
419,318,179672,1,8,0:0:0:0:
380,307,179765,1,8,0:0:0:0:
380,307,179859,1,0,0:0:0:0:
380,307,179953,1,8,0:0:0:0:
413,271,180047,1,4,0:0:0:0:
409,320,180234,1,8,0:0:0:0:
409,320,180328,1,8,0:0:0:0:
420,322,180422,1,4,0:0:0:0:
391,320,180609,1,0,0:0:0:0:
441,344,180703,1,0,0:0:0:0:
441,344,180750,1,0,0:0:0:0:
423,311,180797,1,8,0:0:0:0:
391,320,180890,1,0,0:0:0:0:
421,314,180984,1,8,0:0:0:0:
447,346,181031,1,8,0:0:0:0:
407,319,181078,1,0,0:0:0:0:
407,319,181172,1,8,0:0:0:0:
412,316,181218,1,8,0:0:0:0:
396,328,181265,1,8,0:0:0:0:
431,313,181312,1,8,0:0:0:0:
396,328,181359,1,0,0:0:0:0:
396,328,181453,1,0,0:0:0:0:
389,301,181547,1,0,0:0:0:0:
404,279,181640,1,8,0:0:0:0:
430,334,181734,1,8,0:0:0:0:
402,325,181828,1,0,0:0:0:0:
402,325,181922,1,8,0:0:0:0:
423,328,182015,1,8,0:0:0:0:
423,328,182109,1,0,0:0:0:0:
423,328,182203,1,8,0:0:0:0:
423,328,182297,1,8,0:0:0:0:
428,318,182390,1,0,0:0:0:0:
392,317,182484,1,8,0:0:0:0:
403,331,182578,1,0,0:0:0:0:
402,289,182672,1,8,0:0:0:0:
435,321,182718,1,8,0:0:0:0:
442,322,182765,1,8,0:0:0:0:
423,321,182859,1,0,0:0:0:0:
404,320,182906,1,0,0:0:0:0:
423,321,182953,1,8,0:0:0:0:
429,305,183047,1,0,0:0:0:0:
416,318,183140,1,0,0:0:0:0:
416,318,183234,1,8,0:0:0:0:
416,318,183328,1,0,0:0:0:0:
416,318,183422,1,8,0:0:0:0:
427,308,183515,1,8,0:0:0:0:
416,318,183609,1,8,0:0:0:0:
420,321,183703,1,0,0:0:0:0:
428,323,183797,1,8,0:0:0:0:
428,323,183843,1,8,0:0:0:0:
428,323,183890,1,8,0:0:0:0:
428,323,183937,1,8,0:0:0:0:
428,323,183984,1,0,0:0:0:0:
402,313,184078,1,0,0:0:0:0:
402,312,184172,1,8,0:0:0:0:
398,321,184265,1,0,0:0:0:0:
398,321,184359,1,8,0:0:0:0:
446,325,184453,1,8,0:0:0:0:
438,329,184547,1,0,0:0:0:0:
401,303,184640,1,0,0:0:0:0:
372,320,184734,1,8,0:0:0:0:
444,332,184781,1,8,0:0:0:0:
372,320,184828,1,0,0:0:0:0:
372,320,184922,1,8,0:0:0:0:
431,333,184968,1,8,0:0:0:0:
444,332,185015,1,0,0:0:0:0:
426,326,185109,1,0,0:0:0:0:
413,283,185203,1,8,0:0:0:0:
432,308,185297,1,0,0:0:0:0:
426,271,185390,1,8,0:0:0:0:
399,305,185437,1,8,0:0:0:0:
406,267,185484,1,0,0:0:0:0:
441,291,185531,1,0,0:0:0:0:
406,267,185578,1,0,0:0:0:0:
455,318,185672,1,8,0:0:0:0:
375,296,185765,1,0,0:0:0:0:
334,244,185859,1,0,0:0:0:0:
334,244,185953,1,0,0:0:0:0:
423,308,186047,1,8,0:0:0:0:
351,265,186135,1,8,0:0:0:0:
351,265,186223,1,0,0:0:0:0:
351,265,186311,1,0,0:0:0:0:
384,312,186399,1,8,0:0:0:0:
386,304,186488,1,0,0:0:0:0:
386,304,186576,1,8,0:0:0:0:
386,304,186664,1,8,0:0:0:0:
391,297,186752,1,0,0:0:0:0:
341,280,186841,1,0,0:0:0:0:
341,280,186929,1,8,0:0:0:0:
352,274,187017,1,8,0:0:0:0:
352,274,187105,1,8,0:0:0:0:
352,274,187194,1,0,0:0:0:0:
401,327,187282,1,8,0:0:0:0:
405,263,187370,1,8,0:0:0:0:
450,337,187458,1,4,0:0:0:0:
376,313,187723,1,4,0:0:0:0:
412,291,187988,1,12,0:0:0:0:
410,308,188252,1,12,0:0:0:0:
396,310,188517,1,12,0:0:0:0:
396,310,188694,1,12,0:0:0:0:
383,290,188870,1,0,0:0:0:0:
383,290,188951,1,0,0:0:0:0:
373,295,189033,1,8,0:0:0:0:
373,295,189114,1,8,0:0:0:0:
379,312,189196,1,0,0:0:0:0:
379,312,189277,1,8,0:0:0:0:
379,312,189359,1,8,0:0:0:0:
391,316,189440,1,0,0:0:0:0:
391,316,189522,1,8,0:0:0:0:
391,316,189603,1,8,0:0:0:0:
411,315,189685,1,0,0:0:0:0:
384,311,189766,1,0,0:0:0:0:
398,299,189848,1,8,0:0:0:0:
415,339,189929,1,8,0:0:0:0:
406,311,190011,1,0,0:0:0:0:
406,311,190092,1,8,0:0:0:0:
430,313,190174,1,4,0:0:0:0:
407,308,190418,1,4,0:0:0:0:
405,308,190663,1,12,0:0:0:0:
405,308,190908,1,12,0:0:0:0:
405,308,191152,1,12,0:0:0:0:
405,308,191315,1,12,0:0:0:0:
354,279,191478,1,0,0:0:0:0:
354,279,191551,1,0,0:0:0:0:
354,279,191625,1,0,0:0:0:0:
377,244,191698,1,0,0:0:0:0:
356,270,191772,1,8,0:0:0:0:
356,270,191845,1,8,0:0:0:0:
356,270,191919,1,0,0:0:0:0:
356,270,191992,1,0,0:0:0:0:
404,314,192066,1,8,0:0:0:0:
357,293,192139,1,0,0:0:0:0:
383,300,192213,1,8,0:0:0:0:
383,300,192286,1,8,0:0:0:0:
383,300,192360,1,0,0:0:0:0:
420,273,192433,1,0,0:0:0:0:
376,250,192507,1,8,0:0:0:0:
376,250,192580,1,8,0:0:0:0:
386,297,192654,1,4,0:0:0:0:
358,286,192875,1,4,0:0:0:0:
358,286,193095,1,12,0:0:0:0:
406,275,193316,1,12,0:0:0:0:
406,275,193536,1,12,0:0:0:0:
406,275,193683,1,12,0:0:0:0:
442,258,193897,1,4,0:0:0:0:
377,282,194100,1,4,0:0:0:0:
391,303,194302,1,12,0:0:0:0:
398,324,194505,1,12,0:0:0:0:
402,307,194640,1,12,0:0:0:0:
256,192,194911,12,0,195857,0:0:0:0:
336,298,195992,5,12,0:0:0:0:
307,296,196127,1,0,0:0:0:0:
321,277,196262,1,0,0:0:0:0:
426,305,196532,1,8,0:0:0:0:
404,308,196802,1,8,0:0:0:0:
404,308,196938,1,0,0:0:0:0:
346,317,197073,1,0,0:0:0:0:
367,303,197140,1,0,0:0:0:0:
367,303,197208,1,8,0:0:0:0:
367,303,197343,1,8,0:0:0:0:
425,273,197478,1,0,0:0:0:0:
422,301,197613,1,8,0:0:0:0:
352,326,197748,1,0,0:0:0:0:
379,283,197884,1,8,0:0:0:0:
368,321,198154,1,8,0:0:0:0:
368,321,198289,1,0,0:0:0:0:
368,321,198424,1,0,0:0:0:0:
398,278,198559,1,8,0:0:0:0:
375,330,198694,1,0,0:0:0:0:
375,330,198830,1,0,0:0:0:0:
375,330,198965,1,8,0:0:0:0:
375,330,199100,1,8,0:0:0:0:
333,285,199235,1,0,0:0:0:0:
333,285,199370,1,8,0:0:0:0:
333,285,199505,1,8,0:0:0:0:
333,285,199640,1,8,0:0:0:0:
388,325,199708,1,8,0:0:0:0:
356,315,199775,1,0,0:0:0:0:
356,315,199911,1,8,0:0:0:0:
372,329,200046,1,0,0:0:0:0:
372,329,200181,1,0,0:0:0:0:
468,293,200316,1,8,0:0:0:0:
388,331,200451,1,0,0:0:0:0:
388,331,200586,1,0,0:0:0:0:
388,331,200721,1,0,0:0:0:0:
431,290,200857,1,8,0:0:0:0:
354,305,201127,1,0,0:0:0:0:
354,305,201262,1,8,0:0:0:0:
364,298,201397,1,8,0:0:0:0:
402,313,201532,1,0,0:0:0:0:
402,313,201667,1,0,0:0:0:0:
402,313,201802,1,8,0:0:0:0:
372,321,201938,1,0,0:0:0:0:
372,321,202073,1,0,0:0:0:0:
372,321,202208,1,8,0:0:0:0:
372,321,202343,1,0,0:0:0:0:
410,257,202478,1,8,0:0:0:0:
412,287,202748,1,0,0:0:0:0:
412,287,203019,1,8,0:0:0:0:
406,305,203289,1,0,0:0:0:0:
406,305,203424,1,8,0:0:0:0:
386,247,203559,1,8,0:0:0:0:
396,313,203694,1,0,0:0:0:0:
396,313,203830,1,8,0:0:0:0:
396,313,203965,1,0,0:0:0:0:
406,307,204100,1,8,0:0:0:0:
382,313,204190,1,8,0:0:0:0:
382,313,204280,1,8,0:0:0:0:
382,313,204370,1,0,0:0:0:0:
382,313,204460,1,0,0:0:0:0:
382,313,204550,1,0,0:0:0:0:
447,302,204640,1,12,0:0:0:0:
362,314,204775,1,12,0:0:0:0:
362,314,204911,1,4,0:0:0:0:
372,306,205046,1,12,0:0:0:0:
380,321,205451,1,12,0:0:0:0:
380,321,205586,1,4,0:0:0:0:
380,321,205721,1,4,0:0:0:0:
403,294,205857,1,12,0:0:0:0:
395,317,206262,1,0,0:0:0:0:
395,317,206330,1,0,0:0:0:0:
395,317,206397,1,8,0:0:0:0:
395,317,206465,1,8,0:0:0:0:
395,317,206532,1,8,0:0:0:0:
395,317,206600,1,8,0:0:0:0:
395,317,206667,1,0,0:0:0:0:
395,317,206735,1,0,0:0:0:0:
399,303,206802,1,12,0:0:0:0:
399,304,206938,1,12,0:0:0:0:
399,304,207073,1,4,0:0:0:0:
399,304,207208,1,12,0:0:0:0:
400,321,207613,1,4,0:0:0:0:
400,321,207748,1,12,0:0:0:0:
419,291,207884,1,12,0:0:0:0:
450,227,208019,1,4,0:0:0:0:
405,270,208424,1,8,0:0:0:0:
405,270,208514,1,8,0:0:0:0:
405,270,208604,1,8,0:0:0:0:
405,270,208694,1,0,0:0:0:0:
388,316,208965,1,8,0:0:0:0:
388,316,209032,1,8,0:0:0:0:
388,316,209100,1,8,0:0:0:0:
388,316,209235,1,0,0:0:0:0:
388,316,209370,1,8,0:0:0:0:
361,318,209505,1,0,0:0:0:0:
361,318,209573,1,0,0:0:0:0:
361,318,209640,1,0,0:0:0:0:
361,318,209708,1,0,0:0:0:0:
361,318,209775,1,8,0:0:0:0:
373,315,209843,1,8,0:0:0:0:
373,315,209911,1,8,0:0:0:0:
373,315,210046,1,0,0:0:0:0:
373,315,210181,1,8,0:0:0:0:
429,331,210316,1,0,0:0:0:0:
429,331,210384,1,0,0:0:0:0:
373,315,210451,1,8,0:0:0:0:
373,315,210519,1,8,0:0:0:0:
389,332,210586,1,0,0:0:0:0:
389,332,210654,1,0,0:0:0:0:
389,332,210721,1,0,0:0:0:0:
388,314,210789,1,0,0:0:0:0:
388,314,210857,1,8,0:0:0:0:
388,314,210924,1,8,0:0:0:0:
388,314,210992,1,0,0:0:0:0:
388,314,211059,1,0,0:0:0:0:
448,298,211127,1,8,0:0:0:0:
414,319,211194,1,8,0:0:0:0:
414,319,211262,1,8,0:0:0:0:
416,311,211397,1,0,0:0:0:0:
446,281,211532,1,8,0:0:0:0:
407,320,211938,1,0,0:0:0:0:
407,320,212005,1,0,0:0:0:0:
407,320,212073,1,8,0:0:0:0:
391,332,212208,1,0,0:0:0:0:
423,298,212343,1,8,0:0:0:0:
398,323,212613,1,0,0:0:0:0:
398,323,212681,1,0,0:0:0:0:
398,323,212748,1,8,0:0:0:0:
396,299,213154,1,8,0:0:0:0:
396,299,213221,1,8,0:0:0:0:
405,338,213289,1,4,0:0:0:0:
332,289,213424,1,8,0:0:0:0:
332,289,213559,1,0,0:0:0:0:
387,328,213694,1,0,0:0:0:0:
387,328,213829,1,8,0:0:0:0:
387,328,213965,1,8,0:0:0:0:
416,305,214100,1,0,0:0:0:0:
416,305,214235,1,8,0:0:0:0:
351,260,214370,1,0,0:0:0:0:
376,300,214505,1,8,0:0:0:0:
328,307,214640,1,8,0:0:0:0:
328,307,214775,1,0,0:0:0:0:
328,307,214911,1,8,0:0:0:0:
328,307,215046,1,8,0:0:0:0:
328,307,215181,1,0,0:0:0:0:
338,299,215316,1,0,0:0:0:0:
396,324,215451,1,0,0:0:0:0:
396,324,215586,1,8,0:0:0:0:
402,330,215721,1,0,0:0:0:0:
402,330,215857,1,0,0:0:0:0:
402,330,215992,1,8,0:0:0:0:
402,330,216127,1,8,0:0:0:0:
402,330,216262,1,0,0:0:0:0:
372,303,216397,1,8,0:0:0:0:
377,319,216532,1,0,0:0:0:0:
377,319,216667,1,8,0:0:0:0:
377,319,216802,1,8,0:0:0:0:
408,333,216938,1,0,0:0:0:0:
408,333,217073,1,8,0:0:0:0:
381,296,217208,1,8,0:0:0:0:
381,296,217343,1,0,0:0:0:0:
381,296,217478,1,0,0:0:0:0:
400,308,217613,1,8,0:0:0:0:
400,308,217681,1,0,0:0:0:0:
400,308,217748,1,8,0:0:0:0:
400,308,217816,1,8,0:0:0:0:
400,308,217884,1,0,0:0:0:0:
376,309,218019,1,0,0:0:0:0:
376,309,218154,1,8,0:0:0:0:
410,319,218221,1,0,0:0:0:0:
393,326,218289,1,0,0:0:0:0:
381,301,218357,1,8,0:0:0:0:
381,302,218424,1,0,0:0:0:0:
397,293,218559,1,0,0:0:0:0:
428,338,218694,1,8,0:0:0:0:
428,338,218762,1,0,0:0:0:0:
428,338,218829,1,8,0:0:0:0:
420,327,218897,1,8,0:0:0:0:
417,321,218965,1,0,0:0:0:0:
416,320,219100,1,0,0:0:0:0:
402,318,219235,1,8,0:0:0:0:
402,316,219302,1,8,0:0:0:0:
402,318,219370,1,0,0:0:0:0:
435,327,219438,1,0,0:0:0:0:
402,316,219505,1,0,0:0:0:0:
430,316,219640,1,0,0:0:0:0:
366,277,219775,1,8,0:0:0:0:
366,277,219820,1,8,0:0:0:0:
366,277,219866,1,8,0:0:0:0:
384,294,219911,1,0,0:0:0:0:
384,294,219978,1,0,0:0:0:0:
384,294,220046,1,8,0:0:0:0:
416,262,220113,1,8,0:0:0:0:
357,294,220181,1,0,0:0:0:0:
357,294,220248,1,0,0:0:0:0:
380,339,220316,1,8,0:0:0:0:
356,315,220361,1,8,0:0:0:0:
356,315,220406,1,8,0:0:0:0:
356,315,220451,1,0,0:0:0:0:
357,313,220519,1,0,0:0:0:0:
379,278,220586,1,8,0:0:0:0:
418,323,220654,1,0,0:0:0:0:
383,295,220721,1,0,0:0:0:0:
383,295,220789,1,0,0:0:0:0:
361,314,220857,1,8,0:0:0:0:
370,298,220902,1,8,0:0:0:0:
370,298,220947,1,8,0:0:0:0:
401,318,220992,1,0,0:0:0:0:
393,315,221059,1,0,0:0:0:0:
325,304,221127,1,8,0:0:0:0:
325,304,221194,1,0,0:0:0:0:
325,304,221262,1,8,0:0:0:0:
325,304,221329,1,8,0:0:0:0:
351,320,221397,1,0,0:0:0:0:
351,320,221442,1,0,0:0:0:0:
351,320,221487,1,0,0:0:0:0:
370,297,221532,1,8,0:0:0:0:
382,304,221600,1,0,0:0:0:0:
366,293,221667,1,8,0:0:0:0:
366,293,221712,1,8,0:0:0:0:
370,297,221757,1,8,0:0:0:0:
366,293,221802,1,8,0:0:0:0:
366,293,221848,1,8,0:0:0:0:
366,293,221893,1,8,0:0:0:0:
400,272,221938,1,0,0:0:0:0:
256,192,222005,12,0,222884,0:0:0:0:
394,337,223019,5,0,0:0:0:0:
394,337,223154,1,0,0:0:0:0:
394,337,223221,1,0,0:0:0:0:
394,337,223289,1,8,0:0:0:0:
394,337,223424,1,0,0:0:0:0:
394,337,223492,1,0,0:0:0:0:
394,337,223559,1,8,0:0:0:0:
394,337,223694,1,0,0:0:0:0:
394,337,223762,1,8,0:0:0:0:
394,337,223829,1,8,0:0:0:0:
332,239,224100,1,12,0:0:0:0:
311,277,224235,1,0,0:0:0:0:
340,294,224302,1,8,0:0:0:0:
386,282,224370,1,0,0:0:0:0:
340,294,224438,1,0,0:0:0:0:
383,317,224505,1,8,0:0:0:0:
378,302,224640,1,0,0:0:0:0:
378,302,224708,1,0,0:0:0:0:
378,302,224776,1,8,0:0:0:0:
378,302,224843,1,0,0:0:0:0:
378,302,224911,1,8,0:0:0:0:
346,298,224978,1,8,0:0:0:0:
317,293,225046,1,0,0:0:0:0:
378,298,225181,1,8,0:0:0:0:
378,302,225248,1,8,0:0:0:0:
388,292,225316,1,0,0:0:0:0:
386,296,225384,1,0,0:0:0:0:
381,311,225451,1,8,0:0:0:0:
381,311,225519,1,0,0:0:0:0:
343,307,225586,1,0,0:0:0:0:
343,307,225654,1,0,0:0:0:0:
356,288,225721,1,8,0:0:0:0:
394,330,225789,1,8,0:0:0:0:
355,302,225857,1,8,0:0:0:0:
382,310,225924,1,0,0:0:0:0:
382,310,225992,1,8,0:0:0:0:
383,302,226059,1,8,0:0:0:0:
389,290,226127,1,0,0:0:0:0:
390,290,226194,1,0,0:0:0:0:
383,299,226262,1,8,0:0:0:0:
402,318,226397,1,0,0:0:0:0:
366,299,226465,1,0,0:0:0:0:
366,299,226532,1,8,0:0:0:0:
380,313,226600,1,8,0:0:0:0:
380,312,226667,1,0,0:0:0:0:
381,308,226735,1,8,0:0:0:0:
403,327,226802,1,0,0:0:0:0:
409,310,226870,1,0,0:0:0:0:
409,310,226938,1,8,0:0:0:0:
379,303,227073,1,8,0:0:0:0:
379,303,227140,1,8,0:0:0:0:
379,303,227208,1,0,0:0:0:0:
408,295,227343,1,8,0:0:0:0:
406,313,227411,1,0,0:0:0:0:
414,319,227478,1,0,0:0:0:0:
416,266,227546,1,0,0:0:0:0:
371,311,227613,1,8,0:0:0:0:
400,325,227681,1,8,0:0:0:0:
409,311,227748,1,0,0:0:0:0:
409,311,227816,1,8,0:0:0:0:
409,311,227884,1,0,0:0:0:0:
399,306,227951,1,0,0:0:0:0:
426,300,228019,1,8,0:0:0:0:
369,274,228086,1,0,0:0:0:0:
403,281,228154,1,8,0:0:0:0:
400,325,228221,1,8,0:0:0:0:
401,332,228289,1,8,0:0:0:0:
401,332,228357,1,8,0:0:0:0:
409,324,228424,1,0,0:0:0:0:
359,306,228559,1,0,0:0:0:0:
359,306,228627,1,0,0:0:0:0:
366,314,228694,1,8,0:0:0:0:
359,306,228762,1,0,0:0:0:0:
359,306,228829,1,8,0:0:0:0:
361,307,228897,1,8,0:0:0:0:
359,306,228965,1,0,0:0:0:0:
396,266,229032,1,8,0:0:0:0:
361,307,229100,1,0,0:0:0:0:
359,287,229167,1,0,0:0:0:0:
359,287,229235,1,8,0:0:0:0:
389,268,229302,1,8,0:0:0:0:
369,286,229370,1,0,0:0:0:0:
361,294,229505,1,8,0:0:0:0:
361,294,229573,1,8,0:0:0:0:
367,276,229640,1,8,0:0:0:0:
335,298,229708,1,0,0:0:0:0:
336,294,229775,1,8,0:0:0:0:
336,294,229843,1,8,0:0:0:0:
335,298,229911,1,0,0:0:0:0:
369,297,229978,1,8,0:0:0:0:
375,288,230046,1,0,0:0:0:0:
349,310,230113,1,0,0:0:0:0:
355,306,230181,1,8,0:0:0:0:
405,328,230248,1,0,0:0:0:0:
405,328,230316,1,8,0:0:0:0:
405,328,230384,1,8,0:0:0:0:
405,328,230451,1,0,0:0:0:0:
393,311,230586,1,8,0:0:0:0:
401,315,230654,1,0,0:0:0:0:
376,315,230721,1,0,0:0:0:0:
344,297,230789,1,8,0:0:0:0:
382,313,230857,1,0,0:0:0:0:
396,299,230924,1,0,0:0:0:0:
384,304,230992,1,8,0:0:0:0:
385,303,231059,1,8,0:0:0:0:
362,312,231127,1,0,0:0:0:0:
431,313,231194,1,8,0:0:0:0:
361,312,231262,1,8,0:0:0:0:
362,312,231329,1,8,0:0:0:0:
360,303,231397,1,0,0:0:0:0:
399,317,231465,1,0,0:0:0:0:
399,317,231532,1,8,0:0:0:0:
399,304,231600,1,8,0:0:0:0:
421,325,231667,1,0,0:0:0:0:
387,318,231802,1,0,0:0:0:0:
382,323,231938,1,8,0:0:0:0:
387,318,232073,1,0,0:0:0:0:
382,323,232140,1,0,0:0:0:0:
370,300,232208,1,8,0:0:0:0:
370,300,232343,1,8,0:0:0:0:
370,300,232411,1,0,0:0:0:0:
374,293,232478,1,8,0:0:0:0:
374,293,232546,1,8,0:0:0:0:
376,289,232613,1,0,0:0:0:0:
374,293,232681,1,0,0:0:0:0:
448,293,232748,1,8,0:0:0:0:
362,304,232884,1,0,0:0:0:0:
362,304,232951,1,0,0:0:0:0:
362,304,233019,1,8,0:0:0:0:
362,304,233086,1,0,0:0:0:0:
369,275,233154,1,8,0:0:0:0:
344,304,233289,1,0,0:0:0:0:
344,304,233357,1,8,0:0:0:0:
360,283,233424,1,0,0:0:0:0:
360,283,233492,1,0,0:0:0:0:
331,285,233559,1,8,0:0:0:0:
371,291,233627,1,8,0:0:0:0:
384,289,233694,1,0,0:0:0:0:
398,319,233829,1,8,0:0:0:0:
375,300,233897,1,0,0:0:0:0:
367,296,233965,1,0,0:0:0:0:
367,295,234032,1,0,0:0:0:0:
378,279,234100,1,8,0:0:0:0:
378,279,234167,1,8,0:0:0:0:
378,279,234235,1,8,0:0:0:0:
378,279,234302,1,0,0:0:0:0:
348,268,234370,1,8,0:0:0:0:
348,268,234438,1,8,0:0:0:0:
356,258,234505,1,0,0:0:0:0:
356,258,234573,1,0,0:0:0:0:
380,257,234640,1,8,0:0:0:0:
352,287,234708,1,0,0:0:0:0:
352,287,234775,1,0,0:0:0:0:
352,287,234843,1,0,0:0:0:0:
359,275,234911,1,8,0:0:0:0:
346,300,235046,1,0,0:0:0:0:
346,300,235113,1,8,0:0:0:0:
356,291,235181,1,8,0:0:0:0:
356,291,235248,1,0,0:0:0:0:
356,288,235316,1,8,0:0:0:0:
420,299,235451,1,8,0:0:0:0:
386,301,235519,1,8,0:0:0:0:
374,303,235586,1,0,0:0:0:0:
382,308,235654,1,8,0:0:0:0:
386,301,235721,1,0,0:0:0:0:
394,320,235789,1,0,0:0:0:0:
394,320,235857,1,8,0:0:0:0:
366,315,235992,1,0,0:0:0:0:
366,315,236127,1,0,0:0:0:0:
372,309,236194,1,0,0:0:0:0:
366,315,236262,1,8,0:0:0:0:
366,315,236397,1,0,0:0:0:0:
372,308,236465,1,0,0:0:0:0:
366,315,236532,1,8,0:0:0:0:
366,315,236667,1,0,0:0:0:0:
429,293,236735,1,0,0:0:0:0:
404,304,236802,1,8,0:0:0:0:
404,304,236870,1,8,0:0:0:0:
404,304,236938,1,8,0:0:0:0:
404,304,237005,1,8,0:0:0:0:
404,304,237073,1,0,0:0:0:0:
443,334,237208,1,0,0:0:0:0:
398,327,237275,1,8,0:0:0:0:
398,327,237343,1,0,0:0:0:0:
398,327,237411,1,0,0:0:0:0:
401,319,237478,1,8,0:0:0:0:
391,331,237613,1,0,0:0:0:0:
356,296,237681,1,0,0:0:0:0:
396,285,237748,1,8,0:0:0:0:
416,318,237816,1,0,0:0:0:0:
365,316,237884,1,8,0:0:0:0:
373,303,238019,1,0,0:0:0:0:
405,321,238154,1,8,0:0:0:0:
405,321,238289,1,0,0:0:0:0:
405,321,238357,1,0,0:0:0:0:
405,321,238424,1,8,0:0:0:0:
405,321,238492,1,0,0:0:0:0:
405,321,238559,1,8,0:0:0:0:
372,308,238694,1,0,0:0:0:0:
389,300,238762,1,8,0:0:0:0:
389,300,238829,1,0,0:0:0:0:
372,308,238897,1,0,0:0:0:0:
385,303,238965,1,8,0:0:0:0:
391,322,239032,1,8,0:0:0:0:
409,325,239100,1,0,0:0:0:0:
366,287,239235,1,8,0:0:0:0:
366,287,239302,1,8,0:0:0:0:
366,287,239370,1,8,0:0:0:0:
366,287,239438,1,0,0:0:0:0:
366,287,239505,1,8,0:0:0:0:
366,287,239573,1,0,0:0:0:0:
366,287,239640,1,8,0:0:0:0:
366,287,239708,1,8,0:0:0:0:
435,289,239775,1,0,0:0:0:0:
435,289,239843,1,0,0:0:0:0:
415,280,239911,1,8,0:0:0:0:
402,275,239978,1,0,0:0:0:0:
402,275,240046,1,8,0:0:0:0:
402,275,240113,1,8,0:0:0:0:
402,275,240181,1,0,0:0:0:0:
402,275,240248,1,0,0:0:0:0:
418,244,240316,1,12,0:0:0:0:
398,325,240519,1,12,0:0:0:0:
398,325,240721,1,4,0:0:0:0:
398,325,240924,1,4,0:0:0:0:
389,308,241127,1,8,0:0:0:0:
389,308,241194,1,8,0:0:0:0:
389,308,241262,1,0,0:0:0:0:
368,293,241307,1,0,0:0:0:0:
369,292,241352,1,0,0:0:0:0:
369,292,241397,1,8,0:0:0:0:
378,302,241667,1,12,0:0:0:0:
383,317,241802,1,0,0:0:0:0:
378,302,241870,1,8,0:0:0:0:
378,302,241938,1,0,0:0:0:0:
378,302,242005,1,0,0:0:0:0:
378,302,242073,1,8,0:0:0:0:
378,302,242140,1,0,0:0:0:0:
378,302,242208,1,8,0:0:0:0:
346,298,242275,1,8,0:0:0:0:
378,302,242343,1,8,0:0:0:0:
346,298,242411,1,0,0:0:0:0:
378,298,242478,1,8,0:0:0:0:
378,302,242546,1,8,0:0:0:0:
388,292,242613,1,0,0:0:0:0:
388,291,242681,1,0,0:0:0:0:
381,311,242748,1,8,0:0:0:0:
381,311,242816,1,0,0:0:0:0:
382,311,242884,1,8,0:0:0:0:
381,311,242951,1,8,0:0:0:0:
396,298,243019,1,0,0:0:0:0:
394,330,243086,1,8,0:0:0:0:
355,302,243154,1,8,0:0:0:0:
355,302,243221,1,8,0:0:0:0:
390,290,243289,1,0,0:0:0:0:
389,290,243357,1,0,0:0:0:0:
389,290,243424,1,0,0:0:0:0:
390,290,243492,1,0,0:0:0:0:
383,299,243559,1,8,0:0:0:0:
402,318,243627,1,0,0:0:0:0:
402,318,243694,1,0,0:0:0:0:
366,299,243762,1,0,0:0:0:0:
366,299,243829,1,8,0:0:0:0:
380,313,243897,1,8,0:0:0:0:
380,312,243965,1,0,0:0:0:0:
381,308,244032,1,8,0:0:0:0:
403,327,244100,1,0,0:0:0:0:
409,310,244167,1,0,0:0:0:0:
409,310,244235,1,8,0:0:0:0:
386,316,244302,1,0,0:0:0:0:
379,303,244370,1,8,0:0:0:0:
379,303,244438,1,8,0:0:0:0:
379,303,244505,1,8,0:0:0:0:
408,295,244573,1,0,0:0:0:0:
408,295,244640,1,8,0:0:0:0:
428,303,244708,1,0,0:0:0:0:
414,319,244775,1,0,0:0:0:0:
416,266,244843,1,0,0:0:0:0:
371,311,244911,1,8,0:0:0:0:
400,325,244978,1,8,0:0:0:0:
409,311,245046,1,0,0:0:0:0:
409,311,245113,1,8,0:0:0:0:
409,311,245181,1,0,0:0:0:0:
399,306,245248,1,0,0:0:0:0:
426,300,245316,1,8,0:0:0:0:
369,274,245384,1,0,0:0:0:0:
403,281,245451,1,8,0:0:0:0:
400,325,245519,1,8,0:0:0:0:
401,332,245586,1,8,0:0:0:0:
401,332,245654,1,8,0:0:0:0:
409,324,245721,1,0,0:0:0:0:
384,330,245789,1,8,0:0:0:0:
359,306,245857,1,0,0:0:0:0:
359,306,245924,1,0,0:0:0:0:
366,314,245992,1,8,0:0:0:0:
373,308,246059,1,0,0:0:0:0:
373,308,246127,1,8,0:0:0:0:
361,307,246194,1,8,0:0:0:0:
368,301,246262,1,8,0:0:0:0:
368,301,246329,1,8,0:0:0:0:
368,309,246397,1,0,0:0:0:0:
392,313,246465,1,0,0:0:0:0:
387,312,246532,1,8,0:0:0:0:
414,314,246600,1,0,0:0:0:0:
414,314,246667,1,0,0:0:0:0:
369,286,246735,1,0,0:0:0:0:
335,298,246802,1,8,0:0:0:0:
336,294,246870,1,8,0:0:0:0:
410,317,246938,1,0,0:0:0:0:
410,317,247005,1,8,0:0:0:0:
336,294,247073,1,8,0:0:0:0:
336,294,247140,1,8,0:0:0:0:
335,298,247208,1,0,0:0:0:0:
369,297,247275,1,8,0:0:0:0:
375,288,247343,1,0,0:0:0:0:
349,310,247411,1,0,0:0:0:0:
408,314,247478,1,8,0:0:0:0:
405,328,247546,1,0,0:0:0:0:
405,328,247613,1,8,0:0:0:0:
408,314,247681,1,8,0:0:0:0:
333,289,247748,1,8,0:0:0:0:
411,325,247816,1,0,0:0:0:0:
399,323,247884,1,8,0:0:0:0:
399,323,247951,1,0,0:0:0:0:
376,315,248019,1,0,0:0:0:0:
344,297,248086,1,8,0:0:0:0:
382,313,248154,1,0,0:0:0:0:
396,299,248221,1,0,0:0:0:0:
384,304,248289,1,8,0:0:0:0:
385,303,248357,1,8,0:0:0:0:
362,312,248424,1,0,0:0:0:0:
406,319,248492,1,8,0:0:0:0:
361,312,248559,1,8,0:0:0:0:
362,312,248627,1,0,0:0:0:0:
360,303,248694,1,8,0:0:0:0:
399,317,248762,1,8,0:0:0:0:
399,317,248829,1,0,0:0:0:0:
399,304,248897,1,8,0:0:0:0:
421,325,248965,1,0,0:0:0:0:
387,318,249100,1,0,0:0:0:0:
421,315,249167,1,0,0:0:0:0:
382,323,249235,1,8,0:0:0:0:
387,318,249370,1,0,0:0:0:0:
382,323,249438,1,0,0:0:0:0:
370,300,249505,1,8,0:0:0:0:
370,300,249640,1,8,0:0:0:0:
370,300,249708,1,0,0:0:0:0:
374,293,249775,1,8,0:0:0:0:
374,293,249843,1,8,0:0:0:0:
376,289,249911,1,0,0:0:0:0:
374,293,249978,1,0,0:0:0:0:
433,283,250046,1,8,0:0:0:0:
422,302,250181,1,0,0:0:0:0:
416,302,250248,1,8,0:0:0:0:
347,305,250316,1,0,0:0:0:0:
347,305,250451,1,8,0:0:0:0:
347,305,250519,1,8,0:0:0:0:
354,296,250586,1,0,0:0:0:0:
384,323,250654,1,0,0:0:0:0:
384,323,250721,1,8,0:0:0:0:
396,313,250857,1,8,0:0:0:0:
396,313,250924,1,8,0:0:0:0:
382,275,250992,1,0,0:0:0:0:
369,311,251037,1,0,0:0:0:0:
369,312,251082,1,0,0:0:0:0:
379,298,251127,1,8,0:0:0:0:
414,348,251262,1,0,0:0:0:0:
410,300,251397,1,8,0:0:0:0:
371,306,251532,1,0,0:0:0:0:
371,306,251600,1,8,0:0:0:0:
371,306,251735,1,8,0:0:0:0:
429,337,251802,1,8,0:0:0:0:
371,306,251870,1,0,0:0:0:0:
429,337,251938,1,0,0:0:0:0:
390,312,252005,1,8,0:0:0:0:
443,275,252073,1,8,0:0:0:0:
419,313,252140,1,8,0:0:0:0:
438,323,252208,1,0,0:0:0:0:
376,324,252343,1,8,0:0:0:0:
429,308,252411,1,0,0:0:0:0:
373,306,252546,1,8,0:0:0:0:
373,306,252613,1,0,0:0:0:0:
397,300,252681,1,0,0:0:0:0:
386,315,252748,1,8,0:0:0:0:
390,333,252884,1,8,0:0:0:0:
446,316,252951,1,8,0:0:0:0:
386,315,253019,1,0,0:0:0:0:
390,333,253086,1,0,0:0:0:0:
391,331,253154,1,0,0:0:0:0:
391,331,253221,1,0,0:0:0:0:
391,312,253289,1,8,0:0:0:0:
422,316,253357,1,8,0:0:0:0:
416,308,253424,1,0,0:0:0:0:
422,316,253559,1,0,0:0:0:0:
400,338,253627,1,8,0:0:0:0:
402,331,253762,1,8,0:0:0:0:
402,330,253829,1,0,0:0:0:0:
364,317,253897,1,8,0:0:0:0:
364,317,253965,1,8,0:0:0:0:
387,300,254032,1,0,0:0:0:0:
393,327,254100,1,0,0:0:0:0:
393,327,254167,1,8,0:0:0:0:
393,327,254235,1,8,0:0:0:0:
320,294,254370,1,4,0:0:0:0:
320,294,254505,1,8,0:0:0:0:
320,294,254573,1,8,0:0:0:0:
320,294,254640,1,0,0:0:0:0:
320,294,254708,1,0,0:0:0:0:
325,287,254775,1,8,0:0:0:0:
375,296,254911,1,0,0:0:0:0:
375,296,254978,1,8,0:0:0:0:
375,296,255046,1,0,0:0:0:0:
375,296,255113,1,0,0:0:0:0:
378,283,255181,1,8,0:0:0:0:
399,325,255316,1,8,0:0:0:0:
399,325,255451,1,0,0:0:0:0:
399,325,255586,1,0,0:0:0:0:
399,325,255654,1,0,0:0:0:0:
399,325,255721,1,8,0:0:0:0:
399,325,255789,1,0,0:0:0:0:
407,286,255857,1,8,0:0:0:0:
354,312,255992,1,0,0:0:0:0:
354,312,256059,1,8,0:0:0:0:
354,312,256127,1,8,0:0:0:0:
354,312,256194,1,0,0:0:0:0:
354,312,256262,1,8,0:0:0:0:
386,286,256397,1,0,0:0:0:0:
412,289,256532,1,8,0:0:0:0:
412,289,256600,1,8,0:0:0:0:
412,289,256667,1,8,0:0:0:0:
412,289,256735,1,0,0:0:0:0:
412,289,256802,1,8,0:0:0:0:
412,289,256870,1,8,0:0:0:0:
412,289,256938,1,8,0:0:0:0:
412,289,257005,1,0,0:0:0:0:
432,277,257073,1,8,0:0:0:0:
432,277,257140,1,8,0:0:0:0:
432,277,257208,1,0,0:0:0:0:
432,277,257275,1,0,0:0:0:0:
388,270,257343,1,8,0:0:0:0:
388,270,257411,1,0,0:0:0:0:
388,270,257478,1,0,0:0:0:0:
388,270,257546,1,0,0:0:0:0:
364,315,257613,1,8,0:0:0:0:
364,315,257681,1,8,0:0:0:0:
364,315,257748,1,8,0:0:0:0:
364,315,257816,1,8,0:0:0:0:
364,315,257884,1,8,0:0:0:0:
364,315,257951,1,8,0:0:0:0:
364,315,258019,1,8,0:0:0:0:
364,315,258086,1,8,0:0:0:0:
458,278,258154,1,0,0:0:0:0:
385,311,258357,1,0,0:0:0:0:
385,311,258559,1,0,0:0:0:0:
415,326,258694,1,0,0:0:0:0:
415,326,258739,1,0,0:0:0:0:
415,326,258784,1,0,0:0:0:0:
415,326,258829,1,8,0:0:0:0:
431,298,258965,1,8,0:0:0:0:
431,298,259010,1,8,0:0:0:0:
431,298,259055,1,8,0:0:0:0:
431,298,259100,1,0,0:0:0:0:
414,320,259235,1,8,0:0:0:0:
431,298,259302,1,0,0:0:0:0:
382,323,259370,1,0,0:0:0:0:
382,323,259438,1,0,0:0:0:0:
382,323,259505,1,8,0:0:0:0:
374,325,259640,1,0,0:0:0:0:
374,325,259708,1,8,0:0:0:0:
374,325,259775,1,8,0:0:0:0:
374,325,259843,1,0,0:0:0:0:
374,325,259911,1,8,0:0:0:0:
443,332,260046,1,0,0:0:0:0:
403,333,260113,1,0,0:0:0:0:
403,333,260181,1,8,0:0:0:0:
403,333,260248,1,0,0:0:0:0:
403,333,260316,1,8,0:0:0:0:
418,303,260350,1,8,0:0:0:0:
440,316,260451,1,0,0:0:0:0:
442,308,260485,1,0,0:0:0:0:
417,298,260586,1,8,0:0:0:0:
406,307,260620,1,8,0:0:0:0:
411,328,260721,1,8,0:0:0:0:
416,340,260755,1,8,0:0:0:0:
444,324,260857,1,0,0:0:0:0:
448,343,260924,1,8,0:0:0:0:
390,321,260992,1,0,0:0:0:0:
390,321,261127,1,0,0:0:0:0:
421,286,261172,1,0,0:0:0:0:
435,288,261217,1,8,0:0:0:0:
366,278,261262,1,8,0:0:0:0:
389,305,261397,1,8,0:0:0:0:
441,308,261465,1,8,0:0:0:0:
393,296,261532,1,0,0:0:0:0:
393,296,261600,1,0,0:0:0:0:
393,296,261667,1,8,0:0:0:0:
428,307,261802,1,0,0:0:0:0:
428,307,261870,1,8,0:0:0:0:
428,307,261938,1,0,0:0:0:0:
433,323,262005,1,8,0:0:0:0:
428,307,262073,1,8,0:0:0:0:
426,331,262208,1,0,0:0:0:0:
426,331,262275,1,8,0:0:0:0:
426,323,262343,1,0,0:0:0:0:
426,323,262411,1,0,0:0:0:0:
426,323,262478,1,8,0:0:0:0:
424,302,262512,1,8,0:0:0:0:
433,330,262613,1,8,0:0:0:0:
425,297,262647,1,8,0:0:0:0:
385,309,262748,1,0,0:0:0:0:
385,309,262816,1,0,0:0:0:0:
385,309,262884,1,8,0:0:0:0:
385,309,262951,1,8,0:0:0:0:
407,328,263019,1,0,0:0:0:0:
405,298,263064,1,0,0:0:0:0:
406,298,263109,1,0,0:0:0:0:
406,298,263154,1,8,0:0:0:0:
426,329,263289,1,0,0:0:0:0:
426,329,263334,1,8,0:0:0:0:
426,329,263379,1,8,0:0:0:0:
426,329,263424,1,0,0:0:0:0:
454,311,263559,1,8,0:0:0:0:
376,297,263627,1,8,0:0:0:0:
376,297,263694,1,0,0:0:0:0:
376,297,263762,1,8,0:0:0:0:
376,297,263829,1,8,0:0:0:0:
415,318,263965,1,0,0:0:0:0:
415,318,264032,1,8,0:0:0:0:
461,333,264100,1,0,0:0:0:0:
415,318,264167,1,0,0:0:0:0:
415,318,264235,1,8,0:0:0:0:
417,301,264370,1,0,0:0:0:0:
415,318,264438,1,0,0:0:0:0:
416,314,264505,1,8,0:0:0:0:
416,314,264573,1,0,0:0:0:0:
418,307,264640,1,8,0:0:0:0:
291,263,264674,1,8,0:0:0:0:
402,320,264775,1,0,0:0:0:0:
329,266,264809,1,0,0:0:0:0:
428,311,264911,1,0,0:0:0:0:
428,311,264944,1,0,0:0:0:0:
402,320,265046,1,8,0:0:0:0:
380,289,265079,1,8,0:0:0:0:
421,333,265181,1,0,0:0:0:0:
421,332,265248,1,8,0:0:0:0:
421,333,265316,1,8,0:0:0:0:
405,306,265384,1,0,0:0:0:0:
405,306,265451,1,8,0:0:0:0:
421,333,265519,1,8,0:0:0:0:
421,333,265586,1,0,0:0:0:0:
421,318,265654,1,0,0:0:0:0:
456,300,265721,1,8,0:0:0:0:
409,321,265789,1,8,0:0:0:0:
409,317,265857,1,0,0:0:0:0:
410,310,265992,1,8,0:0:0:0:
416,300,266127,1,0,0:0:0:0:
447,315,266262,1,8,0:0:0:0:
381,321,266397,1,0,0:0:0:0:
381,321,266465,1,8,0:0:0:0:
381,321,266532,1,8,0:0:0:0:
381,321,266600,1,8,0:0:0:0:
396,307,266667,1,0,0:0:0:0:
396,307,266735,1,0,0:0:0:0:
414,256,266802,1,8,0:0:0:0:
439,304,266938,1,4,0:0:0:0:
430,331,267343,1,0,0:0:0:0:
404,317,267388,1,0,0:0:0:0:
404,317,267433,1,0,0:0:0:0:
405,315,267478,1,8,0:0:0:0:
406,262,267613,1,8,0:0:0:0:
406,262,267658,1,8,0:0:0:0:
408,291,267703,1,8,0:0:0:0:
409,288,267748,1,0,0:0:0:0:
435,315,267884,1,0,0:0:0:0:
457,335,267951,1,0,0:0:0:0:
382,306,268019,1,0,0:0:0:0:
382,306,268086,1,0,0:0:0:0:
382,306,268154,1,8,0:0:0:0:
413,321,268289,1,0,0:0:0:0:
433,332,268357,1,8,0:0:0:0:
413,321,268424,1,8,0:0:0:0:
433,332,268492,1,0,0:0:0:0:
433,332,268559,1,8,0:0:0:0:
435,341,268694,1,0,0:0:0:0:
424,298,268762,1,0,0:0:0:0:
435,341,268829,1,8,0:0:0:0:
396,302,268897,1,8,0:0:0:0:
396,302,268965,1,0,0:0:0:0:
396,302,268998,1,0,0:0:0:0:
396,302,269100,1,0,0:0:0:0:
396,302,269134,1,0,0:0:0:0:
451,300,269235,1,8,0:0:0:0:
451,300,269269,1,8,0:0:0:0:
426,334,269370,1,8,0:0:0:0:
435,313,269404,1,8,0:0:0:0:
462,323,269505,1,0,0:0:0:0:
463,338,269573,1,8,0:0:0:0:
404,319,269640,1,0,0:0:0:0:
430,339,269775,1,0,0:0:0:0:
427,247,269820,1,0,0:0:0:0:
427,247,269866,1,8,0:0:0:0:
427,247,269911,1,8,0:0:0:0:
433,316,270046,1,0,0:0:0:0:
464,334,270113,1,8,0:0:0:0:
433,316,270181,1,0,0:0:0:0:
424,325,270248,1,0,0:0:0:0:
426,314,270316,1,8,0:0:0:0:
446,324,270451,1,0,0:0:0:0:
434,316,270519,1,8,0:0:0:0:
434,316,270586,1,0,0:0:0:0:
434,316,270654,1,8,0:0:0:0:
443,336,270721,1,8,0:0:0:0:
460,323,270857,1,0,0:0:0:0:
460,323,270924,1,8,0:0:0:0:
434,316,270992,1,0,0:0:0:0:
434,316,271059,1,0,0:0:0:0:
439,308,271127,1,8,0:0:0:0:
400,301,271161,1,8,0:0:0:0:
410,324,271262,1,8,0:0:0:0:
400,301,271296,1,8,0:0:0:0:
410,324,271397,1,0,0:0:0:0:
452,303,271465,1,0,0:0:0:0:
410,324,271532,1,8,0:0:0:0:
410,324,271600,1,8,0:0:0:0:
423,285,271667,1,0,0:0:0:0:
423,285,271712,1,0,0:0:0:0:
423,285,271757,1,0,0:0:0:0:
423,285,271802,1,8,0:0:0:0:
421,314,271938,1,0,0:0:0:0:
421,314,271983,1,8,0:0:0:0:
421,314,272028,1,8,0:0:0:0:
421,314,272073,1,0,0:0:0:0:
432,330,272208,1,0,0:0:0:0:
432,330,272275,1,8,0:0:0:0:
432,330,272343,1,0,0:0:0:0:
432,330,272411,1,8,0:0:0:0:
432,330,272478,1,8,0:0:0:0:
416,316,272613,1,0,0:0:0:0:
432,319,272681,1,0,0:0:0:0:
417,327,272748,1,8,0:0:0:0:
416,316,272816,1,0,0:0:0:0:
416,316,272884,1,8,0:0:0:0:
419,334,273019,1,0,0:0:0:0:
419,334,273086,1,0,0:0:0:0:
419,334,273154,1,8,0:0:0:0:
404,318,273221,1,8,0:0:0:0:
404,318,273289,1,0,0:0:0:0:
388,310,273323,1,0,0:0:0:0:
416,322,273424,1,0,0:0:0:0:
416,322,273458,1,0,0:0:0:0:
416,322,273559,1,8,0:0:0:0:
416,322,273593,1,8,0:0:0:0:
399,264,273694,1,0,0:0:0:0:
388,310,273728,1,0,0:0:0:0:
430,343,273829,1,8,0:0:0:0:
430,343,273897,1,0,0:0:0:0:
430,343,273965,1,0,0:0:0:0:
430,343,274032,1,0,0:0:0:0:
408,317,274100,1,8,0:0:0:0:
386,330,274167,1,0,0:0:0:0:
386,330,274235,1,8,0:0:0:0:
386,330,274302,1,8,0:0:0:0:
386,330,274370,1,0,0:0:0:0:
370,311,274438,1,0,0:0:0:0:
394,324,274505,1,8,0:0:0:0:
370,311,274573,1,0,0:0:0:0:
373,295,274640,1,8,0:0:0:0:
399,318,274708,1,8,0:0:0:0:
373,295,274775,1,8,0:0:0:0:
373,295,274843,1,8,0:0:0:0:
373,295,274911,1,0,0:0:0:0:
426,327,274978,1,0,0:0:0:0:
426,320,275046,1,8,0:0:0:0:
378,323,275113,1,8,0:0:0:0:
378,323,275181,1,0,0:0:0:0:
378,323,275248,1,8,0:0:0:0:
378,323,275316,1,8,0:0:0:0:
413,322,275384,1,8,0:0:0:0:
413,322,275451,1,0,0:0:0:0:
382,312,275519,1,8,0:0:0:0:
426,319,275586,1,0,0:0:0:0:
382,312,275654,1,0,0:0:0:0:
382,312,275721,1,8,0:0:0:0:
403,336,275789,1,8,0:0:0:0:
396,328,275857,1,8,0:0:0:0:
406,306,275924,1,8,0:0:0:0:
393,337,276262,1,4,0:0:0:0:
368,320,276397,1,8,0:0:0:0:
368,320,276532,1,0,0:0:0:0:
368,320,276667,1,0,0:0:0:0:
368,320,276802,1,8,0:0:0:0:
353,321,276938,1,0,0:0:0:0:
353,321,277073,1,0,0:0:0:0:
403,321,277208,1,8,0:0:0:0:
403,321,277275,1,8,0:0:0:0:
403,321,277343,1,0,0:0:0:0:
435,303,277478,1,8,0:0:0:0:
396,318,277546,1,8,0:0:0:0:
396,318,277613,1,0,0:0:0:0:
396,318,277681,1,0,0:0:0:0:
396,318,277748,1,8,0:0:0:0:
400,327,277884,1,0,0:0:0:0:
432,330,278019,1,8,0:0:0:0:
432,330,278154,1,0,0:0:0:0:
432,330,278289,1,0,0:0:0:0:
380,304,278424,1,8,0:0:0:0:
380,304,278559,1,0,0:0:0:0:
380,304,278694,1,0,0:0:0:0:
380,304,278829,1,8,0:0:0:0:
372,324,278965,1,0,0:0:0:0:
372,324,279100,1,8,0:0:0:0:
372,324,279167,1,8,0:0:0:0:
372,324,279235,1,0,0:0:0:0:
351,313,279370,1,8,0:0:0:0:
351,313,279505,1,0,0:0:0:0:
390,324,279640,1,0,0:0:0:0:
390,324,279775,1,8,0:0:0:0:
390,324,279911,1,8,0:0:0:0:
416,284,280046,1,0,0:0:0:0:
435,335,280316,1,8,0:0:0:0:
416,297,280360,1,0,0:0:0:0:
416,297,280404,1,0,0:0:0:0:
373,302,280448,1,8,0:0:0:0:
353,298,280514,1,8,0:0:0:0:
353,297,280580,1,0,0:0:0:0:
374,271,280712,1,8,0:0:0:0:
358,293,280844,1,0,0:0:0:0:
358,293,280976,1,8,0:0:0:0:
358,293,281108,1,0,0:0:0:0:
358,293,281241,1,0,0:0:0:0:
421,295,281373,1,8,0:0:0:0:
361,293,281505,1,0,0:0:0:0:
385,317,281571,1,0,0:0:0:0:
385,316,281637,1,8,0:0:0:0:
385,317,281769,1,8,0:0:0:0:
385,316,281835,1,8,0:0:0:0:
385,317,281901,1,0,0:0:0:0:
385,317,281967,1,0,0:0:0:0:
391,310,282034,1,8,0:0:0:0:
361,298,282166,1,0,0:0:0:0:
381,280,282298,1,8,0:0:0:0:
343,307,282430,1,0,0:0:0:0:
343,307,282562,1,0,0:0:0:0:
343,307,282694,1,8,0:0:0:0:
395,284,282827,1,0,0:0:0:0:
395,284,282959,1,0,0:0:0:0:
407,268,283091,1,8,0:0:0:0:
351,298,283223,1,0,0:0:0:0:
351,298,283355,1,0,0:0:0:0:
351,298,283421,1,0,0:0:0:0:
351,298,283487,1,0,0:0:0:0:
402,332,283619,1,8,0:0:0:0:
418,299,283752,1,0,0:0:0:0:
418,313,283884,1,0,0:0:0:0:
432,290,284016,1,8,0:0:0:0:
406,318,284148,1,8,0:0:0:0:
446,212,284280,1,4,0:0:0:0:
398,333,284545,1,8,0:0:0:0:
398,333,284609,1,8,0:0:0:0:
398,333,284674,1,0,0:0:0:0:
398,333,284738,1,8,0:0:0:0:
398,333,284803,1,0,0:0:0:0:
354,306,284932,1,0,0:0:0:0:
354,306,285062,1,8,0:0:0:0:
354,306,285191,1,0,0:0:0:0:
389,328,285320,1,0,0:0:0:0:
389,328,285385,1,8,0:0:0:0:
389,328,285450,1,0,0:0:0:0:
372,326,285514,1,0,0:0:0:0:
372,326,285579,1,8,0:0:0:0:
378,320,285708,1,0,0:0:0:0:
384,315,285838,1,0,0:0:0:0:
416,340,285967,1,8,0:0:0:0:
339,323,286096,1,0,0:0:0:0:
339,323,286161,1,0,0:0:0:0:
339,323,286226,1,8,0:0:0:0:
339,323,286290,1,8,0:0:0:0:
339,323,286355,1,0,0:0:0:0:
359,287,286484,1,0,0:0:0:0:
359,287,286613,1,8,0:0:0:0:
359,287,286739,1,8,0:0:0:0:
359,287,286866,1,0,0:0:0:0:
371,321,286929,1,8,0:0:0:0:
371,321,286992,1,0,0:0:0:0:
371,321,287056,1,0,0:0:0:0:
371,321,287119,1,8,0:0:0:0:
345,327,287245,1,0,0:0:0:0:
374,330,287372,1,8,0:0:0:0:
398,321,287499,1,0,0:0:0:0:
376,308,287625,1,8,0:0:0:0:
376,308,287688,1,0,0:0:0:0:
376,308,287752,1,8,0:0:0:0:
376,308,287815,1,8,0:0:0:0:
376,308,287878,1,0,0:0:0:0:
376,308,288005,1,0,0:0:0:0:
376,308,288131,1,8,0:0:0:0:
376,308,288258,1,0,0:0:0:0:
418,276,288385,1,12,0:0:0:0:
421,342,288638,1,0,0:0:0:0:
421,342,288701,1,0,0:0:0:0:
421,342,288764,1,0,0:0:0:0:
421,342,288828,1,0,0:0:0:0:
395,332,288891,1,8,0:0:0:0:
402,313,288954,1,8,0:0:0:0:
402,313,289018,1,0,0:0:0:0:
402,313,289081,1,0,0:0:0:0:
402,313,289144,1,8,0:0:0:0:
352,301,289207,1,0,0:0:0:0:
402,313,289271,1,0,0:0:0:0:
402,313,289334,1,0,0:0:0:0:
402,313,289397,1,8,0:0:0:0:
402,313,289461,1,0,0:0:0:0:
398,326,289524,1,8,0:0:0:0:
398,326,289587,1,8,0:0:0:0:
398,326,289650,1,0,0:0:0:0:
351,291,289693,1,0,0:0:0:0:
351,290,289735,1,0,0:0:0:0:
351,290,289777,1,8,0:0:0:0:
394,311,289840,1,8,0:0:0:0:
394,311,289904,1,0,0:0:0:0:
408,324,289967,1,0,0:0:0:0:
408,324,290030,1,8,0:0:0:0:
343,260,290094,1,0,0:0:0:0:
390,321,290157,1,8,0:0:0:0:
392,311,290220,1,8,0:0:0:0:
392,311,290283,1,8,0:0:0:0:
393,308,290347,1,8,0:0:0:0:
392,311,290410,1,0,0:0:0:0:
392,311,290473,1,0,0:0:0:0:
393,308,290537,1,8,0:0:0:0:
413,284,290579,1,8,0:0:0:0:
413,284,290621,1,8,0:0:0:0:
382,269,290663,1,0,0:0:0:0:
392,268,290725,1,0,0:0:0:0:
392,268,290787,1,8,0:0:0:0:
406,326,290849,1,0,0:0:0:0:
406,326,290911,1,0,0:0:0:0:
406,326,290974,1,0,0:0:0:0:
379,288,291036,1,8,0:0:0:0:
398,328,291098,1,8,0:0:0:0:
398,328,291160,1,0,0:0:0:0:
388,305,291223,1,8,0:0:0:0:
398,328,291285,1,8,0:0:0:0:
388,305,291347,1,8,0:0:0:0:
392,289,291409,1,0,0:0:0:0:
392,289,291472,1,0,0:0:0:0:
415,252,291534,1,8,0:0:0:0:
392,289,291596,1,0,0:0:0:0:
345,313,291658,1,8,0:0:0:0:
345,313,291700,1,8,0:0:0:0:
345,313,291741,1,8,0:0:0:0:
351,305,291783,1,0,0:0:0:0:
363,323,291845,1,0,0:0:0:0:
332,263,291907,1,8,0:0:0:0:
332,263,291949,1,0,0:0:0:0:
341,257,291990,1,0,0:0:0:0:
357,245,292032,1,8,0:0:0:0:
424,285,292094,1,0,0:0:0:0:
336,304,292156,1,8,0:0:0:0:
336,304,292198,1,8,0:0:0:0:
341,297,292239,1,8,0:0:0:0:
354,295,292281,1,0,0:0:0:0:
354,295,292322,1,0,0:0:0:0:
354,295,292364,1,0,0:0:0:0:
392,276,292405,1,8,0:0:0:0:
396,291,292654,1,4,0:0:0:0:
396,291,292779,1,0,0:0:0:0:
345,292,292903,1,8,0:0:0:0:
345,292,292965,1,0,0:0:0:0:
345,292,293028,1,8,0:0:0:0:
354,281,293090,1,8,0:0:0:0:
364,268,293152,1,0,0:0:0:0:
359,316,293277,1,0,0:0:0:0:
402,342,293401,1,8,0:0:0:0:
402,342,293463,1,8,0:0:0:0:
407,328,293526,1,0,0:0:0:0:
407,327,293588,1,0,0:0:0:0:
407,327,293650,1,0,0:0:0:0:
422,314,293775,1,0,0:0:0:0:
435,328,293899,1,8,0:0:0:0:
437,308,293961,1,0,0:0:0:0:
426,308,294023,1,0,0:0:0:0:
433,295,294086,1,8,0:0:0:0:
404,326,294148,1,0,0:0:0:0:
416,327,294272,1,0,0:0:0:0:
403,225,294397,1,8,0:0:0:0:
412,232,294438,1,8,0:0:0:0:
412,232,294480,1,8,0:0:0:0:
412,232,294521,1,8,0:0:0:0:
412,232,294563,1,8,0:0:0:0:
412,232,294604,1,8,0:0:0:0:
445,326,294646,1,0,0:0:0:0:
410,300,294766,1,0,0:0:0:0:
362,319,294886,1,8,0:0:0:0:
372,309,294946,1,0,0:0:0:0:
373,308,295006,1,8,0:0:0:0:
373,308,295066,1,8,0:0:0:0:
381,297,295126,1,0,0:0:0:0:
416,331,295246,1,0,0:0:0:0:
402,323,295366,1,8,0:0:0:0:
403,319,295426,1,8,0:0:0:0:
403,319,295486,1,8,0:0:0:0:
417,286,295546,1,8,0:0:0:0:
429,298,295606,1,4,0:0:0:0:
401,303,295726,1,12,0:0:0:0:
401,303,295966,1,12,0:0:0:0:
401,303,296206,1,12,0:0:0:0:
401,303,296446,1,12,0:0:0:0:
256,192,296806,1,4,0:0:0:0:
256,192,296926,12,0,307366,0:0:0:0:
