osu file format v14

[General]
AudioFilename: audio.mp3
AudioLeadIn: 0
PreviewTime: 144250
Countdown: 0
SampleSet: Normal
StackLeniency: 0.7
Mode: 1
LetterboxInBreaks: 0
WidescreenStoryboard: 0

[Editor]
Bookmarks: 23614,28705,169068,191977
DistanceSpacing: 2.4
BeatDivisor: 4
GridSize: 8
TimelineZoom: 2.999999

[Metadata]
Title:Destiny Strings
TitleUnicode:Destiny Strings
Artist:seatrus
ArtistUnicode:seatrus
Creator:D3kuu
Version:Heaven
Source:
Tags:psystyle fa battle of prophets EP electronic instrumental artcore hardcore deep house osu!taiko featured artist cup #1 o!tfac#1 3rd place yassu- gaston_2199 genjuro
BeatmapID:3635997
BeatmapSetID:1775661

[Difficulty]
HPDrainRate:6
CircleSize:5
OverallDifficulty:7
ApproachRate:5
SliderMultiplier:1.5
SliderTickRate:1

[Events]
//Background and Video events
0,0,"8gGJ2mg.jpeg",0,0
//Break Periods
//Storyboard Layer 0 (Background)
//Storyboard Layer 1 (Fail)
//Storyboard Layer 2 (Pass)
//Storyboard Layer 3 (Foreground)
//Storyboard Layer 4 (Overlay)
//Storyboard Sound Samples

[TimingPoints]
1432,363.636363636364,4,1,0,40,1,0
1432,-1000,4,1,0,40,0,0
4341,-909.090909090909,4,1,0,40,0,0
5795,-833.333333333333,4,1,0,40,0,0
5977,-333.333333333333,4,1,0,40,0,0
6250,-312.5,4,1,0,40,0,0
6522,-294.117647058824,4,1,0,40,0,0
6795,-277.777777777778,4,1,0,40,0,0
7068,-263.157894736842,4,1,0,40,0,0
7250,-769.230769230769,4,1,0,40,0,0
7432,-250,4,1,0,40,0,0
7704,-263.157894736842,4,1,0,40,0,0
7977,-277.777777777778,4,1,0,40,0,0
8250,-294.117647058824,4,1,0,40,0,0
8522,-312.5,4,1,0,40,0,0
8613,-322.58064516129,4,1,0,40,0,0
8704,-769.230769230769,4,1,0,40,0,0
8886,-312.5,4,1,0,40,0,0
9159,-294.117647058824,4,1,0,40,0,0
9432,-277.777777777778,4,1,0,40,0,0
9704,-263.157894736842,4,1,0,40,0,0
9977,-250,4,1,0,40,0,0
10159,-714.285714285714,4,1,0,40,0,0
10341,-238.095238095238,4,1,0,40,0,0
10613,-250,4,1,0,40,0,0
10886,-263.157894736842,4,1,0,40,0,0
11159,-277.777777777778,4,1,0,40,0,0
11432,-294.117647058824,4,1,0,40,0,0
11522,-303.030303030303,4,1,0,40,0,0
11613,-666.666666666667,4,1,0,40,0,0
11795,-294.117647058824,4,1,0,40,0,0
12068,-277.777777777778,4,1,0,40,0,0
12341,-263.157894736842,4,1,0,40,0,0
12613,-250,4,1,0,40,0,0
12886,-238.095238095238,4,1,0,40,0,0
13068,-666.666666666667,4,1,0,40,0,0
13250,-208.333333333333,4,1,0,40,0,0
13522,-217.391304347826,4,1,0,40,0,0
13795,-227.272727272727,4,1,0,40,0,0
14068,-238.095238095238,4,1,0,40,0,0
14341,-250,4,1,0,40,0,0
14432,-256.410256410256,4,1,0,40,0,0
14522,-625,4,1,0,40,0,0
14704,-250,4,1,0,40,0,0
14977,-238.095238095238,4,1,0,40,0,0
15250,-227.272727272727,4,1,0,40,0,0
15522,-217.391304347826,4,1,0,40,0,0
15795,-208.333333333333,4,1,0,40,0,0
15977,-588.235294117647,4,1,0,40,0,0
16159,-200,4,1,0,40,0,0
16432,-208.333333333333,4,1,0,40,0,0
16704,-217.391304347826,4,1,0,40,0,0
16977,-227.272727272727,4,1,0,40,0,0
17250,-238.095238095238,4,1,0,40,0,0
17341,-243.90243902439,4,1,0,40,0,0
17409,-66.6666666666667,4,1,0,100,0,0
17454,-66.6666666666667,4,1,0,50,0,0
17795,-224.137853745568,4,1,0,50,0,0
18159,-220.339057742053,4,1,0,50,0,0
18522,-216.66688333355,4,1,0,50,0,0
18886,-213.114649287877,4,1,0,50,0,0
19250,-209.677453173783,4,1,0,50,0,0
19613,-206.349370118548,4,1,0,50,0,0
19977,-203.124873046954,4,1,0,50,0,0
20341,-200,4,1,0,50,0,0
20704,-196.969816345343,4,1,0,50,0,0
21068,-194.029705947981,4,1,0,50,0,0
21432,-191.176442474053,4,1,0,50,0,0
21795,-188.405879017049,4,1,0,50,0,0
22159,-185.714126530749,4,1,0,50,0,0
22522,-183.098539972242,4,1,0,50,0,0
22886,-180.555605709891,4,1,0,50,0,0
23250,-178.082338149867,4,1,0,50,0,0
23613,-175.675604455836,4,1,0,50,0,0
23977,-173.333356444448,4,1,0,50,0,0
24341,-171.052744113647,4,1,0,50,0,0
24704,-168.831081126711,4,1,0,50,0,0
25068,-166.666666666667,4,1,0,50,0,0
25432,-164.557045345339,4,1,0,50,0,0
25795,-162.499898437563,4,1,0,50,0,0
26159,-160.493807346444,4,1,0,50,0,0
26522,-158.536643367065,4,1,0,50,0,0
26886,-156.626392800198,4,1,0,50,0,0
27250,-154.761867913841,4,1,0,50,0,0
27613,-152.941212456756,4,1,0,50,0,0
27977,-151.16289616016,4,1,0,50,0,0
28341,-149.425235830378,4,1,0,50,0,0
28704,-147.727289514465,4,1,0,50,0,0
29045,-66.6666666666667,4,1,0,100,0,0
29091,-66.6666666666667,4,1,0,50,0,0
29432,-144.444380246942,4,1,0,50,0,0
29795,-142.857142857143,4,1,0,50,0,0
30159,-141.304409262787,4,1,0,50,0,0
30522,-139.784871083403,4,1,0,50,0,0
30886,-138.297857627887,4,1,0,50,0,0
31250,-136.842148476468,4,1,0,50,0,0
31613,-135.416582031303,4,1,0,50,0,0
31954,-66.6666666666667,4,1,0,100,0,0
32000,-66.6666666666667,4,1,0,50,0,0
32336,-132.653088296549,4,1,0,50,0,0
32699,-131.313210896895,4,1,0,50,0,0
33063,-129.999961000012,4,1,0,50,0,0
33427,-128.712884030979,4,1,0,50,0,0
33790,-127.451042868158,4,1,0,50,0,0
34154,-126.213543218041,4,1,0,50,0,0
34517,-125,4,1,0,50,0,0
34863,-55.5555555555556,4,1,0,100,0,0
34909,-55.5555555555556,4,1,0,70,0,0
35058,-125,4,1,0,70,0,0
35240,-118.128327527326,4,1,0,70,0,0
35422,-111.972678666405,4,1,0,70,0,0
35604,-106.426908128036,4,1,0,70,0,0
35786,-101.404451655428,4,1,0,70,0,0
35967,-96.8347621302486,4,1,0,70,0,0
36149,-92.6591699220922,4,1,0,70,0,0
36330,-88.4955752212389,4,1,0,70,0,0
36422,-87.029929592787,4,1,0,70,0,0
36513,-85.302469762407,4,1,0,70,0,0
36604,-83.642252050908,4,1,0,70,0,0
36695,-82.0454252701551,4,1,0,70,0,0
36786,-80.508491633155,4,1,0,70,0,0
36876,-79.0280185937122,4,1,0,70,0,0
36967,-77.6010112963792,4,1,0,70,0,0
37058,-76.2246829243752,4,1,0,70,0,0
37119,-75.3338797550745,4,1,0,70,0,0
37179,-74.4637123437007,4,1,0,70,0,0
37240,-73.6133634755519,4,1,0,70,0,0
37301,-72.7822696568534,4,1,0,70,0,0
37361,-71.9696806129514,4,1,0,70,0,0
37422,-71.1750864421425,4,1,0,70,0,0
37482,-70.3977968305504,4,1,0,70,0,0
37543,-69.6373495746203,4,1,0,70,0,0
37604,-68.8931082090272,4,1,0,70,0,0
37664,-68.1646530828146,4,1,0,70,0,0
37725,-67.4514417071151,4,1,0,70,0,0
37772,-40,4,1,0,100,0,0
37818,-40,4,1,0,20,0,0
39227,-166.666666666667,4,1,0,40,0,0
39608,-173.913043478261,4,1,0,40,0,0
39972,-181.818181818182,4,1,0,40,0,0
40063,-183.908045977012,4,1,0,40,0,0
40154,-186.046511627907,4,1,0,40,0,0
40214,-187.500117187573,4,1,0,40,0,0
40275,-188.976258912593,4,1,0,40,0,0
40336,-190.47619047619,4,1,0,40,0,0
40517,-195.121951219512,4,1,0,40,0,0
40682,-50,4,1,0,100,0,0
40727,-83.3333333333333,4,1,0,50,0,0
41154,-84.8004518168073,4,1,0,50,0,0
41245,-86.3201545476047,4,1,0,50,0,0
41336,-87.8953974454082,4,1,0,50,0,0
41427,-89.5291215850236,4,1,0,50,0,0
41517,-91.2247284695957,4,1,0,50,0,0
41608,-92.9858019978929,4,1,0,50,0,0
41699,-94.8162981631239,4,1,0,50,0,0
41790,-96.7202174270488,4,1,0,50,0,0
41881,-98.7021652293986,4,1,0,50,0,0
41972,-100.767038698574,4,1,0,50,0,0
42063,-102.92025944139,4,1,0,50,0,0
42154,-105.167400209283,4,1,0,50,0,0
42245,-107.514858553452,4,1,0,50,0,0
42336,-109.969505456137,4,1,0,50,0,0
42427,-112.538980689436,4,1,0,50,0,0
42517,-115.231269157198,4,1,0,50,0,0
42608,-118.055530960653,4,1,0,50,0,0
42699,-121.021713715875,4,1,0,50,0,0
42790,-124.140944662932,4,1,0,50,0,0
42881,-127.425058137683,4,1,0,50,0,0
42972,-130.887653891159,4,1,0,50,0,0
43063,-134.543688353764,4,1,0,50,0,0
43154,-138.410028637035,4,1,0,50,0,0
43245,-142.504952047084,4,1,0,50,0,0
43608,-83.3333333333333,4,1,0,50,0,0
43699,-84.5883423730075,4,1,0,50,0,0
43790,-85.8817305512233,4,1,0,50,0,0
43881,-87.2152856998329,4,1,0,50,0,0
43972,-88.5909869301717,4,1,0,50,0,0
44063,-90.0107022725002,4,1,0,50,0,0
44154,-91.476662016603,4,1,0,50,0,0
44245,-92.9911630497754,4,1,0,50,0,0
44336,-94.5566569304829,4,1,0,50,0,0
44427,-96.1757631306365,4,1,0,50,0,0
44472,-97.0062889177105,4,1,0,50,0,0
44517,-97.8513794108956,4,1,0,50,0,0
44608,-99.5863184332284,4,1,0,50,0,0
44699,-101.383890099863,4,1,0,50,0,0
44790,-103.247548386964,4,1,0,50,0,0
44881,-105.181005993214,4,1,0,50,0,0
44972,-107.188259026859,4,1,0,50,0,0
45063,-109.273614574478,4,1,0,50,0,0
45154,-111.441845744426,4,1,0,50,0,0
45245,-92.633334105278,4,1,0,50,0,0
45290,-93.4035603569138,4,1,0,50,0,0
45336,-94.1867025329633,4,1,0,50,0,0
45381,-94.9830882611354,4,1,0,50,0,0
45427,-95.793056344518,4,1,0,50,0,0
45517,-97.455153574704,4,1,0,50,0,0
45608,-99.1759470559122,4,1,0,50,0,0
45699,-100.958703851777,4,1,0,50,0,0
45790,-102.806620746376,4,1,0,50,0,0
45881,-104.72344632295,4,1,0,50,0,0
45972,-106.71310821136,4,1,0,50,0,0
46063,-108.779838309648,4,1,0,50,0,0
46136,-66.6666666666667,4,1,0,100,0,0
46182,-66.6666666666667,4,1,0,20,0,0
46409,-90.7866115168264,4,1,0,50,0,0
46699,-76.8353663971282,4,1,0,50,0,0
46881,-83.3333333333333,4,1,0,50,0,0
46972,-84.8004518168073,4,1,0,50,0,0
47063,-86.3201545476047,4,1,0,50,0,0
47154,-87.8953974454082,4,1,0,50,0,0
47245,-89.5291215850236,4,1,0,50,0,0
47336,-91.2247284695957,4,1,0,50,0,0
47427,-92.9858019978929,4,1,0,50,0,0
47487,-94.1981476876239,4,1,0,50,0,0
47548,-95.4425240348136,4,1,0,50,0,0
47608,-96.7202174270488,4,1,0,50,0,0
47699,-98.7021652293986,4,1,0,50,0,0
47790,-100.767038698574,4,1,0,50,0,0
47881,-102.92025944139,4,1,0,50,0,0
47972,-105.167400209283,4,1,0,50,0,0
48063,-107.514858553452,4,1,0,50,0,0
48154,-109.969505456137,4,1,0,50,0,0
48199,-111.239407227447,4,1,0,50,0,0
48245,-112.538980689436,4,1,0,50,0,0
48336,-115.231269157198,4,1,0,50,0,0
48427,-118.055530960653,4,1,0,50,0,0
48517,-121.021713715875,4,1,0,50,0,0
48608,-124.140944662932,4,1,0,50,0,0
48699,-101.546038435176,4,1,0,50,0,0
48760,-102.993612336163,4,1,0,50,0,0
48820,-104.48305441582,4,1,0,50,0,0
48881,-106.016095363598,4,1,0,50,0,0
48942,-107.594909469643,4,1,0,50,0,0
49002,-109.221458521513,4,1,0,50,0,0
49063,-110.897940625243,4,1,0,50,0,0
49091,-110.897940625243,4,1,0,20,0,0
49409,-83.3333333333333,4,1,0,50,0,0
49517,-84.5921347924913,4,1,0,50,0,0
49608,-85.8895494749572,4,1,0,50,0,0
49699,-87.2273817218511,4,1,0,50,0,0
49790,-88.6076285851754,4,1,0,50,0,0
49836,-89.3141831816034,4,1,0,50,0,0
49881,-90.0321775002386,4,1,0,50,0,0
49972,-91.5032799350693,4,1,0,50,0,0
50017,-92.2569651702279,4,1,0,50,0,0
50063,-93.0232558139535,4,1,0,50,0,0
50154,-94.594581811543,4,1,0,50,0,0
50245,-96.2199048192702,4,1,0,50,0,0
50336,-97.9020568243118,4,1,0,50,0,0
50396,-99.0565850836632,4,1,0,50,0,0
50457,-100.238668269149,4,1,0,50,0,0
50517,-101.449304767914,4,1,0,50,0,0
50608,-103.321048460671,4,1,0,50,0,0
50699,-105.263157894737,4,1,0,50,0,0
50790,-107.27967704526,4,1,0,50,0,0
50836,-108.317248221972,4,1,0,50,0,0
50881,-109.374965820323,4,1,0,50,0,0
50972,-111.553731528096,4,1,0,50,0,0
51063,-113.821193733916,4,1,0,50,0,0
51154,-116.18261118095,4,1,0,50,0,0
51245,-118.644087905778,4,1,0,50,0,0
51336,-121.212121212121,4,1,0,50,0,0
51427,-123.893783381631,4,1,0,50,0,0
51487,-125.748518053715,4,1,0,50,0,0
51548,-127.659628791331,4,1,0,50,0,0
51608,-129.629557613209,4,1,0,50,0,0
51699,-132.701497270994,4,1,0,50,0,0
51790,-135.922382882479,4,1,0,50,0,0
51851,-138.15780384355,4,1,0,50,0,0
51911,-140.468180445425,4,1,0,50,0,0
51977,-142.857142857143,4,1,0,50,0,0
52000,-142.857142857143,4,1,0,20,0,0
52318,-50,4,1,0,100,0,0
52363,-50,4,1,0,50,0,0
52682,-71.4285714285714,4,1,0,70,0,0
52790,-72.4201585856633,4,1,0,70,0,0
52881,-73.439718108986,4,1,0,70,0,0
52972,-74.4883395953197,4,1,0,70,0,0
53063,-75.5673407021566,4,1,0,70,0,0
53154,-76.6781198218307,4,1,0,70,0,0
53245,-77.8219806627942,4,1,0,70,0,0
53336,-79.000485852988,4,1,0,70,0,0
53427,-80.2152978594548,4,1,0,70,0,0
53517,-81.4679879688075,4,1,0,70,0,0
53608,-82.7604242961433,4,1,0,70,0,0
53699,-84.0945996970912,4,1,0,70,0,0
53790,-85.4724231773861,4,1,0,70,0,0
53881,-86.8961478068716,4,1,0,70,0,0
53972,-88.3681842724073,4,1,0,70,0,0
54063,-89.8908724808083,4,1,0,70,0,0
54154,-91.466956190072,4,1,0,70,0,0
54245,-93.0993807960183,4,1,0,70,0,0
54336,-94.7910426256361,4,1,0,70,0,0
54427,-96.5453188553973,4,1,0,70,0,0
54517,-98.3658481644441,4,1,0,70,0,0
54608,-100.256254987749,4,1,0,70,0,0
54699,-102.22074570034,4,1,0,70,0,0
54790,-104.263871004739,4,1,0,70,0,0
54881,-106.390222313009,4,1,0,70,0,0
55063,-110.914299847936,4,1,0,70,0,0
55245,-71.4285714285714,4,1,0,70,0,0
55336,-72.3514137104482,4,1,0,70,0,0
55427,-73.2984139689185,4,1,0,70,0,0
55518,-74.2705333886896,4,1,0,70,0,0
55609,-75.2688414845725,4,1,0,70,0,0
55700,-76.2942945600642,4,1,0,70,0,0
55790,-77.3480748450911,4,1,0,70,0,0
55881,-78.4313725490196,4,1,0,70,0,0
55972,-79.5454455061994,4,1,0,70,0,0
56063,-80.6916240480406,4,1,0,70,0,0
56108,-81.2772227898082,4,1,0,70,0,0
56154,-81.8713163024621,4,1,0,70,0,0
56245,-83.0860829980117,4,1,0,70,0,0
56336,-84.3373697198481,4,1,0,70,0,0
56427,-85.6269217892259,4,1,0,70,0,0
56518,-86.9565217391304,4,1,0,70,0,0
56609,-88.3280645642821,4,1,0,70,0,0
56700,-89.7435667324188,4,1,0,70,0,0
56790,-91.2051760761527,4,1,0,70,0,0
56881,-78.2123167192123,4,1,0,70,0,0
56927,-78.7622977482647,4,1,0,70,0,0
56972,-79.3201312906813,4,1,0,70,0,0
57017,-79.88585908454,4,1,0,70,0,0
57063,-80.459779363193,4,1,0,70,0,0
57154,-81.6326530612245,4,1,0,70,0,0
57245,-82.8402268828134,4,1,0,70,0,0
57336,-84.0840638837087,4,1,0,70,0,0
57427,-85.3658224271378,4,1,0,70,0,0
57517,-86.6873387073703,4,1,0,70,0,0
57608,-88.0503366164372,4,1,0,70,0,0
57699,-89.456880441774,4,1,0,70,0,0
57772,-66.6666666666667,4,1,0,100,0,0
57818,-66.6666666666667,4,1,0,20,0,0
58063,-100,4,1,0,70,0,0
58336,-81.1501903377714,4,1,0,70,0,0
58517,-89.5627991957261,4,1,0,70,0,0
58608,-90.1988975890737,4,1,0,70,0,0
58699,-90.8440960876173,4,1,0,70,0,0
58790,-91.4985913791857,4,1,0,70,0,0
58881,-92.162585860969,4,1,0,70,0,0
58972,-92.8362878481941,4,1,0,70,0,0
59063,-93.5199117920192,4,1,0,70,0,0
59123,-93.9812526197274,4,1,0,70,0,0
59184,-94.4471676711123,4,1,0,70,0,0
59245,-94.9178154095277,4,1,0,70,0,0
59336,-95.6325567650949,4,1,0,70,0,0
59427,-96.3581439494312,4,1,0,70,0,0
59517,-97.0948257196426,4,1,0,70,0,0
59608,-97.8428584986796,4,1,0,70,0,0
59699,-98.6025066729246,4,1,0,70,0,0
59790,-99.3740429037493,4,1,0,70,0,0
59836,-99.764356589735,4,1,0,70,0,0
59881,-100.157748453815,4,1,0,70,0,0
59972,-100.953913528935,4,1,0,70,0,0
60063,-101.762837636375,4,1,0,70,0,0
60154,-102.584829960515,4,1,0,70,0,0
60245,-103.420209756869,4,1,0,70,0,0
60336,-86.277182704876,4,1,0,70,0,0
60396,-86.6696827716272,4,1,0,70,0,0
60457,-87.0658461581328,4,1,0,70,0,0
60517,-87.465571364472,4,1,0,70,0,0
60578,-87.8689838303494,4,1,0,70,0,0
60639,-88.2762127386105,4,1,0,70,0,0
60699,-88.687155173255,4,1,0,70,0,0
60790,-89.3108329574837,4,1,0,70,0,0
60818,-89.3108329574837,4,1,0,20,0,0
60954,-90.5848793907625,4,1,0,70,0,0
61017,-90.9090909090908,4,1,0,70,0,0
61063,-71.4285714285714,4,1,0,70,0,0
61154,-72.3514137104482,4,1,0,70,0,0
61245,-73.2984139689185,4,1,0,70,0,0
61336,-74.2705333886896,4,1,0,70,0,0
61427,-75.2688414845725,4,1,0,70,0,0
61487,-75.9493478609246,4,1,0,70,0,0
61548,-76.6423301720927,4,1,0,70,0,0
61608,-77.3480748450911,4,1,0,70,0,0
61699,-78.4313725490196,4,1,0,70,0,0
61790,-79.5454455061994,4,1,0,70,0,0
61881,-80.6916240480406,4,1,0,70,0,0
61972,-81.8713163024621,4,1,0,70,0,0
62033,-82.6771523343067,4,1,0,70,0,0
62093,-83.4990092842548,4,1,0,70,0,0
62154,-84.3373697198481,4,1,0,70,0,0
62245,-85.6269217892259,4,1,0,70,0,0
62336,-86.9565217391304,4,1,0,70,0,0
62427,-88.3280645642821,4,1,0,70,0,0
62517,-89.7435667324188,4,1,0,70,0,0
62608,-91.2051760761527,4,1,0,70,0,0
62699,-92.7152686285836,4,1,0,70,0,0
62790,-94.2761196703353,4,1,0,70,0,0
62881,-95.8904240945786,4,1,0,70,0,0
62942,-96.9977263732938,4,1,0,70,0,0
63002,-98.1308044370825,4,1,0,70,0,0
63063,-99.2907660580474,4,1,0,70,0,0
63154,-101.083003297328,4,1,0,70,0,0
63245,-102.941131055383,4,1,0,70,0,0
63305,-104.218341594374,4,1,0,70,0,0
63366,-105.527643493851,4,1,0,70,0,0
63427,-106.870261639775,4,1,0,70,0,0
63472,-107.899774057873,4,1,0,70,0,0
63517,-108.949433299523,4,1,0,70,0,0
63563,-110.019594489779,4,1,0,70,0,0
63608,-111.111111111111,4,1,0,70,0,0
63954,-50,4,1,0,100,0,0
64000,-50,4,1,0,70,0,0
64318,-50,4,1,0,75,0,0
64341,-62.5,4,1,0,75,0,1
64427,-63.2318693680164,4,1,0,75,0,1
64518,-63.98104113789,4,1,0,75,0,1
64609,-64.7482200714302,4,1,0,75,0,1
64700,-65.5339774012632,4,1,0,75,0,1
64791,-66.3390842685486,4,1,0,75,0,1
64882,-67.1641740922258,4,1,0,75,0,1
64973,-68.0100926977563,4,1,0,75,0,1
65064,-68.8775439920874,4,1,0,75,0,1
65154,-69.7674580854554,4,1,0,75,0,1
65245,-70.6806190208614,4,1,0,75,0,1
65336,-71.6180523327432,4,1,0,75,0,1
65427,-72.5806334547365,4,1,0,75,0,1
65518,-73.5694963211573,4,1,0,75,0,1
65609,-74.5856209364821,4,1,0,75,0,1
65700,-75.6302648118092,4,1,0,75,0,1
65791,-76.7045280216982,4,1,0,75,0,1
65882,-77.8098094826815,4,1,0,75,0,1
65973,-78.9473476454348,4,1,0,75,0,1
66064,-80.1187038716562,4,1,0,75,0,1
66154,-81.325276709254,4,1,0,75,0,1
66245,-82.5688149145702,4,1,0,75,0,1
66336,-83.8509030323002,4,1,0,75,0,1
66427,-85.1735069510099,4,1,0,75,0,1
66518,-86.5384282544507,4,1,0,75,0,1
66608,-87.9478856009083,4,1,0,75,0,1
66700,-89.4039350247962,4,1,0,75,0,1
66790,-90.9090909090909,4,1,0,75,0,1
66881,-62.5,4,1,0,75,0,1
66973,-63.1262518724824,4,1,0,75,0,1
67064,-63.7651808954417,4,1,0,75,0,1
67155,-64.4171759381234,4,1,0,75,0,1
67246,-65.0826419387338,4,1,0,75,0,1
67337,-65.7620007431106,4,1,0,75,0,1
67428,-66.4556919964752,4,1,0,75,0,1
67519,-67.1641740922258,4,1,0,75,0,1
67610,-67.8879251820754,4,1,0,75,0,1
67700,-68.6274442522113,4,1,0,75,0,1
67791,-69.3832522705669,4,1,0,75,0,1
67882,-70.155893410748,4,1,0,75,0,1
67973,-70.9459363586572,4,1,0,75,0,1
68064,-71.7539757084091,4,1,0,75,0,1
68155,-72.5806334547365,4,1,0,75,0,1
68246,-73.4265605897621,4,1,0,75,0,1
68337,-74.2924388127474,4,1,0,75,0,1
68428,-75.1789823622589,4,1,0,75,0,1
68519,-66.0377233891088,4,1,0,75,0,1
68564,-66.3856782193237,4,1,0,75,0,1
68610,-66.7372747033028,4,1,0,75,0,1
68654,-67.0926603313304,4,1,0,75,0,1
68700,-67.4518056848382,4,1,0,75,0,1
68791,-68.1818026859539,4,1,0,75,0,1
68882,-68.9277733434243,4,1,0,75,0,1
68973,-69.6902477557998,4,1,0,75,0,1
69063,-70.4697797396564,4,1,0,75,0,1
69154,-71.2669481711119,4,1,0,75,0,1
69246,-72.0823584194357,4,1,0,75,0,1
69336,-72.9166438802155,4,1,0,75,0,1
69409,-50,4,1,0,100,0,1
69432,-50,4,1,0,100,0,0
69454,-50,4,1,0,20,0,0
69682,-66.6666666666667,4,1,0,75,0,0
69972,-62.5,4,1,0,75,0,0
70159,-62.5,4,1,0,75,0,1
70245,-63.2183980710802,4,1,0,75,0,1
70336,-63.9535032450008,4,1,0,75,0,1
70427,-64.7058633218049,4,1,0,75,0,1
70518,-65.4761787840157,4,1,0,75,0,1
70609,-66.265056249093,4,1,0,75,0,1
70700,-67.073174821535,4,1,0,75,0,1
70760,-67.6229452768078,4,1,0,75,0,1
70821,-68.1818026859539,4,1,0,75,0,1
70882,-68.7500214843817,4,1,0,75,0,1
70972,-69.6202355391809,4,1,0,75,0,1
71063,-70.5128114727165,4,1,0,75,0,1
71154,-71.4285714285714,4,1,0,75,0,1
71245,-72.3684305747935,4,1,0,75,0,1
71336,-73.3333528888941,4,1,0,75,0,1
71427,-74.3242992147638,4,1,0,75,0,1
71518,-75.3424502720993,4,1,0,75,0,1
71609,-76.3888835841053,4,1,0,75,0,1
71700,-77.4647941876616,4,1,0,75,0,1
71791,-78.5714454081669,4,1,0,75,0,1
71882,-79.710173808034,4,1,0,75,0,1
71973,-80.8823291522561,4,1,0,75,0,1
72033,-81.6831966228899,4,1,0,75,0,1
72094,-82.5000144375025,4,1,0,75,0,1
72154,-83.3333333333333,4,1,0,75,0,1
72215,-84.1836584365916,4,1,0,75,0,1
72276,-85.0515157030613,4,1,0,75,0,1
72341,-85.9375268554771,4,1,0,75,0,0
72432,-87.301552658114,4,1,0,75,0,0
72454,-87.301552658114,4,1,0,20,0,0
72591,-90.1639270357437,4,1,0,75,0,0
72654,-90.9090909090909,4,1,0,75,0,0
72704,-62.5,4,1,0,75,0,1
72791,-63.2054119001885,4,1,0,75,0,1
72882,-63.926928963118,4,1,0,75,0,1
72973,-64.6651090997388,4,1,0,75,0,1
73064,-65.420579089882,4,1,0,75,0,1
73124,-65.9340514430656,4,1,0,75,0,1
73185,-66.4556919964752,4,1,0,75,0,1
73245,-66.9856523431246,4,1,0,75,0,1
73336,-67.7966101694915,4,1,0,75,0,1
73427,-68.6274442522113,4,1,0,75,0,1
73518,-69.4788943962492,4,1,0,75,0,1
73609,-70.3517375823907,4,1,0,75,0,1
73670,-70.9459363586572,4,1,0,75,0,1
73730,-71.5502579744551,4,1,0,75,0,1
73791,-72.1649633329821,4,1,0,75,0,1
73882,-73.1070572435569,4,1,0,75,0,1
73973,-74.0740740740741,4,1,0,75,0,1
74064,-75.0670160786042,4,1,0,75,0,1
74154,-76.0869399811,4,1,0,75,0,1
74245,-77.1349607267347,4,1,0,75,0,1
74336,-78.2123167192123,4,1,0,75,0,1
74427,-79.3201312906813,4,1,0,75,0,1
74518,-80.459779363193,4,1,0,75,0,1
74579,-81.2379361664793,4,1,0,75,0,1
74639,-82.0312243652424,4,1,0,75,0,1
74700,-82.8402268828134,4,1,0,75,0,1
74791,-84.0840638837084,4,1,0,75,0,1
74882,-85.3658224271381,4,1,0,75,0,1
74942,-86.2422856275506,4,1,0,75,0,1
75003,-87.1369330762213,4,1,0,75,0,1
75064,-88.0503366164369,4,1,0,75,0,1
75109,-88.7479965139787,4,1,0,75,0,1
75154,-89.4568804417738,4,1,0,75,0,1
75200,-90.1770988043418,4,1,0,75,0,1
75250,-90.9090909090909,4,1,0,75,0,0
75272,-90.9090909090909,4,1,0,20,0,0
75591,-90.9090909090909,4,1,0,75,0,0
75613,-66.6666666666667,4,1,0,75,0,1
75704,-67.7887053170749,4,1,0,75,0,1
75795,-68.9491121078088,4,1,0,75,0,1
75886,-70.1499876886772,4,1,0,75,0,1
75977,-71.3933846889747,4,1,0,75,0,1
76068,-72.681707903845,4,1,0,75,0,1
76159,-74.0173822420457,4,1,0,75,0,1
76250,-75.4030102389748,4,1,0,75,0,1
76341,-76.8415657544804,4,1,0,75,0,1
76432,-78.3360176475381,4,1,0,75,0,1
76522,-79.8898159658199,4,1,0,75,0,1
76613,-81.5064345254736,4,1,0,75,0,1
76704,-83.189900080611,4,1,0,75,0,0
76727,-83.189900080611,4,1,0,20,0,0
77045,-83.189900080611,4,1,0,75,0,0
77068,-66.6666666666667,4,1,0,75,0,1
77159,-67.7887053170749,4,1,0,75,0,1
77250,-68.9491121078088,4,1,0,75,0,1
77341,-70.1499876886772,4,1,0,75,0,1
77432,-71.3933846889747,4,1,0,75,0,1
77522,-72.681707903845,4,1,0,75,0,1
77613,-74.0173822420457,4,1,0,75,0,1
77704,-75.4030102389748,4,1,0,75,0,1
77795,-76.8415657544804,4,1,0,75,0,1
77886,-78.3360176475381,4,1,0,75,0,1
77977,-79.8898159658199,4,1,0,75,0,1
78068,-81.5064345254736,4,1,0,75,0,1
78159,-83.189900080611,4,1,0,75,0,0
78182,-83.189900080611,4,1,0,20,0,0
78500,-83.189900080611,4,1,0,75,0,0
78522,-66.6666666666667,4,1,0,75,0,1
78613,-67.7887053170749,4,1,0,75,0,1
78704,-68.9491121078088,4,1,0,75,0,1
78795,-70.1499876886772,4,1,0,75,0,1
78886,-71.3933846889747,4,1,0,75,0,1
78977,-72.681707903845,4,1,0,75,0,1
79068,-74.0173822420457,4,1,0,75,0,1
79159,-75.4030102389748,4,1,0,75,0,1
79250,-76.8415657544804,4,1,0,75,0,1
79341,-78.3360176475381,4,1,0,75,0,1
79432,-79.8898159658199,4,1,0,75,0,1
79522,-81.5064345254736,4,1,0,75,0,1
79613,-83.189900080611,4,1,0,75,0,0
79636,-83.189900080611,4,1,0,20,0,0
79954,-83.189900080611,4,1,0,75,0,0
79977,-66.6666666666667,4,1,0,75,0,1
80068,-67.7887053170749,4,1,0,75,0,1
80159,-68.9491121078088,4,1,0,75,0,1
80250,-70.1499876886772,4,1,0,75,0,1
80341,-71.3933846889747,4,1,0,75,0,1
80432,-72.681707903845,4,1,0,75,0,1
80522,-74.0173822420457,4,1,0,75,0,1
80613,-75.4030102389748,4,1,0,75,0,1
80704,-76.8415657544804,4,1,0,75,0,1
80750,-77.581565378761,4,1,0,75,0,1
80795,-78.3360176475381,4,1,0,75,0,1
80886,-79.8898159658199,4,1,0,75,0,1
80977,-81.5064345254736,4,1,0,75,0,1
81068,-83.189900080611,4,1,0,75,0,0
81091,-83.189900080611,4,1,0,85,0,0
81432,-76.9230769230769,4,1,0,85,0,1
81492,-76.4331404925199,4,1,0,85,0,1
81553,-75.9493478609246,4,1,0,85,0,1
81613,-75.4716981132076,4,1,0,85,0,1
81704,-74.7663551401869,4,1,0,85,0,1
81765,-74.3034239760802,4,1,0,85,0,1
81825,-73.8461356686435,4,1,0,85,0,1
81886,-73.394495412844,4,1,0,85,0,1
81977,-72.7272727272727,4,1,0,85,0,1
82038,-72.2891740455841,4,1,0,85,0,1
82098,-71.856270214067,4,1,0,85,0,1
82159,-71.4285714285714,4,1,0,85,0,1
82219,-71.0059339659015,4,1,0,85,0,1
82280,-70.588218685125,4,1,0,85,0,1
82341,-70.1754385964912,4,1,0,85,0,1
82432,-69.5652173913043,4,1,0,85,0,1
82492,-69.1642810753386,4,1,0,85,0,1
82553,-68.7678925460418,4,1,0,85,0,1
82613,-68.3760683760684,4,1,0,85,0,1
82704,-67.7966101694915,4,1,0,85,0,1
82765,-67.4157454866844,4,1,0,85,0,1
82825,-67.0390911644489,4,1,0,85,0,1
82886,-66.6666666666667,4,1,0,85,0,1
82947,-66.2983571930071,4,1,0,85,0,1
83007,-65.9340514430656,4,1,0,85,0,1
83068,-65.5737704918033,4,1,0,85,0,1
83159,-65.0406504065041,4,1,0,85,0,1
83219,-64.6900409035129,4,1,0,85,0,1
83280,-64.3431497387346,4,1,0,85,0,1
83341,-64,4,1,0,85,0,1
83432,-63.4920634920635,4,1,0,85,0,1
83492,-63.1579080332438,4,1,0,85,0,1
83553,-62.8272119733588,4,1,0,85,0,1
83613,-62.5,4,1,0,85,0,1
83674,-62.1761786893635,4,1,0,85,0,1
83735,-61.855657349349,4,1,0,85,0,1
83795,-61.5384615384615,4,1,0,85,0,1
83886,-61.0687022900763,4,1,0,85,0,1
83947,-60.7595059766088,4,1,0,85,0,1
84007,-60.4533883217354,4,1,0,85,0,1
84068,-60.1503759398496,4,1,0,85,0,1
84159,-59.7014925373134,4,1,0,85,0,1
84220,-59.4059523576143,4,1,0,85,0,1
84281,-59.1132888446721,4,1,0,85,0,1
84341,-58.8235294117647,4,1,0,85,0,1
84401,-58.5365967876286,4,1,0,85,0,1
84462,-58.2524158733173,4,1,0,85,0,1
84522,-57.9710144927536,4,1,0,85,0,1
84583,-57.6923187869844,4,1,0,85,0,1
84644,-57.4162569538264,4,1,0,85,0,1
84704,-57.1428571428571,4,1,0,85,0,1
84765,-56.872048696123,4,1,0,85,0,1
84825,-56.6037629049504,4,1,0,85,0,1
84886,-56.3380281690141,4,1,0,85,0,1
84947,-56.0747768364069,4,1,0,85,0,1
85007,-55.8139431043827,4,1,0,85,0,1
85068,-55.5555555555556,4,1,0,85,0,1
85159,-56.8673591594549,4,1,0,85,0,1
85250,-58.2426446820097,4,1,0,85,0,1
85341,-59.6860632445463,4,1,0,85,0,1
85432,-61.2028814316578,4,1,0,85,0,1
85522,-62.7987651250826,4,1,0,85,0,1
85613,-64.4801449513659,4,1,0,85,0,1
85704,-66.2539926312309,4,1,0,85,0,1
85795,-68.1282446076494,4,1,0,85,0,0
85818,-68.1282446076494,4,1,0,60,0,0
86159,-76.820846104799,4,1,0,60,0,0
86522,-88.056074107992,4,1,0,60,0,0
86613,-91.3978199791979,4,1,0,60,0,0
86704,-95.0033013647224,4,1,0,60,0,0
86886,-103.140632252076,4,1,0,60,0,0
87068,-112.802522264398,4,1,0,60,0,0
87227,-50,4,1,0,100,0,0
87272,-250,4,1,0,55,0,0
87522,-166.666666666667,4,1,0,55,0,0
87613,-167.581100873768,4,1,0,55,0,0
87795,-169.440693215764,4,1,0,55,0,0
87977,-171.341725651056,4,1,0,55,0,0
88159,-173.286199487073,4,1,0,55,0,0
88341,-175.275006485175,4,1,0,55,0,0
88704,-179.393113098388,4,1,0,55,0,0
88977,-182.610712309606,4,1,0,55,0,0
89068,-183.709386447391,4,1,0,55,0,0
89250,-185.946187173432,4,1,0,55,0,0
89432,-188.238483099008,4,1,0,55,0,0
89613,-190.587638866918,4,1,0,55,0,0
89795,-192.996169026045,4,1,0,55,0,0
90159,-198.000982084871,4,1,0,55,0,0
90432,-201.928416376395,4,1,0,55,0,0
90522,-203.27227711703,4,1,0,55,0,0
90704,-206.014808344424,4,1,0,55,0,0
90886,-208.831919541238,4,1,0,55,0,0
91068,-211.727142996278,4,1,0,55,0,0
91250,-214.704234182202,4,1,0,55,0,0
91613,-220.916361065701,4,1,0,55,0,0
91886,-225.816212700807,4,1,0,55,0,0
91977,-227.498674820219,4,1,0,55,0,0
92159,-230.938882024872,4,1,0,55,0,0
92341,-234.484731526707,4,1,0,55,0,0
92522,-238.141732433475,4,1,0,55,0,0
92704,-194.791281142256,4,1,0,55,0,1
92765,-195.623128131193,4,1,0,55,0,1
92825,-196.462110317404,4,1,0,55,0,1
92886,-197.308319899926,4,1,0,55,0,1
92947,-198.161850673156,4,1,0,55,0,1
93007,-199.022401961565,4,1,0,55,0,1
93068,-200,4,1,0,55,0,0
93250,-166.666666666667,4,1,0,55,0,0
93341,-167.664550181162,4,1,0,55,0,0
93432,-168.674739439696,4,1,0,55,0,0
93613,-170.731790600873,4,1,0,55,0,0
93674,-171.428669387811,4,1,0,55,0,0
93735,-172.131260413941,4,1,0,55,0,0
93795,-172.839634202198,4,1,0,55,0,0
93977,-174.999868750098,4,1,0,55,0,0
94068,-176.100673232874,4,1,0,55,0,0
94159,-177.215100144253,4,1,0,55,0,0
94341,-179.487133464838,4,1,0,55,0,0
94432,-180.645301144749,4,1,0,55,0,0
94522,-181.818181818182,4,1,0,55,0,0
94795,-185.430365334906,4,1,0,55,0,0
94886,-186.666766222275,4,1,0,55,0,0
95068,-189.189342585953,4,1,0,55,0,0
95250,-191.780664289865,4,1,0,55,0,0
95341,-193.103501545794,4,1,0,55,0,0
95432,-194.444336419813,4,1,0,55,0,0
95613,-197.18304304703,4,1,0,55,0,0
95674,-198.113170167326,4,1,0,55,0,0
95735,-199.052113833923,4,1,0,55,0,0
95795,-200,4,1,0,55,0,0
95977,-202.898609535829,4,1,0,55,0,0
96159,-205.882474048514,4,1,0,55,0,0
96250,-207.407345953379,4,1,0,55,0,0
96341,-208.955411004846,4,1,0,55,0,0
96522,-212.121019283922,4,1,0,55,0,0
96613,-213.740523279549,4,1,0,55,0,0
96704,-215.384482840318,4,1,0,55,0,0
96795,-217.05439817327,4,1,0,55,0,0
96886,-218.749931640646,4,1,0,55,0,0
97068,-222.222222222222,4,1,0,55,0,0
97250,-142.857142857143,4,1,0,55,0,0
97295,-144.000092160059,4,1,0,55,0,0
97341,-145.161266909473,4,1,0,55,0,0
97432,-147.54093523248,4,1,0,55,0,0
97522,-149.999925000038,4,1,0,55,0,0
97613,-152.542269462868,4,1,0,55,0,0
97704,-155.172520808635,4,1,0,55,0,0
97795,-157.894819944642,4,1,0,55,0,0
97932,-162.162074506987,4,1,0,55,0,0
97977,-163.636393388435,4,1,0,55,0,0
98022,-165.137493477069,4,1,0,55,0,0
98068,-166.666666666667,4,1,0,55,0,0
98159,-169.811288714851,4,1,0,55,0,0
98250,-173.076856508901,4,1,0,55,0,0
98341,-176.470484429127,4,1,0,55,0,0
98432,-179.999856000115,4,1,0,55,0,0
98522,-118.421114958482,4,1,0,55,0,1
98583,-119.469031834913,4,1,0,55,0,1
98644,-120.535660475152,4,1,0,55,0,1
98704,-121.621654492339,4,1,0,55,0,1
98765,-122.727244834717,4,1,0,55,0,1
98825,-123.853273503945,4,1,0,55,0,1
98886,-125,4,1,0,55,0,0
98909,-125,4,1,0,20,0,0
99227,-50,4,1,0,80,0,0
99250,-50,4,1,0,80,0,1
99432,-83.3333333333333,4,1,0,80,0,1
99522,-84.5480778417243,4,1,0,80,0,1
99613,-85.7988343370367,4,1,0,80,0,1
99704,-87.087076626177,4,1,0,80,0,1
99795,-88.4146718843112,4,1,0,80,0,1
99886,-89.7832900727514,4,1,0,80,0,1
99977,-91.1949456113344,4,1,0,80,0,1
100068,-92.6517867897082,4,1,0,80,0,1
100159,-94.1558410988363,4,1,0,80,0,1
100250,-95.7095330523301,4,1,0,80,0,1
100341,-97.3154558353267,4,1,0,80,0,1
100432,-98.9760923248989,4,1,0,80,0,1
100522,-100.694489896818,4,1,0,80,0,1
100613,-102.473505475159,4,1,0,80,0,1
100704,-104.316512991057,4,1,0,80,0,1
100795,-106.227141247043,4,1,0,80,0,1
100886,-108.208947148586,4,1,0,80,0,1
100977,-110.266105191659,4,1,0,80,0,1
101068,-112.403122558745,4,1,0,80,0,1
101159,-114.624478745183,4,1,0,80,0,1
101250,-116.935540452681,4,1,0,80,0,1
101341,-119.341568697184,4,1,0,80,0,1
101432,-121.84868829887,4,1,0,80,0,1
101522,-124.463562047575,4,1,0,80,0,1
101613,-127.192965720224,4,1,0,80,0,1
101704,-130.044761406876,4,1,0,80,0,1
101795,-133.027547344504,4,1,0,80,0,1
101886,-136.15018999759,4,1,0,80,0,1
101977,-139.423150656474,4,1,0,80,0,1
102068,-142.857142857143,4,1,0,80,0,1
102159,-146.464565095444,4,1,0,80,0,1
102250,-150.25912185564,4,1,0,80,0,1
102341,-154.255286328662,4,1,0,80,0,1
102432,-158.470066589122,4,1,0,80,0,1
102522,-162.921375773266,4,1,0,80,0,1
102613,-167.629980286714,4,1,0,80,0,1
102704,-172.619150368542,4,1,0,80,0,1
102795,-177.914099514472,4,1,0,80,0,1
102886,-183.544164396837,4,1,0,80,0,1
102977,-189.542557990546,4,1,0,80,0,1
103068,-195.945879748014,4,1,0,80,0,1
103159,-202.797387158464,4,1,0,80,0,1
103250,-210.144957992023,4,1,0,80,0,1
103341,-218.04496523273,4,1,0,80,0,1
103432,-226.56265930187,4,1,0,80,0,1
103522,-235.772319386615,4,1,0,80,0,1
103613,-245.762441109175,4,1,0,80,0,1
103704,-256.637281697912,4,1,0,80,0,1
103795,-268.518369341647,4,1,0,80,0,1
103886,-281.553726082011,4,1,0,80,0,1
103977,-295.918397542694,4,1,0,80,0,1
104068,-311.827621690729,4,1,0,80,0,1
104159,-329.545754132504,4,1,0,80,0,1
104250,-349.397464073206,4,1,0,80,0,1
104341,-56.5301989976065,4,1,0,80,0,1
104401,-56.8999431569568,4,1,0,80,0,1
104462,-57.2745230893649,4,1,0,80,0,1
104522,-57.6540675232908,4,1,0,80,0,1
104583,-58.0386758127881,4,1,0,80,0,1
104644,-58.4284841197223,4,1,0,80,0,1
104704,-58.8235294117647,4,1,0,80,0,0
104727,-58.8235294117647,4,1,0,20,0,0
105045,-58.8235294117647,4,1,0,80,0,0
105068,-83.3333333333333,4,1,0,80,0,1
105158,-84.5480778417243,4,1,0,80,0,1
105249,-85.7988343370367,4,1,0,80,0,1
105340,-87.087076626177,4,1,0,80,0,1
105431,-88.4146718843112,4,1,0,80,0,1
105522,-89.7832900727514,4,1,0,80,0,1
105613,-91.1949456113344,4,1,0,80,0,1
105704,-92.6517867897082,4,1,0,80,0,1
105795,-94.1558410988363,4,1,0,80,0,1
105886,-95.7095330523301,4,1,0,80,0,1
105977,-97.3154558353267,4,1,0,80,0,1
106068,-98.9760923248989,4,1,0,80,0,1
106158,-100.694489896818,4,1,0,80,0,1
106249,-102.473505475159,4,1,0,80,0,1
106340,-104.316512991057,4,1,0,80,0,1
106431,-106.227141247043,4,1,0,80,0,1
106522,-108.208947148586,4,1,0,80,0,1
106613,-110.266105191659,4,1,0,80,0,1
106704,-112.403122558745,4,1,0,80,0,1
106795,-114.624478745183,4,1,0,80,0,1
106886,-116.935540452681,4,1,0,80,0,1
106977,-119.341568697184,4,1,0,80,0,1
107068,-121.84868829887,4,1,0,80,0,1
107158,-124.463562047575,4,1,0,80,0,1
107249,-127.192965720224,4,1,0,80,0,1
107340,-130.044761406876,4,1,0,80,0,1
107431,-133.027547344504,4,1,0,80,0,1
107522,-136.15018999759,4,1,0,80,0,1
107613,-139.423150656474,4,1,0,80,0,1
107704,-142.857142857143,4,1,0,80,0,1
107795,-146.464565095444,4,1,0,80,0,1
107886,-150.25912185564,4,1,0,80,0,1
107977,-154.255286328662,4,1,0,80,0,1
108068,-158.470066589122,4,1,0,80,0,1
108158,-162.921375773266,4,1,0,80,0,1
108249,-167.629980286714,4,1,0,80,0,1
108340,-172.619150368542,4,1,0,80,0,1
108431,-177.914099514472,4,1,0,80,0,1
108522,-183.544164396837,4,1,0,80,0,1
108613,-189.542557990546,4,1,0,80,0,1
108704,-195.945879748014,4,1,0,80,0,1
108795,-202.797387158464,4,1,0,80,0,1
108886,-210.144957992023,4,1,0,80,0,1
108977,-218.04496523273,4,1,0,80,0,1
109068,-226.56265930187,4,1,0,80,0,1
109158,-235.772319386615,4,1,0,80,0,1
109249,-245.762441109175,4,1,0,80,0,1
109340,-256.637281697912,4,1,0,80,0,1
109431,-268.518369341647,4,1,0,80,0,1
109522,-281.553726082011,4,1,0,80,0,1
109613,-295.918397542694,4,1,0,80,0,1
109704,-311.827621690729,4,1,0,80,0,1
109795,-329.545754132504,4,1,0,80,0,1
109886,-349.397464073206,4,1,0,80,0,1
109977,-371.794204471941,4,1,0,80,0,1
110037,-388.393255939504,4,1,0,80,0,1
110098,-406.54207507206,4,1,0,80,0,1
110159,-426.470149221905,4,1,0,80,0,0
110182,-448.452614254515,4,1,0,40,0,0
110500,-50,4,1,0,100,0,0
110545,-50,4,1,0,40,0,0
110704,-333.333333333333,4,1,0,40,0,0
110977,-312.5,4,1,0,40,0,0
111249,-294.117647058824,4,1,0,40,0,0
111522,-277.777777777778,4,1,0,40,0,0
111795,-263.157894736842,4,1,0,40,0,0
111977,-769.230769230769,4,1,0,40,0,0
112159,-250,4,1,0,40,0,0
112431,-263.157894736842,4,1,0,40,0,0
112704,-277.777777777778,4,1,0,40,0,0
112977,-294.117647058824,4,1,0,40,0,0
113249,-312.5,4,1,0,40,0,0
113340,-322.58064516129,4,1,0,40,0,0
113431,-769.230769230769,4,1,0,40,0,0
113613,-312.5,4,1,0,40,0,0
113886,-294.117647058824,4,1,0,40,0,0
114159,-277.777777777778,4,1,0,40,0,0
114431,-263.157894736842,4,1,0,40,0,0
114704,-250,4,1,0,40,0,0
114886,-714.285714285714,4,1,0,40,0,0
115068,-238.095238095238,4,1,0,40,0,0
115340,-250,4,1,0,40,0,0
115613,-263.157894736842,4,1,0,40,0,0
115886,-277.777777777778,4,1,0,40,0,0
116159,-294.117647058824,4,1,0,40,0,0
116249,-303.030303030303,4,1,0,40,0,0
116340,-666.666666666667,4,1,0,40,0,0
116522,-294.117647058824,4,1,0,40,0,0
116795,-277.777777777778,4,1,0,40,0,0
117068,-263.157894736842,4,1,0,40,0,0
117340,-250,4,1,0,40,0,0
117613,-238.095238095238,4,1,0,40,0,0
117795,-666.666666666667,4,1,0,40,0,0
117977,-208.333333333333,4,1,0,40,0,0
118249,-217.391304347826,4,1,0,40,0,0
118522,-227.272727272727,4,1,0,40,0,0
118795,-238.095238095238,4,1,0,40,0,0
119068,-250,4,1,0,40,0,0
119159,-256.410256410256,4,1,0,40,0,0
119249,-625,4,1,0,40,0,0
119431,-250,4,1,0,40,0,0
119704,-238.095238095238,4,1,0,40,0,0
119977,-227.272727272727,4,1,0,40,0,0
120249,-217.391304347826,4,1,0,40,0,0
120522,-208.333333333333,4,1,0,40,0,0
120704,-588.235294117647,4,1,0,40,0,0
120886,-200,4,1,0,40,0,0
121159,-208.333333333333,4,1,0,40,0,0
121431,-217.391304347826,4,1,0,40,0,0
121704,-227.272727272727,4,1,0,40,0,0
121977,-238.095238095238,4,1,0,40,0,0
122136,-66.6666666666667,4,1,0,100,0,0
122182,-66.6666666666667,4,1,0,50,0,0
122522,-224.137853745568,4,1,0,50,0,0
122886,-220.339057742053,4,1,0,50,0,0
123249,-216.66688333355,4,1,0,50,0,0
123613,-213.114649287877,4,1,0,50,0,0
123977,-209.677453173783,4,1,0,50,0,0
124340,-206.349370118548,4,1,0,50,0,0
124704,-203.124873046954,4,1,0,50,0,0
125068,-200,4,1,0,50,0,0
125431,-196.969816345343,4,1,0,50,0,0
125795,-194.029705947981,4,1,0,50,0,0
126159,-191.176442474053,4,1,0,50,0,0
126522,-188.405879017049,4,1,0,50,0,0
126886,-185.714126530749,4,1,0,50,0,0
127249,-183.098539972242,4,1,0,50,0,0
127613,-180.555605709891,4,1,0,50,0,0
127977,-178.082338149867,4,1,0,50,0,0
128340,-175.675604455836,4,1,0,50,0,0
128704,-173.333356444448,4,1,0,50,0,0
129068,-171.052744113647,4,1,0,50,0,0
129431,-168.831081126711,4,1,0,50,0,0
129795,-166.666666666667,4,1,0,50,0,0
130159,-164.557045345339,4,1,0,50,0,0
130522,-162.499898437563,4,1,0,50,0,0
130886,-160.493807346444,4,1,0,50,0,0
131249,-158.536643367065,4,1,0,50,0,0
131613,-156.626392800198,4,1,0,50,0,0
131977,-154.761867913841,4,1,0,50,0,0
132340,-152.941212456756,4,1,0,50,0,0
132704,-151.16289616016,4,1,0,50,0,0
133068,-149.425235830378,4,1,0,50,0,0
133431,-147.727289514465,4,1,0,50,0,0
133772,-144.927536231884,4,1,0,60,0,0
133886,-144.567374902236,4,1,0,50,0,0
133977,-144.209207181042,4,1,0,60,0,0
134068,-143.852602868996,4,1,0,60,0,0
134159,-143.497757847534,4,1,0,60,0,0
134250,-143.144659129623,4,1,0,60,0,0
134341,-142.793497755286,4,1,0,60,0,0
134432,-142.443852194561,4,1,0,60,0,0
134522,-142.095914742451,4,1,0,60,0,0
134613,-141.74967291263,4,1,0,60,0,0
134704,-141.405114340175,4,1,0,60,0,0
134795,-141.062425765898,4,1,0,60,0,0
134886,-140.721196130167,4,1,0,60,0,0
134977,-140.381613377806,4,1,0,60,0,0
135068,-140.043861737496,4,1,0,60,0,0
135159,-139.707536243628,4,1,0,60,0,0
135249,-139.372822299652,4,1,0,60,0,0
135341,-139.039708350308,4,1,0,60,0,0
135432,-138.708375350412,4,1,0,60,0,0
135522,-138.378426249834,4,1,0,60,0,0
135613,-138.050043140638,4,1,0,60,0,0
135704,-137.72321490055,4,1,0,60,0,0
135795,-137.398119294543,4,1,0,60,0,0
135886,-137.074366956305,4,1,0,60,0,0
135977,-136.752136752137,4,1,0,60,0,0
136068,-136.431417972656,4,1,0,60,0,0
136159,-136.112385274273,4,1,0,60,0,0
136250,-135.794656751846,4,1,0,60,0,0
136341,-135.478408128704,4,1,0,60,0,0
136432,-135.163629089376,4,1,0,60,0,0
136522,-134.85049126034,4,1,0,60,0,0
136613,-134.538619983559,4,1,0,60,0,0
136704,-134.228187919463,4,1,0,60,0,0
136795,-133.919185128542,4,1,0,60,0,0
136886,-133.611601762604,4,1,0,60,0,0
136977,-133.305605767334,4,1,0,60,0,0
137068,-133.000831255195,4,1,0,60,0,0
137159,-132.697447166511,4,1,0,60,0,0
137250,-132.395619293749,4,1,0,60,0,0
137341,-132.094986863154,4,1,0,60,0,0
137431,-131.795716639209,4,1,0,60,0,0
137522,-131.497799384327,4,1,0,60,0,0
137613,-131.201398082098,4,1,0,60,0,0
137704,-130.906158611138,4,1,0,60,0,0
137795,-130.612244897959,4,1,0,60,0,0
137886,-130.319648032695,4,1,0,60,0,0
137977,-130.0285282591,4,1,0,60,0,0
138068,-129.738537924521,4,1,0,60,0,0
138159,-129.449838187702,4,1,0,60,0,0
138250,-129.162420452094,4,1,0,60,0,0
138341,-128.876276197325,4,1,0,60,0,0
138432,-128.591562336046,4,1,0,60,0,0
138522,-128.307939053729,4,1,0,60,0,0
138613,-128.025564144648,4,1,0,60,0,0
138704,-127.744592571396,4,1,0,60,0,0
138795,-127.464689094504,4,1,0,60,0,0
138886,-127.186009538951,4,1,0,60,0,0
138977,-126.908545894572,4,1,0,60,0,0
139068,-126.63245057852,4,1,0,60,0,0
139159,-126.357394308358,4,1,0,60,0,0
139250,-126.083530338849,4,1,0,60,0,0
139341,-125.810850934271,4,1,0,60,0,0
139432,-125.539506027152,4,1,0,60,0,0
139522,-125.269172133622,4,1,0,60,0,0
139591,-125.269172133622,4,1,0,70,0,0
139613,-125,4,1,0,70,0,0
139785,-125,4,1,0,60,0,0
139967,-118.128327527326,4,1,0,60,0,0
140149,-111.972678666405,4,1,0,60,0,0
140331,-106.426908128036,4,1,0,60,0,0
140513,-101.404451655428,4,1,0,60,0,0
140694,-96.8347621302486,4,1,0,60,0,0
140876,-92.6591699220922,4,1,0,60,0,0
141057,-88.4955752212389,4,1,0,60,0,0
141149,-87.029929592787,4,1,0,60,0,0
141240,-85.302469762407,4,1,0,60,0,0
141331,-83.642252050908,4,1,0,60,0,0
141422,-82.0454252701551,4,1,0,60,0,0
141513,-80.508491633155,4,1,0,60,0,0
141603,-79.0280185937122,4,1,0,60,0,0
141694,-77.6010112963792,4,1,0,60,0,0
141785,-76.2246829243752,4,1,0,60,0,0
141846,-75.3338797550745,4,1,0,60,0,0
141906,-74.4637123437007,4,1,0,60,0,0
141967,-73.6133634755519,4,1,0,60,0,0
142028,-72.7822696568534,4,1,0,60,0,0
142088,-71.9696806129514,4,1,0,60,0,0
142149,-71.1750864421425,4,1,0,60,0,0
142209,-70.3977968305504,4,1,0,60,0,0
142270,-69.6373495746203,4,1,0,60,0,0
142331,-68.8931082090272,4,1,0,60,0,0
142391,-68.1646530828146,4,1,0,60,0,0
142452,-67.4514417071151,4,1,0,60,0,0
142500,-40,4,1,0,100,0,0
142545,-40,4,1,0,20,0,0
143954,-161.290322580645,4,1,0,40,0,0
144318,-166.666666666667,4,1,0,60,0,0
144340,-174.373693287136,4,1,0,60,0,0
144432,-176.413202058389,4,1,0,60,0,0
144522,-178.500984432929,4,1,0,60,0,0
144613,-180.638774835574,4,1,0,60,0,0
144704,-182.828391786617,4,1,0,60,0,0
144795,-185.071743061198,4,1,0,60,0,0
144886,-187.370480155592,4,1,0,60,0,0
144977,-189.727399672151,4,1,0,60,0,0
145159,-194.623714510366,4,1,0,60,0,0
145250,-197.167880563585,4,1,0,60,0,0
145341,-199.779443494382,4,1,0,60,0,0
145409,-199.779443494382,4,1,0,80,0,0
145432,-83.3333333333333,4,1,0,80,0,1
145603,-77.6916911568261,4,1,0,80,0,1
145785,-72.7400070038521,4,1,0,80,0,1
145876,-70.4935518277902,4,1,0,80,0,1
146058,-66.392694063927,4,1,0,80,0,1
146149,-64.5161290322581,4,1,0,80,0,1
146240,-62.7427289203418,4,1,0,80,0,1
146331,-61.0642140187308,4,1,0,80,0,1
146422,-59.473167539267,4,1,0,80,0,1
146512,-57.9791051918016,4,1,0,80,0,1
146603,-56.5428738090609,4,1,0,80,0,1
146694,-55.1760777170613,4,1,0,80,0,1
146785,-53.8738004372152,4,1,0,80,0,1
146876,-52.6315789473684,4,1,0,80,0,1
147058,-55.174244435175,4,1,0,80,0,1
147240,-57.9750567796948,4,1,0,80,0,1
147331,-59.4848732624693,4,1,0,80,0,1
147512,-62.7344457379382,4,1,0,80,0,1
147603,-64.5061181060472,4,1,0,80,0,1
147694,-66.3807655458734,4,1,0,80,0,1
147785,-68.3676346208063,4,1,0,80,0,1
147876,-70.4771131024461,4,1,0,80,0,1
147967,-72.7209116353459,4,1,0,80,0,1
148058,-75.1122812451603,4,1,0,80,0,1
148149,-77.6662752215224,4,1,0,80,0,1
148240,-80.400066309333,4,1,0,80,0,1
148331,-83.3333333333333,4,1,0,80,0,1
148512,-77.6916911568261,4,1,0,80,0,1
148694,-72.7400070038521,4,1,0,80,0,1
148785,-70.4935518277902,4,1,0,80,0,1
148967,-66.392694063927,4,1,0,80,0,1
149058,-64.5161290322581,4,1,0,80,0,1
149149,-62.7427289203418,4,1,0,80,0,1
149240,-61.0642140187308,4,1,0,80,0,1
149331,-59.473167539267,4,1,0,80,0,1
149421,-57.9791051918016,4,1,0,80,0,1
149512,-56.5428738090609,4,1,0,80,0,1
149603,-55.1760777170613,4,1,0,80,0,1
149694,-53.8738004372152,4,1,0,80,0,1
149785,-52.6315789473684,4,1,0,80,0,1
149967,-55.174244435175,4,1,0,80,0,1
150149,-57.9750567796948,4,1,0,80,0,1
150240,-59.4848732624693,4,1,0,80,0,1
150421,-62.7344457379382,4,1,0,80,0,1
150512,-64.5061181060472,4,1,0,80,0,1
150603,-66.3807655458734,4,1,0,80,0,1
150694,-68.3676346208063,4,1,0,80,0,1
150785,-70.4771131024461,4,1,0,80,0,1
150876,-72.7209116353459,4,1,0,80,0,1
150967,-75.1122812451603,4,1,0,80,0,1
151058,-77.6662752215224,4,1,0,80,0,1
151149,-80.400066309333,4,1,0,80,0,1
151240,-83.3333333333333,4,1,0,80,0,1
151421,-77.6916911568261,4,1,0,80,0,1
151603,-72.7400070038521,4,1,0,80,0,1
151694,-70.4935518277902,4,1,0,80,0,1
151876,-66.392694063927,4,1,0,80,0,1
151967,-64.5161290322581,4,1,0,80,0,1
152058,-62.7427289203418,4,1,0,80,0,1
152149,-61.0642140187308,4,1,0,80,0,1
152240,-59.473167539267,4,1,0,80,0,1
152330,-57.9791051918016,4,1,0,80,0,1
152421,-56.5428738090609,4,1,0,80,0,1
152512,-55.1760777170613,4,1,0,80,0,1
152603,-53.8738004372152,4,1,0,80,0,1
152694,-52.6315789473684,4,1,0,80,0,1
152876,-55.174244435175,4,1,0,80,0,1
153058,-57.9750567796948,4,1,0,80,0,1
153149,-59.4848732624693,4,1,0,80,0,1
153330,-62.7344457379382,4,1,0,80,0,1
153421,-64.5061181060472,4,1,0,80,0,1
153512,-66.3807655458734,4,1,0,80,0,1
153603,-68.3676346208063,4,1,0,80,0,1
153694,-70.4771131024461,4,1,0,80,0,1
153785,-72.7209116353459,4,1,0,80,0,1
153876,-75.1122812451603,4,1,0,80,0,1
153967,-77.6662752215224,4,1,0,80,0,1
154058,-80.400066309333,4,1,0,80,0,1
154149,-83.3333333333333,4,1,0,80,0,1
154330,-77.6916911568261,4,1,0,80,0,1
154512,-72.7400070038521,4,1,0,80,0,1
154603,-70.4935518277902,4,1,0,80,0,1
154785,-66.392694063927,4,1,0,80,0,1
154876,-64.5161290322581,4,1,0,80,0,1
154967,-62.7427289203418,4,1,0,80,0,1
155058,-61.0642140187308,4,1,0,80,0,1
155149,-59.473167539267,4,1,0,80,0,1
155239,-57.9791051918016,4,1,0,80,0,1
155330,-56.5428738090609,4,1,0,80,0,1
155421,-55.1760777170613,4,1,0,80,0,1
155512,-53.8738004372152,4,1,0,80,0,1
155603,-52.6315789473684,4,1,0,80,0,1
155785,-55.174244435175,4,1,0,80,0,1
155876,-56.5399860107251,4,1,0,80,0,1
156058,-59.4848732624693,4,1,0,80,0,1
156149,-61.0754313058809,4,1,0,80,0,1
156331,-64.5261430662114,4,1,0,80,0,1
156422,-66.4019715224535,4,1,0,80,0,1
156603,-70.4771131024461,4,1,0,80,0,1
156694,-72.7209116353459,4,1,0,80,0,1
156876,-77.6662752215224,4,1,0,80,0,1
156922,-79.0245492070389,4,1,0,80,0,1
156967,-80.400066309333,4,1,0,80,0,1
157012,-81.8243167247779,4,1,0,80,0,1
157058,-83.3333333333333,4,1,0,80,0,1
157149,-80.3981199889411,4,1,0,80,0,1
157240,-77.6626428800342,4,1,0,80,0,1
157331,-75.1071852884963,4,1,0,80,0,1
157422,-72.7145429085817,4,1,0,80,0,1
157512,-70.4935518277902,4,1,0,80,0,1
157694,-66.392694063927,4,1,0,80,0,1
157785,-64.5161290322581,4,1,0,80,0,1
157876,-62.7427289203418,4,1,0,80,0,1
157967,-61.0642140187308,4,1,0,80,0,1
158058,-59.473167539267,4,1,0,80,0,1
158148,-57.9791051918016,4,1,0,80,0,1
158239,-56.5428738090609,4,1,0,80,0,1
158330,-55.1760777170613,4,1,0,80,0,1
158421,-53.8738004372152,4,1,0,80,0,1
158512,-52.6315789473684,4,1,0,80,0,1
158694,-55.174244435175,4,1,0,80,0,1
158876,-57.9750567796948,4,1,0,80,0,1
158967,-59.4848732624693,4,1,0,80,0,1
159148,-62.7344457379382,4,1,0,80,0,1
159239,-64.5061181060472,4,1,0,80,0,1
159330,-66.3807655458734,4,1,0,80,0,1
159421,-68.3676346208063,4,1,0,80,0,1
159512,-70.4771131024461,4,1,0,80,0,1
159603,-72.7209116353459,4,1,0,80,0,1
159694,-75.1122812451603,4,1,0,80,0,1
159785,-77.6662752215224,4,1,0,80,0,1
159876,-80.400066309333,4,1,0,80,0,1
159967,-83.3333333333333,4,1,0,80,0,1
160148,-77.6916911568261,4,1,0,80,0,1
160330,-72.7400070038521,4,1,0,80,0,1
160421,-70.4935518277902,4,1,0,80,0,1
160603,-66.392694063927,4,1,0,80,0,1
160694,-64.5161290322581,4,1,0,80,0,1
160785,-62.7427289203418,4,1,0,80,0,1
160876,-61.0642140187308,4,1,0,80,0,1
160967,-59.473167539267,4,1,0,80,0,1
161057,-57.9791051918016,4,1,0,80,0,1
161148,-56.5428738090609,4,1,0,80,0,1
161239,-55.1760777170613,4,1,0,80,0,1
161330,-53.8738004372152,4,1,0,80,0,1
161421,-52.6315789473684,4,1,0,80,0,1
161603,-55.174244435175,4,1,0,80,0,1
161785,-57.9750567796948,4,1,0,80,0,1
161876,-59.4848732624693,4,1,0,80,0,1
162057,-62.7344457379382,4,1,0,80,0,1
162148,-64.5061181060472,4,1,0,80,0,1
162239,-66.3807655458734,4,1,0,80,0,1
162330,-68.3676346208063,4,1,0,80,0,1
162421,-70.4771131024461,4,1,0,80,0,1
162512,-72.7209116353459,4,1,0,80,0,1
162603,-75.1122812451603,4,1,0,80,0,1
162694,-77.6662752215224,4,1,0,80,0,1
162785,-80.400066309333,4,1,0,80,0,1
162876,-83.3333333333333,4,1,0,80,0,1
163057,-77.6916911568261,4,1,0,80,0,1
163239,-72.7400070038521,4,1,0,80,0,1
163330,-70.4935518277902,4,1,0,80,0,1
163512,-66.392694063927,4,1,0,80,0,1
163603,-64.5161290322581,4,1,0,80,0,1
163694,-62.7427289203418,4,1,0,80,0,1
163785,-61.0642140187308,4,1,0,80,0,1
163876,-59.473167539267,4,1,0,80,0,1
163966,-57.9791051918016,4,1,0,80,0,1
164057,-56.5428738090609,4,1,0,80,0,1
164148,-55.1760777170613,4,1,0,80,0,1
164239,-53.8738004372152,4,1,0,80,0,1
164330,-52.6315789473684,4,1,0,80,0,1
164512,-55.174244435175,4,1,0,80,0,1
164694,-57.9750567796948,4,1,0,80,0,1
164785,-59.4848732624693,4,1,0,80,0,1
164966,-62.7344457379382,4,1,0,80,0,1
165057,-64.5061181060472,4,1,0,80,0,1
165148,-66.3807655458734,4,1,0,80,0,1
165239,-68.3676346208063,4,1,0,80,0,1
165330,-70.4771131024461,4,1,0,80,0,1
165421,-72.7209116353459,4,1,0,80,0,1
165512,-75.1122812451603,4,1,0,80,0,1
165603,-77.6662752215224,4,1,0,80,0,1
165694,-80.400066309333,4,1,0,80,0,1
165785,-83.3333333333333,4,1,0,80,0,1
165966,-77.6916911568261,4,1,0,80,0,1
166148,-72.7400070038521,4,1,0,80,0,1
166239,-70.4935518277902,4,1,0,80,0,1
166421,-66.392694063927,4,1,0,80,0,1
166512,-64.5161290322581,4,1,0,80,0,1
166603,-62.7427289203418,4,1,0,80,0,1
166694,-61.0642140187308,4,1,0,80,0,1
166785,-59.473167539267,4,1,0,80,0,1
166875,-57.9791051918016,4,1,0,80,0,1
166966,-56.5428738090609,4,1,0,80,0,1
167057,-55.1760777170613,4,1,0,80,0,1
167148,-53.8738004372152,4,1,0,80,0,1
167421,-52.6315789473684,4,1,0,80,0,1
167512,-54.0552016985138,4,1,0,80,0,1
167694,-57.146704973963,4,1,0,80,0,1
167785,-58.828966218402,4,1,0,80,0,1
167876,-60.6132749261975,4,1,0,80,0,1
167967,-62.5092069727474,4,1,0,80,0,1
168149,-66.6806348541197,4,1,0,80,0,1
168239,-68.9561778885218,4,1,0,80,0,1
168422,-74.0977881257276,4,1,0,80,0,1
168512,-76.9184290030211,4,1,0,80,0,1
168603,-79.9974863319299,4,1,0,80,0,1
168704,-83.3333333333333,4,1,0,80,0,0
168727,-90.5195277777275,4,1,0,10,0,0
169045,-78.125,4,1,0,80,0,0
169068,-72.7400070038521,4,1,0,80,0,1
169149,-70.4935518277902,4,1,0,80,0,1
169331,-66.392694063927,4,1,0,80,0,1
169422,-64.5161290322581,4,1,0,80,0,1
169513,-62.7427289203418,4,1,0,80,0,1
169604,-61.0642140187308,4,1,0,80,0,1
169695,-59.473167539267,4,1,0,80,0,1
169785,-57.9791051918016,4,1,0,80,0,1
169876,-56.5428738090609,4,1,0,80,0,1
169967,-55.1760777170613,4,1,0,80,0,1
170058,-53.8738004372152,4,1,0,80,0,1
170149,-52.6315789473684,4,1,0,80,0,1
170331,-55.174244435175,4,1,0,80,0,1
170513,-57.9750567796948,4,1,0,80,0,1
170604,-59.4848732624693,4,1,0,80,0,1
170785,-62.7344457379382,4,1,0,80,0,1
170876,-64.5061181060472,4,1,0,80,0,1
170967,-66.3807655458734,4,1,0,80,0,1
171058,-68.3676346208063,4,1,0,80,0,1
171149,-70.4771131024461,4,1,0,80,0,1
171240,-72.7209116353459,4,1,0,80,0,1
171331,-75.1122812451603,4,1,0,80,0,1
171422,-77.6662752215224,4,1,0,80,0,1
171513,-80.400066309333,4,1,0,80,0,1
171604,-83.3333333333333,4,1,0,80,0,1
171785,-77.6916911568261,4,1,0,80,0,1
171967,-72.7400070038521,4,1,0,80,0,1
172058,-70.4935518277902,4,1,0,80,0,1
172240,-66.392694063927,4,1,0,80,0,1
172331,-64.5161290322581,4,1,0,80,0,1
172422,-62.7427289203418,4,1,0,80,0,1
172513,-61.0642140187308,4,1,0,80,0,1
172604,-59.473167539267,4,1,0,80,0,1
172694,-57.9791051918016,4,1,0,80,0,1
172785,-56.5428738090609,4,1,0,80,0,1
172876,-55.1760777170613,4,1,0,80,0,1
172967,-53.8738004372152,4,1,0,80,0,1
173058,-52.6315789473684,4,1,0,80,0,1
173240,-55.174244435175,4,1,0,80,0,1
173422,-57.9750567796948,4,1,0,80,0,1
173513,-59.4848732624693,4,1,0,80,0,1
173694,-62.7344457379382,4,1,0,80,0,1
173785,-64.5061181060472,4,1,0,80,0,1
173876,-66.3807655458734,4,1,0,80,0,1
173967,-68.3676346208063,4,1,0,80,0,1
174058,-70.4771131024461,4,1,0,80,0,1
174149,-72.7209116353459,4,1,0,80,0,1
174240,-75.1122812451603,4,1,0,80,0,1
174331,-77.6662752215224,4,1,0,80,0,1
174422,-80.400066309333,4,1,0,80,0,1
174513,-83.3333333333333,4,1,0,80,0,1
174694,-77.6916911568261,4,1,0,80,0,1
174876,-72.7400070038521,4,1,0,80,0,1
174967,-70.4935518277902,4,1,0,80,0,1
175149,-66.392694063927,4,1,0,80,0,1
175240,-64.5161290322581,4,1,0,80,0,1
175331,-62.7427289203418,4,1,0,80,0,1
175422,-61.0642140187308,4,1,0,80,0,1
175513,-59.473167539267,4,1,0,80,0,1
175603,-57.9791051918016,4,1,0,80,0,1
175694,-56.5428738090609,4,1,0,80,0,1
175785,-55.1760777170613,4,1,0,80,0,1
175876,-53.8738004372152,4,1,0,80,0,1
175967,-52.6315789473684,4,1,0,80,0,1
176149,-55.174244435175,4,1,0,80,0,1
176331,-57.9750567796948,4,1,0,80,0,1
176422,-59.4848732624693,4,1,0,80,0,1
176603,-62.7344457379382,4,1,0,80,0,1
176694,-64.5061181060472,4,1,0,80,0,1
176785,-66.3807655458734,4,1,0,80,0,1
176876,-68.3676346208063,4,1,0,80,0,1
176967,-70.4771131024461,4,1,0,80,0,1
177058,-72.7209116353459,4,1,0,80,0,1
177149,-75.1122812451603,4,1,0,80,0,1
177240,-77.6662752215224,4,1,0,80,0,1
177331,-80.400066309333,4,1,0,80,0,1
177422,-83.3333333333333,4,1,0,80,0,1
177603,-77.6916911568261,4,1,0,80,0,1
177785,-72.7400070038521,4,1,0,80,0,1
177876,-70.4935518277902,4,1,0,80,0,1
178058,-66.392694063927,4,1,0,80,0,1
178149,-64.5161290322581,4,1,0,80,0,1
178240,-62.7427289203418,4,1,0,80,0,1
178331,-61.0642140187308,4,1,0,80,0,1
178422,-59.473167539267,4,1,0,80,0,1
178512,-57.9791051918016,4,1,0,80,0,1
178603,-56.5428738090609,4,1,0,80,0,1
178694,-55.1760777170613,4,1,0,80,0,1
178785,-53.8738004372152,4,1,0,80,0,1
178876,-52.6315789473684,4,1,0,80,0,1
179058,-55.174244435175,4,1,0,80,0,1
179149,-56.5399860107251,4,1,0,80,0,1
179331,-59.4848732624693,4,1,0,80,0,1
179422,-61.0754313058809,4,1,0,80,0,1
179604,-64.5261430662114,4,1,0,80,0,1
179695,-66.4019715224535,4,1,0,80,0,1
179876,-70.4771131024461,4,1,0,80,0,1
179967,-72.7209116353459,4,1,0,80,0,1
180149,-77.6662752215224,4,1,0,80,0,1
180195,-79.0245492070389,4,1,0,80,0,1
180240,-80.400066309333,4,1,0,80,0,1
180285,-81.8243167247779,4,1,0,80,0,1
180331,-83.3333333333333,4,1,0,80,0,1
180422,-80.3981199889411,4,1,0,80,0,1
180513,-77.6626428800342,4,1,0,80,0,1
180604,-75.1071852884963,4,1,0,80,0,1
180695,-72.7145429085817,4,1,0,80,0,1
180785,-70.4935518277902,4,1,0,80,0,1
180967,-66.392694063927,4,1,0,80,0,1
181058,-64.5161290322581,4,1,0,80,0,1
181149,-62.7427289203418,4,1,0,80,0,1
181240,-61.0642140187308,4,1,0,80,0,1
181331,-59.473167539267,4,1,0,80,0,1
181421,-57.9791051918016,4,1,0,80,0,1
181512,-56.5428738090609,4,1,0,80,0,1
181603,-55.1760777170613,4,1,0,80,0,1
181694,-53.8738004372152,4,1,0,80,0,1
181785,-52.6315789473684,4,1,0,80,0,1
181967,-55.174244435175,4,1,0,80,0,1
182149,-57.9750567796948,4,1,0,80,0,1
182240,-59.4848732624693,4,1,0,80,0,1
182421,-62.7344457379382,4,1,0,80,0,1
182512,-64.5061181060472,4,1,0,80,0,1
182603,-66.3807655458734,4,1,0,80,0,1
182694,-68.3676346208063,4,1,0,80,0,1
182785,-70.4771131024461,4,1,0,80,0,1
182876,-72.7209116353459,4,1,0,80,0,1
182967,-75.1122812451603,4,1,0,80,0,1
183058,-77.6662752215224,4,1,0,80,0,1
183149,-80.400066309333,4,1,0,80,0,1
183240,-83.3333333333333,4,1,0,80,0,1
183421,-77.6916911568261,4,1,0,80,0,1
183603,-72.7400070038521,4,1,0,80,0,1
183694,-70.4935518277902,4,1,0,80,0,1
183876,-66.392694063927,4,1,0,80,0,1
183967,-64.5161290322581,4,1,0,80,0,1
184058,-62.7427289203418,4,1,0,80,0,1
184149,-61.0642140187308,4,1,0,80,0,1
184240,-59.473167539267,4,1,0,80,0,1
184330,-57.9791051918016,4,1,0,80,0,1
184421,-56.5428738090609,4,1,0,80,0,1
184512,-55.1760777170613,4,1,0,80,0,1
184603,-53.8738004372152,4,1,0,80,0,1
184694,-52.6315789473684,4,1,0,80,0,1
184876,-55.174244435175,4,1,0,80,0,1
185058,-57.9750567796948,4,1,0,80,0,1
185149,-59.4848732624693,4,1,0,80,0,1
185330,-62.7344457379382,4,1,0,80,0,1
185421,-64.5061181060472,4,1,0,80,0,1
185512,-66.3807655458734,4,1,0,80,0,1
185603,-68.3676346208063,4,1,0,80,0,1
185694,-70.4771131024461,4,1,0,80,0,1
185785,-72.7209116353459,4,1,0,80,0,1
185876,-75.1122812451603,4,1,0,80,0,1
185967,-77.6662752215224,4,1,0,80,0,1
186058,-80.400066309333,4,1,0,80,0,1
186149,-83.3333333333333,4,1,0,80,0,1
186330,-77.6916911568261,4,1,0,80,0,1
186512,-72.7400070038521,4,1,0,80,0,1
186603,-70.4935518277902,4,1,0,80,0,1
186785,-66.392694063927,4,1,0,80,0,1
186876,-64.5161290322581,4,1,0,80,0,1
186967,-62.7427289203418,4,1,0,80,0,1
187058,-61.0642140187308,4,1,0,80,0,1
187149,-59.473167539267,4,1,0,80,0,1
187239,-57.9791051918016,4,1,0,80,0,1
187330,-56.5428738090609,4,1,0,80,0,1
187421,-55.1760777170613,4,1,0,80,0,1
187512,-53.8738004372152,4,1,0,80,0,1
187603,-52.6315789473684,4,1,0,80,0,1
187785,-55.174244435175,4,1,0,80,0,1
187967,-57.9750567796948,4,1,0,80,0,1
188058,-59.4848732624693,4,1,0,80,0,1
188239,-62.7344457379382,4,1,0,80,0,1
188330,-64.5061181060472,4,1,0,80,0,1
188421,-66.3807655458734,4,1,0,80,0,1
188512,-68.3676346208063,4,1,0,80,0,1
188603,-70.4771131024461,4,1,0,80,0,1
188694,-72.7209116353459,4,1,0,80,0,1
188785,-75.1122812451603,4,1,0,80,0,1
188876,-77.6662752215224,4,1,0,80,0,1
188967,-80.400066309333,4,1,0,80,0,1
189058,-83.3333333333333,4,1,0,80,0,1
189239,-77.6916911568261,4,1,0,80,0,1
189421,-72.7400070038521,4,1,0,80,0,1
189512,-70.4935518277902,4,1,0,80,0,1
189694,-66.392694063927,4,1,0,80,0,1
189785,-64.5161290322581,4,1,0,80,0,1
189876,-62.7427289203418,4,1,0,80,0,1
189967,-61.0642140187308,4,1,0,80,0,1
190058,-59.473167539267,4,1,0,80,0,1
190148,-57.9791051918016,4,1,0,80,0,1
190239,-56.5428738090609,4,1,0,80,0,1
190330,-55.1760777170613,4,1,0,80,0,1
190421,-53.8738004372152,4,1,0,80,0,1
190694,-52.6315789473684,4,1,0,80,0,1
190785,-54.0552016985138,4,1,0,80,0,1
190967,-57.146704973963,4,1,0,80,0,1
191058,-58.828966218402,4,1,0,80,0,1
191149,-60.6132749261975,4,1,0,80,0,1
191240,-62.5092069727474,4,1,0,80,0,1
191422,-66.6806348541197,4,1,0,80,0,1
191512,-68.9561778885218,4,1,0,80,0,1
191695,-74.0977881257276,4,1,0,80,0,1
191785,-76.9184290030211,4,1,0,80,0,1
191876,-79.9974863319299,4,1,0,80,0,1
191977,-43.4782608695652,4,1,0,80,0,0

[HitObjects]
486,122,5977,5,0,0:0:0:0:
401,153,6250,1,8,0:0:0:0:
405,165,6522,1,8,0:0:0:0:
367,143,6795,1,8,0:0:0:0:
295,130,7068,1,0,0:0:0:0:
453,156,7432,1,8,0:0:0:0:
386,153,7704,1,0,0:0:0:0:
344,55,7977,1,0,0:0:0:0:
344,55,8250,1,0,0:0:0:0:
481,173,8522,1,8,0:0:0:0:
491,124,8613,1,8,0:0:0:0:
401,153,8886,1,8,0:0:0:0:
486,122,9159,1,0,0:0:0:0:
405,165,9432,1,8,0:0:0:0:
367,143,9704,1,8,0:0:0:0:
295,130,9977,1,0,0:0:0:0:
386,153,10341,1,0,0:0:0:0:
453,156,10613,1,8,0:0:0:0:
344,55,10886,1,0,0:0:0:0:
344,55,11159,1,0,0:0:0:0:
481,173,11432,1,8,0:0:0:0:
491,124,11522,1,8,0:0:0:0:
486,122,11795,1,0,0:0:0:0:
401,153,12068,1,8,0:0:0:0:
405,165,12341,1,0,0:0:0:0:
367,143,12613,1,8,0:0:0:0:
295,130,12886,1,0,0:0:0:0:
386,153,13250,1,8,0:0:0:0:
453,156,13522,1,0,0:0:0:0:
344,55,13795,1,8,0:0:0:0:
344,55,14068,1,0,0:0:0:0:
481,173,14341,1,8,0:0:0:0:
491,124,14432,1,8,0:0:0:0:
486,122,14704,1,8,0:0:0:0:
401,153,14977,1,0,0:0:0:0:
405,165,15250,1,0,0:0:0:0:
367,143,15522,1,8,0:0:0:0:
295,130,15795,1,0,0:0:0:0:
453,156,16159,1,0,0:0:0:0:
386,153,16432,1,8,0:0:0:0:
344,55,16704,1,8,0:0:0:0:
344,55,16977,1,0,0:0:0:0:
481,173,17250,1,8,0:0:0:0:
491,124,17341,1,8,0:0:0:0:
396,116,17432,1,4,0:0:0:0:
336,157,17795,1,8,0:0:0:0:
341,163,18159,1,8,0:0:0:0:
341,163,18522,1,8,0:0:0:0:
341,163,18886,1,8,0:0:0:0:
341,163,19250,1,8,0:0:0:0:
341,163,19613,1,8,0:0:0:0:
341,163,19977,1,8,0:0:0:0:
341,163,20341,1,8,0:0:0:0:
341,163,20704,1,8,0:0:0:0:
341,163,21068,1,8,0:0:0:0:
341,163,21432,1,8,0:0:0:0:
334,332,21795,1,8,0:0:0:0:
334,332,22159,1,8,0:0:0:0:
334,332,22522,1,8,0:0:0:0:
334,332,22886,1,8,0:0:0:0:
334,332,23250,1,8,0:0:0:0:
200,97,23613,1,8,0:0:0:0:
193,87,23977,1,8,0:0:0:0:
233,100,24341,5,8,0:0:0:0:
233,100,24704,5,8,0:0:0:0:
233,100,25068,5,8,0:0:0:0:
233,100,25432,5,8,0:0:0:0:
233,100,25795,5,8,0:0:0:0:
226,74,26159,5,8,0:0:0:0:
364,249,26522,5,8,0:0:0:0:
364,249,26886,5,8,0:0:0:0:
364,249,27250,5,8,0:0:0:0:
364,249,27613,5,8,0:0:0:0:
364,249,27977,5,8,0:0:0:0:
364,249,28341,5,8,0:0:0:0:
364,249,28704,5,8,0:0:0:0:
471,119,29068,5,4,0:0:0:0:
365,156,29432,1,8,0:0:0:0:
365,156,29795,1,8,0:0:0:0:
365,156,30159,1,8,0:0:0:0:
246,198,30522,5,8,0:0:0:0:
255,200,30886,1,8,0:0:0:0:
255,200,31250,1,8,0:0:0:0:
255,200,31613,1,8,0:0:0:0:
436,133,31977,1,4,0:0:0:0:
329,303,32341,1,8,0:0:0:0:
329,303,32704,1,8,0:0:0:0:
329,303,33068,1,8,0:0:0:0:
353,327,33432,1,8,0:0:0:0:
353,327,33795,1,8,0:0:0:0:
353,327,34159,1,8,0:0:0:0:
353,327,34522,1,8,0:0:0:0:
476,132,34886,1,4,0:0:0:0:
111,222,35068,1,0,0:0:0:0:
436,178,35250,1,8,0:0:0:0:
424,182,35432,1,0,0:0:0:0:
408,176,35613,1,8,0:0:0:0:
424,184,35795,1,0,0:0:0:0:
448,184,35977,1,8,0:0:0:0:
432,184,36159,1,0,0:0:0:0:
486,156,36341,1,8,0:0:0:0:
486,156,36432,1,8,0:0:0:0:
489,148,36522,1,0,0:0:0:0:
489,148,36613,1,0,0:0:0:0:
487,148,36704,1,8,0:0:0:0:
487,148,36795,1,8,0:0:0:0:
479,141,36886,1,0,0:0:0:0:
479,141,36977,1,0,0:0:0:0:
406,158,37068,1,8,0:0:0:0:
406,158,37128,1,8,0:0:0:0:
476,143,37189,1,0,0:0:0:0:
476,143,37250,1,0,0:0:0:0:
480,150,37310,1,8,0:0:0:0:
480,150,37371,1,8,0:0:0:0:
440,143,37432,1,0,0:0:0:0:
267,56,37492,1,0,0:0:0:0:
421,143,37553,1,8,0:0:0:0:
419,143,37613,1,8,0:0:0:0:
346,128,37674,1,0,0:0:0:0:
346,128,37735,1,0,0:0:0:0:
352,142,37795,1,12,0:0:0:0:
336,147,39250,1,8,0:0:0:0:
356,131,39613,1,8,0:0:0:0:
358,102,39977,1,8,0:0:0:0:
358,102,40068,1,8,0:0:0:0:
451,152,40159,1,0,0:0:0:0:
451,152,40219,1,0,0:0:0:0:
451,152,40280,1,0,0:0:0:0:
388,128,40341,1,8,0:0:0:0:
306,186,40522,1,8,0:0:0:0:
235,77,40704,1,4,0:0:0:0:
382,194,41068,1,8,0:0:0:0:
456,153,41159,1,0,0:0:0:0:
456,153,41250,1,8,0:0:0:0:
456,153,41341,1,0,0:0:0:0:
452,136,41432,1,8,0:0:0:0:
466,160,41522,1,0,0:0:0:0:
466,160,41613,1,0,0:0:0:0:
466,160,41704,1,0,0:0:0:0:
459,148,41795,1,8,0:0:0:0:
474,152,41886,1,0,0:0:0:0:
474,152,41977,1,8,0:0:0:0:
445,146,42068,1,0,0:0:0:0:
449,158,42159,1,8,0:0:0:0:
435,150,42250,1,0,0:0:0:0:
286,111,42341,1,0,0:0:0:0:
463,167,42432,1,0,0:0:0:0:
349,143,42522,1,8,0:0:0:0:
476,190,42613,1,0,0:0:0:0:
450,160,42704,1,8,0:0:0:0:
444,162,42795,1,0,0:0:0:0:
431,159,42886,1,8,0:0:0:0:
421,158,42977,1,0,0:0:0:0:
421,158,43068,1,0,0:0:0:0:
421,158,43159,1,0,0:0:0:0:
285,141,43250,1,8,0:0:0:0:
456,201,43613,1,8,0:0:0:0:
461,163,43704,1,0,0:0:0:0:
461,163,43795,1,0,0:0:0:0:
461,163,43886,1,0,0:0:0:0:
389,153,43977,1,8,0:0:0:0:
389,153,44068,1,8,0:0:0:0:
451,160,44159,1,0,0:0:0:0:
366,147,44250,1,8,0:0:0:0:
298,92,44341,1,0,0:0:0:0:
384,128,44432,1,8,0:0:0:0:
384,128,44477,1,8,0:0:0:0:
376,128,44522,1,0,0:0:0:0:
416,200,44613,1,0,0:0:0:0:
440,128,44704,1,0,0:0:0:0:
440,128,44795,1,8,0:0:0:0:
440,120,44886,1,0,0:0:0:0:
272,120,44977,1,8,0:0:0:0:
296,216,45068,1,0,0:0:0:0:
344,144,45159,1,0,0:0:0:0:
448,152,45250,1,8,0:0:0:0:
448,152,45295,1,8,0:0:0:0:
448,152,45341,1,8,0:0:0:0:
448,152,45386,1,8,0:0:0:0:
192,176,45432,1,0,0:0:0:0:
472,168,45522,1,8,0:0:0:0:
512,184,45613,1,0,0:0:0:0:
448,176,45704,1,8,0:0:0:0:
368,136,45795,1,0,0:0:0:0:
368,120,45886,1,0,0:0:0:0:
448,160,45977,1,8,0:0:0:0:
440,160,46068,1,8,0:0:0:0:
384,160,46159,1,4,0:0:0:0:
304,160,46432,1,8,0:0:0:0:
312,120,46477,1,8,0:0:0:0:
376,168,46522,1,0,0:0:0:0:
328,144,46704,1,8,0:0:0:0:
464,136,46886,1,0,0:0:0:0:
264,80,46977,1,0,0:0:0:0:
360,160,47068,1,8,0:0:0:0:
368,184,47159,1,8,0:0:0:0:
376,176,47250,1,0,0:0:0:0:
376,176,47341,1,8,0:0:0:0:
352,208,47432,1,0,0:0:0:0:
440,160,47492,1,8,0:0:0:0:
440,160,47553,1,8,0:0:0:0:
344,136,47613,1,0,0:0:0:0:
440,184,47704,1,0,0:0:0:0:
424,144,47795,1,8,0:0:0:0:
464,168,47886,1,0,0:0:0:0:
376,152,47977,1,8,0:0:0:0:
384,144,48068,1,0,0:0:0:0:
432,168,48159,1,8,0:0:0:0:
432,168,48204,1,8,0:0:0:0:
432,168,48250,1,8,0:0:0:0:
403,158,48341,1,0,0:0:0:0:
355,163,48432,1,0,0:0:0:0:
369,150,48522,1,8,0:0:0:0:
369,149,48613,1,8,0:0:0:0:
432,96,48704,1,0,0:0:0:0:
450,141,48765,1,8,0:0:0:0:
450,141,48825,1,0,0:0:0:0:
484,157,48886,1,8,0:0:0:0:
486,162,48947,1,0,0:0:0:0:
479,162,49007,1,8,0:0:0:0:
416,159,49068,1,0,0:0:0:0:
421,188,49432,1,0,0:0:0:0:
362,153,49522,1,8,0:0:0:0:
429,163,49613,1,0,0:0:0:0:
429,163,49704,1,0,0:0:0:0:
447,148,49795,1,8,0:0:0:0:
446,148,49841,1,8,0:0:0:0:
471,160,49886,1,0,0:0:0:0:
506,174,49977,1,8,0:0:0:0:
506,174,50022,1,8,0:0:0:0:
466,163,50068,1,0,0:0:0:0:
402,117,50159,1,8,0:0:0:0:
421,150,50250,1,0,0:0:0:0:
421,150,50341,1,8,0:0:0:0:
490,176,50401,1,8,0:0:0:0:
490,176,50462,1,8,0:0:0:0:
336,143,50522,1,0,0:0:0:0:
308,56,50613,1,8,0:0:0:0:
458,139,50704,1,0,0:0:0:0:
465,173,50795,1,0,0:0:0:0:
464,171,50841,1,0,0:0:0:0:
464,153,50886,1,8,0:0:0:0:
418,154,50977,1,0,0:0:0:0:
418,154,51068,1,0,0:0:0:0:
431,163,51159,1,8,0:0:0:0:
373,147,51250,1,0,0:0:0:0:
434,133,51341,1,8,0:0:0:0:
471,157,51432,1,0,0:0:0:0:
210,168,51492,1,0,0:0:0:0:
210,168,51553,1,0,0:0:0:0:
471,156,51613,1,8,0:0:0:0:
466,149,51704,1,0,0:0:0:0:
292,126,51795,5,8,0:0:0:0:
378,178,51856,1,8,0:0:0:0:
385,175,51916,1,8,0:0:0:0:
303,129,51977,1,0,0:0:0:0:
206,179,52341,1,4,0:0:0:0:
458,174,52704,1,8,0:0:0:0:
461,189,52795,1,0,0:0:0:0:
459,188,52886,1,0,0:0:0:0:
459,188,52977,1,0,0:0:0:0:
447,158,53068,1,8,0:0:0:0:
409,154,53159,1,0,0:0:0:0:
416,165,53250,1,8,0:0:0:0:
416,163,53341,1,8,0:0:0:0:
418,169,53432,1,0,0:0:0:0:
462,168,53522,1,8,0:0:0:0:
442,167,53613,1,0,0:0:0:0:
404,144,53704,1,0,0:0:0:0:
464,149,53795,1,8,0:0:0:0:
466,163,53886,1,0,0:0:0:0:
403,163,53977,1,8,0:0:0:0:
403,163,54068,1,8,0:0:0:0:
466,144,54159,1,0,0:0:0:0:
466,144,54250,1,0,0:0:0:0:
466,144,54341,1,8,0:0:0:0:
466,144,54432,1,0,0:0:0:0:
455,156,54522,1,8,0:0:0:0:
426,162,54613,1,0,0:0:0:0:
435,161,54704,1,8,0:0:0:0:
435,160,54795,1,8,0:0:0:0:
261,145,54886,1,0,0:0:0:0:
302,154,55068,1,8,0:0:0:0:
458,174,55250,1,8,0:0:0:0:
461,189,55341,1,8,0:0:0:0:
459,188,55432,1,0,0:0:0:0:
459,188,55523,1,0,0:0:0:0:
447,158,55614,1,8,0:0:0:0:
409,154,55705,1,0,0:0:0:0:
416,165,55795,1,8,0:0:0:0:
416,163,55886,1,8,0:0:0:0:
418,169,55977,1,0,0:0:0:0:
462,168,56068,1,8,0:0:0:0:
280,146,56113,1,8,0:0:0:0:
442,167,56159,1,0,0:0:0:0:
404,144,56250,1,0,0:0:0:0:
464,149,56341,1,8,0:0:0:0:
466,163,56432,1,0,0:0:0:0:
403,163,56523,1,8,0:0:0:0:
403,163,56614,1,8,0:0:0:0:
466,144,56705,1,0,0:0:0:0:
466,144,56795,1,0,0:0:0:0:
466,144,56886,1,8,0:0:0:0:
336,158,56932,1,8,0:0:0:0:
466,144,56977,1,8,0:0:0:0:
336,158,57022,1,8,0:0:0:0:
455,156,57068,1,0,0:0:0:0:
426,162,57159,1,8,0:0:0:0:
435,161,57250,1,0,0:0:0:0:
435,160,57341,1,8,0:0:0:0:
275,178,57432,1,0,0:0:0:0:
281,168,57522,1,0,0:0:0:0:
302,154,57613,1,8,0:0:0:0:
297,179,57704,1,0,0:0:0:0:
348,130,57795,1,12,0:0:0:0:
386,158,58068,1,8,0:0:0:0:
386,158,58113,1,8,0:0:0:0:
354,158,58159,1,0,0:0:0:0:
397,185,58341,1,8,0:0:0:0:
458,174,58522,1,8,0:0:0:0:
461,189,58613,1,0,0:0:0:0:
459,188,58704,1,0,0:0:0:0:
459,188,58795,1,0,0:0:0:0:
447,158,58886,1,8,0:0:0:0:
409,154,58977,1,0,0:0:0:0:
416,165,59068,1,8,0:0:0:0:
438,188,59128,1,8,0:0:0:0:
438,188,59189,1,8,0:0:0:0:
418,169,59250,1,0,0:0:0:0:
462,168,59341,1,8,0:0:0:0:
442,167,59432,1,0,0:0:0:0:
404,144,59522,1,0,0:0:0:0:
464,149,59613,1,8,0:0:0:0:
466,163,59704,1,0,0:0:0:0:
403,163,59795,1,8,0:0:0:0:
270,112,59841,1,8,0:0:0:0:
270,112,59886,1,8,0:0:0:0:
466,144,59977,1,0,0:0:0:0:
466,144,60068,1,0,0:0:0:0:
466,144,60159,1,8,0:0:0:0:
466,144,60250,1,8,0:0:0:0:
380,139,60341,1,0,0:0:0:0:
464,149,60401,1,8,0:0:0:0:
473,165,60462,1,0,0:0:0:0:
481,166,60522,1,8,0:0:0:0:
477,167,60583,1,0,0:0:0:0:
423,168,60644,1,8,0:0:0:0:
309,148,60704,1,0,0:0:0:0:
302,154,60795,1,8,0:0:0:0:
389,117,60977,1,8,0:0:0:0:
389,116,61022,1,8,0:0:0:0:
440,144,61068,1,0,0:0:0:0:
390,117,61159,1,8,0:0:0:0:
390,119,61250,1,0,0:0:0:0:
389,117,61341,1,0,0:0:0:0:
446,162,61432,1,8,0:0:0:0:
471,178,61492,1,0,0:0:0:0:
471,178,61553,1,0,0:0:0:0:
441,159,61613,1,8,0:0:0:0:
437,159,61704,1,8,0:0:0:0:
367,166,61795,1,0,0:0:0:0:
185,175,61886,1,0,0:0:0:0:
355,143,61977,1,8,0:0:0:0:
355,143,62038,1,8,0:0:0:0:
355,143,62098,1,8,0:0:0:0:
347,137,62159,1,0,0:0:0:0:
431,229,62250,1,0,0:0:0:0:
437,172,62341,1,8,0:0:0:0:
436,172,62432,1,8,0:0:0:0:
434,161,62522,1,0,0:0:0:0:
413,126,62613,1,8,0:0:0:0:
413,126,62704,1,8,0:0:0:0:
413,126,62795,1,8,0:0:0:0:
267,93,62886,1,0,0:0:0:0:
436,153,62947,1,8,0:0:0:0:
436,153,63007,1,8,0:0:0:0:
363,163,63068,1,0,0:0:0:0:
413,126,63159,1,8,0:0:0:0:
409,102,63250,1,0,0:0:0:0:
409,102,63310,1,0,0:0:0:0:
409,102,63371,1,0,0:0:0:0:
388,114,63432,1,8,0:0:0:0:
388,114,63477,1,8,0:0:0:0:
388,114,63522,1,8,0:0:0:0:
388,114,63568,1,8,0:0:0:0:
326,139,63613,1,0,0:0:0:0:
409,115,63977,1,4,0:0:0:0:
458,174,64341,1,8,0:0:0:0:
461,189,64432,1,0,0:0:0:0:
459,188,64523,1,0,0:0:0:0:
459,188,64614,1,0,0:0:0:0:
447,158,64705,1,8,0:0:0:0:
409,154,64796,1,0,0:0:0:0:
416,165,64887,1,8,0:0:0:0:
416,163,64978,1,8,0:0:0:0:
418,169,65069,1,0,0:0:0:0:
462,168,65159,1,8,0:0:0:0:
442,167,65250,1,0,0:0:0:0:
404,144,65341,1,0,0:0:0:0:
464,149,65432,1,8,0:0:0:0:
466,163,65523,1,0,0:0:0:0:
403,163,65614,1,8,0:0:0:0:
403,163,65705,1,8,0:0:0:0:
466,144,65796,1,0,0:0:0:0:
466,144,65887,1,0,0:0:0:0:
466,144,65978,1,8,0:0:0:0:
466,144,66069,1,0,0:0:0:0:
455,156,66159,1,8,0:0:0:0:
426,162,66250,1,0,0:0:0:0:
435,161,66341,1,8,0:0:0:0:
435,160,66432,1,8,0:0:0:0:
261,145,66523,1,0,0:0:0:0:
341,212,66613,1,0,0:0:0:0:
302,154,66705,1,8,0:0:0:0:
349,163,66795,1,8,0:0:0:0:
458,174,66886,1,0,0:0:0:0:
461,189,66978,1,8,0:0:0:0:
459,188,67069,1,0,0:0:0:0:
459,188,67160,1,0,0:0:0:0:
447,158,67251,1,8,0:0:0:0:
409,154,67342,1,0,0:0:0:0:
416,165,67433,1,8,0:0:0:0:
416,163,67522,1,8,0:0:0:0:
418,169,67613,1,0,0:0:0:0:
462,168,67704,1,8,0:0:0:0:
442,167,67795,1,0,0:0:0:0:
404,144,67886,1,0,0:0:0:0:
464,149,67977,1,8,0:0:0:0:
466,163,68068,1,0,0:0:0:0:
403,163,68159,1,8,0:0:0:0:
403,163,68251,1,8,0:0:0:0:
466,144,68342,1,0,0:0:0:0:
466,144,68433,1,0,0:0:0:0:
466,144,68522,1,8,0:0:0:0:
336,158,68569,1,8,0:0:0:0:
466,144,68613,1,8,0:0:0:0:
336,158,68659,1,8,0:0:0:0:
455,156,68705,1,0,0:0:0:0:
426,162,68796,1,8,0:0:0:0:
435,161,68887,1,0,0:0:0:0:
435,160,68978,1,8,0:0:0:0:
301,153,69068,1,0,0:0:0:0:
281,168,69159,1,0,0:0:0:0:
302,154,69251,1,8,0:0:0:0:
182,105,69341,1,0,0:0:0:0:
348,130,69432,1,12,0:0:0:0:
386,158,69705,1,8,0:0:0:0:
386,158,69750,1,8,0:0:0:0:
354,158,69796,1,0,0:0:0:0:
397,185,69978,1,8,0:0:0:0:
458,174,70159,1,8,0:0:0:0:
461,189,70250,1,0,0:0:0:0:
459,188,70341,1,0,0:0:0:0:
459,188,70432,1,0,0:0:0:0:
447,158,70523,1,8,0:0:0:0:
409,154,70614,1,0,0:0:0:0:
416,165,70705,1,8,0:0:0:0:
438,188,70765,1,8,0:0:0:0:
438,188,70826,1,8,0:0:0:0:
418,169,70887,1,0,0:0:0:0:
462,168,70977,1,8,0:0:0:0:
442,167,71068,1,0,0:0:0:0:
404,144,71159,1,0,0:0:0:0:
464,149,71250,1,8,0:0:0:0:
466,163,71341,1,0,0:0:0:0:
403,163,71432,1,8,0:0:0:0:
270,112,71523,1,8,0:0:0:0:
466,144,71614,1,0,0:0:0:0:
466,144,71705,1,0,0:0:0:0:
466,144,71796,1,8,0:0:0:0:
466,144,71887,1,8,0:0:0:0:
380,139,71978,1,0,0:0:0:0:
464,149,72038,1,8,0:0:0:0:
473,165,72099,1,0,0:0:0:0:
481,166,72159,1,8,0:0:0:0:
477,167,72220,1,0,0:0:0:0:
423,168,72281,1,8,0:0:0:0:
309,148,72341,1,0,0:0:0:0:
302,154,72432,1,8,0:0:0:0:
389,117,72614,1,8,0:0:0:0:
389,116,72659,1,8,0:0:0:0:
440,144,72705,1,0,0:0:0:0:
390,117,72796,1,8,0:0:0:0:
390,119,72887,1,0,0:0:0:0:
389,117,72978,1,0,0:0:0:0:
446,162,73069,1,8,0:0:0:0:
471,178,73129,1,8,0:0:0:0:
471,178,73190,1,8,0:0:0:0:
441,159,73250,1,8,0:0:0:0:
437,159,73341,1,8,0:0:0:0:
367,166,73432,1,0,0:0:0:0:
185,175,73523,1,0,0:0:0:0:
355,143,73614,1,8,0:0:0:0:
355,143,73675,1,8,0:0:0:0:
355,143,73735,1,8,0:0:0:0:
347,137,73796,1,0,0:0:0:0:
431,229,73887,1,0,0:0:0:0:
437,172,73978,1,8,0:0:0:0:
436,172,74069,1,8,0:0:0:0:
434,161,74159,1,0,0:0:0:0:
413,126,74250,1,8,0:0:0:0:
413,126,74341,1,8,0:0:0:0:
413,126,74432,1,8,0:0:0:0:
267,93,74523,1,0,0:0:0:0:
436,153,74584,1,8,0:0:0:0:
436,153,74644,1,8,0:0:0:0:
363,163,74705,1,0,0:0:0:0:
413,126,74796,1,8,0:0:0:0:
409,102,74887,1,0,0:0:0:0:
409,102,74947,1,0,0:0:0:0:
409,102,75008,1,0,0:0:0:0:
388,114,75069,1,8,0:0:0:0:
388,114,75114,1,8,0:0:0:0:
388,114,75159,1,8,0:0:0:0:
388,114,75205,1,8,0:0:0:0:
326,139,75250,1,0,0:0:0:0:
449,166,75613,1,8,0:0:0:0:
473,163,75704,1,0,0:0:0:0:
473,163,75795,1,0,0:0:0:0:
473,163,75886,1,0,0:0:0:0:
460,163,75977,1,8,0:0:0:0:
450,154,76068,1,0,0:0:0:0:
451,153,76159,1,0,0:0:0:0:
451,155,76250,1,0,0:0:0:0:
476,154,76341,1,8,0:0:0:0:
479,168,76432,1,0,0:0:0:0:
479,167,76522,1,0,0:0:0:0:
473,163,76613,1,0,0:0:0:0:
449,158,76704,1,8,0:0:0:0:
428,158,77068,1,8,0:0:0:0:
428,158,77159,1,8,0:0:0:0:
434,163,77250,1,0,0:0:0:0:
434,163,77341,1,0,0:0:0:0:
441,156,77432,1,8,0:0:0:0:
441,155,77522,1,8,0:0:0:0:
406,163,77613,1,0,0:0:0:0:
406,163,77704,1,0,0:0:0:0:
417,154,77795,1,8,0:0:0:0:
416,153,77886,1,8,0:0:0:0:
415,167,77977,1,0,0:0:0:0:
415,165,78068,1,0,0:0:0:0:
436,132,78159,1,8,0:0:0:0:
445,163,78522,1,8,0:0:0:0:
442,158,78613,1,8,0:0:0:0:
495,168,78704,1,0,0:0:0:0:
460,165,78795,1,0,0:0:0:0:
466,168,78886,1,8,0:0:0:0:
466,168,78977,1,0,0:0:0:0:
466,168,79068,1,0,0:0:0:0:
453,179,79159,1,0,0:0:0:0:
466,168,79250,1,8,0:0:0:0:
466,168,79341,1,8,0:0:0:0:
466,168,79432,1,0,0:0:0:0:
436,177,79522,1,0,0:0:0:0:
466,133,79613,1,8,0:0:0:0:
413,159,79977,1,8,0:0:0:0:
413,151,80068,1,0,0:0:0:0:
412,150,80159,1,0,0:0:0:0:
411,148,80250,1,0,0:0:0:0:
451,149,80341,1,8,0:0:0:0:
445,149,80432,1,8,0:0:0:0:
454,157,80522,1,0,0:0:0:0:
454,157,80613,1,0,0:0:0:0:
466,163,80704,1,8,0:0:0:0:
361,158,80750,1,0,0:0:0:0:
452,159,80795,1,0,0:0:0:0:
452,159,80886,1,0,0:0:0:0:
452,159,80977,1,0,0:0:0:0:
423,144,81068,1,8,0:0:0:0:
380,156,81432,1,8,0:0:0:0:
380,156,81492,1,8,0:0:0:0:
283,112,81553,1,8,0:0:0:0:
351,159,81613,1,0,0:0:0:0:
444,178,81704,1,8,0:0:0:0:
256,97,81765,1,8,0:0:0:0:
256,97,81825,1,8,0:0:0:0:
406,158,81886,1,0,0:0:0:0:
257,56,81977,5,8,0:0:0:0:
257,56,82038,1,8,0:0:0:0:
257,56,82098,1,8,0:0:0:0:
441,162,82159,1,0,0:0:0:0:
465,166,82219,1,8,0:0:0:0:
463,163,82280,1,8,0:0:0:0:
452,154,82341,1,0,0:0:0:0:
445,152,82432,1,8,0:0:0:0:
251,78,82492,1,8,0:0:0:0:
254,83,82553,1,8,0:0:0:0:
441,152,82613,1,0,0:0:0:0:
477,149,82704,1,8,0:0:0:0:
323,172,82765,1,8,0:0:0:0:
323,172,82825,1,8,0:0:0:0:
443,128,82886,1,0,0:0:0:0:
209,48,82947,1,8,0:0:0:0:
217,54,83007,1,8,0:0:0:0:
217,54,83068,1,0,0:0:0:0:
230,62,83159,5,8,0:0:0:0:
349,143,83219,1,8,0:0:0:0:
235,184,83280,1,8,0:0:0:0:
235,184,83341,1,0,0:0:0:0:
335,148,83432,1,8,0:0:0:0:
335,146,83492,1,8,0:0:0:0:
385,147,83553,1,8,0:0:0:0:
352,193,83613,1,0,0:0:0:0:
341,133,83674,1,8,0:0:0:0:
267,62,83735,1,8,0:0:0:0:
340,127,83795,1,0,0:0:0:0:
341,124,83886,1,8,0:0:0:0:
346,124,83947,1,8,0:0:0:0:
346,124,84007,1,8,0:0:0:0:
402,142,84068,1,0,0:0:0:0:
400,160,84159,1,8,0:0:0:0:
399,159,84220,1,8,0:0:0:0:
394,156,84281,1,8,0:0:0:0:
379,150,84341,1,0,0:0:0:0:
378,150,84401,1,0,0:0:0:0:
371,150,84462,1,0,0:0:0:0:
415,151,84522,1,8,0:0:0:0:
413,150,84583,1,8,0:0:0:0:
403,149,84644,1,8,0:0:0:0:
439,159,84704,1,0,0:0:0:0:
423,150,84765,1,0,0:0:0:0:
258,87,84825,5,0,0:0:0:0:
427,159,84886,1,8,0:0:0:0:
420,156,84947,1,8,0:0:0:0:
418,156,85007,1,8,0:0:0:0:
420,143,85068,1,0,0:0:0:0:
467,136,85159,1,8,0:0:0:0:
461,133,85250,1,0,0:0:0:0:
431,138,85341,1,8,0:0:0:0:
426,155,85432,1,0,0:0:0:0:
427,156,85522,1,0,0:0:0:0:
452,161,85613,1,8,0:0:0:0:
436,166,85704,1,0,0:0:0:0:
436,161,85795,1,8,0:0:0:0:
208,152,86159,1,8,0:0:0:0:
436,139,86522,1,8,0:0:0:0:
468,156,86613,1,0,0:0:0:0:
468,156,86704,1,0,0:0:0:0:
175,178,86886,1,8,0:0:0:0:
294,175,87068,1,8,0:0:0:0:
265,92,87250,1,4,0:0:0:0:
428,168,87522,1,8,0:0:0:0:
379,157,87613,1,0,0:0:0:0:
428,168,87795,1,8,0:0:0:0:
418,170,87977,1,0,0:0:0:0:
406,158,88159,1,8,0:0:0:0:
403,151,88341,1,0,0:0:0:0:
356,97,88704,1,0,0:0:0:0:
472,152,88977,1,8,0:0:0:0:
458,152,89068,1,0,0:0:0:0:
256,125,89250,5,8,0:0:0:0:
420,157,89432,1,0,0:0:0:0:
439,164,89613,1,8,0:0:0:0:
464,165,89795,1,0,0:0:0:0:
296,191,90159,1,0,0:0:0:0:
467,148,90432,1,8,0:0:0:0:
452,148,90522,1,0,0:0:0:0:
466,178,90704,1,8,0:0:0:0:
454,172,90886,1,0,0:0:0:0:
477,181,91068,1,8,0:0:0:0:
446,169,91250,1,0,0:0:0:0:
407,202,91613,1,0,0:0:0:0:
436,153,91886,1,8,0:0:0:0:
446,169,91977,1,0,0:0:0:0:
471,177,92159,1,8,0:0:0:0:
450,173,92341,1,0,0:0:0:0:
444,171,92522,1,8,0:0:0:0:
453,169,92704,5,8,0:0:0:0:
446,163,92765,1,8,0:0:0:0:
441,158,92825,1,8,0:0:0:0:
437,153,92886,1,8,0:0:0:0:
441,158,92947,1,8,0:0:0:0:
437,153,93007,1,8,0:0:0:0:
408,121,93068,1,0,0:0:0:0:
450,173,93250,1,0,0:0:0:0:
450,173,93341,1,0,0:0:0:0:
450,173,93432,1,0,0:0:0:0:
382,163,93613,1,8,0:0:0:0:
509,163,93674,1,8,0:0:0:0:
509,163,93735,1,8,0:0:0:0:
444,183,93795,1,0,0:0:0:0:
452,178,93977,1,8,0:0:0:0:
426,167,94068,1,0,0:0:0:0:
426,167,94159,1,0,0:0:0:0:
367,283,94341,1,8,0:0:0:0:
367,283,94432,1,8,0:0:0:0:
369,127,94522,1,0,0:0:0:0:
472,147,94795,1,8,0:0:0:0:
406,138,94886,1,0,0:0:0:0:
451,153,95068,1,8,0:0:0:0:
458,153,95250,1,0,0:0:0:0:
458,153,95341,1,0,0:0:0:0:
437,145,95432,1,8,0:0:0:0:
353,158,95613,1,0,0:0:0:0:
353,158,95674,1,0,0:0:0:0:
353,158,95735,1,0,0:0:0:0:
456,163,95795,1,8,0:0:0:0:
429,162,95977,1,0,0:0:0:0:
431,158,96159,1,8,0:0:0:0:
436,139,96250,1,0,0:0:0:0:
427,128,96341,1,8,0:0:0:0:
427,128,96522,1,8,0:0:0:0:
447,139,96613,1,0,0:0:0:0:
414,131,96704,1,8,0:0:0:0:
414,131,96795,1,8,0:0:0:0:
316,147,96886,1,0,0:0:0:0:
316,147,97068,1,0,0:0:0:0:
456,144,97250,1,8,0:0:0:0:
466,142,97295,1,0,0:0:0:0:
466,141,97341,1,0,0:0:0:0:
459,158,97432,1,8,0:0:0:0:
470,156,97522,1,8,0:0:0:0:
421,164,97613,1,0,0:0:0:0:
421,164,97704,1,0,0:0:0:0:
351,112,97795,1,8,0:0:0:0:
418,137,97932,1,0,0:0:0:0:
435,147,97977,1,8,0:0:0:0:
435,147,98022,1,8,0:0:0:0:
427,145,98068,1,0,0:0:0:0:
467,154,98159,1,8,0:0:0:0:
391,168,98250,1,0,0:0:0:0:
391,168,98341,1,0,0:0:0:0:
391,168,98432,1,0,0:0:0:0:
491,157,98522,1,8,0:0:0:0:
491,157,98583,1,8,0:0:0:0:
491,157,98644,1,8,0:0:0:0:
491,157,98704,1,8,0:0:0:0:
491,157,98765,1,8,0:0:0:0:
491,157,98825,1,8,0:0:0:0:
484,155,98886,1,0,0:0:0:0:
417,114,99250,1,12,0:0:0:0:
372,127,99432,1,0,0:0:0:0:
417,144,99522,1,8,0:0:0:0:
396,174,99613,1,0,0:0:0:0:
404,141,99704,1,0,0:0:0:0:
448,149,99795,1,8,0:0:0:0:
452,154,99886,1,0,0:0:0:0:
372,127,99977,1,8,0:0:0:0:
432,121,100068,1,0,0:0:0:0:
460,163,100159,1,0,0:0:0:0:
456,159,100250,1,0,0:0:0:0:
426,141,100341,1,8,0:0:0:0:
466,154,100432,1,0,0:0:0:0:
391,127,100522,1,8,0:0:0:0:
351,162,100613,1,8,0:0:0:0:
381,145,100704,1,0,0:0:0:0:
291,122,100795,1,8,0:0:0:0:
447,148,100886,1,0,0:0:0:0:
451,148,100977,1,8,0:0:0:0:
374,125,101068,1,0,0:0:0:0:
289,157,101159,1,0,0:0:0:0:
418,112,101250,1,8,0:0:0:0:
186,51,101341,1,8,0:0:0:0:
325,119,101432,1,0,0:0:0:0:
421,139,101522,1,8,0:0:0:0:
389,140,101613,1,0,0:0:0:0:
378,163,101704,1,8,0:0:0:0:
293,159,101795,1,0,0:0:0:0:
381,159,101886,1,0,0:0:0:0:
451,149,101977,1,8,0:0:0:0:
446,146,102068,1,0,0:0:0:0:
436,154,102159,1,8,0:0:0:0:
436,154,102250,1,0,0:0:0:0:
440,153,102341,1,0,0:0:0:0:
446,157,102432,1,0,0:0:0:0:
350,136,102522,1,8,0:0:0:0:
433,161,102613,1,8,0:0:0:0:
441,164,102704,1,0,0:0:0:0:
379,154,102795,1,0,0:0:0:0:
442,151,102886,1,8,0:0:0:0:
455,153,102977,1,8,0:0:0:0:
461,164,103068,1,0,0:0:0:0:
455,151,103159,1,8,0:0:0:0:
376,129,103250,1,0,0:0:0:0:
449,213,103341,1,0,0:0:0:0:
456,168,103432,1,8,0:0:0:0:
469,166,103522,1,0,0:0:0:0:
457,158,103613,1,8,0:0:0:0:
457,158,103704,1,8,0:0:0:0:
434,153,103795,1,0,0:0:0:0:
428,144,103886,1,8,0:0:0:0:
434,153,103977,1,0,0:0:0:0:
434,153,104068,1,0,0:0:0:0:
441,166,104159,1,8,0:0:0:0:
440,164,104250,1,8,0:0:0:0:
311,183,104341,1,0,0:0:0:0:
311,171,104401,1,0,0:0:0:0:
310,164,104462,1,0,0:0:0:0:
310,161,104522,1,0,0:0:0:0:
310,158,104583,1,0,0:0:0:0:
310,158,104644,1,0,0:0:0:0:
318,133,104704,1,8,0:0:0:0:
470,131,105068,1,8,0:0:0:0:
476,145,105159,1,0,0:0:0:0:
476,145,105250,1,0,0:0:0:0:
476,145,105341,1,0,0:0:0:0:
477,137,105432,1,8,0:0:0:0:
488,150,105522,1,0,0:0:0:0:
488,150,105613,1,0,0:0:0:0:
481,150,105704,1,8,0:0:0:0:
474,148,105795,1,0,0:0:0:0:
406,174,105886,1,0,0:0:0:0:
431,157,105977,1,8,0:0:0:0:
431,157,106068,1,0,0:0:0:0:
417,157,106159,1,8,0:0:0:0:
309,176,106250,1,0,0:0:0:0:
309,176,106341,1,0,0:0:0:0:
309,176,106432,1,0,0:0:0:0:
446,133,106522,1,8,0:0:0:0:
446,133,106613,1,8,0:0:0:0:
391,126,106704,1,0,0:0:0:0:
391,126,106795,1,0,0:0:0:0:
454,140,106886,1,8,0:0:0:0:
398,136,106977,1,0,0:0:0:0:
399,135,107068,1,0,0:0:0:0:
420,123,107159,1,8,0:0:0:0:
421,132,107250,1,0,0:0:0:0:
421,133,107341,1,0,0:0:0:0:
428,139,107432,1,8,0:0:0:0:
423,132,107522,1,0,0:0:0:0:
392,125,107613,1,8,0:0:0:0:
351,114,107704,1,0,0:0:0:0:
351,114,107795,1,0,0:0:0:0:
351,114,107886,1,0,0:0:0:0:
414,130,107977,1,8,0:0:0:0:
403,119,108068,1,0,0:0:0:0:
393,134,108159,1,8,0:0:0:0:
367,121,108250,1,0,0:0:0:0:
354,132,108341,1,8,0:0:0:0:
372,135,108432,1,0,0:0:0:0:
372,135,108522,1,0,0:0:0:0:
372,135,108613,1,0,0:0:0:0:
411,138,108704,1,8,0:0:0:0:
416,137,108795,1,0,0:0:0:0:
396,150,108886,1,8,0:0:0:0:
355,141,108977,1,0,0:0:0:0:
405,137,109068,1,8,0:0:0:0:
464,154,109159,1,0,0:0:0:0:
464,154,109250,1,0,0:0:0:0:
464,154,109341,1,0,0:0:0:0:
461,142,109432,1,8,0:0:0:0:
405,74,109522,1,0,0:0:0:0:
405,74,109613,1,0,0:0:0:0:
405,74,109704,1,0,0:0:0:0:
393,175,109795,1,8,0:0:0:0:
405,74,109886,1,0,0:0:0:0:
405,74,109977,1,0,0:0:0:0:
405,74,110068,1,0,0:0:0:0:
291,129,110159,1,8,0:0:0:0:
148,133,110522,1,4,0:0:0:0:
486,122,110704,5,0,0:0:0:0:
401,153,110977,1,8,0:0:0:0:
405,165,111249,1,8,0:0:0:0:
367,143,111522,1,8,0:0:0:0:
295,130,111795,1,0,0:0:0:0:
453,156,112159,1,8,0:0:0:0:
386,153,112431,1,0,0:0:0:0:
344,55,112704,1,0,0:0:0:0:
344,55,112977,1,0,0:0:0:0:
481,173,113249,1,8,0:0:0:0:
491,124,113340,1,8,0:0:0:0:
401,153,113613,1,8,0:0:0:0:
486,122,113886,1,0,0:0:0:0:
405,165,114159,1,8,0:0:0:0:
367,143,114431,1,8,0:0:0:0:
295,130,114704,1,0,0:0:0:0:
386,153,115068,1,0,0:0:0:0:
453,156,115341,1,8,0:0:0:0:
344,55,115613,1,0,0:0:0:0:
344,55,115886,1,0,0:0:0:0:
481,173,116159,1,8,0:0:0:0:
491,124,116249,1,8,0:0:0:0:
486,122,116522,1,0,0:0:0:0:
401,153,116795,1,8,0:0:0:0:
405,165,117068,1,0,0:0:0:0:
367,143,117340,1,8,0:0:0:0:
295,130,117613,1,0,0:0:0:0:
453,156,117977,1,8,0:0:0:0:
386,153,118249,1,0,0:0:0:0:
344,55,118522,1,8,0:0:0:0:
344,55,118795,1,0,0:0:0:0:
481,173,119068,1,8,0:0:0:0:
491,124,119159,1,8,0:0:0:0:
486,122,119431,1,8,0:0:0:0:
401,153,119704,1,0,0:0:0:0:
405,165,119977,1,0,0:0:0:0:
367,143,120249,1,8,0:0:0:0:
295,130,120522,1,0,0:0:0:0:
453,156,120886,1,0,0:0:0:0:
386,153,121159,1,8,0:0:0:0:
344,55,121431,1,8,0:0:0:0:
344,55,121704,1,0,0:0:0:0:
481,173,121977,1,8,0:0:0:0:
491,124,122068,1,8,0:0:0:0:
396,116,122159,1,4,0:0:0:0:
336,157,122522,1,8,0:0:0:0:
341,163,122886,1,8,0:0:0:0:
341,163,123249,1,8,0:0:0:0:
341,163,123613,1,8,0:0:0:0:
341,163,123977,1,8,0:0:0:0:
341,163,124340,1,8,0:0:0:0:
341,163,124704,1,8,0:0:0:0:
341,163,125068,1,8,0:0:0:0:
341,163,125431,1,8,0:0:0:0:
341,163,125795,1,8,0:0:0:0:
341,163,126159,1,8,0:0:0:0:
334,332,126522,1,8,0:0:0:0:
334,332,126886,1,8,0:0:0:0:
334,332,127249,1,8,0:0:0:0:
334,332,127613,1,8,0:0:0:0:
334,332,127977,1,8,0:0:0:0:
200,97,128340,1,8,0:0:0:0:
193,87,128704,1,8,0:0:0:0:
233,100,129068,5,8,0:0:0:0:
233,100,129431,5,8,0:0:0:0:
233,100,129795,5,8,0:0:0:0:
233,100,130159,5,8,0:0:0:0:
233,100,130522,5,8,0:0:0:0:
226,74,130886,5,8,0:0:0:0:
364,249,131249,5,8,0:0:0:0:
364,249,131613,5,8,0:0:0:0:
364,249,131977,5,8,0:0:0:0:
364,249,132340,5,8,0:0:0:0:
364,249,132704,5,8,0:0:0:0:
364,249,133068,5,8,0:0:0:0:
364,249,133431,5,8,0:0:0:0:
390,130,133795,1,8,0:0:0:0:
434,127,133886,1,0,0:0:0:0:
434,127,133977,1,0,0:0:0:0:
434,127,134068,1,0,0:0:0:0:
365,156,134159,1,8,0:0:0:0:
434,127,134250,1,0,0:0:0:0:
434,127,134341,1,0,0:0:0:0:
434,127,134432,1,0,0:0:0:0:
365,156,134522,1,8,0:0:0:0:
434,127,134613,1,0,0:0:0:0:
434,127,134704,1,0,0:0:0:0:
382,132,134795,1,8,0:0:0:0:
290,195,134886,1,0,0:0:0:0:
307,104,134977,1,8,0:0:0:0:
219,112,135068,1,0,0:0:0:0:
290,195,135159,1,0,0:0:0:0:
246,198,135249,5,8,0:0:0:0:
399,161,135341,1,0,0:0:0:0:
399,161,135432,1,0,0:0:0:0:
404,164,135522,1,0,0:0:0:0:
255,200,135613,1,8,0:0:0:0:
405,165,135704,1,0,0:0:0:0:
384,183,135795,1,0,0:0:0:0:
406,166,135886,1,0,0:0:0:0:
255,200,135977,1,8,0:0:0:0:
340,138,136068,1,0,0:0:0:0:
340,138,136159,1,8,0:0:0:0:
395,150,136250,1,8,0:0:0:0:
266,152,136341,1,0,0:0:0:0:
358,173,136432,1,8,0:0:0:0:
401,166,136522,1,0,0:0:0:0:
401,166,136613,1,0,0:0:0:0:
403,161,136704,1,8,0:0:0:0:
418,163,136795,1,0,0:0:0:0:
418,163,136886,1,0,0:0:0:0:
416,160,136977,1,0,0:0:0:0:
329,303,137068,1,8,0:0:0:0:
416,160,137159,1,0,0:0:0:0:
416,160,137250,1,0,0:0:0:0:
416,160,137341,1,0,0:0:0:0:
329,303,137431,1,8,0:0:0:0:
397,138,137522,1,0,0:0:0:0:
405,161,137613,1,0,0:0:0:0:
427,163,137704,1,8,0:0:0:0:
410,178,137795,1,0,0:0:0:0:
410,178,137886,1,8,0:0:0:0:
424,168,137977,1,0,0:0:0:0:
384,168,138068,1,0,0:0:0:0:
353,327,138159,1,8,0:0:0:0:
272,224,138250,1,0,0:0:0:0:
272,224,138341,1,0,0:0:0:0:
272,224,138432,1,0,0:0:0:0:
353,327,138522,1,8,0:0:0:0:
272,224,138613,1,0,0:0:0:0:
272,224,138704,1,0,0:0:0:0:
272,224,138795,1,0,0:0:0:0:
353,327,138886,1,8,0:0:0:0:
464,168,138977,1,0,0:0:0:0:
392,160,139068,1,8,0:0:0:0:
392,160,139159,1,8,0:0:0:0:
320,168,139250,1,0,0:0:0:0:
376,152,139341,1,8,0:0:0:0:
368,144,139432,1,0,0:0:0:0:
368,144,139522,1,0,0:0:0:0:
476,132,139613,1,8,0:0:0:0:
111,222,139795,1,0,0:0:0:0:
436,178,139977,1,8,0:0:0:0:
424,182,140159,1,0,0:0:0:0:
408,176,140340,1,8,0:0:0:0:
424,184,140522,1,0,0:0:0:0:
448,184,140704,1,8,0:0:0:0:
432,184,140886,1,0,0:0:0:0:
486,156,141068,1,8,0:0:0:0:
486,156,141159,1,8,0:0:0:0:
489,148,141249,1,0,0:0:0:0:
489,148,141340,1,0,0:0:0:0:
487,148,141431,1,8,0:0:0:0:
487,148,141522,1,8,0:0:0:0:
479,141,141613,1,0,0:0:0:0:
479,141,141704,1,0,0:0:0:0:
406,158,141795,1,8,0:0:0:0:
406,158,141855,1,8,0:0:0:0:
476,143,141916,1,0,0:0:0:0:
476,143,141977,1,0,0:0:0:0:
480,150,142037,1,8,0:0:0:0:
480,150,142098,1,8,0:0:0:0:
440,143,142159,1,0,0:0:0:0:
267,56,142219,1,0,0:0:0:0:
421,143,142280,1,8,0:0:0:0:
419,143,142340,1,8,0:0:0:0:
346,128,142401,1,0,0:0:0:0:
346,128,142462,1,0,0:0:0:0:
352,142,142522,1,12,0:0:0:0:
336,147,143977,1,8,0:0:0:0:
356,131,144340,1,8,0:0:0:0:
208,176,144432,1,0,0:0:0:0:
208,176,144522,1,0,0:0:0:0:
208,176,144613,1,0,0:0:0:0:
358,102,144704,1,8,0:0:0:0:
358,102,144795,1,8,0:0:0:0:
451,152,144886,1,0,0:0:0:0:
388,128,144977,1,8,0:0:0:0:
160,64,145159,1,0,0:0:0:0:
160,64,145250,1,8,0:0:0:0:
240,120,145341,1,8,0:0:0:0:
448,112,145432,1,0,0:0:0:0:
344,144,145613,1,8,0:0:0:0:
328,184,145795,1,0,0:0:0:0:
456,160,145886,1,8,0:0:0:0:
440,136,146068,1,0,0:0:0:0:
328,184,146159,1,8,0:0:0:0:
408,152,146250,1,0,0:0:0:0:
416,160,146341,1,0,0:0:0:0:
182,67,146432,1,8,0:0:0:0:
432,192,146522,1,0,0:0:0:0:
165,167,146613,1,0,0:0:0:0:
372,159,146704,1,8,0:0:0:0:
150,175,146795,1,0,0:0:0:0:
226,30,146886,1,8,0:0:0:0:
328,184,147068,1,0,0:0:0:0:
447,222,147250,1,8,0:0:0:0:
447,222,147341,1,0,0:0:0:0:
306,122,147522,1,8,0:0:0:0:
328,184,147613,1,0,0:0:0:0:
365,210,147704,1,8,0:0:0:0:
360,207,147795,1,8,0:0:0:0:
360,159,147886,1,0,0:0:0:0:
178,144,147977,1,8,0:0:0:0:
384,163,148068,1,8,0:0:0:0:
366,173,148159,1,0,0:0:0:0:
366,173,148250,1,8,0:0:0:0:
167,103,148341,1,0,0:0:0:0:
328,184,148523,1,8,0:0:0:0:
405,171,148705,1,0,0:0:0:0:
405,171,148795,1,8,0:0:0:0:
323,136,148977,1,8,0:0:0:0:
328,184,149068,1,0,0:0:0:0:
427,134,149159,1,8,0:0:0:0:
432,156,149250,1,0,0:0:0:0:
431,154,149341,1,0,0:0:0:0:
429,163,149432,1,8,0:0:0:0:
194,147,149522,1,0,0:0:0:0:
369,163,149613,1,8,0:0:0:0:
369,163,149704,1,0,0:0:0:0:
220,58,149795,5,8,0:0:0:0:
306,112,149977,1,0,0:0:0:0:
490,158,150159,1,8,0:0:0:0:
490,158,150250,1,0,0:0:0:0:
451,135,150432,1,0,0:0:0:0:
469,140,150522,1,8,0:0:0:0:
386,163,150613,1,0,0:0:0:0:
442,136,150704,1,8,0:0:0:0:
432,160,150795,1,8,0:0:0:0:
443,160,150886,1,0,0:0:0:0:
163,152,150977,1,8,0:0:0:0:
444,153,151068,1,0,0:0:0:0:
444,153,151159,1,8,0:0:0:0:
107,109,151250,1,0,0:0:0:0:
401,142,151432,1,8,0:0:0:0:
367,131,151613,1,0,0:0:0:0:
413,145,151704,1,8,0:0:0:0:
391,141,151886,1,0,0:0:0:0:
391,141,151977,1,8,0:0:0:0:
451,155,152068,1,0,0:0:0:0:
456,149,152159,1,0,0:0:0:0:
456,149,152250,1,8,0:0:0:0:
456,143,152341,1,0,0:0:0:0:
428,145,152432,1,8,0:0:0:0:
450,137,152522,1,8,0:0:0:0:
427,122,152613,1,0,0:0:0:0:
180,11,152704,1,8,0:0:0:0:
421,142,152886,1,0,0:0:0:0:
427,157,153068,1,8,0:0:0:0:
415,144,153159,1,0,0:0:0:0:
458,153,153341,1,8,0:0:0:0:
466,158,153432,1,0,0:0:0:0:
438,169,153522,1,8,0:0:0:0:
438,169,153613,1,8,0:0:0:0:
427,157,153704,1,0,0:0:0:0:
400,173,153795,1,8,0:0:0:0:
449,159,153886,1,0,0:0:0:0:
388,140,153977,1,0,0:0:0:0:
351,124,154068,1,8,0:0:0:0:
143,86,154159,1,0,0:0:0:0:
460,146,154341,1,8,0:0:0:0:
446,139,154522,1,0,0:0:0:0:
372,122,154613,1,8,0:0:0:0:
453,149,154795,1,0,0:0:0:0:
435,148,154886,1,8,0:0:0:0:
419,145,154977,1,0,0:0:0:0:
419,145,155068,1,0,0:0:0:0:
440,156,155159,1,8,0:0:0:0:
440,156,155250,1,8,0:0:0:0:
458,156,155341,1,0,0:0:0:0:
433,160,155432,1,8,0:0:0:0:
406,148,155522,1,0,0:0:0:0:
271,112,155613,1,8,0:0:0:0:
495,127,155795,1,0,0:0:0:0:
488,125,155886,1,8,0:0:0:0:
386,143,156068,1,0,0:0:0:0:
303,120,156159,1,8,0:0:0:0:
465,153,156341,1,0,0:0:0:0:
422,142,156432,1,8,0:0:0:0:
438,159,156613,1,0,0:0:0:0:
410,141,156704,1,8,0:0:0:0:
402,131,156886,1,8,0:0:0:0:
402,131,156932,1,8,0:0:0:0:
415,134,156977,1,8,0:0:0:0:
426,135,157022,1,8,0:0:0:0:
453,144,157068,1,0,0:0:0:0:
416,140,157159,1,0,0:0:0:0:
446,142,157250,1,8,0:0:0:0:
454,140,157341,1,0,0:0:0:0:
453,144,157432,1,0,0:0:0:0:
237,122,157522,1,8,0:0:0:0:
440,136,157704,1,0,0:0:0:0:
328,184,157795,1,8,0:0:0:0:
408,152,157886,1,0,0:0:0:0:
416,160,157977,1,0,0:0:0:0:
182,67,158068,1,8,0:0:0:0:
432,192,158158,1,8,0:0:0:0:
165,167,158249,1,0,0:0:0:0:
372,159,158340,1,8,0:0:0:0:
150,175,158431,1,0,0:0:0:0:
226,30,158522,1,8,0:0:0:0:
328,184,158704,1,0,0:0:0:0:
447,222,158886,1,8,0:0:0:0:
447,222,158977,1,0,0:0:0:0:
306,122,159158,1,8,0:0:0:0:
328,184,159249,1,0,0:0:0:0:
365,210,159340,1,8,0:0:0:0:
360,207,159431,1,8,0:0:0:0:
360,159,159522,1,0,0:0:0:0:
178,144,159613,1,0,0:0:0:0:
384,163,159704,1,8,0:0:0:0:
366,173,159795,1,0,0:0:0:0:
366,173,159886,1,8,0:0:0:0:
167,103,159977,1,0,0:0:0:0:
328,184,160159,1,8,0:0:0:0:
405,171,160341,1,0,0:0:0:0:
405,171,160431,1,8,0:0:0:0:
323,136,160613,1,8,0:0:0:0:
328,184,160704,1,0,0:0:0:0:
427,134,160795,1,8,0:0:0:0:
432,156,160886,1,0,0:0:0:0:
431,154,160977,1,0,0:0:0:0:
429,163,161068,1,8,0:0:0:0:
194,147,161158,1,0,0:0:0:0:
369,163,161249,1,0,0:0:0:0:
369,163,161340,1,0,0:0:0:0:
220,58,161431,5,8,0:0:0:0:
306,112,161613,1,0,0:0:0:0:
490,158,161795,1,8,0:0:0:0:
490,158,161886,1,0,0:0:0:0:
451,135,162068,1,0,0:0:0:0:
469,140,162158,1,8,0:0:0:0:
386,163,162249,1,0,0:0:0:0:
442,136,162340,1,8,0:0:0:0:
432,160,162431,1,8,0:0:0:0:
443,160,162522,1,0,0:0:0:0:
163,152,162613,1,8,0:0:0:0:
444,153,162704,1,8,0:0:0:0:
444,153,162795,1,8,0:0:0:0:
107,109,162886,1,0,0:0:0:0:
401,142,163068,1,0,0:0:0:0:
367,131,163249,1,0,0:0:0:0:
413,145,163340,1,8,0:0:0:0:
391,141,163522,1,0,0:0:0:0:
391,141,163613,1,8,0:0:0:0:
451,155,163704,1,0,0:0:0:0:
456,149,163795,1,0,0:0:0:0:
456,149,163886,1,8,0:0:0:0:
456,143,163977,1,0,0:0:0:0:
428,145,164068,1,8,0:0:0:0:
450,137,164158,1,8,0:0:0:0:
427,122,164249,1,8,0:0:0:0:
180,11,164341,1,0,0:0:0:0:
421,142,164522,1,0,0:0:0:0:
427,157,164704,1,8,0:0:0:0:
415,144,164795,1,0,0:0:0:0:
391,141,164977,1,8,0:0:0:0:
391,141,165068,1,0,0:0:0:0:
451,155,165159,1,8,0:0:0:0:
456,149,165250,1,8,0:0:0:0:
456,149,165341,1,0,0:0:0:0:
456,143,165432,1,8,0:0:0:0:
428,145,165523,1,0,0:0:0:0:
450,137,165613,1,0,0:0:0:0:
427,122,165704,1,0,0:0:0:0:
180,11,165796,1,8,0:0:0:0:
460,146,165977,1,8,0:0:0:0:
446,139,166158,1,0,0:0:0:0:
372,122,166249,1,8,0:0:0:0:
453,149,166431,1,0,0:0:0:0:
435,148,166522,1,8,0:0:0:0:
419,145,166613,1,0,0:0:0:0:
419,145,166704,1,0,0:0:0:0:
440,156,166795,1,8,0:0:0:0:
440,156,166886,1,8,0:0:0:0:
458,156,166977,1,0,0:0:0:0:
433,160,167068,1,8,0:0:0:0:
406,148,167158,1,0,0:0:0:0:
271,112,167249,1,8,0:0:0:0:
495,127,167431,1,0,0:0:0:0:
488,125,167522,1,8,0:0:0:0:
386,143,167704,1,0,0:0:0:0:
303,120,167795,1,8,0:0:0:0:
206,129,167886,1,8,0:0:0:0:
465,153,167977,1,0,0:0:0:0:
422,142,168159,1,8,0:0:0:0:
438,159,168249,1,0,0:0:0:0:
101,184,168432,1,0,0:0:0:0:
415,134,168522,1,8,0:0:0:0:
426,135,168613,1,8,0:0:0:0:
453,144,168704,1,0,0:0:0:0:
328,184,169068,1,0,0:0:0:0:
456,160,169159,1,8,0:0:0:0:
440,136,169341,1,0,0:0:0:0:
328,184,169432,1,8,0:0:0:0:
408,152,169523,1,0,0:0:0:0:
416,160,169614,1,0,0:0:0:0:
182,67,169705,1,8,0:0:0:0:
432,192,169795,1,0,0:0:0:0:
165,167,169886,1,0,0:0:0:0:
372,159,169977,1,8,0:0:0:0:
150,175,170068,1,0,0:0:0:0:
226,30,170159,1,8,0:0:0:0:
328,184,170341,1,0,0:0:0:0:
447,222,170523,1,8,0:0:0:0:
447,222,170614,1,0,0:0:0:0:
306,122,170795,1,8,0:0:0:0:
328,184,170886,1,0,0:0:0:0:
365,210,170977,1,8,0:0:0:0:
360,207,171068,1,8,0:0:0:0:
360,159,171159,1,0,0:0:0:0:
178,144,171250,1,8,0:0:0:0:
384,163,171341,1,8,0:0:0:0:
366,173,171432,1,0,0:0:0:0:
366,173,171523,1,8,0:0:0:0:
167,103,171614,1,0,0:0:0:0:
328,184,171796,1,8,0:0:0:0:
405,171,171978,1,0,0:0:0:0:
405,171,172068,1,8,0:0:0:0:
323,136,172250,1,8,0:0:0:0:
328,184,172341,1,0,0:0:0:0:
427,134,172432,1,8,0:0:0:0:
432,156,172523,1,0,0:0:0:0:
431,154,172614,1,0,0:0:0:0:
429,163,172705,1,8,0:0:0:0:
194,147,172795,1,0,0:0:0:0:
369,163,172886,1,8,0:0:0:0:
369,163,172977,1,0,0:0:0:0:
220,58,173068,5,8,0:0:0:0:
306,112,173250,1,0,0:0:0:0:
490,158,173432,1,8,0:0:0:0:
490,158,173523,1,0,0:0:0:0:
451,135,173705,1,0,0:0:0:0:
469,140,173795,1,8,0:0:0:0:
386,163,173886,1,0,0:0:0:0:
442,136,173977,1,8,0:0:0:0:
432,160,174068,1,8,0:0:0:0:
443,160,174159,1,0,0:0:0:0:
163,152,174250,1,8,0:0:0:0:
444,153,174341,1,0,0:0:0:0:
444,153,174432,1,8,0:0:0:0:
107,109,174523,1,0,0:0:0:0:
401,142,174705,1,8,0:0:0:0:
367,131,174886,1,0,0:0:0:0:
413,145,174977,1,8,0:0:0:0:
391,141,175159,1,0,0:0:0:0:
391,141,175250,1,8,0:0:0:0:
451,155,175341,1,0,0:0:0:0:
456,149,175432,1,0,0:0:0:0:
456,149,175523,1,8,0:0:0:0:
456,143,175614,1,0,0:0:0:0:
428,145,175705,1,8,0:0:0:0:
450,137,175795,1,8,0:0:0:0:
427,122,175886,1,0,0:0:0:0:
180,11,175977,1,8,0:0:0:0:
421,142,176159,1,0,0:0:0:0:
427,157,176341,1,8,0:0:0:0:
415,144,176432,1,0,0:0:0:0:
458,153,176614,1,8,0:0:0:0:
466,158,176705,1,0,0:0:0:0:
438,169,176795,1,8,0:0:0:0:
438,169,176886,1,8,0:0:0:0:
427,157,176977,1,0,0:0:0:0:
400,173,177068,1,8,0:0:0:0:
449,159,177159,1,0,0:0:0:0:
388,140,177250,1,0,0:0:0:0:
351,124,177341,1,8,0:0:0:0:
143,86,177432,1,0,0:0:0:0:
460,146,177614,1,8,0:0:0:0:
446,139,177795,1,0,0:0:0:0:
372,122,177886,1,8,0:0:0:0:
453,149,178068,1,0,0:0:0:0:
435,148,178159,1,8,0:0:0:0:
419,145,178250,1,0,0:0:0:0:
419,145,178341,1,0,0:0:0:0:
440,156,178432,1,8,0:0:0:0:
440,156,178523,1,8,0:0:0:0:
458,156,178614,1,0,0:0:0:0:
433,160,178705,1,8,0:0:0:0:
406,148,178795,1,0,0:0:0:0:
271,112,178886,1,8,0:0:0:0:
495,127,179068,1,0,0:0:0:0:
488,125,179159,1,8,0:0:0:0:
386,143,179341,1,0,0:0:0:0:
303,120,179432,1,8,0:0:0:0:
465,153,179614,1,0,0:0:0:0:
422,142,179705,1,8,0:0:0:0:
438,159,179886,1,0,0:0:0:0:
410,141,179977,1,8,0:0:0:0:
402,131,180159,1,8,0:0:0:0:
402,131,180205,1,8,0:0:0:0:
415,134,180250,1,8,0:0:0:0:
426,135,180295,1,8,0:0:0:0:
453,144,180341,1,0,0:0:0:0:
416,140,180432,1,0,0:0:0:0:
446,142,180523,1,8,0:0:0:0:
454,140,180614,1,0,0:0:0:0:
453,144,180705,1,0,0:0:0:0:
237,122,180795,1,8,0:0:0:0:
440,136,180977,1,0,0:0:0:0:
328,184,181068,1,8,0:0:0:0:
408,152,181159,1,0,0:0:0:0:
416,160,181250,1,0,0:0:0:0:
182,67,181341,1,8,0:0:0:0:
432,192,181431,1,8,0:0:0:0:
165,167,181522,1,0,0:0:0:0:
372,159,181613,1,8,0:0:0:0:
150,175,181704,1,0,0:0:0:0:
226,30,181795,1,8,0:0:0:0:
328,184,181977,1,0,0:0:0:0:
447,222,182159,1,8,0:0:0:0:
447,222,182250,1,0,0:0:0:0:
306,122,182431,1,8,0:0:0:0:
328,184,182522,1,0,0:0:0:0:
365,210,182613,1,8,0:0:0:0:
360,207,182704,1,8,0:0:0:0:
360,159,182795,1,0,0:0:0:0:
178,144,182886,1,0,0:0:0:0:
384,163,182977,1,8,0:0:0:0:
366,173,183068,1,0,0:0:0:0:
366,173,183159,1,8,0:0:0:0:
167,103,183250,1,0,0:0:0:0:
328,184,183432,1,8,0:0:0:0:
405,171,183614,1,0,0:0:0:0:
405,171,183704,1,8,0:0:0:0:
323,136,183886,1,8,0:0:0:0:
328,184,183977,1,0,0:0:0:0:
427,134,184068,1,8,0:0:0:0:
432,156,184159,1,0,0:0:0:0:
431,154,184250,1,0,0:0:0:0:
429,163,184341,1,8,0:0:0:0:
194,147,184431,1,0,0:0:0:0:
369,163,184522,1,0,0:0:0:0:
369,163,184613,1,0,0:0:0:0:
220,58,184704,5,8,0:0:0:0:
306,112,184886,1,0,0:0:0:0:
490,158,185068,1,8,0:0:0:0:
490,158,185159,1,0,0:0:0:0:
451,135,185341,1,0,0:0:0:0:
469,140,185431,1,8,0:0:0:0:
386,163,185522,1,0,0:0:0:0:
442,136,185613,1,8,0:0:0:0:
432,160,185704,1,8,0:0:0:0:
443,160,185795,1,0,0:0:0:0:
163,152,185886,1,8,0:0:0:0:
444,153,185977,1,8,0:0:0:0:
444,153,186068,1,8,0:0:0:0:
107,109,186159,1,0,0:0:0:0:
401,142,186341,1,0,0:0:0:0:
367,131,186522,1,0,0:0:0:0:
413,145,186613,1,8,0:0:0:0:
391,141,186795,1,0,0:0:0:0:
391,141,186886,1,8,0:0:0:0:
451,155,186977,1,0,0:0:0:0:
456,149,187068,1,0,0:0:0:0:
456,149,187159,1,8,0:0:0:0:
456,143,187250,1,0,0:0:0:0:
428,145,187341,1,8,0:0:0:0:
450,137,187431,1,8,0:0:0:0:
427,122,187522,1,8,0:0:0:0:
180,11,187614,1,0,0:0:0:0:
421,142,187795,1,0,0:0:0:0:
427,157,187977,1,8,0:0:0:0:
415,144,188068,1,0,0:0:0:0:
458,153,188250,1,8,0:0:0:0:
466,158,188341,1,0,0:0:0:0:
438,169,188431,1,8,0:0:0:0:
438,169,188522,1,8,0:0:0:0:
427,157,188613,1,0,0:0:0:0:
400,173,188704,1,8,0:0:0:0:
449,159,188795,1,0,0:0:0:0:
388,140,188886,1,0,0:0:0:0:
351,124,188977,1,0,0:0:0:0:
143,86,189068,1,8,0:0:0:0:
460,146,189250,1,8,0:0:0:0:
446,139,189431,1,0,0:0:0:0:
372,122,189522,1,8,0:0:0:0:
453,149,189704,1,0,0:0:0:0:
435,148,189795,1,8,0:0:0:0:
419,145,189886,1,0,0:0:0:0:
419,145,189977,1,0,0:0:0:0:
440,156,190068,1,8,0:0:0:0:
440,156,190159,1,8,0:0:0:0:
458,156,190250,1,0,0:0:0:0:
433,160,190341,1,8,0:0:0:0:
406,148,190431,1,0,0:0:0:0:
271,112,190522,1,8,0:0:0:0:
495,127,190704,1,0,0:0:0:0:
488,125,190795,1,8,0:0:0:0:
386,143,190977,1,0,0:0:0:0:
303,120,191068,1,8,0:0:0:0:
206,129,191159,1,8,0:0:0:0:
465,153,191250,1,0,0:0:0:0:
422,142,191432,1,8,0:0:0:0:
438,159,191522,1,0,0:0:0:0:
410,141,191705,1,0,0:0:0:0:
415,134,191795,1,8,0:0:0:0:
426,135,191886,1,8,0:0:0:0:
453,144,191977,1,4,0:0:0:0:
