osu file format v14

[General]
AudioFilename: audio.mp3
AudioLeadIn: 0
PreviewTime: 118349
Countdown: 0
SampleSet: Normal
StackLeniency: 0.7
Mode: 1
LetterboxInBreaks: 0
WidescreenStoryboard: 0

[Editor]
Bookmarks: 3110,15731,25662,35593,45524,57937,77799,87731,113177,118349,138211,147314,157245,167176,187038,201934,211865,237934,247865,257796,276519
DistanceSpacing: 1
BeatDivisor: 4
GridSize: 16
TimelineZoom: 3.199999

[Metadata]
Title:ALiCE iN ViNEGAR SiNDROME
TitleUnicode:ALiCE iN ViNEGAR SiNDROME
Artist:seatrus
ArtistUnicode:seatrus
Creator:Ph0eNiiXZ
Version:ONi
Source:
Tags:phoeniixz phoenix mapping to pander: taiko m2p #4 m2p#4 Mystica​:​ll Mystica​ ll Refrain featured artist fa deep house drum & bass artcore hardcore electronic instrumental
BeatmapID:3993025
BeatmapSetID:1930392

[Difficulty]
HPDrainRate:5.5
CircleSize:2
OverallDifficulty:5.5
ApproachRate:10
SliderMultiplier:1.4
SliderTickRate:3

[Events]
//Background and Video events
0,0,"71333509_p00.jpg",0,0
//Break Periods
//Storyboard Layer 0 (Background)
//Storyboard Layer 1 (Fail)
//Storyboard Layer 2 (Pass)
//Storyboard Layer 3 (Foreground)
//Storyboard Layer 4 (Overlay)
//Storyboard Sound Samples

[TimingPoints]
634,206.896551724138,6,1,0,50,1,0
634,-200,6,1,0,50,0,0
3116,206.896551724138,6,1,0,50,1,0
3116,-200,6,1,0,50,0,0
10564,206.896551724138,99,1,0,50,1,0
10564,-200,99,1,0,50,0,0
10667,-200,99,1,0,20,0,0
12632,-400,99,1,0,40,0,0
13046,-100,99,1,0,45,0,0
13253,-100,99,1,0,50,0,0
13460,-100,99,1,0,55,0,0
13667,-100,99,1,0,60,0,0
13874,-100,99,1,0,65,0,0
14081,-100,99,1,0,70,0,0
14288,-100,99,1,0,75,0,0
14495,-100,99,1,0,80,0,0
14701,-100,99,1,0,85,0,0
14908,-100,99,1,0,90,0,0
15115,-100,99,1,0,95,0,0
15322,-100,99,1,0,100,0,0
15736,206.896551724138,6,1,0,100,1,1
15736,-142.857142857143,6,1,0,100,0,1
20691,-142.857142857143,6,1,0,100,0,1
20898,-144.737678855326,6,1,0,100,0,1
21001,-145.691972858789,6,1,0,100,0,1
21105,-146.668385101173,6,1,0,100,0,1
21208,-147.648394421019,6,1,0,100,0,1
21312,-148.65129645353,6,1,0,100,0,1
21519,-150.688559322034,6,1,0,100,0,1
21622,-151.723218452103,6,1,0,100,0,1
21726,-152.782439417332,6,1,0,100,0,1
21829,-153.846153846154,6,1,0,100,0,1
21932,-154.924783881288,6,1,0,100,0,1
22139,-157.138911902789,6,1,0,100,0,1
22243,-158.275382475661,6,1,0,100,0,1
22346,-159.417244519157,6,1,0,100,0,1
22450,-160.587031679955,6,1,0,100,0,1
22553,-161.762615493959,6,1,0,100,0,1
22760,-164.178027843901,6,1,0,100,0,1
22863,-165.406976744186,6,1,0,100,0,1
22967,-166.666666666667,6,1,0,100,0,1
23174,-160.915708173585,6,1,0,100,0,1
23277,-158.199497432536,6,1,0,100,0,1
23381,-155.548394027285,6,1,0,100,0,1
23484,-153.008929043166,6,1,0,100,0,1
23588,-150.527574198243,6,1,0,100,0,1
23794,-145.842775847308,6,1,0,100,0,1
23846,-144.70594113826,6,1,0,100,0,1
23898,-143.586692448808,6,1,0,100,0,1
24001,-141.420060552788,6,1,0,100,0,1
24105,-139.297739297739,6,1,0,100,0,1
24157,-138.260288360546,6,1,0,100,0,1
24208,-137.257689937912,6,1,0,100,0,1
24415,-133.333333333333,6,1,0,100,0,1
25667,-133.333333333333,6,1,0,100,0,0
25873,-166.666666666667,6,1,0,60,0,0
29174,-166.666666666667,6,1,0,70,0,0
29287,-164.704544161975,6,1,0,80,0,0
29484,-163.745335293453,6,1,0,80,0,0
29588,-162.788083192805,6,1,0,80,0,0
29691,-161.851003185603,6,1,0,80,0,0
29794,-160.924649922205,6,1,0,80,0,0
30001,-159.094654727243,6,1,0,80,0,0
30208,-157.305812058664,6,1,0,80,0,0
30270,-156.42216700875,6,1,0,100,0,0
30415,-155.556749207713,6,1,0,100,0,0
30519,-154.692591207735,6,1,0,100,0,0
30622,-153.846153846154,6,1,0,100,0,0
33011,-153.846153846154,6,1,0,80,0,0
34304,-153.846153846154,6,1,0,100,0,0
34450,-154.050872694014,6,1,0,100,0,0
34657,-155.675039734025,6,1,0,100,0,0
34863,-158.888084874549,6,1,0,100,0,0
35070,-163.6858653072,6,1,0,100,0,0
35277,-169.973570888161,6,1,0,100,0,0
35381,-173.646713357043,6,1,0,100,0,0
35494,-181.818181818182,6,1,0,50,0,0
45425,-133.333333333333,6,1,0,100,0,0
54208,-133.333333333333,6,1,0,100,0,0
54312,-135.604323616115,6,1,0,100,0,0
54519,-140.362773351416,6,1,0,100,0,0
54726,-145.467322557976,6,1,0,100,0,0
54829,-148.148148148148,6,1,0,100,0,0
55036,-153.846153846154,6,1,0,100,0,0
55139,-156.847887857549,6,1,0,100,0,0
55243,-160,6,1,0,100,0,0
55294,-161.592505854801,6,1,0,100,0,0
55346,-163.249211356467,6,1,0,100,0,0
55450,-166.666666666667,6,1,0,100,0,0
55657,-163.262621279395,6,1,0,100,0,0
55760,-161.620108094029,6,1,0,100,0,0
55863,-160.010314927634,6,1,0,100,0,0
56070,-156.870180760966,6,1,0,100,0,0
56174,-155.338590562023,6,1,0,100,0,0
56277,-153.850922051759,6,1,0,100,0,0
56381,-152.377444209105,6,1,0,100,0,0
56484,-150.945691175576,6,1,0,100,0,0
56691,-148.148148148148,6,1,0,100,0,0
56743,-147.461604729228,6,1,0,100,0,0
56794,-146.794416844097,6,1,0,100,0,0
56898,-145.452414439756,6,1,0,100,0,0
57001,-144.147283445132,6,1,0,100,0,0
57053,-143.497239325875,6,1,0,100,0,0
57105,-142.853031741921,6,1,0,100,0,0
57312,-140.34492507775,6,1,0,100,0,0
57363,-139.740449849393,6,1,0,100,0,0
57415,-139.129459906387,6,1,0,100,0,0
57519,-137.923369731322,6,1,0,100,0,0
57622,-136.749311294766,6,1,0,100,0,0
57674,-136.164143076586,6,1,0,100,0,0
57726,-135.583961542664,6,1,0,100,0,0
57942,-133.333333333333,6,1,0,100,0,1
76553,-133.333333333333,6,1,0,100,0,1
76863,-139.527913076058,6,1,0,100,0,1
77174,-146.349131494145,6,1,0,100,0,1
77484,-153.846153846154,6,1,0,100,0,1
77804,-133.333333333333,6,1,0,100,0,0
86484,-133.333333333333,6,1,0,100,0,0
86588,-136.378609860547,6,1,0,100,0,0
86794,-142.840713053479,6,1,0,100,0,0
87001,-149.981886245622,6,1,0,100,0,0
87105,-153.846153846154,6,1,0,100,0,0
87312,-162.162162162162,6,1,0,100,0,0
87519,-171.428571428571,6,1,0,100,0,0
87631,-181.818181818182,6,1,0,50,0,0
87736,206.896551724138,5,1,0,50,1,0
87736,-181.818181818182,5,1,0,50,0,0
94977,206.896551724138,6,1,0,50,1,0
94977,-181.818181818182,5,1,0,50,0,0
96114,-166.666666666667,6,1,0,75,0,0
96218,206.896551724138,5,1,0,75,1,0
96218,-166.666666666667,5,1,0,75,0,0
103459,206.896551724138,6,1,0,75,1,0
103459,-166.666666666667,6,1,0,75,0,0
103759,-171.423310624194,6,1,0,75,0,0
103914,-173.904922013636,6,1,0,75,0,0
104069,-176.459438968916,6,1,0,75,0,0
104224,-179.09012215062,6,1,0,75,0,0
104380,-181.818181818182,6,1,0,75,0,0
104700,206.896551724138,5,1,0,75,1,0
104700,-166.666666666667,5,1,0,75,0,0
111941,206.896551724138,6,1,0,75,1,0
111941,-166.666666666667,6,1,0,75,0,0
113078,-133.333333333333,6,1,0,100,0,0
113182,206.896551724138,5,1,0,100,1,0
113182,-133.333333333333,5,1,0,100,0,0
113378,-137.913783040107,5,1,0,100,0,0
113482,-140.34789987272,5,1,0,100,0,0
113585,-142.844805250885,5,1,0,100,0,0
113689,-145.457743382288,5,1,0,100,0,0
113792,-148.141513658755,5,1,0,100,0,0
113999,-153.846153846154,5,1,0,100,0,0
114206,-133.333333333333,5,1,0,100,0,0
114413,-137.931034482759,5,1,0,100,0,0
114516,-140.338983050847,5,1,0,100,0,0
114620,-142.857142857143,5,1,0,100,0,0
114723,-145.441770595468,5,1,0,100,0,0
114827,-148.148148148148,5,1,0,100,0,0
115034,-153.846153846154,5,1,0,100,0,0
115240,-133.333333333333,5,1,0,100,0,0
115447,-137.931034482759,5,1,0,100,0,0
115551,-140.362773351416,5,1,0,100,0,0
115654,-142.857142857143,5,1,0,100,0,0
115758,-145.467322557976,5,1,0,100,0,0
115861,-148.148148148148,5,1,0,100,0,0
116068,-153.846153846154,5,1,0,100,0,0
116182,-133.333333333333,5,1,0,100,0,0
117371,-100,5,1,0,50,0,0
118354,206.896551724138,4,1,0,50,1,0
118354,-166.666666666667,4,1,0,50,0,0
118457,-133.333333333333,4,1,0,100,0,0
118560,-133.333333333333,4,1,0,100,0,1
130895,-136.363636363636,4,1,0,100,0,1
131033,-139.53488372093,4,1,0,100,0,1
131171,-142.857142857143,4,1,0,100,0,1
131309,-146.341463414634,4,1,0,100,0,1
131447,-150,4,1,0,100,0,1
131595,-153.846153846154,4,1,0,100,0,0
131698,-166.666666666667,4,1,0,50,0,0
136964,-166.666666666667,4,1,0,50,0,0
137362,-153.846153846154,4,1,0,100,0,0
137585,-148.148148148148,4,1,0,100,0,0
137792,-142.857142857143,4,1,0,100,0,0
137999,-137.931034482759,4,1,0,100,0,0
138216,-133.333333333333,4,1,0,100,0,1
141526,206.896551724138,3,1,0,100,1,1
141526,-133.333333333333,3,1,0,100,0,1
141619,-133.809160834315,3,1,0,100,0,1
141826,-134.77578084104,3,1,0,100,0,1
142136,-136.249779502558,3,1,0,100,0,1
142240,-136.751531461351,3,1,0,100,0,1
142447,-137.76128986231,3,1,0,100,0,1
142757,-139.3016880681,3,1,0,100,0,1
142860,-139.821150573839,3,1,0,100,0,1
143067,-140.876924199314,3,1,0,100,0,1
143378,-142.493450909493,3,1,0,100,0,1
143481,-143.037037037037,3,1,0,100,0,1
143688,-144.142126674878,3,1,0,100,0,1
143998,-145.829399992448,3,1,0,100,0,1
144102,-146.404336783047,3,1,0,100,0,1
144309,-147.562280299557,3,1,0,100,0,1
144619,-149.33106488284,3,1,0,100,0,1
144722,-149.928180441787,3,1,0,100,0,1
144929,-151.142767689418,3,1,0,100,0,1
145240,-153.005031496375,3,1,0,100,0,1
145447,-154.270192538148,3,1,0,100,0,1
145663,206.896551724138,99,1,0,100,1,0
145663,-155.55018527469,99,1,0,100,0,0
145766,-160.909962084913,99,1,0,60,0,0
147214,-166.659474388297,99,1,0,60,0,0
147319,206.896551724138,6,1,0,60,1,0
147319,-166.666666666667,99,1,0,60,0,0
149905,-166.666666666667,6,1,0,70,0,0
150826,-166.666666666667,6,1,0,70,0,0
150939,-164.704544161975,6,1,0,80,0,0
151136,-163.745335293453,6,1,0,80,0,0
151240,-162.788083192805,6,1,0,80,0,0
151343,-161.851003185603,6,1,0,80,0,0
151446,-160.924649922205,6,1,0,80,0,0
151653,-159.094654727243,6,1,0,80,0,0
151860,-157.305812058664,6,1,0,80,0,0
151922,-156.42216700875,6,1,0,100,0,0
152067,-155.556749207713,6,1,0,100,0,0
152171,-154.692591207735,6,1,0,100,0,0
152274,-153.846153846154,6,1,0,100,0,0
154663,-153.846153846154,6,1,0,60,0,0
155956,-153.846153846154,6,1,0,100,0,0
156102,-154.050872694014,6,1,0,100,0,0
156309,-155.675039734025,6,1,0,100,0,0
156515,-158.888084874549,6,1,0,100,0,0
156722,-163.6858653072,6,1,0,100,0,0
156929,-169.973570888161,6,1,0,100,0,0
157033,-173.646713357043,6,1,0,100,0,0
157146,-181.818181818182,6,1,0,50,0,0
167077,-133.333333333333,6,1,0,100,0,0
177112,-133.333333333333,6,1,0,100,0,1
186939,-133.333333333333,6,1,0,80,0,1
187043,-149.253731343284,6,1,0,80,0,0
187136,-147.789117671577,6,1,0,80,0,0
187240,-146.339162529627,6,1,0,80,0,0
187343,-144.930921321546,6,1,0,80,0,0
187446,-143.549525164544,6,1,0,80,0,0
187550,-142.181180756848,6,1,0,80,0,0
187653,-140.851464696335,6,1,0,80,0,0
187757,-139.533837798941,6,1,0,80,0,0
187860,-138.252955003732,6,1,0,80,0,0
187964,-136.983277222805,6,1,0,80,0,0
188067,-135.748586180116,6,1,0,80,0,0
188274,-133.333333333333,6,1,0,80,0,0
188481,-136.239782016349,6,1,0,80,0,0
188584,-137.733714818019,6,1,0,80,0,0
188688,-139.275766016713,6,1,0,80,0,0
188791,-140.837404237369,6,1,0,80,0,0
188895,-142.450142450142,6,1,0,80,0,0
189102,-145.772594752187,6,1,0,80,0,0
189309,-149.253731343284,6,1,0,80,0,0
189422,-133.333333333333,6,1,0,100,0,0
191377,-149.253731343284,6,1,0,100,0,0
191481,-146.327670303259,6,1,0,100,0,0
191584,-143.540669856459,6,1,0,100,0,0
191688,-140.832293910874,6,1,0,100,0,0
191791,-138.248847926267,6,1,0,100,0,0
191843,-136.980258078747,6,1,0,100,0,0
191895,-135.734738038513,6,1,0,100,0,0
191998,-133.333333333333,6,1,0,100,0,0
200688,-133.333333333333,6,1,0,100,0,0
200791,-135.583500593946,6,1,0,100,0,0
200998,-140.343438626246,6,1,0,100,0,0
201205,-145.449751724744,6,1,0,100,0,0
201309,-148.15809498232,6,1,0,100,0,0
201515,-153.831853882976,6,1,0,100,0,0
201722,-159.988399632655,6,1,0,100,0,0
201929,-166.658275011329,6,1,0,100,0,0
202043,-173.908474754374,6,1,0,50,0,0
202343,-181.818181818182,6,1,0,50,0,0
206181,-133.333333333333,6,1,0,70,0,0
206866,-153.846153846154,6,1,0,100,0,0
207102,-152.865653720039,6,1,0,100,0,0
207205,-152.382413872478,6,1,0,100,0,0
207309,-151.897572392272,6,1,0,100,0,0
207515,-150.946264345975,6,1,0,100,0,0
207722,-150.002265895255,6,1,0,100,0,0
207826,-149.532428810216,6,1,0,100,0,0
207929,-149.070001351088,6,1,0,100,0,0
208136,-148.149253285989,6,1,0,100,0,0
208343,-147.239809611364,6,1,0,100,0,0
208446,-146.791431992549,6,1,0,100,0,0
208550,-146.341463414634,6,1,0,100,0,0
208757,-145.454012802297,6,1,0,100,0,0
208964,-144.577260748657,6,1,0,100,0,0
209067,-144.144928798502,6,1,0,100,0,0
209171,-143.711014949998,6,1,0,100,0,0
209377,-142.859198089456,6,1,0,100,0,0
209584,-142.013357550448,6,1,0,100,0,0
209688,-141.59216323737,6,1,0,100,0,0
209791,-141.177474160115,6,1,0,100,0,0
209998,-140.351373125468,6,1,0,100,0,0
210205,-139.53488372093,6,1,0,100,0,0
210309,-139.128241772099,6,1,0,100,0,0
210412,-138.727839170706,6,1,0,100,0,0
210619,-137.930076535219,6,1,0,100,0,0
210929,-136.752372164764,6,1,0,100,0,0
211240,-135.590905987574,6,1,0,100,0,0
211446,-134.832376064198,6,1,0,100,0,0
211498,-134.64224213909,6,1,0,100,0,0
211550,-134.452643693724,6,1,0,100,0,0
211653,-134.078664884352,6,1,0,100,0,0
211705,-133.890649228073,6,1,0,100,0,0
211757,-133.703160134107,6,1,0,100,0,0
211870,-133.333333333333,6,1,0,100,0,1
216826,-133.333333333333,6,1,0,100,0,1
217033,-135.049431076292,6,1,0,100,0,1
217240,-136.810279667422,6,1,0,100,0,1
217446,-138.608806636886,6,1,0,100,0,1
217653,-140.464334217164,6,1,0,100,0,1
217757,-141.415456735464,6,1,0,100,0,1
217860,-142.370214997378,6,1,0,100,0,1
218067,-144.328526812413,6,1,0,100,0,1
218171,-145.332887253262,6,1,0,100,0,1
218377,-147.364135965805,6,1,0,100,0,1
218584,-149.463253509496,6,1,0,100,0,1
218688,-150.54061546992,6,1,0,100,0,1
218791,-151.623036649215,6,1,0,100,0,1
218895,-152.731875395542,6,1,0,100,0,1
218998,-153.846153846154,6,1,0,100,0,1
219205,-151.259138911454,6,1,0,100,0,1
219309,-149.991944578701,6,1,0,100,0,1
219515,-147.543581616482,6,1,0,100,0,1
219619,-146.337629676202,6,1,0,100,0,1
219722,-145.162547750838,6,1,0,100,0,1
219826,-143.995050653468,6,1,0,100,0,1
219929,-142.857142857143,6,1,0,100,0,1
220136,-140.623819953176,6,1,0,100,0,1
220240,-139.527913076058,6,1,0,100,0,1
220343,-138.459250446163,6,1,0,100,0,1
220446,-137.406833444026,6,1,0,100,0,1
220550,-136.360307579641,6,1,0,100,0,1
220757,-134.32405136344,6,1,0,100,0,1
220860,-133.333333333333,6,1,0,100,0,1
220964,-132.347714834032,6,1,0,100,0,1
221015,-131.869688385269,6,1,0,100,0,1
221067,-131.385831216483,6,1,0,100,0,1
221181,-130.428691510227,6,1,0,100,0,0
221377,-128.573401463886,6,1,0,100,0,0
221584,-126.761522227517,6,1,0,100,0,0
221801,-125,6,1,0,100,0,1
221905,-133.333333333333,6,1,0,100,0,1
226757,-133.333333333333,6,1,0,100,0,1
226964,-134.078664884352,6,1,0,100,0,1
227067,-134.452643693724,6,1,0,100,0,1
227171,-134.832376064198,6,1,0,100,0,1
227274,-135.210577198023,6,1,0,100,0,1
227377,-135.590905987574,6,1,0,100,0,1
227584,-136.361763776932,6,1,0,100,0,1
227688,-136.752372164764,6,1,0,100,0,1
227791,-137.141436601434,6,1,0,100,0,1
227998,-137.930076535219,6,1,0,100,0,1
228205,-138.727839170706,6,1,0,100,0,1
228412,-139.53488372093,6,1,0,100,0,1
228515,-139.939965332093,6,1,0,100,0,1
228619,-140.351373125468,6,1,0,100,0,1
228826,-141.177474160115,6,1,0,100,0,1
228929,-141.59216323737,6,1,0,100,0,1
229033,-142.013357550448,6,1,0,100,0,1
229136,-142.432979043849,6,1,0,100,0,1
229240,-142.859198089456,6,1,0,100,0,1
229446,-143.711014949998,6,1,0,100,0,1
229653,-144.577260748657,6,1,0,100,0,1
229757,-145.016429353779,6,1,0,100,0,1
229860,-145.454012802297,6,1,0,100,0,1
229964,-145.898532199057,6,1,0,100,0,1
230067,-146.341463414634,6,1,0,100,0,1
230171,-146.791431992549,6,1,0,100,0,1
230274,-147.239809611364,6,1,0,100,0,1
230481,-148.149253285989,6,1,0,100,0,1
230688,-149.070001351088,6,1,0,100,0,1
230895,-150.002265895255,6,1,0,100,0,1
230998,-150.470504447441,6,1,0,100,0,1
231102,-150.946264345975,6,1,0,100,0,1
231205,-151.420424221168,6,1,0,100,0,1
231309,-151.902219638678,6,1,0,100,0,1
231412,-152.382413872478,6,1,0,100,0,1
231515,-152.865653720039,6,1,0,100,0,1
231619,-153.356704915754,6,1,0,100,0,1
231722,-153.846153846154,6,1,0,100,0,1
231929,-150,6,1,0,100,0,1
232033,-148.139312977099,6,1,0,100,0,1
232136,-146.341463414634,6,1,0,100,0,1
232343,-142.857142857143,6,1,0,100,0,1
232446,-141.184494714107,6,1,0,100,0,1
232550,-139.53488372093,6,1,0,100,0,1
232653,-137.938693913816,6,1,0,100,0,1
232757,-136.363636363636,6,1,0,100,0,1
232809,-135.589519650655,6,1,0,100,0,1
232860,-134.8387797199,6,1,0,100,0,1
232964,-133.333333333333,6,1,0,100,0,1
237319,-133.333333333333,6,1,0,100,0,0
237370,-83.3333333333333,6,1,0,100,0,0
237836,-142.857142857143,6,1,0,100,0,0
238094,-166.666666666667,6,1,0,60,0,0
242181,-166.666666666667,6,1,0,70,0,0
242801,-153.846153846154,6,1,0,80,0,0
242998,-152.870165065287,6,1,0,80,0,0
243102,-151.897184822521,6,1,0,80,0,0
243205,-150.945691175576,6,1,0,80,0,0
243309,-149.996978304224,6,1,0,80,0,0
243412,-149.069069069069,6,1,0,80,0,0
243515,-148.152569689011,6,1,0,80,0,0
243722,-146.344339622642,6,1,0,80,0,0
243826,-145.452414439756,6,1,0,80,0,0
243929,-144.579716898701,6,1,0,80,0,0
244136,-142.857142857143,6,1,0,80,0,0
244240,-142.007094633253,6,1,0,80,0,0
244343,-141.175132245037,6,1,0,80,0,0
244446,-140.352861343587,6,1,0,80,0,0
244550,-139.532268945356,6,1,0,80,0,0
244757,-137.927202000556,6,1,0,80,0,0
244860,-137.142225660294,6,1,0,80,0,0
244964,-136.358641907483,6,1,0,80,0,0
245067,-135.591368478558,6,1,0,80,0,0
245171,-134.825357162258,6,1,0,80,0,0
245274,-134.075194468453,6,1,0,80,0,0
245336,-133.333333333333,6,1,0,100,0,0
245481,-133.37912348248,6,1,0,100,0,0
245688,-133.742524559802,6,1,0,100,0,0
245895,-134.46690367965,6,1,0,100,0,0
245998,-134.960893546118,6,1,0,100,0,0
246102,-135.548958220223,6,1,0,100,0,0
246309,-136.983203531237,6,1,0,100,0,0
246515,-138.751933384753,6,1,0,100,0,0
246619,-139.7706829801,6,1,0,100,0,0
246826,-142.039980866626,6,1,0,100,0,0
247033,-144.61403004887,6,1,0,100,0,0
247240,-147.466727086972,6,1,0,100,0,0
247353,-153.846153846154,6,1,0,60,0,0
247767,-133.333333333333,6,1,0,100,0,0
250456,-142.857142857143,6,1,0,50,0,0
250653,-140.362773351416,6,1,0,50,0,0
250757,-137.931034482759,6,1,0,50,0,0
250860,-135.604323616115,6,1,0,50,0,0
250922,-133.333333333333,6,1,0,100,0,0
251077,-142.857142857143,6,1,0,50,0,0
251274,-140.35683942226,6,1,0,50,0,0
251377,-137.942551770207,6,1,0,50,0,0
251481,-135.587655942219,6,1,0,50,0,0
251543,-133.333333333333,6,1,0,100,0,0
252267,-100,6,1,0,100,0,0
252784,-133.333333333333,6,1,0,100,0,0
257801,206.896551724138,4,1,0,100,1,0
257801,-166.666666666667,4,1,0,100,0,0
258007,-125,4,1,0,100,0,1
271042,-125,4,1,0,100,0,0
271239,-129.632945389436,4,1,0,100,0,0
271446,-134.622536258832,4,1,0,100,0,0
271653,-140.011603171534,4,1,0,100,0,0
271859,-145.820745216516,4,1,0,100,0,0
272066,-152.164775115595,4,1,0,100,0,0
272273,-159.085915183476,4,1,0,100,0,0
272480,-166.666666666667,4,1,0,100,0,0
272687,-142.857142857143,4,1,0,100,0,0
272791,-141.586106595945,4,1,0,100,0,0
272894,-140.349389416554,4,1,0,100,0,0
272997,-139.134089953762,4,1,0,100,0,0
273101,-137.928160680057,4,1,0,100,0,0
273204,-136.754255494959,4,1,0,100,0,0
273308,-135.58905456333,4,1,0,100,0,0
273515,-133.327962619834,4,1,0,100,0,0
273618,-132.230744646852,4,1,0,100,0,0
273722,-131.141045958796,4,1,0,100,0,0
273825,-130.07938379313,4,1,0,100,0,0
273928,-129.034773117106,4,1,0,100,0,0
273980,-128.513744370244,4,1,0,100,0,0
274032,-127.99690641918,4,1,0,100,0,0
274135,-126.985344893731,4,1,0,100,0,0
274187,-126.480703095147,4,1,0,100,0,0
274239,-125.980056329451,4,1,0,100,0,0
274326,-33.3333333333333,4,1,0,60,0,0
274352,206.896551724138,10,1,0,60,1,0
274352,-33.3333333333333,10,1,0,60,0,0
274455,-100,10,1,0,60,0,0

[HitObjects]
256,192,3116,5,0,0:0:0:0:
256,192,3322,1,8,0:0:0:0:
256,192,3529,1,0,0:0:0:0:
256,192,3736,1,0,0:0:0:0:
256,192,3943,1,8,0:0:0:0:
256,192,4150,1,0,0:0:0:0:
256,192,4357,1,8,0:0:0:0:
256,192,4667,1,8,0:0:0:0:
256,192,4771,1,0,0:0:0:0:
256,192,4978,1,8,0:0:0:0:
256,192,5184,1,0,0:0:0:0:
256,192,5391,1,8,0:0:0:0:
256,192,5598,1,8,0:0:0:0:
256,192,5805,1,0,0:0:0:0:
256,192,6012,1,8,0:0:0:0:
256,192,6219,1,0,0:0:0:0:
256,192,6426,1,0,0:0:0:0:
256,192,6633,1,8,0:0:0:0:
256,192,6840,1,8,0:0:0:0:
256,192,7150,1,8,0:0:0:0:
256,192,7253,1,8,0:0:0:0:
256,192,7460,1,0,0:0:0:0:
256,192,7874,1,0,0:0:0:0:
256,192,7978,1,0,0:0:0:0:
256,192,8081,1,8,0:0:0:0:
256,192,8288,1,8,0:0:0:0:
256,192,8495,1,8,0:0:0:0:
256,192,8702,1,0,0:0:0:0:
256,192,9116,1,0,0:0:0:0:
256,192,9219,1,0,0:0:0:0:
256,192,9322,1,8,0:0:0:0:
256,192,9529,1,8,0:0:0:0:
256,192,9736,1,0,0:0:0:0:
256,192,9943,1,8,0:0:0:0:
256,192,10253,1,8,0:0:0:0:
256,192,10564,1,0,0:0:0:0:
256,192,12736,12,0,15632,0:0:0:0:
256,192,15736,5,12,0:0:0:0:
256,192,15942,1,0,0:0:0:0:
256,192,16046,1,8,0:0:0:0:
256,192,16149,1,0,0:0:0:0:
64,64,16253,1,0,0:0:0:0:
256,192,16356,1,12,0:0:0:0:
256,192,16563,1,8,0:0:0:0:
64,64,16667,1,0,0:0:0:0:
448,64,16770,1,8,0:0:0:0:
256,192,16977,1,4,0:0:0:0:
256,192,17184,1,0,0:0:0:0:
256,192,17287,1,0,0:0:0:0:
256,192,17391,1,8,0:0:0:0:
448,64,17494,1,8,0:0:0:0:
256,192,17598,1,4,0:0:0:0:
256,192,17804,1,8,0:0:0:0:
256,192,17908,1,8,0:0:0:0:
256,192,18011,1,0,0:0:0:0:
256,192,18218,1,12,0:0:0:0:
256,192,18425,1,0,0:0:0:0:
256,192,18529,1,0,0:0:0:0:
256,192,18632,1,0,0:0:0:0:
64,64,18735,1,0,0:0:0:0:
256,192,18839,1,12,0:0:0:0:
256,192,19046,1,8,0:0:0:0:
256,192,19149,1,8,0:0:0:0:
256,192,19253,1,8,0:0:0:0:
256,192,19460,1,4,0:0:0:0:
256,192,19667,1,0,0:0:0:0:
256,192,19770,1,0,0:0:0:0:
256,192,19873,1,8,0:0:0:0:
448,64,19977,1,8,0:0:0:0:
256,192,20080,1,4,0:0:0:0:
256,192,20287,1,8,0:0:0:0:
256,192,20391,1,8,0:0:0:0:
256,192,20494,1,0,0:0:0:0:
256,192,20701,1,12,0:0:0:0:
256,192,20908,1,0,0:0:0:0:
256,192,21011,1,0,0:0:0:0:
256,192,21115,1,8,0:0:0:0:
256,192,21218,1,0,0:0:0:0:
256,192,21322,1,8,0:0:0:0:
256,192,21529,1,0,0:0:0:0:
448,64,21632,1,8,0:0:0:0:
64,64,21736,1,0,0:0:0:0:
64,64,21839,1,0,0:0:0:0:
256,192,21942,1,8,0:0:0:0:
256,192,22149,1,0,0:0:0:0:
256,192,22253,1,0,0:0:0:0:
256,192,22356,1,8,0:0:0:0:
256,192,22460,1,8,0:0:0:0:
256,192,22563,1,0,0:0:0:0:
256,192,22770,1,0,0:0:0:0:
256,192,22873,1,0,0:0:0:0:
256,192,22977,1,8,0:0:0:0:
256,192,23184,1,8,0:0:0:0:
256,192,23287,1,8,0:0:0:0:
256,192,23391,1,0,0:0:0:0:
256,192,23494,1,8,0:0:0:0:
256,192,23598,1,0,0:0:0:0:
256,192,23804,1,8,0:0:0:0:
256,192,23856,1,8,0:0:0:0:
448,64,23908,1,8,0:0:0:0:
256,192,24011,1,0,0:0:0:0:
256,192,24115,1,8,0:0:0:0:
256,192,24167,1,8,0:0:0:0:
448,64,24218,1,8,0:0:0:0:
448,64,24425,1,8,0:0:0:0:
448,64,24529,1,8,0:0:0:0:
448,64,24736,1,8,0:0:0:0:
64,64,25046,1,0,0:0:0:0:
64,64,25149,1,0,0:0:0:0:
64,64,25356,1,0,0:0:0:0:
256,192,25667,1,12,0:0:0:0:
256,192,26080,1,8,0:0:0:0:
256,192,26494,1,0,0:0:0:0:
256,192,26701,1,0,0:0:0:0:
256,192,26908,1,8,0:0:0:0:
256,192,27322,1,0,0:0:0:0:
256,192,27736,1,8,0:0:0:0:
256,192,27942,1,8,0:0:0:0:
256,192,28149,1,0,0:0:0:0:
256,192,28356,1,8,0:0:0:0:
256,192,28460,1,0,0:0:0:0:
256,192,28563,1,8,0:0:0:0:
256,192,28667,1,8,0:0:0:0:
256,192,28770,1,0,0:0:0:0:
256,192,28977,1,8,0:0:0:0:
256,192,29080,1,0,0:0:0:0:
256,192,29184,1,8,0:0:0:0:
256,192,29391,1,8,0:0:0:0:
448,64,29494,1,8,0:0:0:0:
256,192,29598,1,0,0:0:0:0:
256,192,29701,1,8,0:0:0:0:
256,192,29804,1,0,0:0:0:0:
256,192,30011,1,8,0:0:0:0:
256,192,30218,1,0,0:0:0:0:
256,192,30322,1,8,0:0:0:0:
256,192,30425,1,0,0:0:0:0:
256,192,30529,1,0,0:0:0:0:
256,192,30632,1,12,0:0:0:0:
256,192,30839,1,0,0:0:0:0:
256,192,31046,1,0,0:0:0:0:
256,192,31253,1,8,0:0:0:0:
64,64,31460,1,0,0:0:0:0:
256,192,31667,1,0,0:0:0:0:
256,192,31873,1,8,0:0:0:0:
256,192,32080,1,0,0:0:0:0:
256,192,32184,1,8,0:0:0:0:
256,192,32287,1,0,0:0:0:0:
256,192,32494,1,8,0:0:0:0:
256,192,32701,1,0,0:0:0:0:
256,192,32804,1,0,0:0:0:0:
256,192,32908,1,8,0:0:0:0:
256,192,33115,1,0,0:0:0:0:
256,192,33218,1,0,0:0:0:0:
256,192,33322,1,8,0:0:0:0:
256,192,33425,1,0,0:0:0:0:
256,192,33529,1,8,0:0:0:0:
256,192,33632,1,8,0:0:0:0:
256,192,33736,1,0,0:0:0:0:
256,192,33942,1,8,0:0:0:0:
256,192,34046,1,8,0:0:0:0:
256,192,34149,1,0,0:0:0:0:
256,192,34253,1,8,0:0:0:0:
64,64,34356,1,0,0:0:0:0:
64,64,34460,1,0,0:0:0:0:
64,64,34667,1,0,0:0:0:0:
64,64,34873,1,0,0:0:0:0:
64,64,35080,1,0,0:0:0:0:
64,64,35287,1,0,0:0:0:0:
64,64,35391,1,0,0:0:0:0:
256,192,35598,1,8,0:0:0:0:
256,192,35701,1,0,0:0:0:0:
256,192,35804,1,8,0:0:0:0:
256,192,35908,1,8,0:0:0:0:
256,192,36011,1,0,0:0:0:0:
256,192,36115,1,8,0:0:0:0:
256,192,36218,1,0,0:0:0:0:
256,192,36839,1,0,0:0:0:0:
256,192,36942,1,0,0:0:0:0:
256,192,37046,1,8,0:0:0:0:
256,192,37149,1,8,0:0:0:0:
256,192,37253,1,0,0:0:0:0:
256,192,37356,1,8,0:0:0:0:
256,192,37460,1,0,0:0:0:0:
256,192,38080,1,0,0:0:0:0:
256,192,38184,1,0,0:0:0:0:
256,192,38287,1,8,0:0:0:0:
256,192,38391,1,8,0:0:0:0:
256,192,38494,1,0,0:0:0:0:
256,192,38598,1,0,0:0:0:0:
256,192,38701,1,8,0:0:0:0:
256,192,38908,1,0,0:0:0:0:
256,192,39011,1,8,0:0:0:0:
256,192,39115,1,0,0:0:0:0:
256,192,39218,1,0,0:0:0:0:
256,192,39322,1,8,0:0:0:0:
256,192,39632,1,0,0:0:0:0:
256,192,39942,1,8,0:0:0:0:
256,192,40253,1,8,0:0:0:0:
256,192,40563,1,0,0:0:0:0:
256,192,40667,1,0,0:0:0:0:
256,192,40770,1,8,0:0:0:0:
256,192,40873,1,0,0:0:0:0:
256,192,40977,1,8,0:0:0:0:
256,192,41080,1,8,0:0:0:0:
256,192,41184,1,0,0:0:0:0:
448,64,41753,1,8,0:0:0:0:
256,192,41804,1,8,0:0:0:0:
256,192,42011,1,8,0:0:0:0:
256,192,42115,1,8,0:0:0:0:
256,192,42218,1,0,0:0:0:0:
256,192,42322,1,8,0:0:0:0:
256,192,42425,1,0,0:0:0:0:
448,64,42994,1,8,0:0:0:0:
256,192,43046,1,8,0:0:0:0:
256,192,43253,1,0,0:0:0:0:
256,192,43460,1,0,0:0:0:0:
256,192,43667,1,8,0:0:0:0:
256,192,43718,1,8,0:0:0:0:
256,192,44080,1,8,0:0:0:0:
256,192,44287,1,0,0:0:0:0:
256,192,44339,1,0,0:0:0:0:
256,192,44908,1,8,0:0:0:0:
64,64,45529,1,0,0:0:0:0:
64,64,45632,1,0,0:0:0:0:
64,64,45839,1,0,0:0:0:0:
64,64,46046,1,0,0:0:0:0:
64,64,46253,1,0,0:0:0:0:
448,64,46356,1,8,0:0:0:0:
448,64,46563,1,8,0:0:0:0:
64,64,46770,1,0,0:0:0:0:
64,64,46873,1,0,0:0:0:0:
64,64,47080,1,0,0:0:0:0:
64,64,47287,1,0,0:0:0:0:
448,64,47494,1,8,0:0:0:0:
448,64,47598,1,0,0:0:0:0:
448,64,47804,1,0,0:0:0:0:
64,64,48011,1,0,0:0:0:0:
64,64,48115,1,0,0:0:0:0:
64,64,48322,1,0,0:0:0:0:
64,64,48529,1,0,0:0:0:0:
64,64,48736,1,0,0:0:0:0:
448,64,48839,1,8,0:0:0:0:
448,64,49046,1,8,0:0:0:0:
64,64,49253,1,0,0:0:0:0:
448,64,49563,1,8,0:0:0:0:
64,64,49873,1,0,0:0:0:0:
448,64,50184,1,8,0:0:0:0:
64,64,50287,1,0,0:0:0:0:
64,64,50339,1,0,0:0:0:0:
64,64,50391,1,0,0:0:0:0:
448,64,50494,1,8,0:0:0:0:
64,64,50598,1,0,0:0:0:0:
64,64,50804,1,0,0:0:0:0:
64,64,51011,1,0,0:0:0:0:
64,64,51218,1,0,0:0:0:0:
448,64,51322,1,8,0:0:0:0:
448,64,51529,1,8,0:0:0:0:
64,64,51736,1,0,0:0:0:0:
64,64,51839,1,0,0:0:0:0:
64,64,52046,1,0,0:0:0:0:
64,64,52253,1,0,0:0:0:0:
448,64,52460,1,8,0:0:0:0:
448,64,52563,1,0,0:0:0:0:
448,64,52770,1,0,0:0:0:0:
64,64,52977,1,0,0:0:0:0:
64,64,53080,1,0,0:0:0:0:
64,64,53287,1,0,0:0:0:0:
64,64,53494,1,0,0:0:0:0:
64,64,53701,1,0,0:0:0:0:
448,64,53804,1,8,0:0:0:0:
448,64,54011,1,8,0:0:0:0:
448,64,54322,1,8,0:0:0:0:
64,64,54529,1,0,0:0:0:0:
448,64,54736,1,8,0:0:0:0:
64,64,54839,1,0,0:0:0:0:
256,192,55046,1,8,0:0:0:0:
448,64,55149,1,8,0:0:0:0:
64,64,55253,1,0,0:0:0:0:
64,64,55304,1,0,0:0:0:0:
64,64,55356,1,0,0:0:0:0:
256,192,55460,1,8,0:0:0:0:
256,192,55667,1,0,0:0:0:0:
256,192,55770,1,8,0:0:0:0:
256,192,55873,1,0,0:0:0:0:
256,192,56080,1,8,0:0:0:0:
448,64,56184,1,8,0:0:0:0:
256,192,56287,1,0,0:0:0:0:
256,192,56391,1,8,0:0:0:0:
256,192,56494,1,0,0:0:0:0:
256,192,56701,1,8,0:0:0:0:
256,192,56753,1,8,0:0:0:0:
448,64,56804,1,8,0:0:0:0:
256,192,56908,1,0,0:0:0:0:
256,192,57011,1,8,0:0:0:0:
256,192,57063,1,8,0:0:0:0:
448,64,57115,1,8,0:0:0:0:
256,192,57322,1,8,0:0:0:0:
256,192,57373,1,8,0:0:0:0:
256,192,57425,1,0,0:0:0:0:
256,192,57529,1,8,0:0:0:0:
256,192,57632,1,0,0:0:0:0:
256,192,57684,1,0,0:0:0:0:
256,192,57736,1,8,0:0:0:0:
448,320,57942,1,12,0:0:0:0:
64,64,58149,1,0,0:0:0:0:
448,64,58253,1,8,0:0:0:0:
256,192,58356,1,0,0:0:0:0:
256,192,58460,1,0,0:0:0:0:
256,192,58563,1,8,0:0:0:0:
256,192,58770,1,0,0:0:0:0:
256,192,58977,1,0,0:0:0:0:
256,192,59184,1,8,0:0:0:0:
64,64,59391,1,0,0:0:0:0:
64,64,59494,1,0,0:0:0:0:
256,192,59598,1,8,0:0:0:0:
256,192,59701,1,0,0:0:0:0:
256,192,59804,1,8,0:0:0:0:
256,192,60011,1,0,0:0:0:0:
256,192,60218,1,0,0:0:0:0:
256,192,60425,1,8,0:0:0:0:
256,192,60632,1,0,0:0:0:0:
256,192,60736,1,8,0:0:0:0:
256,192,60839,1,0,0:0:0:0:
256,192,60942,1,0,0:0:0:0:
256,192,61046,1,8,0:0:0:0:
256,192,61253,1,0,0:0:0:0:
256,192,61356,1,8,0:0:0:0:
256,192,61460,1,0,0:0:0:0:
256,192,61667,1,12,0:0:0:0:
256,192,61977,1,4,0:0:0:0:
256,192,62287,1,12,0:0:0:0:
256,192,62598,1,4,0:0:0:0:
256,192,62908,1,12,0:0:0:0:
64,64,63115,1,0,0:0:0:0:
256,192,63218,1,8,0:0:0:0:
256,192,63322,1,0,0:0:0:0:
256,192,63425,1,0,0:0:0:0:
256,192,63529,1,8,0:0:0:0:
256,192,63736,1,0,0:0:0:0:
256,192,63942,1,0,0:0:0:0:
256,192,64098,1,8,0:0:0:0:
256,192,64149,1,8,0:0:0:0:
64,64,64356,1,0,0:0:0:0:
64,64,64460,1,0,0:0:0:0:
256,192,64563,1,8,0:0:0:0:
64,64,64667,1,0,0:0:0:0:
448,64,64770,1,8,0:0:0:0:
256,192,64977,1,0,0:0:0:0:
256,192,65184,1,0,0:0:0:0:
256,192,65391,1,12,0:0:0:0:
256,192,65701,1,8,0:0:0:0:
256,192,65908,1,0,0:0:0:0:
256,192,66011,1,12,0:0:0:0:
256,192,66322,1,8,0:0:0:0:
256,192,66529,1,0,0:0:0:0:
256,192,66632,1,12,0:0:0:0:
256,192,66942,1,4,0:0:0:0:
256,192,67253,1,12,0:0:0:0:
256,192,67563,1,4,0:0:0:0:
256,192,67873,1,12,0:0:0:0:
256,192,68080,1,0,0:0:0:0:
64,64,68184,1,0,0:0:0:0:
256,192,68287,1,8,0:0:0:0:
256,192,68391,1,0,0:0:0:0:
64,64,68442,1,0,0:0:0:0:
256,192,68494,1,8,0:0:0:0:
256,192,68701,1,8,0:0:0:0:
256,192,68908,1,0,0:0:0:0:
256,192,69011,1,8,0:0:0:0:
256,192,69115,1,0,0:0:0:0:
64,64,69322,1,0,0:0:0:0:
256,192,69425,1,8,0:0:0:0:
256,192,69477,1,8,0:0:0:0:
256,192,69529,1,8,0:0:0:0:
256,192,69736,1,8,0:0:0:0:
256,192,69839,1,0,0:0:0:0:
256,192,69891,1,0,0:0:0:0:
256,192,69942,1,8,0:0:0:0:
256,192,70149,1,0,0:0:0:0:
256,192,70253,1,8,0:0:0:0:
256,192,70304,1,8,0:0:0:0:
256,192,70356,1,0,0:0:0:0:
448,64,70563,1,8,0:0:0:0:
448,64,70667,1,8,0:0:0:0:
256,192,70770,1,0,0:0:0:0:
64,64,70822,1,0,0:0:0:0:
64,64,70873,1,0,0:0:0:0:
256,192,70977,1,8,0:0:0:0:
64,64,71184,1,0,0:0:0:0:
64,64,71287,1,0,0:0:0:0:
448,64,71391,1,8,0:0:0:0:
256,192,71494,1,0,0:0:0:0:
64,64,71546,1,0,0:0:0:0:
256,192,71598,1,8,0:0:0:0:
256,192,71804,1,8,0:0:0:0:
256,192,71908,1,0,0:0:0:0:
256,192,72115,1,0,0:0:0:0:
256,192,72167,1,0,0:0:0:0:
256,192,72218,1,8,0:0:0:0:
256,192,72425,1,8,0:0:0:0:
256,192,72529,1,0,0:0:0:0:
256,192,72736,1,0,0:0:0:0:
256,192,72787,1,0,0:0:0:0:
256,192,72839,1,8,0:0:0:0:
256,192,73046,1,8,0:0:0:0:
256,192,73149,1,8,0:0:0:0:
256,192,73253,1,0,0:0:0:0:
256,192,73356,1,8,0:0:0:0:
256,192,73408,1,8,0:0:0:0:
256,192,73460,1,8,0:0:0:0:
256,192,73667,1,8,0:0:0:0:
256,192,73718,1,8,0:0:0:0:
448,64,73770,1,8,0:0:0:0:
256,192,73873,1,0,0:0:0:0:
256,192,73977,1,0,0:0:0:0:
256,192,74080,1,12,0:0:0:0:
256,192,74287,1,0,0:0:0:0:
256,192,74391,1,0,0:0:0:0:
256,192,74494,1,8,0:0:0:0:
256,192,74598,1,0,0:0:0:0:
256,192,74701,1,8,0:0:0:0:
256,192,74908,1,0,0:0:0:0:
256,192,74960,1,0,0:0:0:0:
256,192,75011,1,0,0:0:0:0:
256,192,75115,1,8,0:0:0:0:
256,192,75322,1,12,0:0:0:0:
256,192,75529,1,8,0:0:0:0:
256,192,75632,1,0,0:0:0:0:
256,192,75736,1,8,0:0:0:0:
256,192,75942,1,12,0:0:0:0:
256,192,76149,1,0,0:0:0:0:
256,192,76253,1,8,0:0:0:0:
256,192,76356,1,0,0:0:0:0:
64,64,76460,1,0,0:0:0:0:
256,192,76563,1,12,0:0:0:0:
256,192,76873,1,12,0:0:0:0:
256,192,77184,1,12,0:0:0:0:
256,192,77494,1,12,0:0:0:0:
64,64,77804,1,0,0:0:0:0:
64,64,77908,1,0,0:0:0:0:
64,64,78115,1,0,0:0:0:0:
64,64,78322,1,0,0:0:0:0:
64,64,78529,1,0,0:0:0:0:
448,64,78632,1,8,0:0:0:0:
448,64,78839,1,8,0:0:0:0:
64,64,79046,1,0,0:0:0:0:
64,64,79149,1,0,0:0:0:0:
64,64,79356,1,0,0:0:0:0:
64,64,79563,1,0,0:0:0:0:
448,64,79770,1,8,0:0:0:0:
448,64,79873,1,0,0:0:0:0:
448,64,80080,1,0,0:0:0:0:
64,64,80287,1,0,0:0:0:0:
64,64,80391,1,0,0:0:0:0:
64,64,80598,1,0,0:0:0:0:
64,64,80804,1,0,0:0:0:0:
64,64,81011,1,0,0:0:0:0:
448,64,81115,1,8,0:0:0:0:
448,64,81322,1,8,0:0:0:0:
64,64,81529,1,0,0:0:0:0:
256,192,81736,1,8,0:0:0:0:
256,192,81787,1,8,0:0:0:0:
448,64,81839,1,8,0:0:0:0:
64,64,81942,1,0,0:0:0:0:
256,192,82149,1,8,0:0:0:0:
256,192,82253,1,8,0:0:0:0:
256,192,82356,1,8,0:0:0:0:
256,192,82460,1,8,0:0:0:0:
256,192,82563,1,0,0:0:0:0:
256,192,82615,1,0,0:0:0:0:
256,192,82667,1,0,0:0:0:0:
448,64,82770,1,8,0:0:0:0:
64,64,82873,1,0,0:0:0:0:
64,64,83080,1,0,0:0:0:0:
64,64,83287,1,0,0:0:0:0:
64,64,83494,1,0,0:0:0:0:
448,64,83598,1,8,0:0:0:0:
448,64,83804,1,8,0:0:0:0:
64,64,84011,1,0,0:0:0:0:
64,64,84115,1,0,0:0:0:0:
64,64,84322,1,0,0:0:0:0:
64,64,84529,1,0,0:0:0:0:
448,64,84736,1,8,0:0:0:0:
448,64,84839,1,0,0:0:0:0:
448,64,85046,1,0,0:0:0:0:
64,64,85253,1,0,0:0:0:0:
64,64,85356,1,0,0:0:0:0:
64,64,85563,1,0,0:0:0:0:
64,64,85770,1,0,0:0:0:0:
64,64,85977,1,0,0:0:0:0:
448,64,86080,1,8,0:0:0:0:
448,64,86287,1,8,0:0:0:0:
448,64,86598,1,8,0:0:0:0:
64,64,86804,1,0,0:0:0:0:
448,64,87011,1,8,0:0:0:0:
448,64,87115,1,8,0:0:0:0:
64,64,87322,1,0,0:0:0:0:
64,64,87529,1,0,0:0:0:0:
256,192,87736,1,8,0:0:0:0:
256,192,87839,1,0,0:0:0:0:
256,192,87942,1,8,0:0:0:0:
256,192,88046,1,8,0:0:0:0:
256,192,88149,1,0,0:0:0:0:
256,192,88253,1,8,0:0:0:0:
256,192,88356,1,0,0:0:0:0:
256,192,88770,1,0,0:0:0:0:
256,192,88873,1,0,0:0:0:0:
256,192,88977,1,8,0:0:0:0:
256,192,89080,1,8,0:0:0:0:
256,192,89184,1,0,0:0:0:0:
256,192,89287,1,8,0:0:0:0:
256,192,89391,1,0,0:0:0:0:
256,192,89804,1,0,0:0:0:0:
256,192,89908,1,0,0:0:0:0:
256,192,90011,1,8,0:0:0:0:
256,192,90115,1,8,0:0:0:0:
256,192,90218,1,0,0:0:0:0:
256,192,90322,1,0,0:0:0:0:
256,192,90425,1,8,0:0:0:0:
256,192,90632,1,0,0:0:0:0:
256,192,90736,1,0,0:0:0:0:
256,192,90839,1,8,0:0:0:0:
256,192,91149,1,0,0:0:0:0:
256,192,91460,1,8,0:0:0:0:
256,192,91667,1,8,0:0:0:0:
256,192,91873,1,0,0:0:0:0:
256,192,91977,1,0,0:0:0:0:
256,192,92080,1,8,0:0:0:0:
256,192,92184,1,0,0:0:0:0:
256,192,92287,1,8,0:0:0:0:
256,192,92391,1,8,0:0:0:0:
256,192,92494,1,0,0:0:0:0:
448,64,92856,1,8,0:0:0:0:
256,192,92908,1,8,0:0:0:0:
256,192,93115,1,8,0:0:0:0:
256,192,93218,1,8,0:0:0:0:
256,192,93322,1,0,0:0:0:0:
256,192,93425,1,8,0:0:0:0:
256,192,93529,1,0,0:0:0:0:
448,64,93891,1,8,0:0:0:0:
256,192,93942,1,8,0:0:0:0:
256,192,94149,1,0,0:0:0:0:
256,192,94356,1,0,0:0:0:0:
256,192,94563,1,8,0:0:0:0:
256,192,94615,1,8,0:0:0:0:
64,64,94770,1,0,0:0:0:0:
448,64,94977,1,8,0:0:0:0:
448,64,95028,1,8,0:0:0:0:
256,192,95597,1,8,0:0:0:0:
256,192,96218,1,8,0:0:0:0:
256,192,96321,1,0,0:0:0:0:
256,192,96424,1,8,0:0:0:0:
256,192,96528,1,8,0:0:0:0:
256,192,96631,1,0,0:0:0:0:
256,192,96735,1,8,0:0:0:0:
256,192,96838,1,0,0:0:0:0:
256,192,97252,1,0,0:0:0:0:
256,192,97355,1,0,0:0:0:0:
256,192,97459,1,8,0:0:0:0:
256,192,97562,1,8,0:0:0:0:
256,192,97666,1,0,0:0:0:0:
256,192,97769,1,8,0:0:0:0:
256,192,97873,1,0,0:0:0:0:
256,192,98286,1,0,0:0:0:0:
256,192,98390,1,0,0:0:0:0:
256,192,98493,1,8,0:0:0:0:
256,192,98597,1,8,0:0:0:0:
256,192,98700,1,0,0:0:0:0:
256,192,98804,1,0,0:0:0:0:
256,192,98907,1,8,0:0:0:0:
256,192,99114,1,0,0:0:0:0:
256,192,99218,1,0,0:0:0:0:
256,192,99321,1,8,0:0:0:0:
256,192,99528,1,0,0:0:0:0:
256,192,99631,1,8,0:0:0:0:
256,192,99735,1,0,0:0:0:0:
256,192,99838,1,0,0:0:0:0:
256,192,99942,1,8,0:0:0:0:
256,192,100149,1,8,0:0:0:0:
256,192,100355,1,0,0:0:0:0:
256,192,100459,1,0,0:0:0:0:
256,192,100562,1,8,0:0:0:0:
256,192,100666,1,8,0:0:0:0:
256,192,100769,1,0,0:0:0:0:
256,192,100873,1,8,0:0:0:0:
256,192,100976,1,0,0:0:0:0:
256,192,101390,1,0,0:0:0:0:
256,192,101493,1,0,0:0:0:0:
256,192,101597,1,8,0:0:0:0:
256,192,101700,1,8,0:0:0:0:
256,192,101804,1,0,0:0:0:0:
256,192,101907,1,0,0:0:0:0:
256,192,102011,1,8,0:0:0:0:
256,192,102424,1,0,0:0:0:0:
256,192,102528,1,0,0:0:0:0:
256,192,102631,1,8,0:0:0:0:
256,192,102735,1,0,0:0:0:0:
256,192,102838,1,8,0:0:0:0:
256,192,102942,1,8,0:0:0:0:
256,192,103045,1,0,0:0:0:0:
256,192,103252,1,0,0:0:0:0:
256,192,103355,1,0,0:0:0:0:
256,192,103459,1,8,0:0:0:0:
256,192,103769,1,0,0:0:0:0:
256,192,103924,1,8,0:0:0:0:
256,192,104079,1,0,0:0:0:0:
256,192,104234,1,8,0:0:0:0:
256,192,104390,1,0,0:0:0:0:
256,192,104700,1,8,0:0:0:0:
256,192,104803,1,0,0:0:0:0:
256,192,104906,1,8,0:0:0:0:
256,192,105010,1,8,0:0:0:0:
256,192,105113,1,0,0:0:0:0:
256,192,105217,1,8,0:0:0:0:
256,192,105320,1,0,0:0:0:0:
256,192,105734,1,0,0:0:0:0:
256,192,105837,1,0,0:0:0:0:
256,192,105941,1,8,0:0:0:0:
256,192,106044,1,8,0:0:0:0:
256,192,106148,1,0,0:0:0:0:
256,192,106251,1,8,0:0:0:0:
256,192,106355,1,0,0:0:0:0:
256,192,106768,1,0,0:0:0:0:
256,192,106872,1,0,0:0:0:0:
256,192,106975,1,8,0:0:0:0:
256,192,107079,1,8,0:0:0:0:
256,192,107182,1,0,0:0:0:0:
256,192,107286,1,0,0:0:0:0:
256,192,107389,1,8,0:0:0:0:
256,192,107596,1,0,0:0:0:0:
256,192,107700,1,0,0:0:0:0:
256,192,107803,1,8,0:0:0:0:
256,192,108010,1,0,0:0:0:0:
256,192,108113,1,8,0:0:0:0:
256,192,108217,1,0,0:0:0:0:
256,192,108320,1,0,0:0:0:0:
256,192,108424,1,8,0:0:0:0:
256,192,108631,1,8,0:0:0:0:
256,192,108837,1,0,0:0:0:0:
256,192,108941,1,8,0:0:0:0:
256,192,109044,1,8,0:0:0:0:
256,192,109148,1,8,0:0:0:0:
256,192,109251,1,0,0:0:0:0:
256,192,109355,1,8,0:0:0:0:
256,192,109458,1,0,0:0:0:0:
448,64,109820,1,8,0:0:0:0:
256,192,109872,1,8,0:0:0:0:
256,192,110079,1,8,0:0:0:0:
256,192,110182,1,8,0:0:0:0:
256,192,110286,1,0,0:0:0:0:
256,192,110389,1,8,0:0:0:0:
256,192,110493,1,0,0:0:0:0:
448,64,110855,1,8,0:0:0:0:
256,192,110906,1,8,0:0:0:0:
256,192,111113,1,0,0:0:0:0:
256,192,111217,1,8,0:0:0:0:
256,192,111320,1,0,0:0:0:0:
256,192,111527,1,8,0:0:0:0:
256,192,111579,1,8,0:0:0:0:
64,64,111734,1,0,0:0:0:0:
448,64,111941,1,8,0:0:0:0:
448,64,111992,1,8,0:0:0:0:
256,192,113182,1,4,0:0:0:0:
256,192,113388,1,8,0:0:0:0:
256,192,113492,1,8,0:0:0:0:
256,192,113595,1,0,0:0:0:0:
256,192,113699,1,8,0:0:0:0:
256,192,113802,1,0,0:0:0:0:
256,192,114009,1,8,0:0:0:0:
256,192,114216,1,4,0:0:0:0:
256,192,114423,1,8,0:0:0:0:
256,192,114526,1,8,0:0:0:0:
256,192,114630,1,0,0:0:0:0:
256,192,114733,1,8,0:0:0:0:
256,192,114837,1,0,0:0:0:0:
256,192,115044,1,8,0:0:0:0:
256,192,115250,1,4,0:0:0:0:
256,192,115457,1,8,0:0:0:0:
256,192,115561,1,8,0:0:0:0:
256,192,115664,1,0,0:0:0:0:
256,192,115768,1,8,0:0:0:0:
256,192,115871,1,0,0:0:0:0:
256,192,116078,1,8,0:0:0:0:
256,192,116285,1,4,0:0:0:0:
256,192,116492,1,4,0:0:0:0:
256,192,116699,1,4,0:0:0:0:
256,192,116906,1,4,0:0:0:0:
256,192,117113,1,4,0:0:0:0:
256,192,117319,1,12,0:0:0:0:
256,192,117423,12,0,118250,0:0:0:0:
256,192,118354,5,0,0:0:0:0:
256,192,118560,1,12,0:0:0:0:
64,64,118767,1,0,0:0:0:0:
256,192,118871,1,0,0:0:0:0:
256,192,118974,1,8,0:0:0:0:
256,192,119181,1,0,0:0:0:0:
64,64,119233,1,0,0:0:0:0:
256,192,119285,1,0,0:0:0:0:
256,192,119388,1,8,0:0:0:0:
448,64,119491,1,8,0:0:0:0:
64,64,119595,1,0,0:0:0:0:
256,192,119698,1,0,0:0:0:0:
256,192,119802,1,8,0:0:0:0:
256,192,120009,1,0,0:0:0:0:
256,192,120112,1,0,0:0:0:0:
256,192,120216,1,8,0:0:0:0:
256,192,120319,1,8,0:0:0:0:
256,192,120422,1,0,0:0:0:0:
448,64,120526,1,8,0:0:0:0:
64,64,120629,1,0,0:0:0:0:
256,192,120836,1,8,0:0:0:0:
256,192,120940,1,0,0:0:0:0:
256,192,121043,1,8,0:0:0:0:
256,192,121250,1,0,0:0:0:0:
256,192,121354,1,0,0:0:0:0:
256,192,121457,1,8,0:0:0:0:
256,192,121560,1,0,0:0:0:0:
256,192,121612,1,0,0:0:0:0:
256,192,121664,1,8,0:0:0:0:
256,192,121871,1,0,0:0:0:0:
256,192,121974,1,8,0:0:0:0:
64,64,122078,1,0,0:0:0:0:
256,192,122181,1,0,0:0:0:0:
256,192,122285,1,8,0:0:0:0:
256,192,122491,1,0,0:0:0:0:
64,64,122595,1,0,0:0:0:0:
448,64,122698,1,8,0:0:0:0:
64,64,122802,1,0,0:0:0:0:
448,64,122905,1,8,0:0:0:0:
256,192,123009,1,8,0:0:0:0:
64,64,123112,1,0,0:0:0:0:
256,192,123319,1,8,0:0:0:0:
256,192,123422,1,8,0:0:0:0:
256,192,123526,1,0,0:0:0:0:
448,64,123629,1,8,0:0:0:0:
64,64,123733,1,0,0:0:0:0:
64,64,123836,1,0,0:0:0:0:
256,192,123940,1,8,0:0:0:0:
256,192,123991,1,8,0:0:0:0:
256,192,124043,1,0,0:0:0:0:
256,192,124095,1,0,0:0:0:0:
256,192,124147,1,8,0:0:0:0:
256,192,124354,1,0,0:0:0:0:
256,192,124405,1,0,0:0:0:0:
256,192,124457,1,8,0:0:0:0:
256,192,124664,1,0,0:0:0:0:
256,192,124767,1,8,0:0:0:0:
256,192,124974,1,12,0:0:0:0:
64,64,125181,1,0,0:0:0:0:
256,192,125285,1,0,0:0:0:0:
256,192,125388,1,8,0:0:0:0:
256,192,125491,1,0,0:0:0:0:
256,192,125595,1,8,0:0:0:0:
64,64,125802,1,0,0:0:0:0:
256,192,125905,1,0,0:0:0:0:
256,192,126009,1,8,0:0:0:0:
256,192,126112,1,8,0:0:0:0:
256,192,126216,1,0,0:0:0:0:
256,192,126319,1,0,0:0:0:0:
256,192,126422,1,8,0:0:0:0:
448,64,126474,1,8,0:0:0:0:
448,64,126526,1,8,0:0:0:0:
256,192,126629,1,0,0:0:0:0:
256,192,126836,1,8,0:0:0:0:
256,192,126940,1,0,0:0:0:0:
256,192,127043,1,8,0:0:0:0:
256,192,127147,1,8,0:0:0:0:
64,64,127250,1,0,0:0:0:0:
256,192,127354,1,0,0:0:0:0:
256,192,127457,1,8,0:0:0:0:
256,192,127664,1,0,0:0:0:0:
256,192,127767,1,0,0:0:0:0:
256,192,127871,1,8,0:0:0:0:
256,192,127974,1,0,0:0:0:0:
256,192,128078,1,8,0:0:0:0:
256,192,128129,1,8,0:0:0:0:
256,192,128181,1,0,0:0:0:0:
256,192,128233,1,0,0:0:0:0:
256,192,128285,1,8,0:0:0:0:
256,192,128491,1,0,0:0:0:0:
256,192,128595,1,8,0:0:0:0:
256,192,128802,1,0,0:0:0:0:
256,192,128854,1,0,0:0:0:0:
256,192,128905,1,8,0:0:0:0:
256,192,129009,1,0,0:0:0:0:
256,192,129112,1,8,0:0:0:0:
256,192,129319,1,0,0:0:0:0:
256,192,129422,1,8,0:0:0:0:
256,192,129629,1,0,0:0:0:0:
256,192,129681,1,0,0:0:0:0:
256,192,129733,1,8,0:0:0:0:
64,64,129940,1,0,0:0:0:0:
64,64,130043,1,0,0:0:0:0:
64,64,130250,1,0,0:0:0:0:
64,64,130457,1,0,0:0:0:0:
64,64,130664,1,0,0:0:0:0:
448,64,130905,1,8,0:0:0:0:
448,64,131043,1,8,0:0:0:0:
448,64,131181,1,8,0:0:0:0:
448,64,131319,1,8,0:0:0:0:
448,64,131457,1,8,0:0:0:0:
64,64,131595,1,0,0:0:0:0:
256,192,132009,1,0,0:0:0:0:
256,192,132422,1,8,0:0:0:0:
256,192,132836,1,8,0:0:0:0:
256,192,133250,1,0,0:0:0:0:
256,192,133664,1,8,0:0:0:0:
256,192,134078,1,0,0:0:0:0:
256,192,134285,1,0,0:0:0:0:
256,192,134491,1,8,0:0:0:0:
256,192,134698,1,8,0:0:0:0:
256,192,134905,1,0,0:0:0:0:
256,192,135319,1,0,0:0:0:0:
256,192,135733,1,8,0:0:0:0:
64,64,136147,1,0,0:0:0:0:
256,192,136560,1,8,0:0:0:0:
256,192,136974,1,8,0:0:0:0:
256,192,137388,1,4,0:0:0:0:
256,192,137595,1,4,0:0:0:0:
256,192,137802,1,12,0:0:0:0:
256,192,138009,1,12,0:0:0:0:
256,192,138216,1,4,0:0:0:0:
256,192,138422,1,8,0:0:0:0:
448,64,138526,1,8,0:0:0:0:
64,64,138629,1,0,0:0:0:0:
64,64,138681,1,0,0:0:0:0:
448,64,138733,1,8,0:0:0:0:
64,64,138836,1,0,0:0:0:0:
64,64,138888,1,0,0:0:0:0:
256,192,138940,1,8,0:0:0:0:
256,192,139043,1,0,0:0:0:0:
256,192,139250,1,8,0:0:0:0:
256,192,139354,1,0,0:0:0:0:
256,192,139457,1,8,0:0:0:0:
256,192,139509,1,8,0:0:0:0:
256,192,139560,1,0,0:0:0:0:
256,192,139664,1,8,0:0:0:0:
256,192,139716,1,8,0:0:0:0:
256,192,139767,1,0,0:0:0:0:
256,192,139871,1,8,0:0:0:0:
64,64,140078,1,0,0:0:0:0:
256,192,140181,1,0,0:0:0:0:
256,192,140285,1,8,0:0:0:0:
256,192,140336,1,8,0:0:0:0:
448,64,140388,1,8,0:0:0:0:
256,192,140491,1,0,0:0:0:0:
448,64,140595,1,8,0:0:0:0:
256,192,140698,1,4,0:0:0:0:
256,192,140905,1,4,0:0:0:0:
256,192,141112,1,12,0:0:0:0:
256,192,141319,1,12,0:0:0:0:
64,64,141526,1,0,0:0:0:0:
64,64,141629,1,0,0:0:0:0:
64,64,141836,1,0,0:0:0:0:
448,64,142146,1,8,0:0:0:0:
448,64,142250,1,8,0:0:0:0:
448,64,142457,1,8,0:0:0:0:
64,64,142767,1,0,0:0:0:0:
64,64,142870,1,0,0:0:0:0:
64,64,143077,1,0,0:0:0:0:
448,64,143388,1,8,0:0:0:0:
448,64,143491,1,8,0:0:0:0:
448,64,143698,1,8,0:0:0:0:
64,64,144008,1,0,0:0:0:0:
64,64,144112,1,0,0:0:0:0:
64,64,144319,1,0,0:0:0:0:
448,64,144629,1,8,0:0:0:0:
448,64,144732,1,8,0:0:0:0:
448,64,144939,1,8,0:0:0:0:
64,64,145250,1,0,0:0:0:0:
448,64,145457,1,8,0:0:0:0:
64,64,145663,1,0,0:0:0:0:
256,192,146490,12,0,147111,0:0:0:0:
256,192,147319,5,12,0:0:0:0:
256,192,147732,1,8,0:0:0:0:
256,192,148146,1,0,0:0:0:0:
256,192,148353,1,0,0:0:0:0:
256,192,148560,1,8,0:0:0:0:
256,192,148974,1,0,0:0:0:0:
256,192,149387,1,8,0:0:0:0:
256,192,149594,1,8,0:0:0:0:
256,192,149801,1,0,0:0:0:0:
256,192,150008,1,8,0:0:0:0:
256,192,150112,1,0,0:0:0:0:
256,192,150215,1,8,0:0:0:0:
256,192,150319,1,8,0:0:0:0:
256,192,150422,1,0,0:0:0:0:
256,192,150629,1,8,0:0:0:0:
256,192,150732,1,0,0:0:0:0:
256,192,150836,1,8,0:0:0:0:
256,192,151043,1,8,0:0:0:0:
448,64,151146,1,8,0:0:0:0:
256,192,151250,1,0,0:0:0:0:
256,192,151353,1,8,0:0:0:0:
256,192,151456,1,0,0:0:0:0:
256,192,151663,1,8,0:0:0:0:
256,192,151870,1,0,0:0:0:0:
256,192,151974,1,8,0:0:0:0:
256,192,152077,1,0,0:0:0:0:
256,192,152181,1,0,0:0:0:0:
256,192,152284,1,12,0:0:0:0:
256,192,152491,1,0,0:0:0:0:
256,192,152698,1,0,0:0:0:0:
256,192,152905,1,8,0:0:0:0:
64,64,153112,1,0,0:0:0:0:
256,192,153319,1,0,0:0:0:0:
256,192,153525,1,8,0:0:0:0:
256,192,153732,1,0,0:0:0:0:
256,192,153836,1,8,0:0:0:0:
256,192,153939,1,0,0:0:0:0:
256,192,154146,1,8,0:0:0:0:
256,192,154353,1,0,0:0:0:0:
256,192,154456,1,0,0:0:0:0:
256,192,154560,1,8,0:0:0:0:
256,192,154767,1,0,0:0:0:0:
256,192,154870,1,0,0:0:0:0:
256,192,154974,1,8,0:0:0:0:
256,192,155077,1,0,0:0:0:0:
256,192,155181,1,8,0:0:0:0:
256,192,155284,1,8,0:0:0:0:
256,192,155387,1,0,0:0:0:0:
256,192,155594,1,8,0:0:0:0:
256,192,155698,1,8,0:0:0:0:
256,192,155801,1,0,0:0:0:0:
256,192,155905,1,8,0:0:0:0:
64,64,156008,1,0,0:0:0:0:
64,64,156112,1,0,0:0:0:0:
64,64,156319,1,0,0:0:0:0:
64,64,156525,1,0,0:0:0:0:
64,64,156732,1,0,0:0:0:0:
64,64,156939,1,0,0:0:0:0:
64,64,157043,1,0,0:0:0:0:
256,192,157250,1,8,0:0:0:0:
256,192,157353,1,0,0:0:0:0:
256,192,157456,1,8,0:0:0:0:
256,192,157560,1,8,0:0:0:0:
256,192,157663,1,0,0:0:0:0:
256,192,157767,1,8,0:0:0:0:
256,192,157870,1,0,0:0:0:0:
256,192,158491,1,0,0:0:0:0:
256,192,158594,1,0,0:0:0:0:
256,192,158698,1,8,0:0:0:0:
256,192,158801,1,8,0:0:0:0:
256,192,158905,1,0,0:0:0:0:
256,192,159008,1,8,0:0:0:0:
256,192,159112,1,0,0:0:0:0:
256,192,159732,1,0,0:0:0:0:
256,192,159836,1,0,0:0:0:0:
256,192,159939,1,8,0:0:0:0:
256,192,160043,1,8,0:0:0:0:
256,192,160146,1,0,0:0:0:0:
256,192,160250,1,0,0:0:0:0:
256,192,160353,1,8,0:0:0:0:
256,192,160560,1,0,0:0:0:0:
256,192,160663,1,8,0:0:0:0:
256,192,160767,1,0,0:0:0:0:
256,192,160870,1,0,0:0:0:0:
256,192,160974,1,8,0:0:0:0:
256,192,161284,1,0,0:0:0:0:
256,192,161594,1,8,0:0:0:0:
256,192,161905,1,8,0:0:0:0:
256,192,162215,1,0,0:0:0:0:
256,192,162319,1,0,0:0:0:0:
256,192,162422,1,8,0:0:0:0:
256,192,162525,1,0,0:0:0:0:
256,192,162629,1,8,0:0:0:0:
256,192,162732,1,8,0:0:0:0:
256,192,162836,1,0,0:0:0:0:
448,64,163405,1,8,0:0:0:0:
256,192,163456,1,8,0:0:0:0:
256,192,163663,1,8,0:0:0:0:
256,192,163767,1,8,0:0:0:0:
256,192,163870,1,0,0:0:0:0:
256,192,163974,1,8,0:0:0:0:
256,192,164077,1,0,0:0:0:0:
448,64,164646,1,8,0:0:0:0:
256,192,164698,1,8,0:0:0:0:
256,192,164905,1,0,0:0:0:0:
256,192,165112,1,0,0:0:0:0:
256,192,165319,1,8,0:0:0:0:
256,192,165370,1,8,0:0:0:0:
256,192,165732,1,8,0:0:0:0:
256,192,165939,1,0,0:0:0:0:
256,192,165991,1,0,0:0:0:0:
256,192,166560,1,8,0:0:0:0:
256,192,167181,1,6,0:0:0:0:
64,64,167387,1,0,0:0:0:0:
256,192,167491,1,8,0:0:0:0:
256,192,167594,1,0,0:0:0:0:
256,192,167698,1,0,0:0:0:0:
256,192,167801,1,8,0:0:0:0:
256,192,168008,1,0,0:0:0:0:
256,192,168215,1,0,0:0:0:0:
256,192,168422,1,8,0:0:0:0:
64,64,168629,1,0,0:0:0:0:
64,64,168732,1,0,0:0:0:0:
256,192,168836,1,8,0:0:0:0:
256,192,168939,1,0,0:0:0:0:
256,192,169043,1,8,0:0:0:0:
256,192,169250,1,0,0:0:0:0:
256,192,169456,1,0,0:0:0:0:
256,192,169663,1,8,0:0:0:0:
256,192,169870,1,0,0:0:0:0:
448,64,169974,1,8,0:0:0:0:
256,192,170077,1,0,0:0:0:0:
256,192,170181,1,0,0:0:0:0:
256,192,170284,1,8,0:0:0:0:
256,192,170491,1,0,0:0:0:0:
256,192,170594,1,8,0:0:0:0:
256,192,170698,1,0,0:0:0:0:
256,192,170905,1,12,0:0:0:0:
256,192,171215,1,4,0:0:0:0:
256,192,171525,1,12,0:0:0:0:
256,192,171836,1,4,0:0:0:0:
256,192,172146,1,12,0:0:0:0:
64,64,172353,1,0,0:0:0:0:
256,192,172456,1,8,0:0:0:0:
256,192,172560,1,0,0:0:0:0:
256,192,172663,1,0,0:0:0:0:
256,192,172767,1,8,0:0:0:0:
256,192,172974,1,0,0:0:0:0:
256,192,173181,1,0,0:0:0:0:
256,192,173336,1,8,0:0:0:0:
256,192,173387,1,8,0:0:0:0:
64,64,173594,1,0,0:0:0:0:
64,64,173698,1,0,0:0:0:0:
256,192,173801,1,8,0:0:0:0:
256,192,173905,1,0,0:0:0:0:
256,192,174008,1,8,0:0:0:0:
256,192,174215,1,0,0:0:0:0:
256,192,174422,1,0,0:0:0:0:
256,192,174629,1,12,0:0:0:0:
256,192,174939,1,8,0:0:0:0:
256,192,175146,1,0,0:0:0:0:
256,192,175250,1,12,0:0:0:0:
256,192,175560,1,8,0:0:0:0:
256,192,175767,1,0,0:0:0:0:
256,192,175870,1,12,0:0:0:0:
256,192,176181,1,4,0:0:0:0:
256,192,176491,1,12,0:0:0:0:
256,192,176801,1,4,0:0:0:0:
256,192,177112,1,12,0:0:0:0:
256,192,177319,1,0,0:0:0:0:
256,192,177422,1,0,0:0:0:0:
256,192,177525,1,8,0:0:0:0:
256,192,177629,1,0,0:0:0:0:
256,192,177681,1,0,0:0:0:0:
256,192,177732,1,8,0:0:0:0:
256,192,177939,1,8,0:0:0:0:
256,192,178043,1,8,0:0:0:0:
256,192,178146,1,0,0:0:0:0:
256,192,178250,1,8,0:0:0:0:
256,192,178353,1,0,0:0:0:0:
256,192,178560,1,0,0:0:0:0:
448,64,178663,1,8,0:0:0:0:
448,64,178715,1,8,0:0:0:0:
256,192,178767,1,8,0:0:0:0:
256,192,178974,1,8,0:0:0:0:
64,64,179077,1,0,0:0:0:0:
64,64,179129,1,0,0:0:0:0:
448,64,179181,1,8,0:0:0:0:
256,192,179387,1,0,0:0:0:0:
256,192,179491,1,8,0:0:0:0:
448,64,179543,1,8,0:0:0:0:
256,192,179594,1,0,0:0:0:0:
256,192,179801,1,8,0:0:0:0:
256,192,179905,1,8,0:0:0:0:
256,192,180008,1,0,0:0:0:0:
256,192,180060,1,0,0:0:0:0:
64,64,180112,1,0,0:0:0:0:
256,192,180215,1,8,0:0:0:0:
64,64,180422,1,0,0:0:0:0:
64,64,180525,1,0,0:0:0:0:
448,64,180629,1,8,0:0:0:0:
256,192,180732,1,0,0:0:0:0:
256,192,180784,1,0,0:0:0:0:
256,192,180836,1,8,0:0:0:0:
256,192,181043,1,8,0:0:0:0:
256,192,181146,1,0,0:0:0:0:
256,192,181353,1,0,0:0:0:0:
256,192,181405,1,0,0:0:0:0:
256,192,181456,1,8,0:0:0:0:
256,192,181663,1,8,0:0:0:0:
256,192,181767,1,0,0:0:0:0:
256,192,181974,1,0,0:0:0:0:
256,192,182025,1,0,0:0:0:0:
256,192,182077,1,8,0:0:0:0:
256,192,182284,1,8,0:0:0:0:
256,192,182387,1,8,0:0:0:0:
256,192,182491,1,0,0:0:0:0:
256,192,182594,1,8,0:0:0:0:
256,192,182646,1,8,0:0:0:0:
256,192,182698,1,8,0:0:0:0:
256,192,182905,1,8,0:0:0:0:
256,192,182956,1,8,0:0:0:0:
448,64,183008,1,8,0:0:0:0:
256,192,183112,1,0,0:0:0:0:
256,192,183215,1,0,0:0:0:0:
256,192,183319,1,12,0:0:0:0:
256,192,183525,1,0,0:0:0:0:
256,192,183629,1,0,0:0:0:0:
256,192,183732,1,8,0:0:0:0:
256,192,183836,1,0,0:0:0:0:
256,192,183939,1,8,0:0:0:0:
256,192,184146,1,8,0:0:0:0:
256,192,184198,1,8,0:0:0:0:
256,192,184250,1,0,0:0:0:0:
256,192,184301,1,0,0:0:0:0:
256,192,184353,1,8,0:0:0:0:
256,192,184560,1,12,0:0:0:0:
256,192,184767,1,8,0:0:0:0:
256,192,184870,1,0,0:0:0:0:
256,192,184974,1,8,0:0:0:0:
256,192,185181,1,12,0:0:0:0:
256,192,185387,1,0,0:0:0:0:
256,192,185491,1,8,0:0:0:0:
256,192,185594,1,0,0:0:0:0:
64,64,185698,1,0,0:0:0:0:
256,192,185801,1,12,0:0:0:0:
256,192,186112,1,12,0:0:0:0:
256,192,186422,1,12,0:0:0:0:
256,192,186732,1,12,0:0:0:0:
256,192,187043,1,0,0:0:0:0:
256,192,187146,1,0,0:0:0:0:
256,192,187250,1,8,0:0:0:0:
256,192,187353,1,0,0:0:0:0:
256,192,187456,1,8,0:0:0:0:
256,192,187560,1,8,0:0:0:0:
256,192,187663,1,0,0:0:0:0:
64,64,187767,1,0,0:0:0:0:
256,192,187870,1,8,0:0:0:0:
256,192,187974,1,0,0:0:0:0:
256,192,188077,1,8,0:0:0:0:
256,192,188284,1,4,0:0:0:0:
256,192,188491,1,8,0:0:0:0:
256,192,188594,1,0,0:0:0:0:
256,192,188698,1,8,0:0:0:0:
256,192,188801,1,8,0:0:0:0:
256,192,188905,1,0,0:0:0:0:
256,192,189112,1,8,0:0:0:0:
256,192,189319,1,8,0:0:0:0:
256,192,189525,1,4,0:0:0:0:
256,192,189732,1,8,0:0:0:0:
256,192,189836,1,8,0:0:0:0:
256,192,189939,1,0,0:0:0:0:
256,192,190043,1,8,0:0:0:0:
256,192,190146,1,4,0:0:0:0:
256,192,190353,1,8,0:0:0:0:
256,192,190456,1,0,0:0:0:0:
256,192,190560,1,8,0:0:0:0:
256,192,190767,1,4,0:0:0:0:
256,192,191077,1,4,0:0:0:0:
256,192,191387,1,8,0:0:0:0:
256,192,191491,1,8,0:0:0:0:
256,192,191594,1,0,0:0:0:0:
256,192,191698,1,0,0:0:0:0:
256,192,191801,1,8,0:0:0:0:
256,192,191853,1,8,0:0:0:0:
256,192,191905,1,8,0:0:0:0:
64,64,192008,1,0,0:0:0:0:
64,64,192112,1,0,0:0:0:0:
64,64,192319,1,0,0:0:0:0:
64,64,192525,1,0,0:0:0:0:
64,64,192732,1,0,0:0:0:0:
448,64,192836,1,8,0:0:0:0:
448,64,193043,1,8,0:0:0:0:
64,64,193250,1,0,0:0:0:0:
64,64,193353,1,0,0:0:0:0:
64,64,193560,1,0,0:0:0:0:
64,64,193767,1,0,0:0:0:0:
448,64,193974,1,8,0:0:0:0:
448,64,194077,1,0,0:0:0:0:
448,64,194284,1,0,0:0:0:0:
64,64,194491,1,0,0:0:0:0:
64,64,194594,1,0,0:0:0:0:
64,64,194801,1,0,0:0:0:0:
64,64,195008,1,0,0:0:0:0:
64,64,195215,1,0,0:0:0:0:
448,64,195319,1,8,0:0:0:0:
448,64,195525,1,8,0:0:0:0:
64,64,195732,1,0,0:0:0:0:
256,192,195939,1,8,0:0:0:0:
256,192,195991,1,8,0:0:0:0:
448,64,196043,1,8,0:0:0:0:
64,64,196146,1,0,0:0:0:0:
256,192,196353,1,8,0:0:0:0:
256,192,196456,1,8,0:0:0:0:
256,192,196560,1,8,0:0:0:0:
256,192,196663,1,8,0:0:0:0:
256,192,196767,1,0,0:0:0:0:
256,192,196819,1,0,0:0:0:0:
256,192,196870,1,0,0:0:0:0:
448,64,196974,1,8,0:0:0:0:
64,64,197077,1,0,0:0:0:0:
64,64,197284,1,0,0:0:0:0:
64,64,197491,1,0,0:0:0:0:
64,64,197698,1,0,0:0:0:0:
448,64,197801,1,8,0:0:0:0:
448,64,198008,1,8,0:0:0:0:
64,64,198215,1,0,0:0:0:0:
64,64,198319,1,0,0:0:0:0:
64,64,198525,1,0,0:0:0:0:
64,64,198732,1,0,0:0:0:0:
448,64,198939,1,8,0:0:0:0:
448,64,199043,1,0,0:0:0:0:
448,64,199250,1,0,0:0:0:0:
64,64,199456,1,0,0:0:0:0:
64,64,199560,1,0,0:0:0:0:
64,64,199767,1,0,0:0:0:0:
64,64,199974,1,0,0:0:0:0:
64,64,200181,1,0,0:0:0:0:
448,64,200284,1,8,0:0:0:0:
448,64,200491,1,8,0:0:0:0:
448,64,200801,1,8,0:0:0:0:
64,64,201008,1,0,0:0:0:0:
448,64,201215,1,8,0:0:0:0:
64,64,201319,1,0,0:0:0:0:
448,64,201525,1,8,0:0:0:0:
448,64,201732,1,8,0:0:0:0:
64,320,201939,1,4,0:0:0:0:
256,192,202353,1,0,0:0:0:0:
256,192,202560,1,0,0:0:0:0:
256,192,202767,1,8,0:0:0:0:
256,192,202974,1,0,0:0:0:0:
256,192,203181,1,8,0:0:0:0:
256,192,203387,1,0,0:0:0:0:
256,192,203491,1,8,0:0:0:0:
256,192,203594,1,0,0:0:0:0:
256,192,203801,1,8,0:0:0:0:
256,192,204008,1,0,0:0:0:0:
256,192,204112,1,0,0:0:0:0:
256,192,204215,1,8,0:0:0:0:
256,192,204422,1,8,0:0:0:0:
256,192,204629,1,0,0:0:0:0:
256,192,204836,1,8,0:0:0:0:
256,192,205043,1,0,0:0:0:0:
256,192,205250,1,0,0:0:0:0:
256,192,205456,1,8,0:0:0:0:
256,192,205663,1,8,0:0:0:0:
256,192,205870,1,0,0:0:0:0:
256,192,205974,1,8,0:0:0:0:
256,192,206077,1,8,0:0:0:0:
256,192,206284,12,0,206698,0:0:0:0:
256,192,206905,5,12,0:0:0:0:
256,192,207112,1,0,0:0:0:0:
256,192,207215,1,0,0:0:0:0:
256,192,207319,1,8,0:0:0:0:
256,192,207525,1,4,0:0:0:0:
256,192,207732,1,0,0:0:0:0:
256,192,207836,1,0,0:0:0:0:
256,192,207939,1,8,0:0:0:0:
256,192,208146,1,12,0:0:0:0:
256,192,208353,1,0,0:0:0:0:
256,192,208456,1,8,0:0:0:0:
256,192,208560,1,8,0:0:0:0:
256,192,208767,1,4,0:0:0:0:
256,192,208974,1,0,0:0:0:0:
256,192,209077,1,8,0:0:0:0:
256,192,209181,1,0,0:0:0:0:
256,192,209387,1,12,0:0:0:0:
256,192,209594,1,8,0:0:0:0:
256,192,209698,1,8,0:0:0:0:
256,192,209801,1,0,0:0:0:0:
256,192,210008,1,12,0:0:0:0:
256,192,210215,1,0,0:0:0:0:
256,192,210319,1,8,0:0:0:0:
256,192,210422,1,0,0:0:0:0:
256,192,210629,1,12,0:0:0:0:
256,192,210939,1,4,0:0:0:0:
256,192,211250,1,12,0:0:0:0:
256,192,211456,1,8,0:0:0:0:
256,192,211508,1,8,0:0:0:0:
256,192,211560,1,0,0:0:0:0:
256,192,211663,1,8,0:0:0:0:
448,64,211715,1,8,0:0:0:0:
64,64,211767,1,0,0:0:0:0:
448,320,211870,1,12,0:0:0:0:
64,64,212077,1,0,0:0:0:0:
256,192,212181,1,8,0:0:0:0:
256,192,212284,1,0,0:0:0:0:
256,192,212491,1,8,0:0:0:0:
256,192,212698,1,0,0:0:0:0:
256,192,212801,1,0,0:0:0:0:
256,192,212905,1,8,0:0:0:0:
256,192,213112,1,0,0:0:0:0:
256,192,213319,1,8,0:0:0:0:
256,192,213422,1,8,0:0:0:0:
256,192,213525,1,0,0:0:0:0:
256,192,213732,1,8,0:0:0:0:
256,192,213939,1,0,0:0:0:0:
256,192,214043,1,0,0:0:0:0:
256,192,214146,1,8,0:0:0:0:
256,192,214250,1,0,0:0:0:0:
256,192,214353,1,8,0:0:0:0:
256,192,214560,1,0,0:0:0:0:
256,192,214767,1,8,0:0:0:0:
256,192,214870,1,0,0:0:0:0:
256,192,214974,1,8,0:0:0:0:
256,192,215181,1,0,0:0:0:0:
256,192,215284,1,0,0:0:0:0:
256,192,215387,1,8,0:0:0:0:
256,192,215594,1,0,0:0:0:0:
256,192,215801,1,8,0:0:0:0:
256,192,215905,1,8,0:0:0:0:
256,192,216008,1,8,0:0:0:0:
64,64,216215,1,0,0:0:0:0:
256,192,216319,1,0,0:0:0:0:
256,192,216422,1,8,0:0:0:0:
256,192,216525,1,8,0:0:0:0:
256,192,216629,1,0,0:0:0:0:
256,192,216681,1,0,0:0:0:0:
64,64,216732,1,0,0:0:0:0:
448,320,216836,1,12,0:0:0:0:
64,64,217043,1,0,0:0:0:0:
256,192,217250,1,8,0:0:0:0:
256,192,217456,1,0,0:0:0:0:
256,192,217663,1,8,0:0:0:0:
256,192,217767,1,0,0:0:0:0:
256,192,217870,1,8,0:0:0:0:
64,64,218077,1,0,0:0:0:0:
64,64,218181,1,0,0:0:0:0:
64,64,218387,1,0,0:0:0:0:
256,192,218594,1,8,0:0:0:0:
448,64,218698,1,8,0:0:0:0:
64,64,218801,1,0,0:0:0:0:
448,64,218905,1,8,0:0:0:0:
64,64,219008,1,0,0:0:0:0:
256,192,219215,1,8,0:0:0:0:
64,64,219319,1,0,0:0:0:0:
256,192,219525,1,8,0:0:0:0:
256,192,219629,1,0,0:0:0:0:
256,192,219732,1,0,0:0:0:0:
256,192,219836,1,0,0:0:0:0:
256,192,219939,1,8,0:0:0:0:
64,64,220146,1,0,0:0:0:0:
256,192,220250,1,8,0:0:0:0:
256,192,220353,1,0,0:0:0:0:
256,192,220456,1,0,0:0:0:0:
256,192,220560,1,8,0:0:0:0:
448,64,220767,1,8,0:0:0:0:
448,64,220870,1,8,0:0:0:0:
64,64,220974,1,0,0:0:0:0:
64,64,221025,1,0,0:0:0:0:
256,192,221077,1,0,0:0:0:0:
256,192,221181,1,12,0:0:0:0:
256,192,221387,1,12,0:0:0:0:
256,192,221594,1,12,0:0:0:0:
256,192,221801,1,4,0:0:0:0:
256,192,222008,1,8,0:0:0:0:
256,192,222112,1,8,0:0:0:0:
256,192,222215,1,0,0:0:0:0:
256,192,222319,1,0,0:0:0:0:
256,192,222422,1,8,0:0:0:0:
256,192,222629,1,0,0:0:0:0:
256,192,222732,1,0,0:0:0:0:
256,192,222836,1,8,0:0:0:0:
256,192,223043,1,8,0:0:0:0:
256,192,223146,1,0,0:0:0:0:
256,192,223250,1,8,0:0:0:0:
256,192,223353,1,8,0:0:0:0:
256,192,223456,1,0,0:0:0:0:
256,192,223560,1,0,0:0:0:0:
256,192,223663,1,8,0:0:0:0:
256,192,223870,1,0,0:0:0:0:
256,192,223974,1,8,0:0:0:0:
256,192,224077,1,0,0:0:0:0:
256,192,224284,1,8,0:0:0:0:
256,192,224387,1,8,0:0:0:0:
256,192,224491,1,0,0:0:0:0:
256,192,224594,1,8,0:0:0:0:
256,192,224698,1,0,0:0:0:0:
256,192,224801,1,0,0:0:0:0:
256,192,224905,1,8,0:0:0:0:
256,192,225112,1,0,0:0:0:0:
256,192,225319,1,8,0:0:0:0:
256,192,225422,1,8,0:0:0:0:
256,192,225525,1,8,0:0:0:0:
256,192,225732,1,0,0:0:0:0:
256,192,225836,1,0,0:0:0:0:
256,192,225939,1,8,0:0:0:0:
256,192,226043,1,0,0:0:0:0:
256,192,226146,1,8,0:0:0:0:
256,192,226353,1,0,0:0:0:0:
256,192,226456,1,0,0:0:0:0:
256,192,226560,1,8,0:0:0:0:
256,192,226612,1,8,0:0:0:0:
256,192,226663,1,8,0:0:0:0:
256,192,226767,1,4,0:0:0:0:
256,192,226974,1,8,0:0:0:0:
256,192,227077,1,0,0:0:0:0:
256,192,227181,1,8,0:0:0:0:
256,192,227284,1,8,0:0:0:0:
256,192,227387,1,0,0:0:0:0:
256,192,227594,1,8,0:0:0:0:
256,192,227698,1,8,0:0:0:0:
256,192,227801,1,8,0:0:0:0:
256,192,228008,1,0,0:0:0:0:
256,192,228215,1,8,0:0:0:0:
256,192,228422,1,0,0:0:0:0:
256,192,228525,1,0,0:0:0:0:
256,192,228629,1,8,0:0:0:0:
256,192,228836,1,8,0:0:0:0:
256,192,228939,1,0,0:0:0:0:
256,192,229043,1,0,0:0:0:0:
256,192,229146,1,0,0:0:0:0:
256,192,229250,1,8,0:0:0:0:
256,192,229456,1,0,0:0:0:0:
256,192,229663,1,8,0:0:0:0:
256,192,229767,1,8,0:0:0:0:
256,192,229870,1,0,0:0:0:0:
256,192,229974,1,0,0:0:0:0:
256,192,230077,1,8,0:0:0:0:
256,192,230181,1,0,0:0:0:0:
256,192,230284,1,8,0:0:0:0:
256,192,230491,1,0,0:0:0:0:
256,192,230698,1,8,0:0:0:0:
256,192,230905,1,0,0:0:0:0:
256,192,231008,1,0,0:0:0:0:
256,192,231112,1,8,0:0:0:0:
256,192,231215,1,8,0:0:0:0:
256,192,231319,1,0,0:0:0:0:
256,192,231422,1,8,0:0:0:0:
256,192,231525,1,0,0:0:0:0:
256,192,231629,1,0,0:0:0:0:
448,64,231732,1,8,0:0:0:0:
256,192,231939,1,0,0:0:0:0:
256,192,232043,1,8,0:0:0:0:
256,192,232146,1,0,0:0:0:0:
256,192,232353,1,8,0:0:0:0:
256,192,232456,1,0,0:0:0:0:
256,192,232560,1,8,0:0:0:0:
256,192,232663,1,8,0:0:0:0:
256,192,232767,1,0,0:0:0:0:
256,192,232819,1,0,0:0:0:0:
256,192,232870,1,0,0:0:0:0:
448,64,232974,1,8,0:0:0:0:
448,64,233077,1,8,0:0:0:0:
448,64,233284,1,8,0:0:0:0:
448,64,233491,1,8,0:0:0:0:
64,64,233594,1,0,0:0:0:0:
64,64,233698,1,0,0:0:0:0:
448,64,233905,1,8,0:0:0:0:
64,64,234112,1,0,0:0:0:0:
448,64,234215,1,8,0:0:0:0:
448,64,234319,1,8,0:0:0:0:
64,64,234525,1,0,0:0:0:0:
64,64,234732,1,0,0:0:0:0:
448,64,234836,1,8,0:0:0:0:
448,64,235043,1,8,0:0:0:0:
64,64,235250,1,0,0:0:0:0:
64,64,235353,1,0,0:0:0:0:
448,64,235456,1,8,0:0:0:0:
256,192,235663,1,0,0:0:0:0:
256,192,235870,1,0,0:0:0:0:
448,64,236077,1,8,0:0:0:0:
256,192,236284,1,0,0:0:0:0:
256,192,236491,1,8,0:0:0:0:
256,192,236698,1,0,0:0:0:0:
256,192,236801,1,0,0:0:0:0:
256,192,236905,1,0,0:0:0:0:
256,192,237008,1,0,0:0:0:0:
256,192,237112,1,0,0:0:0:0:
256,192,237215,1,0,0:0:0:0:
256,192,237319,1,12,0:0:0:0:
256,192,237422,12,0,237732,0:0:0:0:
256,192,237939,5,12,0:0:0:0:
256,192,238250,1,8,0:0:0:0:
256,192,238560,1,0,0:0:0:0:
256,192,238767,1,0,0:0:0:0:
256,192,238974,1,0,0:0:0:0:
256,192,239181,1,8,0:0:0:0:
256,192,239491,1,8,0:0:0:0:
256,192,239801,1,0,0:0:0:0:
256,192,240008,1,0,0:0:0:0:
256,192,240215,1,0,0:0:0:0:
256,192,240422,1,8,0:0:0:0:
256,192,240732,1,0,0:0:0:0:
256,192,241043,1,8,0:0:0:0:
256,192,241250,1,8,0:0:0:0:
256,192,241456,1,8,0:0:0:0:
256,192,241663,1,0,0:0:0:0:
256,192,242077,1,8,0:0:0:0:
0,384,242284,6,0,L|512:384,1,168.083997137546
256,192,242905,1,0,0:0:0:0:
256,192,243008,1,0,0:0:0:0:
256,192,243112,1,8,0:0:0:0:
256,192,243215,1,0,0:0:0:0:
256,192,243319,1,8,0:0:0:0:
256,192,243422,1,8,0:0:0:0:
256,192,243525,1,0,0:0:0:0:
256,192,243732,1,0,0:0:0:0:
256,192,243836,1,0,0:0:0:0:
256,192,243939,1,8,0:0:0:0:
256,192,244146,1,8,0:0:0:0:
256,192,244250,1,8,0:0:0:0:
256,192,244353,1,0,0:0:0:0:
256,192,244456,1,8,0:0:0:0:
256,192,244560,1,0,0:0:0:0:
256,192,244767,1,8,0:0:0:0:
256,192,244870,1,8,0:0:0:0:
256,192,244974,1,0,0:0:0:0:
256,192,245077,1,0,0:0:0:0:
256,192,245181,1,8,0:0:0:0:
256,192,245284,1,0,0:0:0:0:
448,64,245387,1,8,0:0:0:0:
448,64,245491,1,8,0:0:0:0:
64,64,245698,1,0,0:0:0:0:
64,64,245905,1,0,0:0:0:0:
448,64,246008,1,8,0:0:0:0:
448,64,246112,1,8,0:0:0:0:
64,64,246319,1,0,0:0:0:0:
64,64,246525,1,0,0:0:0:0:
448,64,246629,1,8,0:0:0:0:
448,64,246836,1,8,0:0:0:0:
448,64,247043,1,8,0:0:0:0:
64,64,247250,1,0,0:0:0:0:
256,192,247663,1,0,0:0:0:0:
256,192,247870,1,12,0:0:0:0:
64,64,248077,1,0,0:0:0:0:
64,64,248181,1,0,0:0:0:0:
448,64,248284,1,8,0:0:0:0:
256,192,248387,1,0,0:0:0:0:
256,192,248439,1,0,0:0:0:0:
256,192,248491,1,8,0:0:0:0:
256,192,248698,1,8,0:0:0:0:
256,192,248801,1,8,0:0:0:0:
256,192,248905,1,0,0:0:0:0:
256,192,249008,1,8,0:0:0:0:
256,192,249060,1,8,0:0:0:0:
256,192,249112,1,0,0:0:0:0:
256,192,249319,1,8,0:0:0:0:
256,192,249422,1,8,0:0:0:0:
256,192,249525,1,0,0:0:0:0:
256,192,249629,1,0,0:0:0:0:
256,192,249732,1,8,0:0:0:0:
256,192,249836,1,0,0:0:0:0:
256,192,249887,1,0,0:0:0:0:
256,192,249939,1,8,0:0:0:0:
64,64,250146,1,0,0:0:0:0:
256,192,250353,1,12,0:0:0:0:
256,192,250560,1,0,0:0:0:0:
256,192,250663,1,0,0:0:0:0:
256,192,250767,1,0,0:0:0:0:
256,192,250870,1,0,0:0:0:0:
256,192,250974,1,12,0:0:0:0:
256,192,251181,1,8,0:0:0:0:
256,192,251284,1,8,0:0:0:0:
256,192,251387,1,8,0:0:0:0:
256,192,251491,1,8,0:0:0:0:
256,192,251594,1,4,0:0:0:0:
256,192,251905,1,4,0:0:0:0:
256,192,252215,1,12,0:0:0:0:
256,192,252319,12,0,252732,0:0:0:0:
256,192,252836,5,12,0:0:0:0:
256,192,253043,1,0,0:0:0:0:
256,192,253146,1,0,0:0:0:0:
256,192,253250,1,8,0:0:0:0:
64,64,253353,1,0,0:0:0:0:
448,64,253456,1,8,0:0:0:0:
256,192,253663,1,0,0:0:0:0:
256,192,253767,1,0,0:0:0:0:
256,192,253870,1,8,0:0:0:0:
256,192,253974,1,8,0:0:0:0:
256,192,254077,1,0,0:0:0:0:
256,192,254284,1,8,0:0:0:0:
256,192,254387,1,0,0:0:0:0:
256,192,254491,1,8,0:0:0:0:
256,192,254594,1,8,0:0:0:0:
256,192,254698,1,0,0:0:0:0:
256,192,254905,1,0,0:0:0:0:
256,192,255008,1,0,0:0:0:0:
256,192,255112,1,8,0:0:0:0:
256,192,255215,1,0,0:0:0:0:
448,64,255319,1,8,0:0:0:0:
448,64,255525,1,8,0:0:0:0:
448,64,255939,1,8,0:0:0:0:
64,64,256043,1,0,0:0:0:0:
448,64,256146,1,8,0:0:0:0:
64,64,256560,1,0,0:0:0:0:
64,64,256767,1,0,0:0:0:0:
64,64,256974,1,0,0:0:0:0:
256,192,257181,12,0,257801,0:0:0:0:
256,192,258007,5,12,0:0:0:0:
256,192,258214,1,0,0:0:0:0:
256,192,258318,1,0,0:0:0:0:
256,192,258421,1,8,0:0:0:0:
256,192,258525,1,8,0:0:0:0:
256,192,258628,1,0,0:0:0:0:
256,192,258680,1,8,0:0:0:0:
256,192,258732,1,0,0:0:0:0:
256,192,258783,1,0,0:0:0:0:
256,192,258835,1,8,0:0:0:0:
256,192,259042,1,8,0:0:0:0:
256,192,259094,1,8,0:0:0:0:
256,192,259145,1,0,0:0:0:0:
256,192,259197,1,0,0:0:0:0:
256,192,259249,1,8,0:0:0:0:
64,64,259456,1,0,0:0:0:0:
256,192,259559,1,0,0:0:0:0:
256,192,259663,1,8,0:0:0:0:
256,192,259766,1,8,0:0:0:0:
256,192,259869,1,0,0:0:0:0:
256,192,259921,1,0,0:0:0:0:
256,192,259973,1,0,0:0:0:0:
256,192,260076,1,8,0:0:0:0:
256,192,260283,1,0,0:0:0:0:
256,192,260335,1,0,0:0:0:0:
64,64,260387,1,0,0:0:0:0:
256,192,260490,1,8,0:0:0:0:
256,192,260594,1,0,0:0:0:0:
256,192,260697,1,8,0:0:0:0:
256,192,260904,1,8,0:0:0:0:
256,192,260956,1,8,0:0:0:0:
256,192,261007,1,0,0:0:0:0:
256,192,261059,1,0,0:0:0:0:
256,192,261111,1,8,0:0:0:0:
256,192,261318,1,8,0:0:0:0:
256,192,261421,1,0,0:0:0:0:
256,192,261525,1,8,0:0:0:0:
256,192,261576,1,8,0:0:0:0:
256,192,261628,1,0,0:0:0:0:
256,192,261732,1,8,0:0:0:0:
256,192,261783,1,8,0:0:0:0:
256,192,261835,1,0,0:0:0:0:
256,192,261938,1,8,0:0:0:0:
256,192,262145,1,8,0:0:0:0:
256,192,262249,1,0,0:0:0:0:
256,192,262352,1,8,0:0:0:0:
256,192,262404,1,8,0:0:0:0:
256,192,262456,1,0,0:0:0:0:
256,192,262559,1,8,0:0:0:0:
256,192,262611,1,8,0:0:0:0:
256,192,262663,1,0,0:0:0:0:
256,192,262766,1,8,0:0:0:0:
256,192,262973,1,8,0:0:0:0:
256,192,263076,1,0,0:0:0:0:
256,192,263180,1,8,0:0:0:0:
256,192,263232,1,8,0:0:0:0:
256,192,263283,1,0,0:0:0:0:
256,192,263387,1,8,0:0:0:0:
256,192,263438,1,8,0:0:0:0:
256,192,263490,1,0,0:0:0:0:
256,192,263542,1,0,0:0:0:0:
256,192,263594,1,8,0:0:0:0:
256,192,263801,1,0,0:0:0:0:
256,192,263852,1,0,0:0:0:0:
256,192,263904,1,8,0:0:0:0:
256,192,264111,1,0,0:0:0:0:
256,192,264214,1,8,0:0:0:0:
256,192,264421,1,0,0:0:0:0:
256,192,264628,1,12,0:0:0:0:
256,192,264835,1,0,0:0:0:0:
256,192,264938,1,0,0:0:0:0:
256,192,265042,1,8,0:0:0:0:
256,192,265145,1,0,0:0:0:0:
256,192,265249,1,8,0:0:0:0:
256,192,265352,1,0,0:0:0:0:
256,192,265404,1,0,0:0:0:0:
256,192,265456,1,8,0:0:0:0:
256,192,265663,1,8,0:0:0:0:
256,192,265714,1,8,0:0:0:0:
256,192,265766,1,8,0:0:0:0:
256,192,265869,1,0,0:0:0:0:
256,192,265973,1,0,0:0:0:0:
256,192,266076,1,8,0:0:0:0:
64,64,266283,1,0,0:0:0:0:
448,64,266387,1,8,0:0:0:0:
64,64,266490,1,0,0:0:0:0:
256,192,266594,1,0,0:0:0:0:
256,192,266697,1,8,0:0:0:0:
256,192,266904,1,0,0:0:0:0:
256,192,267007,1,8,0:0:0:0:
64,64,267111,1,0,0:0:0:0:
256,192,267318,1,8,0:0:0:0:
256,192,267421,1,8,0:0:0:0:
256,192,267525,1,0,0:0:0:0:
256,192,267576,1,0,0:0:0:0:
256,192,267628,1,0,0:0:0:0:
256,192,267732,1,8,0:0:0:0:
256,192,267938,1,8,0:0:0:0:
256,192,268042,1,0,0:0:0:0:
256,192,268145,1,8,0:0:0:0:
256,192,268197,1,8,0:0:0:0:
256,192,268249,1,0,0:0:0:0:
256,192,268352,1,8,0:0:0:0:
256,192,268404,1,8,0:0:0:0:
256,192,268456,1,0,0:0:0:0:
256,192,268559,1,8,0:0:0:0:
256,192,268766,1,8,0:0:0:0:
256,192,268869,1,0,0:0:0:0:
256,192,268973,1,8,0:0:0:0:
256,192,269025,1,8,0:0:0:0:
256,192,269076,1,0,0:0:0:0:
256,192,269180,1,8,0:0:0:0:
448,64,269232,1,8,0:0:0:0:
64,64,269283,1,0,0:0:0:0:
256,192,269387,1,8,0:0:0:0:
256,192,269594,1,8,0:0:0:0:
256,192,269697,1,0,0:0:0:0:
256,192,269801,1,8,0:0:0:0:
256,192,269852,1,8,0:0:0:0:
256,192,269904,1,0,0:0:0:0:
64,64,269956,1,0,0:0:0:0:
256,192,270007,1,8,0:0:0:0:
256,192,270214,1,8,0:0:0:0:
448,64,270266,1,8,0:0:0:0:
448,64,270318,1,8,0:0:0:0:
256,192,270421,1,0,0:0:0:0:
448,64,270525,1,8,0:0:0:0:
256,192,270576,1,8,0:0:0:0:
448,64,270628,1,8,0:0:0:0:
64,64,270835,1,0,0:0:0:0:
64,64,270887,1,0,0:0:0:0:
64,64,270938,1,0,0:0:0:0:
256,192,271042,1,8,0:0:0:0:
256,192,271249,1,0,0:0:0:0:
256,192,271456,1,8,0:0:0:0:
256,192,271663,1,0,0:0:0:0:
256,192,271869,1,8,0:0:0:0:
256,192,272076,1,0,0:0:0:0:
256,192,272283,1,8,0:0:0:0:
256,192,272490,1,0,0:0:0:0:
256,192,272697,1,8,0:0:0:0:
256,192,272801,1,0,0:0:0:0:
256,192,272904,1,8,0:0:0:0:
256,192,273007,1,0,0:0:0:0:
256,192,273111,1,8,0:0:0:0:
256,192,273214,1,0,0:0:0:0:
256,192,273318,1,8,0:0:0:0:
256,192,273525,1,8,0:0:0:0:
256,192,273628,1,8,0:0:0:0:
256,192,273732,1,8,0:0:0:0:
256,192,273835,1,8,0:0:0:0:
256,192,273938,1,0,0:0:0:0:
256,192,273990,1,0,0:0:0:0:
256,192,274042,1,8,0:0:0:0:
256,192,274145,1,0,0:0:0:0:
256,192,274197,1,0,0:0:0:0:
256,192,274249,1,8,0:0:0:0:
256,192,274352,12,0,276421,0:0:0:0:
