osu file format v14

[General]
AudioFilename: audio.mp3
AudioLeadIn: 0
PreviewTime: 118349
Countdown: 0
SampleSet: Normal
StackLeniency: 0.7
Mode: 1
LetterboxInBreaks: 0
WidescreenStoryboard: 0

[Editor]
Bookmarks: 3110,15731,25662,35593,45524,57937,77799,87731,113177,118349,138211,147314,157245,167176,187038,201934,211865,237934,247865,257796,276519
DistanceSpacing: 1
BeatDivisor: 4
GridSize: 32
TimelineZoom: 3.199999

[Metadata]
Title:ALiCE iN ViNEGAR SiNDROME
TitleUnicode:ALiCE iN ViNEGAR SiNDROME
Artist:seatrus
ArtistUnicode:seatrus
Creator:Ph0eNiiXZ
Version:LOST iN WONDERLAND
Source:
Tags:phoeniixz phoenix mapping to pander: taiko m2p #4 m2p#4 Mystica​:​ll Mystica​ ll Refrain featured artist fa deep house drum & bass artcore hardcore electronic instrumental
BeatmapID:3987630
BeatmapSetID:1930392

[Difficulty]
HPDrainRate:4.8
CircleSize:2
OverallDifficulty:7.2
ApproachRate:10
SliderMultiplier:1.4
SliderTickRate:3

[Events]
//Background and Video events
0,0,"71333509_p00.jpg",0,0
//Break Periods
//Storyboard Layer 0 (Background)
//Storyboard Layer 1 (Fail)
//Storyboard Layer 2 (Pass)
//Storyboard Layer 3 (Foreground)
//Storyboard Layer 4 (Overlay)
//Storyboard Sound Samples

[TimingPoints]
634,206.896551724138,6,1,0,50,1,0
634,-250,6,1,0,50,0,0
3116,206.896551724138,6,1,0,50,1,0
3116,-250,6,1,0,50,0,0
3312,-250.301591406327,6,1,0,50,0,0
3519,-250.92007512748,6,1,0,50,0,0
3726,-251.768462396784,6,1,0,50,0,0
3933,-252.815662456947,6,1,0,50,0,0
4140,-254.044931729894,6,1,0,50,0,0
4347,-255.446309045146,6,1,0,50,0,0
4657,-257.854553097008,6,1,0,50,0,0
4761,-258.744098663505,6,1,0,50,0,0
4968,-260.635779271562,6,1,0,50,0,0
5174,-262.678662777793,6,1,0,50,0,0
5381,-264.893956846818,6,1,0,50,0,0
5588,-267.274614066447,6,1,0,50,0,0
5795,-269.824116745293,6,1,0,50,0,0
6002,-272.546894283528,6,1,0,50,0,0
6209,-275.44829744377,6,1,0,50,0,0
6416,-278.534596460583,6,1,0,50,0,0
6623,-281.812998843298,6,1,0,50,0,0
6830,-285.291684490244,6,1,0,50,0,0
7140,-290.896235194319,6,1,0,50,0,0
7243,-292.868385264764,6,1,0,50,0,0
7450,-297.006441323996,6,1,0,50,0,0
7864,-306.028464820007,6,1,0,50,0,0
7968,-308.461954774779,6,1,0,50,0,0
8071,-310.942224850509,6,1,0,50,0,0
8278,-316.147065055178,6,1,0,50,0,0
8485,-321.662234200596,6,1,0,50,0,0
8692,-327.509092201059,6,1,0,50,0,0
9106,-340.295471275355,6,1,0,50,0,0
9209,-343.722882197097,6,1,0,50,0,0
9312,-347.255996152604,6,1,0,50,0,0
9519,-354.693258443289,6,1,0,50,0,0
9726,-362.611278878767,6,1,0,50,0,0
9933,-371.051359256604,6,1,0,50,0,0
10243,-384.770424469773,6,1,0,50,0,0
10564,206.896551724138,99,1,0,50,1,0
10564,-400,99,1,0,50,0,0
10667,-1000,99,1,0,20,0,0
12632,-1000,99,1,0,40,0,0
13046,-100,99,1,0,45,0,0
13253,-100,99,1,0,50,0,0
13460,-100,99,1,0,55,0,0
13667,-100,99,1,0,60,0,0
13874,-100,99,1,0,65,0,0
14081,-100,99,1,0,70,0,0
14288,-100,99,1,0,75,0,0
14495,-100,99,1,0,80,0,0
14701,-100,99,1,0,85,0,0
14908,-100,99,1,0,90,0,0
15115,-100,99,1,0,95,0,0
15322,-100,99,1,0,100,0,0
15736,206.896551724138,6,1,0,100,1,1
15736,-125,6,1,0,100,0,1
15932,-138.888888888889,6,1,0,100,0,1
16036,-135.117493472585,6,1,0,100,0,1
16139,-131.578947368421,6,1,0,100,0,1
16243,-128.189249442655,6,1,0,100,0,1
16346,-125,6,1,0,100,0,1
16553,-138.888888888889,6,1,0,100,0,1
16657,-135.117493472585,6,1,0,100,0,1
16760,-131.578947368421,6,1,0,100,0,1
16863,-128.221010901883,6,1,0,100,0,1
16967,-125,6,1,0,100,0,1
17174,-138.888888888889,6,1,0,100,0,1
17277,-135.152781405067,6,1,0,100,0,1
17381,-131.578947368421,6,1,0,100,0,1
17484,-128.221010901883,6,1,0,100,0,1
17588,-125,6,1,0,100,0,1
17794,-138.888888888889,6,1,0,100,0,1
17898,-135.117493472585,6,1,0,100,0,1
18001,-131.578947368421,6,1,0,100,0,1
18105,-128.189249442655,6,1,0,100,0,1
18208,-125,6,1,0,100,0,1
18415,-138.888888888889,6,1,0,100,0,1
18519,-135.117493472585,6,1,0,100,0,1
18622,-131.578947368421,6,1,0,100,0,1
18726,-128.189249442655,6,1,0,100,0,1
18829,-125,6,1,0,100,0,1
19036,-138.888888888889,6,1,0,100,0,1
19139,-135.152781405067,6,1,0,100,0,1
19243,-131.578947368421,6,1,0,100,0,1
19346,-128.221010901883,6,1,0,100,0,1
19450,-125,6,1,0,100,0,1
19657,-138.888888888889,6,1,0,100,0,1
19760,-135.143979057592,6,1,0,100,0,1
19863,-131.595717563089,6,1,0,100,0,1
19967,-128.197169108518,6,1,0,100,0,1
20070,-125,6,1,0,100,0,1
20277,-138.888888888889,6,1,0,100,0,1
20381,-135.117493472585,6,1,0,100,0,1
20484,-131.578947368421,6,1,0,100,0,1
20588,-128.189249442655,6,1,0,100,0,1
20691,-125,6,1,0,100,0,1
20898,-128.313712422434,6,1,0,100,0,1
21001,-129.995150754775,6,1,0,100,0,1
21105,-131.715270365017,6,1,0,100,0,1
21208,-133.441283122073,6,1,0,100,0,1
21312,-135.207002586079,6,1,0,100,0,1
21415,-136.97877142245,6,1,0,100,0,1
21519,-138.791299578635,6,1,0,100,0,1
21622,-140.610037474228,6,1,0,100,0,1
21726,-142.470615206951,6,1,0,100,0,1
21829,-144.337567297407,6,1,0,100,0,1
21932,-146.228984152775,6,1,0,100,0,1
22036,-148.163912815625,6,1,0,100,0,1
22139,-150.10547056323,6,1,0,100,0,1
22243,-152.091693603253,6,1,0,100,0,1
22346,-154.084721463076,6,1,0,100,0,1
22450,-156.12359867879,6,1,0,100,0,1
22553,-158.169461108031,6,1,0,100,0,1
22657,-160.262388345806,6,1,0,100,0,1
22760,-162.362485973018,6,1,0,100,0,1
22863,-164.49010353232,6,1,0,100,0,1
22967,-166.666666666667,6,1,0,100,0,1
23174,-152.164775115595,6,1,0,100,0,1
23277,-145.850120870266,6,1,0,100,0,1
23381,-139.984532095901,6,1,0,100,0,1
23484,-134.622536258832,6,1,0,100,0,1
23588,-129.609738632295,6,1,0,100,0,1
23691,-125,6,1,0,100,0,1
23794,-120.706902300767,6,1,0,100,0,1
23846,-118.649623074402,6,1,0,100,0,1
23898,-116.661295520464,6,1,0,100,0,1
23950,-114.738510301109,6,1,0,100,0,1
24001,-112.913287585777,6,1,0,100,0,1
24053,-111.111111111111,6,1,0,100,0,1
24105,-109.365558912387,6,1,0,100,0,1
24157,-107.674003569304,6,1,0,100,0,1
24208,-106.065045414591,6,1,0,100,0,1
24260,-104.473304473304,6,1,0,100,0,1
24312,-102.928632357123,6,1,0,100,0,1
24363,-101.457399103139,6,1,0,100,0,1
24415,-100,6,1,0,100,0,1
25667,-100,6,1,0,100,0,0
25873,-200,6,1,0,60,0,0
28253,-200,6,1,0,70,0,0
29174,-200,6,1,0,70,0,0
29287,-184.200483399059,6,1,0,80,0,0
29484,-177.233782129743,6,1,0,80,0,0
29588,-170.714454138175,6,1,0,80,0,0
29691,-164.713911955409,6,1,0,80,0,0
29794,-159.120879120879,6,1,0,80,0,0
29898,-153.846153846154,6,1,0,80,0,0
30001,-148.955868737784,6,1,0,80,0,0
30105,-144.323731685438,6,1,0,80,0,0
30208,-140.011603171534,6,1,0,80,0,0
30270,-135.911394781303,6,1,0,100,0,0
30363,-133.987230498751,6,1,0,100,0,0
30415,-132.08063486272,6,1,0,100,0,0
30467,-130.227538447702,6,1,0,100,0,0
30519,-128.425720620843,6,1,0,100,0,0
30570,-126.706335316766,6,1,0,100,0,0
30622,-125,6,1,0,100,0,0
30735,-127.908283691132,6,1,0,100,0,0
30932,-129.406413463725,6,1,0,100,0,0
31036,-130.955120828539,6,1,0,100,0,0
31243,-134.150654249676,6,1,0,100,0,0
31450,-137.506041565974,6,1,0,100,0,0
31553,-139.23895754313,6,1,0,100,0,0
31657,-141.033585326558,6,1,0,100,0,0
31863,-144.728475136716,6,1,0,100,0,0
32070,-148.641588296761,6,1,0,100,0,0
32174,-150.688559322034,6,1,0,100,0,0
32277,-152.772184185797,6,1,0,100,0,0
32484,-157.138911902789,6,1,0,100,0,0
32691,-161.762615493959,6,1,0,100,0,0
32794,-164.166185804963,6,1,0,100,0,0
32898,-166.666666666667,6,1,0,100,0,0
33011,-158.533710513908,6,1,0,80,0,0
33208,-154.775604142693,6,1,0,80,0,0
33312,-151.157563497415,6,1,0,80,0,0
33415,-147.737258347979,6,1,0,80,0,0
33519,-144.437285223368,6,1,0,80,0,0
33622,-141.311199831898,6,1,0,80,0,0
33726,-138.289121941189,6,1,0,80,0,0
33829,-135.420861860653,6,1,0,80,0,0
33932,-132.669165515881,6,1,0,80,0,0
34036,-130.001933114247,6,1,0,80,0,0
34139,-127.463987869598,6,1,0,80,0,0
34243,-125,6,1,0,80,0,0
34304,-100,6,1,0,100,0,0
35494,-200,6,1,0,50,0,0
39312,-200,6,1,0,50,0,0
39622,-206.888888888889,6,1,0,50,0,0
39932,-214.269275028769,6,1,0,50,0,0
40243,-222.222222222222,6,1,0,50,0,0
40460,-200,6,1,0,50,0,0
43036,-200,6,1,0,50,0,0
43243,-200.610197163041,6,1,0,50,0,0
43450,-202.444374665215,6,1,0,50,0,0
43657,-205.512470517215,6,1,0,50,0,0
43708,-206.459384429264,6,1,0,50,0,0
43863,-209.804340862864,6,1,0,50,0,0
44070,-215.374519439132,6,1,0,50,0,0
44277,-222.210197756519,6,1,0,50,0,0
44329,-224.125285746314,6,1,0,50,0,0
44898,-250,6,1,0,50,0,0
45425,-100,6,1,0,100,0,0
49243,-100,6,1,0,100,0,0
49553,-105.257207461843,6,1,0,100,0,0
49863,-111.09785202864,6,1,0,100,0,0
50174,-117.647058823529,6,1,0,100,0,0
50277,-111.131027065782,6,1,0,100,0,0
50329,-108.108108108108,6,1,0,100,0,0
50381,-105.245289424546,6,1,0,100,0,0
50432,-102.581072137657,6,1,0,100,0,0
50484,-100,6,1,0,100,0,0
54312,-100,6,1,0,100,0,0
54519,-105.771911887722,6,1,0,100,0,0
54726,-112.250937068455,6,1,0,100,0,0
54829,-115.779835181606,6,1,0,100,0,0
55036,-123.588184187663,6,1,0,100,0,0
55139,-127.879537026632,6,1,0,100,0,0
55243,-132.525911261209,6,1,0,100,0,0
55294,-134.930045055727,6,1,0,100,0,0
55346,-137.472819521624,6,1,0,100,0,0
55398,-140.113272592957,6,1,0,100,0,0
55450,-142.857142857143,6,1,0,100,0,0
55553,-140.360798507041,6,1,0,100,0,0
55657,-137.927202000556,6,1,0,100,0,0
55760,-135.598776223776,6,1,0,100,0,0
55863,-133.347660237468,6,1,0,100,0,0
55967,-131.14927344782,6,1,0,100,0,0
56070,-129.042320890091,6,1,0,100,0,0
56174,-126.982502813875,6,1,0,100,0,0
56277,-125.006295643415,6,1,0,100,0,0
56381,-123.072345911638,6,1,0,100,0,0
56484,-121.215081070522,6,1,0,100,0,0
56588,-119.395805272272,6,1,0,100,0,0
56691,-117.647058823529,6,1,0,100,0,0
56743,-116.783512915824,6,1,0,100,0,0
56794,-115.948799402037,6,1,0,100,0,0
56846,-115.109915592246,6,1,0,100,0,0
56898,-114.283083156828,6,1,0,100,0,0
56950,-113.468044253452,6,1,0,100,0,0
57001,-112.679892858764,6,1,0,100,0,0
57053,-111.887481404679,6,1,0,100,0,0
57105,-111.106137248758,6,1,0,100,0,0
57157,-110.335630140031,6,1,0,100,0,0
57208,-109.590250794772,6,1,0,100,0,0
57260,-108.840554288721,6,1,0,100,0,0
57312,-108.101045296167,6,1,0,100,0,0
57363,-107.385454073465,6,1,0,100,0,0
57415,-106.665520649792,6,1,0,100,0,0
57467,-105.955176093917,6,1,0,100,0,0
57519,-105.254230100505,6,1,0,100,0,0
57570,-104.575714165332,6,1,0,100,0,0
57622,-103.892842193386,6,1,0,100,0,0
57674,-103.218830574732,6,1,0,100,0,0
57726,-102.553507974548,6,1,0,100,0,0
57777,-101.90925887908,6,1,0,100,0,0
57829,-101.260658479866,6,1,0,100,0,0
57881,-100.620261888353,6,1,0,100,0,0
57942,-100,6,1,0,100,0,1
58139,-117.647058823529,6,1,0,100,0,1
58243,-121.229868228404,6,1,0,100,0,1
58346,-125,6,1,0,100,0,1
58450,-129.052369077307,6,1,0,100,0,1
58553,-133.333333333333,6,1,0,100,0,1
58760,-127.659574468085,6,1,0,100,0,1
58967,-122.448979591837,6,1,0,100,0,1
59174,-117.647058823529,6,1,0,100,0,1
59277,-121.200273678037,6,1,0,100,0,1
59381,-125.012602076822,6,1,0,100,0,1
59484,-129.032258064516,6,1,0,100,0,1
59588,-133.362013336201,6,1,0,100,0,1
59691,-137.946378907554,6,1,0,100,0,1
59794,-142.857142857143,6,1,0,100,0,1
60001,-133.333333333333,6,1,0,100,0,1
60208,-125,6,1,0,100,0,1
60415,-117.647058823529,6,1,0,100,0,1
60519,-121.229868228404,6,1,0,100,0,1
60622,-125,6,1,0,100,0,1
60726,-129.052369077307,6,1,0,100,0,1
60829,-133.333333333333,6,1,0,100,0,1
60932,-137.908061292472,6,1,0,100,0,1
61036,-142.857142857143,6,1,0,100,0,1
61243,-125,6,1,0,100,0,1
61346,-117.680500284252,6,1,0,100,0,1
61450,-111.111111111111,6,1,0,100,0,1
61553,-105.28992878942,6,1,0,100,0,1
61657,-100,6,1,0,100,0,1
61967,-102.561983471074,6,1,0,100,0,1
62277,-105.258693808312,6,1,0,100,0,1
62588,-108.110462583849,6,1,0,100,0,1
62898,-111.111111111111,6,1,0,100,0,1
63105,-125,6,1,0,100,0,1
63208,-129.012153318791,6,1,0,100,0,1
63312,-133.333333333333,6,1,0,100,0,1
63415,-137.908061292472,6,1,0,100,0,1
63519,-142.857142857143,6,1,0,100,0,1
63726,-132.525911261209,6,1,0,100,0,1
63932,-123.628462791961,6,1,0,100,0,1
64088,-117.647058823529,6,1,0,100,0,1
64139,-119.244077721586,6,1,0,100,0,1
64243,-122.63892690939,6,1,0,100,0,1
64346,-126.197183098592,6,1,0,100,0,1
64450,-130.005803830528,6,1,0,100,0,1
64553,-134.011367035597,6,1,0,100,0,1
64657,-138.31429453535,6,1,0,100,0,1
64760,-142.857142857143,6,1,0,100,0,1
64967,-133.333333333333,6,1,0,100,0,1
65174,-125,6,1,0,100,0,1
65381,-117.647058823529,6,1,0,100,0,1
65691,-125,6,1,0,100,0,1
65898,-119.992258563964,6,1,0,100,0,1
66001,-117.647058823529,6,1,0,100,0,1
66312,-125,6,1,0,100,0,1
66519,-119.992258563964,6,1,0,100,0,1
66622,-117.647058823529,6,1,0,100,0,1
66932,-112.679892858764,6,1,0,100,0,1
67243,-108.101045296167,6,1,0,100,0,1
67553,-103.892842193386,6,1,0,100,0,1
67863,-100,6,1,0,100,0,1
67977,-111.111111111111,6,1,0,100,0,1
71588,-111.111111111111,6,1,0,100,0,1
71794,-116.857035270491,6,1,0,100,0,1
71898,-119.989689392963,6,1,0,100,0,1
72105,-126.752893124574,6,1,0,100,0,1
72157,-128.573401463886,6,1,0,100,0,1
72208,-130.410421627679,6,1,0,100,0,1
72415,-138.438661710037,6,1,0,100,0,1
72519,-142.857142857143,6,1,0,100,0,1
72726,-129.866867621201,6,1,0,100,0,1
72777,-129.040309497067,6,1,0,100,0,1
72829,-128.20830750155,6,1,0,100,0,1
72932,-126.591576885406,6,1,0,100,0,1
73036,-125,6,1,0,100,0,1
73088,-124.219125420471,6,1,0,100,0,1
73139,-123.462686567164,6,1,0,100,0,1
73243,-121.948342964972,6,1,0,100,0,1
73346,-120.484735492892,6,1,0,100,0,1
73398,-119.759091962011,6,1,0,100,0,1
73450,-119.042136771817,6,1,0,100,0,1
73553,-117.647058823529,6,1,0,100,0,1
73657,-116.271224558642,6,1,0,100,0,1
73708,-115.608228980322,6,1,0,100,0,1
73760,-114.939973321476,6,1,0,100,0,1
73812,-114.279398762157,6,1,0,100,0,1
73863,-113.638861413342,6,1,0,100,0,1
73967,-112.354666956427,6,1,0,100,0,1
74070,-111.111111111111,6,1,0,100,0,1
74277,-125,6,1,0,100,0,1
74329,-124.219875180029,6,1,0,100,0,1
74381,-123.449427480916,6,1,0,100,0,1
74484,-121.951219512195,6,1,0,100,0,1
74588,-120.474915609359,6,1,0,100,0,1
74639,-119.76394353159,6,1,0,100,0,1
74691,-119.047619047619,6,1,0,100,0,1
74794,-117.653745595089,6,1,0,100,0,1
74898,-116.279069767442,6,1,0,100,0,1
74950,-115.603708254217,6,1,0,100,0,1
75001,-114.948911594847,6,1,0,100,0,1
75053,-114.28886925795,6,1,0,100,0,1
75105,-113.636363636364,6,1,0,100,0,1
75208,-112.365649766583,6,1,0,100,0,1
75312,-111.111111111111,6,1,0,100,0,1
75519,-121.951219512195,6,1,0,100,0,1
75622,-119.054482559815,6,1,0,100,0,1
75726,-116.265976014864,6,1,0,100,0,1
75829,-113.630110603643,6,1,0,100,0,1
75881,-112.344268538164,6,1,0,100,0,1
75932,-111.111111111111,6,1,0,100,0,1
76139,-121.951219512195,6,1,0,100,0,1
76243,-119.033927544566,6,1,0,100,0,1
76346,-116.279069767442,6,1,0,100,0,1
76398,-114.93614658523,6,1,0,100,0,1
76450,-113.623888461961,6,1,0,100,0,1
76501,-112.365649766583,6,1,0,100,0,1
76553,-111.111111111111,6,1,0,100,0,1
76863,-117.639625979277,6,1,0,100,0,1
77174,-125.008392077878,6,1,0,100,0,1
77484,-133.333333333333,6,1,0,100,0,1
77804,-100,6,1,0,100,0,0
81726,-111.111111111111,6,1,0,100,0,0
81777,-112.431089370293,6,1,0,100,0,0
81829,-113.809636092117,6,1,0,100,0,0
81881,-115.22240789369,6,1,0,100,0,0
81932,-116.642500402771,6,1,0,100,0,0
82036,-119.649644686829,6,1,0,100,0,0
82088,-121.212121212121,6,1,0,100,0,0
82139,-122.784702789791,6,1,0,100,0,0
82243,-126.121417994948,6,1,0,100,0,0
82346,-129.609738632295,6,1,0,100,0,0
82450,-133.333333333333,6,1,0,100,0,0
82553,-111.111111111111,6,1,0,100,0,0
82605,-108.093994778068,6,1,0,100,0,0
82657,-105.236400610066,6,1,0,100,0,0
82708,-102.576808721506,6,1,0,100,0,0
82760,-100,6,1,0,100,0,0
86588,-100,6,1,0,100,0,0
86794,-108.868267483019,6,1,0,100,0,0
87001,-119.518983353463,6,1,0,100,0,0
87105,-125.697244159717,6,1,0,100,0,0
87312,-140.113272592957,6,1,0,100,0,0
87519,-158.264376608024,6,1,0,100,0,0
87632,-181.818181818182,6,1,0,50,0,0
87736,206.896551724138,5,1,0,50,1,0
87736,-181.818181818182,5,1,0,50,0,0
90829,-181.818181818182,5,1,0,50,0,0
91139,-188.224596499204,5,1,0,50,0,0
91450,-195.121951219512,5,1,0,50,0,0
91657,-200,5,1,0,50,0,0
91770,-181.818181818182,5,1,0,50,0,0
93932,-181.818181818182,5,1,0,50,0,0
94139,-182.777157336579,5,1,0,50,0,0
94346,-185.677469286416,5,1,0,50,0,0
94553,-190.588447757618,5,1,0,50,0,0
94605,-192.150479711606,5,1,0,50,0,0
94760,-197.622338274837,5,1,0,50,0,0
94977,206.896551724138,6,1,0,50,1,0
94977,-206.927289988006,6,1,0,50,0,0
95018,-209.58786540719,6,1,0,50,0,0
95587,-250,6,1,0,50,0,0
96114,-166.666666666667,6,1,0,75,0,0
96218,206.896551724138,5,1,0,75,1,0
96218,-153.846153846154,5,1,0,75,0,0
98897,-153.846153846154,5,1,0,75,0,0
99104,-155.892414174298,5,1,0,75,0,0
99208,-157.819539724648,5,1,0,75,0,0
99311,-160.221514035967,5,1,0,75,0,0
99518,-166.5227761825,5,1,0,75,0,0
99621,-170.431093069721,5,1,0,75,0,0
99725,-174.949128169092,5,1,0,75,0,0
99828,-180.045122783787,5,1,0,75,0,0
99932,-185.889937431809,5,1,0,75,0,0
100139,-200,5,1,0,75,0,0
100252,-153.846153846154,5,1,0,75,0,0
103035,-153.846153846154,5,1,0,75,0,0
103242,-155.644647838165,5,1,0,75,0,0
103345,-157.314886093273,5,1,0,75,0,0
103459,206.896551724138,6,1,0,75,1,0
103459,-159.430791436763,6,1,0,75,0,0
103604,-163.364455010113,6,1,0,75,0,0
103759,-168.26017988469,6,1,0,75,0,0
103914,-174.200324279634,6,1,0,75,0,0
104069,-181.318610121768,6,1,0,75,0,0
104224,-189.806544152065,6,1,0,75,0,0
104380,-200,6,1,0,75,0,0
104596,-153.846153846154,6,1,0,75,0,0
104700,206.896551724138,5,1,0,75,1,0
104700,-153.846153846154,5,1,0,75,0,0
107379,-153.846153846154,5,1,0,75,0,0
107586,-155.892414174298,5,1,0,75,0,0
107690,-157.819539724648,5,1,0,75,0,0
107793,-160.221514035967,5,1,0,75,0,0
108000,-166.5227761825,5,1,0,75,0,0
108103,-170.431093069721,5,1,0,75,0,0
108207,-174.949128169092,5,1,0,75,0,0
108310,-180.045122783787,5,1,0,75,0,0
108414,-185.889937431809,5,1,0,75,0,0
108621,-200,5,1,0,75,0,0
108734,-153.846153846154,5,1,0,75,0,0
110896,-153.846153846154,5,1,0,75,0,0
111103,-156.597922322686,5,1,0,75,0,0
111207,-159.212352227291,5,1,0,75,0,0
111310,-162.502485691709,5,1,0,75,0,0
111414,-166.543996475273,5,1,0,75,0,0
111517,-171.303854309455,5,1,0,75,0,0
111569,-174.015161690589,5,1,0,75,0,0
111724,-183.473701420124,5,1,0,75,0,0
111941,206.896551724138,6,1,0,75,1,0
111941,-200,6,1,0,75,0,0
112086,-181.818181818182,6,1,0,75,0,0
112241,-173.921165701476,6,1,0,75,0,0
112396,-166.681586250112,6,1,0,75,0,0
112551,-160.020625644551,6,1,0,75,0,0
112706,-153.871580861086,6,1,0,75,0,0
112862,-148.142254753759,6,1,0,75,0,0
113017,-142.857142857143,6,1,0,75,0,0
113078,-100,6,1,0,100,0,0
113182,206.896551724138,5,1,0,100,1,0
113182,-111.111111111111,5,1,0,100,0,0
113378,-117.621959891907,5,1,0,100,0,0
113482,-121.2076799062,5,1,0,100,0,0
113585,-124.981109264017,5,1,0,100,0,0
113689,-129.037291309097,5,1,0,100,0,0
113792,-133.322585845559,5,1,0,100,0,0
113999,-142.857142857143,5,1,0,100,0,0
114206,-111.111111111111,5,1,0,100,0,0
114413,-117.647058823529,5,1,0,100,0,0
114516,-121.194379391101,5,1,0,100,0,0
114620,-125,5,1,0,100,0,0
114723,-129.012153318791,5,1,0,100,0,0
114827,-133.333333333333,5,1,0,100,0,0
115034,-142.857142857143,5,1,0,100,0,0
115240,-111.111111111111,5,1,0,100,0,0
115447,-117.647058823529,5,1,0,100,0,0
115551,-121.229868228404,5,1,0,100,0,0
115654,-125,5,1,0,100,0,0
115758,-129.052369077307,5,1,0,100,0,0
115861,-133.333333333333,5,1,0,100,0,0
116068,-142.857142857143,5,1,0,100,0,0
116275,-111.111111111111,5,1,0,100,0,0
116482,-108.693366971513,5,1,0,100,0,0
116689,-106.378600823045,5,1,0,100,0,0
116896,-104.160370706155,5,1,0,100,0,0
117103,-102.032761002566,5,1,0,100,0,0
117309,-100,5,1,0,100,0,0
117371,-50,5,1,0,50,0,0
118302,-166.666666666667,5,1,0,50,0,0
118354,206.896551724138,4,1,0,50,1,0
118354,-166.666666666667,4,1,0,50,0,0
118457,-117.647058823529,4,1,0,100,0,0
118560,-111.111111111111,4,1,0,100,0,1
124137,-111.111111111111,4,1,0,100,0,1
124344,-115.391773683231,4,1,0,100,0,1
124395,-116.497557309282,4,1,0,100,0,1
124447,-117.647058823529,4,1,0,100,0,1
124654,-122.457041279874,4,1,0,100,0,1
124757,-125,4,1,0,100,0,1
124871,-111.111111111111,4,1,0,100,0,1
128275,-111.111111111111,4,1,0,100,0,1
128481,-109.595391033706,4,1,0,100,0,1
128585,-108.84577441631,4,1,0,100,0,1
128688,-108.113404755683,4,1,0,100,0,1
128740,-107.747395833333,4,1,0,100,0,1
128792,-107.383856735012,4,1,0,100,0,1
128844,-107.022762545266,4,1,0,100,0,1
128895,-106.670963583629,4,1,0,100,0,1
128999,-105.960688904539,4,1,0,100,0,1
129050,-105.615826419911,4,1,0,100,0,1
129102,-105.266505533647,4,1,0,100,0,1
129309,-103.898549814803,4,1,0,100,0,1
129412,-103.231037924152,4,1,0,100,0,1
129619,-101.915142558039,4,1,0,100,0,1
129671,-101.589834878154,4,1,0,100,0,1
129723,-101.266597319954,4,1,0,100,0,1
129775,-100.945410186032,4,1,0,100,0,1
129826,-100.632372613401,4,1,0,100,0,1
129878,-100.315189719966,4,1,0,100,0,1
129930,-100,4,1,0,100,0,1
130895,-100,4,1,0,100,0,1
131033,-106.55737704918,4,1,0,100,0,1
131171,-114.035087719298,4,1,0,100,0,1
131309,-122.641509433962,4,1,0,100,0,1
131447,-132.65306122449,4,1,0,100,0,1
131595,-144.444444444445,4,1,0,100,0,0
131698,-166.666666666667,4,1,0,50,0,0
136344,-166.666666666667,4,1,0,50,0,0
136550,-165.009715033125,4,1,0,50,0,0
136706,-161.679505270798,4,1,0,50,0,0
136861,-156.876230164933,4,1,0,50,0,0
136912,-155.027073310797,4,1,0,50,0,0
136964,-153.027477479916,4,1,0,50,0,0
137119,-146.522817814458,4,1,0,50,0,0
137275,-139.43942526898,4,1,0,50,0,0
137326,-137.064355536353,4,1,0,50,0,0
137362,-134.631162118646,4,1,0,100,0,0
137585,-125.015221141162,4,1,0,100,0,0
137792,-115.858546345208,4,1,0,100,0,0
137999,-107.468663148586,4,1,0,100,0,0
138216,-100,4,1,0,100,0,1
138319,-111.111111111111,4,1,0,100,0,1
138619,-100,4,1,0,100,0,1
138671,-101.272015655577,4,1,0,100,0,1
138723,-102.576808721506,4,1,0,100,0,1
138775,-103.915662650602,4,1,0,100,0,1
138826,-105.263157894737,4,1,0,100,0,1
138878,-106.673537748003,4,1,0,100,0,1
138930,-108.122225124053,4,1,0,100,0,1
138981,-109.581789306511,4,1,0,100,0,1
139033,-111.111111111111,4,1,0,100,0,1
139447,-100,4,1,0,100,0,1
139499,-101.272015655577,4,1,0,100,0,1
139550,-102.551399554124,4,1,0,100,0,1
139602,-103.889585947302,4,1,0,100,0,1
139654,-105.263157894737,4,1,0,100,0,1
139706,-106.673537748003,4,1,0,100,0,1
139757,-108.093994778068,4,1,0,100,0,1
139809,-109.581789306511,4,1,0,100,0,1
139861,-111.111111111111,4,1,0,100,0,1
140275,-100,4,1,0,100,0,1
140326,-100.996288337566,4,1,0,100,0,1
140378,-102.032761002566,4,1,0,100,0,1
140430,-103.09072781655,4,1,0,100,0,1
140481,-104.149879129734,4,1,0,100,0,1
140533,-105.252442996743,4,1,0,100,0,1
140585,-106.378600823045,4,1,0,100,0,1
140637,-107.529118136439,4,1,0,100,0,1
140688,-108.681942400673,4,1,0,100,0,1
140895,-113.626373626374,4,1,0,100,0,1
141102,-119.042136771817,4,1,0,100,0,1
141309,-125,4,1,0,100,0,1
141526,206.896551724138,3,1,0,100,1,1
141526,-100,3,1,0,100,0,1
141619,-101.157048018522,3,1,0,100,0,1
141826,-103.523023584874,3,1,0,100,0,1
142136,-107.170164121543,3,1,0,100,0,1
142240,-108.422283373788,3,1,0,100,0,1
142447,-110.958186490133,3,1,0,100,0,1
142757,-114.867269569529,3,1,0,100,0,1
142860,-116.196339036013,3,1,0,100,0,1
143067,-118.914070567764,3,1,0,100,0,1
143378,-123.117191491792,3,1,0,100,0,1
143481,-124.541716516408,3,1,0,100,0,1
143688,-127.454639185082,3,1,0,100,0,1
143998,-131.944896183588,3,1,0,100,0,1
144102,-133.48647024108,3,1,0,100,0,1
144309,-136.608602936877,3,1,0,100,0,1
144619,-141.42135623731,3,1,0,100,0,1
144722,-143.05766923742,3,1,0,100,0,1
144929,-146.403663971598,3,1,0,100,0,1
145240,-151.578428408265,3,1,0,100,0,1
145447,-155.123716304906,3,1,0,100,0,1
145663,206.896551724138,99,1,0,100,1,0
145663,-158.734195420895,99,1,0,100,0,0
145766,-164.326438562832,99,1,0,60,0,0
146273,-170.115697749584,99,1,0,60,0,0
146584,-176.128584578729,99,1,0,60,0,0
146894,-182.333636153142,99,1,0,60,0,0
147308,-111.111111111111,99,1,0,60,0,0
147319,206.896551724138,6,1,0,60,1,0
147319,-111.111111111111,6,1,0,60,0,0
147722,-200,6,1,0,60,0,0
149905,-200,6,1,0,70,0,0
150826,-200,6,1,0,70,0,0
150939,-184.200483399059,6,1,0,80,0,0
151136,-177.233782129743,6,1,0,80,0,0
151240,-170.714454138175,6,1,0,80,0,0
151343,-164.713911955409,6,1,0,80,0,0
151446,-159.120879120879,6,1,0,80,0,0
151550,-153.846153846154,6,1,0,80,0,0
151653,-148.955868737784,6,1,0,80,0,0
151757,-144.323731685438,6,1,0,80,0,0
151860,-140.011603171534,6,1,0,80,0,0
151922,-135.911394781303,6,1,0,100,0,0
152015,-133.987230498751,6,1,0,100,0,0
152067,-132.08063486272,6,1,0,100,0,0
152119,-130.227538447702,6,1,0,100,0,0
152171,-128.425720620843,6,1,0,100,0,0
152222,-126.706335316766,6,1,0,100,0,0
152274,-125,6,1,0,100,0,0
152481,-127.908283691132,6,1,0,100,0,0
152584,-129.406413463725,6,1,0,100,0,0
152688,-130.955120828539,6,1,0,100,0,0
152895,-134.150654249676,6,1,0,100,0,0
153102,-137.506041565974,6,1,0,100,0,0
153205,-139.23895754313,6,1,0,100,0,0
153309,-141.033585326558,6,1,0,100,0,0
153515,-144.728475136716,6,1,0,100,0,0
153722,-148.641588296761,6,1,0,100,0,0
153826,-150.688559322034,6,1,0,100,0,0
153929,-152.772184185797,6,1,0,100,0,0
154136,-157.138911902789,6,1,0,100,0,0
154343,-161.762615493959,6,1,0,100,0,0
154446,-164.166185804963,6,1,0,100,0,0
154550,-166.666666666667,6,1,0,100,0,0
154663,-158.533710513908,6,1,0,60,0,0
154860,-154.775604142693,6,1,0,60,0,0
154964,-151.157563497415,6,1,0,60,0,0
155067,-147.737258347979,6,1,0,60,0,0
155171,-144.437285223368,6,1,0,60,0,0
155274,-141.311199831898,6,1,0,60,0,0
155377,-138.317564788153,6,1,0,60,0,0
155481,-135.420861860653,6,1,0,60,0,0
155584,-132.669165515881,6,1,0,60,0,0
155688,-130.001933114247,6,1,0,60,0,0
155791,-127.463987869598,6,1,0,60,0,0
155895,-125,6,1,0,60,0,0
155956,-100,6,1,0,100,0,0
157146,-200,6,1,0,50,0,0
160964,-200,6,1,0,50,0,0
161274,-206.888888888889,6,1,0,50,0,0
161584,-214.269275028769,6,1,0,50,0,0
161895,-222.222222222222,6,1,0,50,0,0
162112,-200,6,1,0,50,0,0
164688,-200,6,1,0,50,0,0
164895,-201.197394941326,6,1,0,50,0,0
165102,-203.674512631036,6,1,0,50,0,0
165309,-207.149794852306,6,1,0,50,0,0
165360,-208.151409397822,6,1,0,50,0,0
165515,-211.547254048614,6,1,0,50,0,0
165722,-216.928225631971,6,1,0,50,0,0
165929,-223.337781007705,6,1,0,50,0,0
165981,-225.12095042511,6,1,0,50,0,0
166550,-250,6,1,0,50,0,0
167077,-117.647058823529,6,1,0,100,0,0
167377,-124.974803467043,6,1,0,100,0,0
167481,-129.032258064516,6,1,0,100,0,0
167584,-133.318997957209,6,1,0,100,0,0
167688,-137.946378907554,6,1,0,100,0,0
167791,-142.857142857143,6,1,0,100,0,0
167998,-133.333333333333,6,1,0,100,0,0
168205,-125,6,1,0,100,0,0
168412,-117.647058823529,6,1,0,100,0,0
168515,-121.194379391101,6,1,0,100,0,0
168619,-125,6,1,0,100,0,0
168722,-129.012153318791,6,1,0,100,0,0
168826,-133.333333333333,6,1,0,100,0,0
168929,-137.908061292472,6,1,0,100,0,0
169033,-142.857142857143,6,1,0,100,0,0
169240,-133.318997957209,6,1,0,100,0,0
169446,-125.012602076822,6,1,0,100,0,0
169653,-117.647058823529,6,1,0,100,0,0
169757,-121.229868228404,6,1,0,100,0,0
169860,-125,6,1,0,100,0,0
169964,-129.052369077307,6,1,0,100,0,0
170067,-133.333333333333,6,1,0,100,0,0
170171,-137.954015328224,6,1,0,100,0,0
170274,-142.857142857143,6,1,0,100,0,0
170481,-125,6,1,0,100,0,0
170584,-117.680500284252,6,1,0,100,0,0
170688,-111.111111111111,6,1,0,100,0,0
170791,-105.28992878942,6,1,0,100,0,0
170895,-100,6,1,0,100,0,0
171205,-102.561983471074,6,1,0,100,0,0
171515,-105.258693808312,6,1,0,100,0,0
171826,-108.110462583849,6,1,0,100,0,0
172136,-111.111111111111,6,1,0,100,0,0
172343,-125,6,1,0,100,0,0
172446,-129.012153318791,6,1,0,100,0,0
172550,-133.333333333333,6,1,0,100,0,0
172653,-137.908061292472,6,1,0,100,0,0
172757,-142.857142857143,6,1,0,100,0,0
172964,-132.525911261209,6,1,0,100,0,0
173171,-123.588184187663,6,1,0,100,0,0
173326,-117.647058823529,6,1,0,100,0,0
173377,-119.244077721586,6,1,0,100,0,0
173481,-122.63892690939,6,1,0,100,0,0
173584,-126.197183098592,6,1,0,100,0,0
173688,-130.005803830528,6,1,0,100,0,0
173791,-134.011367035597,6,1,0,100,0,0
173895,-138.31429453535,6,1,0,100,0,0
173998,-142.857142857143,6,1,0,100,0,0
174205,-133.333333333333,6,1,0,100,0,0
174412,-125,6,1,0,100,0,0
174619,-117.647058823529,6,1,0,100,0,0
174929,-125,6,1,0,100,0,0
175136,-120.007717538105,6,1,0,100,0,0
175240,-117.647058823529,6,1,0,100,0,0
175550,-125,6,1,0,100,0,0
175757,-119.992258563964,6,1,0,100,0,0
175860,-117.647058823529,6,1,0,100,0,0
176171,-112.668390257178,6,1,0,100,0,0
176481,-108.108108108108,6,1,0,100,0,0
176791,-103.902622662818,6,1,0,100,0,0
177112,-100,6,1,0,100,0,1
177215,-111.111111111111,6,1,0,100,0,1
180826,-111.111111111111,6,1,0,100,0,1
181033,-116.886377903327,6,1,0,100,0,1
181136,-119.989689392963,6,1,0,100,0,1
181343,-126.752893124574,6,1,0,100,0,1
181395,-128.573401463886,6,1,0,100,0,1
181446,-130.410421627679,6,1,0,100,0,1
181653,-138.438661710037,6,1,0,100,0,1
181757,-142.857142857143,6,1,0,100,0,1
181964,-137.613051959567,6,1,0,100,0,1
182015,-136.379613356766,6,1,0,100,0,1
182067,-135.144548937652,6,1,0,100,0,1
182171,-132.740335271981,6,1,0,100,0,1
182274,-130.442091107749,6,1,0,100,0,1
182326,-129.311781369772,6,1,0,100,0,1
182377,-128.222075346993,6,1,0,100,0,1
182481,-126.055880441845,6,1,0,100,0,1
182584,-123.981466687969,6,1,0,100,0,1
182636,-122.959911266043,6,1,0,100,0,1
182688,-121.955052648122,6,1,0,100,0,1
182791,-120.012372409527,6,1,0,100,0,1
182895,-118.112633181126,6,1,0,100,0,1
182946,-117.202839450234,6,1,0,100,0,1
182998,-116.289524951296,6,1,0,100,0,1
183050,-115.390334572491,6,1,0,100,0,1
183102,-114.504943190202,6,1,0,100,0,1
183205,-112.790697674419,6,1,0,100,0,1
183257,-111.944604731679,6,1,0,100,0,1
183309,-111.111111111111,6,1,0,100,0,1
183515,-125,6,1,0,100,0,1
183567,-124.219875180029,6,1,0,100,0,1
183619,-123.449427480916,6,1,0,100,0,1
183722,-121.951219512195,6,1,0,100,0,1
183826,-120.474915609359,6,1,0,100,0,1
183877,-119.76394353159,6,1,0,100,0,1
183929,-119.047619047619,6,1,0,100,0,1
184136,-116.279069767442,6,1,0,100,0,1
184188,-115.603708254217,6,1,0,100,0,1
184240,-114.93614658523,6,1,0,100,0,1
184291,-114.28886925795,6,1,0,100,0,1
184343,-113.636363636364,6,1,0,100,0,1
184550,-111.111111111111,6,1,0,100,0,1
184757,-121.951219512195,6,1,0,100,0,1
184860,-119.061313700679,6,1,0,100,0,1
184964,-116.279069767442,6,1,0,100,0,1
185067,-113.648841550456,6,1,0,100,0,1
185119,-112.365649766583,6,1,0,100,0,1
185171,-111.111111111111,6,1,0,100,0,1
185377,-121.951219512195,6,1,0,100,0,1
185481,-119.033927544566,6,1,0,100,0,1
185584,-116.279069767442,6,1,0,100,0,1
185636,-114.93614658523,6,1,0,100,0,1
185688,-113.623888461961,6,1,0,100,0,1
185740,-112.34125691957,6,1,0,100,0,1
185791,-111.111111111111,6,1,0,100,0,1
186102,-117.661927330174,6,1,0,100,0,1
186412,-125.008392077878,6,1,0,100,0,1
186722,-133.333333333333,6,1,0,100,0,1
186939,-100,6,1,0,80,0,1
187043,-166.666666666667,6,1,0,80,0,0
187136,-163.278731662391,6,1,0,80,0,0
187240,-159.994843034874,6,1,0,80,0,0
187343,-156.870180760966,6,1,0,80,0,0
187395,-155.338590562023,6,1,0,80,0,0
187446,-153.86522844213,6,1,0,80,0,0
187550,-150.945691175576,6,1,0,80,0,0
187653,-148.16141356256,6,1,0,80,0,0
187757,-145.452414439756,6,1,0,80,0,0
187860,-142.865365797502,6,1,0,80,0,0
187964,-140.34492507775,6,1,0,80,0,0
188015,-139.141159322794,6,1,0,80,0,0
188067,-137.934867177948,6,1,0,80,0,0
188171,-135.583961542664,6,1,0,80,0,0
188274,-133.333333333333,6,1,0,80,0,0
188481,-138.888888888889,6,1,0,80,0,0
188584,-141.829393627955,6,1,0,80,0,0
188688,-144.927536231884,6,1,0,80,0,0
188791,-148.132245598969,6,1,0,80,0,0
188895,-151.515151515152,6,1,0,80,0,0
188998,-155.02134351831,6,1,0,80,0,0
189102,-158.730158730159,6,1,0,80,0,0
189205,-162.58246936852,6,1,0,80,0,0
189309,-166.666666666667,6,1,0,80,0,0
189422,-125,6,1,0,100,0,0
189722,-138.888888888889,6,1,0,100,0,0
189826,-135.117493472585,6,1,0,100,0,0
189929,-131.578947368421,6,1,0,100,0,0
190033,-128.189249442655,6,1,0,100,0,0
190136,-125,6,1,0,100,0,0
190343,-138.888888888889,6,1,0,100,0,0
190446,-135.152781405067,6,1,0,100,0,0
190550,-131.578947368421,6,1,0,100,0,0
190757,-125,6,1,0,100,0,0
191377,-133.333333333333,6,1,0,100,0,0
191481,-126.283680732079,6,1,0,100,0,0
191584,-120,6,1,0,100,0,0
191688,-114.259429622815,6,1,0,100,0,0
191791,-109.090909090909,6,1,0,100,0,0
191843,-106.655216831258,6,1,0,100,0,0
191895,-104.32591348173,6,1,0,100,0,0
191946,-102.138157894737,6,1,0,100,0,0
191998,-100,6,1,0,100,0,0
195922,-111.111111111111,6,1,0,100,0,0
195973,-112.431089370293,6,1,0,100,0,0
196025,-113.809636092117,6,1,0,100,0,0
196077,-115.22240789369,6,1,0,100,0,0
196128,-116.642500402771,6,1,0,100,0,0
196232,-119.649644686829,6,1,0,100,0,0
196284,-121.212121212121,6,1,0,100,0,0
196335,-122.784702789791,6,1,0,100,0,0
196439,-126.121417994948,6,1,0,100,0,0
196542,-129.609738632295,6,1,0,100,0,0
196646,-133.333333333333,6,1,0,100,0,0
196749,-111.111111111111,6,1,0,100,0,0
196801,-108.093994778068,6,1,0,100,0,0
196853,-105.236400610066,6,1,0,100,0,0
196904,-102.576808721506,6,1,0,100,0,0
196956,-100,6,1,0,100,0,0
200791,-100,6,1,0,100,0,0
200998,-108.336689488522,6,1,0,100,0,0
201205,-118.189806678383,6,1,0,100,0,0
201309,-123.848987108656,6,1,0,100,0,0
201515,-136.826042726348,6,1,0,100,0,0
201722,-152.927799886299,6,1,0,100,0,0
201929,-173.324742268041,6,1,0,100,0,0
202043,-200,6,1,0,50,0,0
206067,-200,6,1,0,50,0,0
206181,-173.913043478261,6,1,0,70,0,0
206352,-165.765765765766,6,1,0,70,0,0
206429,-158.438576349024,6,1,0,70,0,0
206507,-151.648351648352,6,1,0,70,0,0
206584,-145.492883500264,6,1,0,70,0,0
206662,-139.746835443038,6,1,0,70,0,0
206740,-134.437408670239,6,1,0,70,0,0
206817,-129.577464788732,6,1,0,70,0,0
206866,-125,6,1,0,100,0,0
207102,-138.888888888889,6,1,0,100,0,0
207205,-135.143979057592,6,1,0,100,0,0
207309,-131.562181447503,6,1,0,100,0,0
207515,-125,6,1,0,100,0,0
207722,-138.888888888889,6,1,0,100,0,0
207826,-135.117493472585,6,1,0,100,0,0
207929,-131.578947368421,6,1,0,100,0,0
208033,-128.189249442655,6,1,0,100,0,0
208136,-125,6,1,0,100,0,0
208343,-138.888888888889,6,1,0,100,0,0
208446,-135.152781405067,6,1,0,100,0,0
208550,-131.578947368421,6,1,0,100,0,0
208757,-125,6,1,0,100,0,0
208964,-138.888888888889,6,1,0,100,0,0
209067,-135.143979057592,6,1,0,100,0,0
209171,-131.562181447503,6,1,0,100,0,0
209274,-128.197169108518,6,1,0,100,0,0
209377,-125,6,1,0,100,0,0
209584,-138.888888888889,6,1,0,100,0,0
209688,-135.117493472585,6,1,0,100,0,0
209791,-131.578947368421,6,1,0,100,0,0
209895,-128.189249442655,6,1,0,100,0,0
209998,-125,6,1,0,100,0,0
210205,-138.888888888889,6,1,0,100,0,0
210309,-135.117493472585,6,1,0,100,0,0
210412,-131.578947368421,6,1,0,100,0,0
210515,-128.221010901883,6,1,0,100,0,0
210619,-125,6,1,0,100,0,0
210929,-117.6582038651,6,1,0,100,0,0
211240,-111.111111111111,6,1,0,100,0,0
211446,-117.647058823529,6,1,0,100,0,0
211498,-115.095913261051,6,1,0,100,0,0
211550,-112.65306122449,6,1,0,100,0,0
211602,-110.31175059952,6,1,0,100,0,0
211653,-108.108108108108,6,1,0,100,0,0
211705,-105.95009596929,6,1,0,100,0,0
211757,-103.876552502823,6,1,0,100,0,0
211809,-101.882613510521,6,1,0,100,0,0
211870,-100,6,1,0,100,0,1
212067,-117.647058823529,6,1,0,100,0,1
212171,-121.229868228404,6,1,0,100,0,1
212274,-125,6,1,0,100,0,1
212481,-133.333333333333,6,1,0,100,0,1
212688,-127.659574468085,6,1,0,100,0,1
212791,-125.01258178158,6,1,0,100,0,1
212895,-122.448979591837,6,1,0,100,0,1
213102,-117.647058823529,6,1,0,100,0,1
213309,-122.457041279874,6,1,0,100,0,1
213412,-125,6,1,0,100,0,1
213515,-127.650813259214,6,1,0,100,0,1
213722,-133.333333333333,6,1,0,100,0,1
213929,-127.659574468085,6,1,0,100,0,1
214033,-124.98742075073,6,1,0,100,0,1
214136,-122.448979591837,6,1,0,100,0,1
214240,-119.988406917206,6,1,0,100,0,1
214343,-117.647058823529,6,1,0,100,0,1
214550,-121.214340645256,6,1,0,100,0,1
214757,-125.004720722082,6,1,0,100,0,1
214860,-126.980473395481,6,1,0,100,0,1
214964,-129.039803516432,6,1,0,100,0,1
215171,-133.344076058494,6,1,0,100,0,1
215274,-135.594608987751,6,1,0,100,0,1
215377,-137.922413433893,6,1,0,100,0,1
215584,-142.850977514997,6,1,0,100,0,1
215791,-148.14483283355,6,1,0,100,0,1
215895,-150.955443061066,6,1,0,100,0,1
215998,-153.846153846154,6,1,0,100,0,1
216205,-140.350877192982,6,1,0,100,0,1
216309,-134.426495657115,6,1,0,100,0,1
216412,-129.032258064516,6,1,0,100,0,1
216515,-124.05423627238,6,1,0,100,0,1
216619,-119.402985074627,6,1,0,100,0,1
216671,-117.205747045085,6,1,0,100,0,1
216722,-115.127919911012,6,1,0,100,0,1
216774,-113.083856869708,6,1,0,100,0,1
216826,-111.111111111111,6,1,0,100,0,1
217033,-125,6,1,0,100,0,1
217136,-126.97681559957,6,1,0,100,0,1
217240,-129.037291309097,6,1,0,100,0,1
217446,-133.322585845559,6,1,0,100,0,1
217653,-137.925283522348,6,1,0,100,0,1
217757,-140.359809911745,6,1,0,100,0,1
217860,-142.857142857143,6,1,0,100,0,1
218067,-100,6,1,0,100,0,1
218171,-102.202145680407,6,1,0,100,0,1
218377,-106.863468634686,6,1,0,100,0,1
218584,-111.996287415887,6,1,0,100,0,1
218688,-114.765792185147,6,1,0,100,0,1
218791,-117.647058823529,6,1,0,100,0,1
218895,-120.706902300767,6,1,0,100,0,1
218998,-123.898348592453,6,1,0,100,0,1
219205,-130.851256099765,6,1,0,100,0,1
219309,-134.647572996095,6,1,0,100,0,1
219515,-142.857142857143,6,1,0,100,0,1
219619,-142.130256420466,6,1,0,100,0,1
219722,-140.692677053243,6,1,0,100,0,1
219826,-138.762505557381,6,1,0,100,0,1
219929,-136.491632113144,6,1,0,100,0,1
220136,-131.15518060393,6,1,0,100,0,1
220240,-128.202840711848,6,1,0,100,0,1
220343,-125.162226938378,6,1,0,100,0,1
220446,-122.042978870361,6,1,0,100,0,1
220550,-118.845862930989,6,1,0,100,0,1
220653,-115.659279648122,6,1,0,100,0,1
220757,-112.444208316158,6,1,0,100,0,1
220860,-109.281225079592,6,1,0,100,0,1
220964,-106.124526367292,6,1,0,100,0,1
221015,-104.5940754633,6,1,0,100,0,1
221067,-103.047327529347,6,1,0,100,0,1
221119,-101.515615519947,6,1,0,100,0,1
221181,-100,6,1,0,100,0,0
221801,-100,6,1,0,100,0,1
221998,-111.111111111111,6,1,0,100,0,1
222102,-111.422262911304,6,1,0,100,0,1
222205,-111.73214526799,6,1,0,100,0,1
222257,-111.889246410513,6,1,0,100,0,1
222309,-112.046789959655,6,1,0,100,0,1
222412,-112.360160747257,6,1,0,100,0,1
222619,-112.995275934573,6,1,0,100,0,1
222722,-113.313982145791,6,1,0,100,0,1
222826,-113.637611907508,6,1,0,100,0,1
223033,-114.287292512498,6,1,0,100,0,1
223136,-114.613339242189,6,1,0,100,0,1
223188,-114.778653056696,6,1,0,100,0,1
223240,-114.944444444444,6,1,0,100,0,1
223343,-115.274256901691,6,1,0,100,0,1
223446,-115.605967480583,6,1,0,100,0,1
223550,-115.94284113197,6,1,0,100,0,1
223653,-116.278416275606,6,1,0,100,0,1
223860,-116.95873374788,6,1,0,100,0,1
223964,-117.303549155233,6,1,0,100,0,1
224067,-117.647058823529,6,1,0,100,0,1
224274,-118.343533718469,6,1,0,100,0,1
224377,-118.69317040989,6,1,0,100,0,1
224481,-119.048304036365,6,1,0,100,0,1
224584,-119.402123730379,6,1,0,100,0,1
224688,-119.761518870109,6,1,0,100,0,1
224740,-119.942028985507,6,1,0,100,0,1
224791,-120.119597085547,6,1,0,100,0,1
224895,-120.483330906973,6,1,0,100,0,1
225102,-121.213896537583,6,1,0,100,0,1
225309,-121.953375968878,6,1,0,100,0,1
225412,-122.324701430767,6,1,0,100,0,1
225515,-122.698295033358,6,1,0,100,0,1
225722,-123.456053463811,6,1,0,100,0,1
225774,-123.647881431901,6,1,0,100,0,1
225826,-123.840306458371,6,1,0,100,0,1
225929,-124.223229563808,6,1,0,100,0,1
226033,-124.612280543259,6,1,0,100,0,1
226136,-125,6,1,0,100,0,1
226343,-115.384615384615,6,1,0,100,0,1
226446,-111.130994989263,6,1,0,100,0,1
226550,-107.142857142857,6,1,0,100,0,1
226602,-105.254237288136,6,1,0,100,0,1
226653,-103.465511496168,6,1,0,100,0,1
226705,-101.703242712087,6,1,0,100,0,1
226757,-100,6,1,0,100,0,1
226964,-111.111111111111,6,1,0,100,0,1
227067,-111.648207246105,6,1,0,100,0,1
227171,-112.195812110923,6,1,0,100,0,1
227274,-112.743471873371,6,1,0,100,0,1
227377,-113.296504428993,6,1,0,100,0,1
227584,-114.42451060555,6,1,0,100,0,1
227688,-114.999758302315,6,1,0,100,0,1
227791,-115.575204041974,6,1,0,100,0,1
227998,-116.749276144673,6,1,0,100,0,1
228205,-117.947446703024,6,1,0,100,0,1
228412,-119.170465360918,6,1,0,100,0,1
228515,-119.788519637462,6,1,0,100,0,1
228619,-120.419113180806,6,1,0,100,0,1
228826,-121.694204307126,6,1,0,100,0,1
228929,-122.338784325825,6,1,0,100,0,1
229033,-122.996587736532,6,1,0,100,0,1
229136,-123.655075627631,6,1,0,100,0,1
229240,-124.327149203031,6,1,0,100,0,1
229446,-125.680173279096,6,1,0,100,0,1
229653,-127.06975750454,6,1,0,100,0,1
229757,-127.779568159845,6,1,0,100,0,1
229860,-128.490413178504,6,1,0,100,0,1
229964,-129.216229428059,6,1,0,100,0,1
230067,-129.94319423203,6,1,0,100,0,1
230171,-130.685563612393,6,1,0,100,0,1
230274,-131.429202806475,6,1,0,100,0,1
230481,-132.949592042025,6,1,0,100,0,1
230688,-134.505569062023,6,1,0,100,0,1
230895,-136.098398169336,6,1,0,100,0,1
230998,-136.905104448409,6,1,0,100,0,1
231102,-137.729404272564,6,1,0,100,0,1
231205,-138.555620267909,6,1,0,100,0,1
231309,-139.399976561585,6,1,0,100,0,1
231412,-140.246418675942,6,1,0,100,0,1
231515,-141.103202846975,6,1,0,100,0,1
231619,-141.978992599666,6,1,0,100,0,1
231722,-142.857142857143,6,1,0,100,0,1
231929,-133.333333333333,6,1,0,100,0,1
232033,-129.012153318791,6,1,0,100,0,1
232136,-125,6,1,0,100,0,1
232240,-121.194379391101,6,1,0,100,0,1
232343,-117.647058823529,6,1,0,100,0,1
232446,-114.301490889012,6,1,0,100,0,1
232550,-111.111111111111,6,1,0,100,0,1
232653,-108.122225124053,6,1,0,100,0,1
232757,-105.263157894737,6,1,0,100,0,1
232809,-103.889585947302,6,1,0,100,0,1
232860,-102.576808721506,6,1,0,100,0,1
232912,-101.272015655577,6,1,0,100,0,1
232964,-100,6,1,0,100,0,1
233067,-100.416717239147,6,1,0,100,0,1
233274,-101.264789881681,6,1,0,100,0,1
233481,-102.127309385673,6,1,0,100,0,1
233584,-102.561983471074,6,1,0,100,0,1
233688,-103.004648074369,6,1,0,100,0,1
233895,-103.897191175855,6,1,0,100,0,1
234102,-104.805337387045,6,1,0,100,0,1
234205,-105.263157894737,6,1,0,100,0,1
234309,-105.729499467519,6,1,0,100,0,1
234515,-106.665520649792,6,1,0,100,0,1
234722,-107.622929494406,6,1,0,100,0,1
234826,-108.110462583849,6,1,0,100,0,1
235033,-109.094105753593,6,1,0,100,0,1
235240,-110.095812633073,6,1,0,100,0,1
235343,-110.601131856869,6,1,0,100,0,1
235446,-111.111111111111,6,1,0,100,0,1
235653,-116.279069767442,6,1,0,100,0,1
235860,-121.951219512195,6,1,0,100,0,1
236067,-128.205128205128,6,1,0,100,0,1
236274,-135.135135135135,6,1,0,100,0,1
236481,-142.857142857143,6,1,0,100,0,1
236688,-133.333333333333,6,1,0,100,0,1
236791,-129.052369077307,6,1,0,100,0,1
236895,-125,6,1,0,100,0,1
236998,-121.229868228404,6,1,0,100,0,1
237102,-117.647058823529,6,1,0,100,0,1
237205,-114.301490889012,6,1,0,100,0,1
237319,-111.111111111111,6,1,0,100,0,0
237370,-66.6666666666667,6,1,0,100,0,0
237836,-100,6,1,0,100,0,0
238094,-200,6,1,0,60,0,0
242067,-200,6,1,0,60,0,0
242181,-187.5,6,1,0,70,0,0
242343,-183.673469387755,6,1,0,70,0,0
242412,-180,6,1,0,70,0,0
242481,-176.470588235294,6,1,0,70,0,0
242550,-173.076923076923,6,1,0,70,0,0
242619,-169.811320754717,6,1,0,70,0,0
242688,-166.666666666667,6,1,0,70,0,0
242801,-142.857142857143,6,1,0,80,0,0
242998,-143.746223564955,6,1,0,80,0,0
243102,-144.655235315578,6,1,0,80,0,0
243205,-145.566909380163,6,1,0,80,0,0
243309,-146.499168668021,6,1,0,80,0,0
243412,-147.43430837878,6,1,0,80,0,0
243515,-148.381463232084,6,1,0,80,0,0
243619,-149.350241697533,6,1,0,80,0,0
243722,-150.322254517882,6,1,0,80,0,0
243826,-151.316626383412,6,1,0,80,0,0
243929,-152.314488763685,6,1,0,80,0,0
244033,-153.335481791814,6,1,0,80,0,0
244136,-154.360238774981,6,1,0,80,0,0
244240,-155.408936503789,6,1,0,80,0,0
244343,-156.461690233476,6,1,0,80,0,0
244446,-157.528804131903,6,1,0,80,0,0
244550,-158.621149486598,6,1,0,80,0,0
244653,-159.718026183283,6,1,0,80,0,0
244757,-160.841051991076,6,1,0,80,0,0
244860,-161.968954248366,6,1,0,80,0,0
244964,-163.12397147559,6,1,0,80,0,0
245067,-164.284234514191,6,1,0,80,0,0
245171,-165.472629894971,6,1,0,80,0,0
245274,-166.666666666667,6,1,0,80,0,0
245336,-125,6,1,0,100,0,0
245481,-123.279512969825,6,1,0,100,0,0
245688,-119.992271029241,6,1,0,100,0,0
245895,-116.875784190715,6,1,0,100,0,0
245998,-115.384615384615,6,1,0,100,0,0
246102,-113.91708450532,6,1,0,100,0,0
246309,-111.104484732824,6,1,0,100,0,0
246515,-108.440046565774,6,1,0,100,0,0
246619,-107.142857142857,6,1,0,100,0,0
246826,-104.651162790698,6,1,0,100,0,0
247033,-102.272727272727,6,1,0,100,0,0
247240,-100,6,1,0,100,0,0
247353,-100,6,1,0,60,0,0
247612,-166.666666666667,6,1,0,60,0,0
247767,-111.111111111111,6,1,0,100,0,0
248067,-125,6,1,0,100,0,0
248171,-123.449427480916,6,1,0,100,0,0
248274,-121.951219512195,6,1,0,100,0,0
248377,-120.488940628638,6,1,0,100,0,0
248429,-119.76394353159,6,1,0,100,0,0
248481,-119.047619047619,6,1,0,100,0,0
248584,-117.653745595089,6,1,0,100,0,0
248688,-116.279069767442,6,1,0,100,0,0
248791,-114.948911594847,6,1,0,100,0,0
248895,-113.636363636364,6,1,0,100,0,0
248998,-112.365649766583,6,1,0,100,0,0
249050,-111.734859116917,6,1,0,100,0,0
249102,-111.111111111111,6,1,0,100,0,0
249309,-125,6,1,0,100,0,0
249412,-123.462686567164,6,1,0,100,0,0
249515,-121.962727058268,6,1,0,100,0,0
249619,-120.484735492892,6,1,0,100,0,0
249722,-119.055843408175,6,1,0,100,0,0
249826,-117.647058823529,6,1,0,100,0,0
249877,-116.968325791855,6,1,0,100,0,0
249929,-116.284300494827,6,1,0,100,0,0
250033,-114.939973321476,6,1,0,100,0,0
250136,-113.638861413342,6,1,0,100,0,0
250188,-112.993115506502,6,1,0,100,0,0
250240,-112.354666956427,6,1,0,100,0,0
250291,-111.735465744543,6,1,0,100,0,0
250343,-111.111111111111,6,1,0,100,0,0
250456,-125,6,1,0,50,0,0
250653,-121.229868228404,6,1,0,50,0,0
250757,-117.647058823529,6,1,0,50,0,0
250860,-114.301490889012,6,1,0,50,0,0
250922,-111.111111111111,6,1,0,100,0,0
251077,-125,6,1,0,50,0,0
251274,-121.221015556208,6,1,0,50,0,0
251377,-117.663817663818,6,1,0,50,0,0
251481,-114.277808522413,6,1,0,50,0,0
251543,-111.111111111111,6,1,0,100,0,0
252267,-76.9230769230769,6,1,0,100,0,0
252826,-111.111111111111,6,1,0,100,0,0
253033,-112.746143456316,6,1,0,100,0,0
253136,-113.577771412203,6,1,0,100,0,0
253240,-114.430014430014,6,1,0,100,0,0
253343,-115.286763102421,6,1,0,100,0,0
253446,-116.156437673942,6,1,0,100,0,0
253550,-117.047970479705,6,1,0,100,0,0
253653,-117.94452294192,6,1,0,100,0,0
253757,-118.863823727797,6,1,0,100,0,0
253860,-119.788519637462,6,1,0,100,0,0
253964,-120.736906211937,6,1,0,100,0,0
254067,-121.691091843781,6,1,0,100,0,0
254171,-122.669966741434,6,1,0,100,0,0
254274,-123.655075627631,6,1,0,100,0,0
254377,-124.656134559459,6,1,0,100,0,0
254481,-125.683493145257,6,1,0,100,0,0
254584,-126.717801214446,6,1,0,100,0,0
254688,-127.779568159845,6,1,0,100,0,0
254791,-128.848809813957,6,1,0,100,0,0
254895,-129.946743138058,6,1,0,100,0,0
254998,-131.052718558916,6,1,0,100,0,0
255102,-132.188698116353,6,1,0,100,0,0
255205,-133.333333333333,6,1,0,100,0,0
255309,-111.111111111111,6,1,0,100,0,0
255515,-109.595391033706,6,1,0,100,0,0
255929,-106.670963583629,6,1,0,100,0,0
256033,-105.960688904539,6,1,0,100,0,0
256136,-105.266505533647,6,1,0,100,0,0
256550,-102.56569162122,6,1,0,100,0,0
256757,-101.266597319954,6,1,0,100,0,0
256964,-100,6,1,0,100,0,0
257171,-108.118708327886,6,1,0,100,0,0
257274,-112.67029972752,6,1,0,100,0,0
257377,-117.621959891907,6,1,0,100,0,0
257481,-123.083792230987,6,1,0,100,0,0
257584,-129.017160686428,6,1,0,100,0,0
257688,-135.618235487045,6,1,0,100,0,0
257801,206.896551724138,4,1,0,100,1,0
257801,-142.857142857143,4,1,0,100,0,0
258007,-100,4,1,0,100,0,1
258111,-111.111111111111,4,1,0,100,0,1
263584,-111.111111111111,4,1,0,100,0,1
263791,-115.948124780932,4,1,0,100,0,1
263842,-117.205215419501,4,1,0,100,0,1
263894,-118.515333906563,4,1,0,100,0,1
264101,-124.034495688039,4,1,0,100,0,1
264204,-126.97681559957,4,1,0,100,0,1
264411,-133.333333333333,4,1,0,100,0,1
264525,-100,4,1,0,100,0,1
264732,-111.111111111111,4,1,0,100,0,1
270101,-111.111111111111,4,1,0,100,0,1
270204,-109.761848620608,4,1,0,100,0,1
270256,-109.093039606281,4,1,0,100,0,1
270308,-108.432331702772,4,1,0,100,0,1
270359,-107.792057427348,4,1,0,100,0,1
270411,-107.146967430084,4,1,0,100,0,1
270463,-106.509552682759,4,1,0,100,0,1
270515,-105.879677015808,4,1,0,100,0,1
270566,-105.269109000452,4,1,0,100,0,1
270618,-104.653776978417,4,1,0,100,0,1
270670,-104.045596781404,4,1,0,100,0,1
270722,-103.444444444444,4,1,0,100,0,1
270773,-102.861562258314,4,1,0,100,0,1
270825,-102.273975612436,4,1,0,100,0,1
270877,-101.693063899509,4,1,0,100,0,1
270928,-101.129698023028,4,1,0,100,0,1
270980,-100.561676387989,4,1,0,100,0,1
271042,-100,4,1,0,100,0,0
271239,-107.575795362343,4,1,0,100,0,0
271446,-115.725517478408,4,1,0,100,0,0
271653,-124.492645864585,4,1,0,100,0,0
271859,-133.876716579673,4,1,0,100,0,0
272066,-144.018942665574,4,1,0,100,0,0
272273,-154.929523044928,4,1,0,100,0,0
272480,-166.666666666667,4,1,0,100,0,0
272687,-142.857142857143,4,1,0,100,0,0
272791,-139.110700176515,4,1,0,100,0,0
272894,-135.58905456333,4,1,0,100,0,0
272997,-132.241310427487,4,1,0,100,0,0
273101,-129.024713494972,4,1,0,100,0,0
273204,-125.989646772229,4,1,0,100,0,0
273308,-123.066627007734,4,1,0,100,0,0
273411,-120.302391509777,4,1,0,100,0,0
273515,-117.634515601677,4,1,0,100,0,0
273618,-115.106412574767,4,1,0,100,0,0
273722,-112.661674608577,4,1,0,100,0,0
273825,-110.340689379292,4,1,0,100,0,0
273928,-108.113404755683,4,1,0,100,0,0
273980,-107.022762545266,4,1,0,100,0,0
274032,-105.95390524968,4,1,0,100,0,0
274084,-104.906186612576,4,1,0,100,0,0
274135,-103.898549814803,4,1,0,100,0,0
274187,-102.89089213553,4,1,0,100,0,0
274239,-101.902592204914,4,1,0,100,0,0
274291,-100.933097517839,4,1,0,100,0,0
274326,-33.3333333333333,4,1,0,60,0,0
274352,206.896551724138,10,1,0,60,1,0
274352,-33.3333333333333,10,1,0,60,0,0
274455,-100,10,1,0,60,0,0

[HitObjects]
256,192,3116,5,0,0:0:0:0:
256,192,3322,1,8,0:0:0:0:
256,192,3529,1,0,0:0:0:0:
256,192,3736,1,0,0:0:0:0:
256,192,3943,1,8,0:0:0:0:
256,192,4150,1,0,0:0:0:0:
256,192,4357,1,8,0:0:0:0:
256,192,4667,1,8,0:0:0:0:
256,192,4771,1,0,0:0:0:0:
256,192,4978,1,8,0:0:0:0:
256,192,5184,1,0,0:0:0:0:
256,192,5391,1,8,0:0:0:0:
256,192,5598,1,8,0:0:0:0:
256,192,5805,1,0,0:0:0:0:
256,192,6012,1,8,0:0:0:0:
256,192,6219,1,0,0:0:0:0:
256,192,6426,1,0,0:0:0:0:
256,192,6633,1,8,0:0:0:0:
256,192,6840,1,8,0:0:0:0:
256,192,7150,1,8,0:0:0:0:
256,192,7253,1,8,0:0:0:0:
256,192,7460,1,0,0:0:0:0:
256,192,7874,1,0,0:0:0:0:
256,192,7978,1,0,0:0:0:0:
256,192,8081,1,8,0:0:0:0:
256,192,8288,1,8,0:0:0:0:
256,192,8495,1,8,0:0:0:0:
256,192,8702,1,0,0:0:0:0:
256,192,9116,1,0,0:0:0:0:
256,192,9219,1,0,0:0:0:0:
256,192,9322,1,8,0:0:0:0:
256,192,9529,1,8,0:0:0:0:
256,192,9736,1,0,0:0:0:0:
256,192,9943,1,8,0:0:0:0:
256,192,10253,1,8,0:0:0:0:
256,192,10564,1,0,0:0:0:0:
256,192,12736,12,0,15632,0:0:0:0:
256,192,15736,5,12,0:0:0:0:
256,192,15942,1,0,0:0:0:0:
256,192,16046,1,8,0:0:0:0:
256,192,16149,1,0,0:0:0:0:
256,192,16253,1,0,0:0:0:0:
256,192,16356,1,12,0:0:0:0:
256,192,16563,1,8,0:0:0:0:
256,192,16667,1,8,0:0:0:0:
256,192,16770,1,0,0:0:0:0:
256,192,16873,1,8,0:0:0:0:
256,192,16977,1,4,0:0:0:0:
256,192,17184,1,0,0:0:0:0:
256,192,17287,1,0,0:0:0:0:
256,192,17391,1,8,0:0:0:0:
256,192,17494,1,8,0:0:0:0:
256,192,17598,1,4,0:0:0:0:
256,192,17804,1,8,0:0:0:0:
256,192,17908,1,8,0:0:0:0:
256,192,18011,1,0,0:0:0:0:
256,192,18115,1,0,0:0:0:0:
256,192,18218,1,12,0:0:0:0:
256,192,18425,1,0,0:0:0:0:
256,192,18529,1,0,0:0:0:0:
256,192,18632,1,0,0:0:0:0:
256,192,18736,1,0,0:0:0:0:
256,192,18839,1,12,0:0:0:0:
256,192,19046,1,8,0:0:0:0:
256,192,19149,1,8,0:0:0:0:
256,192,19253,1,8,0:0:0:0:
256,192,19356,1,8,0:0:0:0:
256,192,19460,1,4,0:0:0:0:
256,192,19667,1,0,0:0:0:0:
256,192,19770,1,0,0:0:0:0:
256,192,19873,1,8,0:0:0:0:
256,192,19977,1,8,0:0:0:0:
256,192,20080,1,4,0:0:0:0:
256,192,20287,1,8,0:0:0:0:
256,192,20391,1,8,0:0:0:0:
256,192,20494,1,0,0:0:0:0:
256,192,20598,1,0,0:0:0:0:
256,192,20701,1,12,0:0:0:0:
256,192,20908,1,0,0:0:0:0:
256,192,21011,1,0,0:0:0:0:
256,192,21115,1,8,0:0:0:0:
256,192,21218,1,0,0:0:0:0:
256,192,21322,1,8,0:0:0:0:
256,192,21425,1,8,0:0:0:0:
256,192,21529,1,0,0:0:0:0:
256,192,21632,1,0,0:0:0:0:
256,192,21736,1,8,0:0:0:0:
256,192,21839,1,8,0:0:0:0:
256,192,21942,1,8,0:0:0:0:
256,192,22046,1,8,0:0:0:0:
256,192,22149,1,0,0:0:0:0:
256,192,22253,1,0,0:0:0:0:
256,192,22356,1,8,0:0:0:0:
256,192,22460,1,8,0:0:0:0:
256,192,22563,1,0,0:0:0:0:
256,192,22667,1,8,0:0:0:0:
256,192,22770,1,0,0:0:0:0:
256,192,22873,1,0,0:0:0:0:
256,192,22977,1,8,0:0:0:0:
256,192,23184,1,8,0:0:0:0:
256,192,23287,1,8,0:0:0:0:
256,192,23391,1,0,0:0:0:0:
256,192,23494,1,8,0:0:0:0:
256,192,23598,1,0,0:0:0:0:
256,192,23701,1,0,0:0:0:0:
256,192,23804,1,8,0:0:0:0:
256,192,23856,1,8,0:0:0:0:
256,192,23908,1,0,0:0:0:0:
256,192,23960,1,8,0:0:0:0:
256,192,24011,1,0,0:0:0:0:
256,192,24063,1,0,0:0:0:0:
256,192,24115,1,8,0:0:0:0:
256,192,24167,1,8,0:0:0:0:
256,192,24218,1,0,0:0:0:0:
256,192,24270,1,8,0:0:0:0:
256,192,24322,1,0,0:0:0:0:
256,192,24373,1,0,0:0:0:0:
256,192,24425,1,12,0:0:0:0:
256,192,24529,1,12,0:0:0:0:
256,192,24736,1,12,0:0:0:0:
256,192,25046,1,4,0:0:0:0:
256,192,25149,1,4,0:0:0:0:
256,192,25356,1,4,0:0:0:0:
256,192,25667,1,12,0:0:0:0:
256,192,26080,1,8,0:0:0:0:
256,192,26494,1,0,0:0:0:0:
256,192,26701,1,0,0:0:0:0:
256,192,26908,1,8,0:0:0:0:
256,192,27322,1,0,0:0:0:0:
256,192,27736,1,8,0:0:0:0:
256,192,27942,1,8,0:0:0:0:
256,192,28149,1,0,0:0:0:0:
256,192,28356,1,8,0:0:0:0:
256,192,28460,1,0,0:0:0:0:
256,192,28563,1,8,0:0:0:0:
256,192,28667,1,8,0:0:0:0:
256,192,28770,1,0,0:0:0:0:
256,192,28977,1,8,0:0:0:0:
256,192,29080,1,0,0:0:0:0:
256,192,29184,1,8,0:0:0:0:
256,192,29391,1,8,0:0:0:0:
256,192,29494,1,0,0:0:0:0:
256,192,29598,1,0,0:0:0:0:
256,192,29701,1,8,0:0:0:0:
256,192,29804,1,0,0:0:0:0:
256,192,29908,1,0,0:0:0:0:
256,192,30011,1,8,0:0:0:0:
256,192,30115,1,0,0:0:0:0:
256,192,30218,1,0,0:0:0:0:
256,192,30322,1,8,0:0:0:0:
256,192,30373,1,0,0:0:0:0:
256,192,30425,1,0,0:0:0:0:
256,192,30477,1,8,0:0:0:0:
256,192,30529,1,0,0:0:0:0:
256,192,30580,1,0,0:0:0:0:
256,192,30632,1,12,0:0:0:0:
256,192,30839,1,0,0:0:0:0:
256,192,30942,1,0,0:0:0:0:
256,192,31046,1,0,0:0:0:0:
256,192,31253,1,8,0:0:0:0:
256,192,31460,1,8,0:0:0:0:
256,192,31563,1,8,0:0:0:0:
256,192,31667,1,0,0:0:0:0:
256,192,31873,1,8,0:0:0:0:
256,192,32080,1,0,0:0:0:0:
256,192,32184,1,8,0:0:0:0:
256,192,32287,1,0,0:0:0:0:
256,192,32494,1,8,0:0:0:0:
256,192,32701,1,0,0:0:0:0:
256,192,32804,1,0,0:0:0:0:
256,192,32908,1,8,0:0:0:0:
256,192,33115,1,0,0:0:0:0:
256,192,33218,1,0,0:0:0:0:
256,192,33322,1,8,0:0:0:0:
256,192,33425,1,0,0:0:0:0:
256,192,33529,1,8,0:0:0:0:
256,192,33632,1,8,0:0:0:0:
256,192,33736,1,0,0:0:0:0:
256,192,33839,1,0,0:0:0:0:
256,192,33942,1,8,0:0:0:0:
256,192,34046,1,8,0:0:0:0:
256,192,34149,1,0,0:0:0:0:
256,192,34253,1,8,0:0:0:0:
256,192,34356,1,4,0:0:0:0:
256,192,34460,1,4,0:0:0:0:
256,192,34667,1,4,0:0:0:0:
256,192,34873,1,4,0:0:0:0:
256,192,35080,1,4,0:0:0:0:
256,192,35287,1,4,0:0:0:0:
256,192,35391,1,4,0:0:0:0:
256,192,35598,1,8,0:0:0:0:
256,192,35701,1,0,0:0:0:0:
256,192,35804,1,8,0:0:0:0:
256,192,35908,1,8,0:0:0:0:
256,192,36011,1,0,0:0:0:0:
256,192,36115,1,8,0:0:0:0:
256,192,36218,1,0,0:0:0:0:
256,192,36425,1,8,0:0:0:0:
256,192,36632,1,8,0:0:0:0:
256,192,36839,1,0,0:0:0:0:
256,192,36942,1,0,0:0:0:0:
256,192,37046,1,8,0:0:0:0:
256,192,37149,1,8,0:0:0:0:
256,192,37253,1,0,0:0:0:0:
256,192,37356,1,8,0:0:0:0:
256,192,37460,1,0,0:0:0:0:
256,192,37667,1,8,0:0:0:0:
256,192,37873,1,8,0:0:0:0:
256,192,38080,1,0,0:0:0:0:
256,192,38184,1,0,0:0:0:0:
256,192,38287,1,8,0:0:0:0:
256,192,38391,1,8,0:0:0:0:
256,192,38494,1,0,0:0:0:0:
256,192,38598,1,0,0:0:0:0:
256,192,38701,1,8,0:0:0:0:
256,192,38908,1,0,0:0:0:0:
256,192,39011,1,8,0:0:0:0:
256,192,39115,1,0,0:0:0:0:
256,192,39218,1,0,0:0:0:0:
256,192,39322,1,8,0:0:0:0:
256,192,39632,1,0,0:0:0:0:
256,192,39942,1,8,0:0:0:0:
256,192,40253,1,8,0:0:0:0:
256,192,40563,1,0,0:0:0:0:
256,192,40667,1,0,0:0:0:0:
256,192,40770,1,8,0:0:0:0:
256,192,40873,1,0,0:0:0:0:
256,192,40977,1,8,0:0:0:0:
256,192,41080,1,8,0:0:0:0:
256,192,41184,1,0,0:0:0:0:
256,192,41391,1,8,0:0:0:0:
256,192,41598,1,8,0:0:0:0:
256,192,41753,1,0,0:0:0:0:
256,192,41804,1,8,0:0:0:0:
256,192,41908,1,0,0:0:0:0:
256,192,42011,1,8,0:0:0:0:
256,192,42115,1,8,0:0:0:0:
256,192,42218,1,0,0:0:0:0:
256,192,42322,1,8,0:0:0:0:
256,192,42425,1,0,0:0:0:0:
256,192,42632,1,8,0:0:0:0:
256,192,42839,1,8,0:0:0:0:
256,192,42994,1,0,0:0:0:0:
256,192,43046,1,8,0:0:0:0:
256,192,43253,1,0,0:0:0:0:
256,192,43460,1,0,0:0:0:0:
256,192,43667,1,8,0:0:0:0:
256,192,43718,1,8,0:0:0:0:
256,192,43873,1,0,0:0:0:0:
256,192,44080,1,8,0:0:0:0:
256,192,44287,1,0,0:0:0:0:
256,192,44339,1,0,0:0:0:0:
256,192,44908,1,8,0:0:0:0:
256,192,45529,1,4,0:0:0:0:
256,192,45632,1,4,0:0:0:0:
256,192,45839,1,4,0:0:0:0:
256,192,46046,1,4,0:0:0:0:
256,192,46253,1,4,0:0:0:0:
256,192,46356,1,12,0:0:0:0:
256,192,46563,1,12,0:0:0:0:
256,192,46770,1,4,0:0:0:0:
256,192,46873,1,4,0:0:0:0:
256,192,47080,1,4,0:0:0:0:
256,192,47287,1,4,0:0:0:0:
256,192,47494,1,12,0:0:0:0:
256,192,47598,1,4,0:0:0:0:
256,192,47804,1,4,0:0:0:0:
256,192,48011,1,4,0:0:0:0:
256,192,48115,1,4,0:0:0:0:
256,192,48322,1,4,0:0:0:0:
256,192,48529,1,4,0:0:0:0:
256,192,48736,1,4,0:0:0:0:
256,192,48839,1,12,0:0:0:0:
256,192,49046,1,12,0:0:0:0:
256,192,49253,1,4,0:0:0:0:
256,192,49563,1,12,0:0:0:0:
256,192,49873,1,4,0:0:0:0:
256,192,50184,1,12,0:0:0:0:
256,192,50287,1,0,0:0:0:0:
256,192,50339,1,0,0:0:0:0:
256,192,50391,1,8,0:0:0:0:
256,192,50442,1,8,0:0:0:0:
256,192,50494,1,4,0:0:0:0:
256,192,50598,1,4,0:0:0:0:
256,192,50804,1,4,0:0:0:0:
256,192,51011,1,4,0:0:0:0:
256,192,51218,1,4,0:0:0:0:
256,192,51322,1,12,0:0:0:0:
256,192,51529,1,12,0:0:0:0:
256,192,51736,1,4,0:0:0:0:
256,192,51839,1,4,0:0:0:0:
256,192,52046,1,4,0:0:0:0:
256,192,52253,1,4,0:0:0:0:
256,192,52460,1,12,0:0:0:0:
256,192,52563,1,4,0:0:0:0:
256,192,52770,1,4,0:0:0:0:
256,192,52977,1,4,0:0:0:0:
256,192,53080,1,4,0:0:0:0:
256,192,53287,1,4,0:0:0:0:
256,192,53494,1,4,0:0:0:0:
256,192,53701,1,4,0:0:0:0:
256,192,53804,1,12,0:0:0:0:
256,192,54011,1,12,0:0:0:0:
256,192,54322,1,12,0:0:0:0:
256,192,54529,1,4,0:0:0:0:
256,192,54736,1,12,0:0:0:0:
256,192,54839,1,4,0:0:0:0:
256,192,55046,1,8,0:0:0:0:
256,192,55149,1,0,0:0:0:0:
256,192,55253,1,8,0:0:0:0:
256,192,55304,1,8,0:0:0:0:
256,192,55356,1,0,0:0:0:0:
256,192,55408,1,0,0:0:0:0:
256,192,55460,1,8,0:0:0:0:
256,192,55563,1,0,0:0:0:0:
256,192,55667,1,0,0:0:0:0:
256,192,55770,1,8,0:0:0:0:
256,192,55873,1,0,0:0:0:0:
256,192,55977,1,0,0:0:0:0:
256,192,56080,1,8,0:0:0:0:
256,192,56184,1,0,0:0:0:0:
256,192,56287,1,0,0:0:0:0:
256,192,56391,1,8,0:0:0:0:
256,192,56494,1,0,0:0:0:0:
256,192,56598,1,0,0:0:0:0:
256,192,56701,1,8,0:0:0:0:
256,192,56753,1,8,0:0:0:0:
256,192,56804,1,0,0:0:0:0:
256,192,56856,1,8,0:0:0:0:
256,192,56908,1,0,0:0:0:0:
256,192,56960,1,0,0:0:0:0:
256,192,57011,1,8,0:0:0:0:
256,192,57063,1,8,0:0:0:0:
256,192,57115,1,0,0:0:0:0:
256,192,57167,1,8,0:0:0:0:
256,192,57218,1,0,0:0:0:0:
256,192,57270,1,0,0:0:0:0:
256,192,57322,1,8,0:0:0:0:
256,192,57373,1,8,0:0:0:0:
256,192,57425,1,0,0:0:0:0:
256,192,57477,1,0,0:0:0:0:
256,192,57529,1,8,0:0:0:0:
256,192,57580,1,8,0:0:0:0:
256,192,57632,1,0,0:0:0:0:
256,192,57684,1,0,0:0:0:0:
256,192,57736,1,8,0:0:0:0:
256,192,57787,1,8,0:0:0:0:
256,192,57839,1,0,0:0:0:0:
448,320,57942,1,12,0:0:0:0:
256,192,58149,1,8,0:0:0:0:
256,192,58253,1,8,0:0:0:0:
256,192,58356,1,0,0:0:0:0:
256,192,58460,1,0,0:0:0:0:
256,192,58563,1,8,0:0:0:0:
256,192,58770,1,0,0:0:0:0:
256,192,58977,1,0,0:0:0:0:
256,192,59184,1,8,0:0:0:0:
256,192,59287,1,0,0:0:0:0:
256,192,59391,1,8,0:0:0:0:
256,192,59494,1,8,0:0:0:0:
256,192,59598,1,8,0:0:0:0:
256,192,59701,1,0,0:0:0:0:
256,192,59804,1,8,0:0:0:0:
256,192,60011,1,0,0:0:0:0:
256,192,60218,1,0,0:0:0:0:
256,192,60425,1,8,0:0:0:0:
256,192,60529,1,0,0:0:0:0:
256,192,60632,1,0,0:0:0:0:
256,192,60736,1,8,0:0:0:0:
256,192,60839,1,0,0:0:0:0:
256,192,60942,1,0,0:0:0:0:
256,192,61046,1,8,0:0:0:0:
256,192,61253,1,0,0:0:0:0:
256,192,61356,1,8,0:0:0:0:
256,192,61460,1,0,0:0:0:0:
256,192,61563,1,0,0:0:0:0:
256,192,61667,1,12,0:0:0:0:
256,192,61977,1,4,0:0:0:0:
256,192,62287,1,12,0:0:0:0:
256,192,62598,1,4,0:0:0:0:
256,192,62908,1,12,0:0:0:0:
256,192,63115,1,8,0:0:0:0:
256,192,63218,1,8,0:0:0:0:
256,192,63322,1,0,0:0:0:0:
256,192,63425,1,0,0:0:0:0:
256,192,63529,1,8,0:0:0:0:
256,192,63736,1,0,0:0:0:0:
256,192,63942,1,0,0:0:0:0:
256,192,64098,1,8,0:0:0:0:
256,192,64149,1,8,0:0:0:0:
256,192,64253,1,0,0:0:0:0:
256,192,64356,1,8,0:0:0:0:
256,192,64460,1,8,0:0:0:0:
256,192,64563,1,8,0:0:0:0:
256,192,64667,1,0,0:0:0:0:
256,192,64770,1,8,0:0:0:0:
256,192,64977,1,0,0:0:0:0:
256,192,65184,1,0,0:0:0:0:
256,192,65391,1,12,0:0:0:0:
256,192,65701,1,8,0:0:0:0:
256,192,65908,1,0,0:0:0:0:
256,192,66011,1,12,0:0:0:0:
256,192,66322,1,8,0:0:0:0:
256,192,66529,1,0,0:0:0:0:
256,192,66632,1,12,0:0:0:0:
256,192,66942,1,4,0:0:0:0:
256,192,67253,1,12,0:0:0:0:
256,192,67563,1,4,0:0:0:0:
256,192,67873,1,12,0:0:0:0:
256,192,68080,1,0,0:0:0:0:
256,192,68184,1,0,0:0:0:0:
256,192,68287,1,8,0:0:0:0:
256,192,68391,1,0,0:0:0:0:
256,192,68442,1,0,0:0:0:0:
256,192,68494,1,8,0:0:0:0:
256,192,68701,1,8,0:0:0:0:
256,192,68804,1,8,0:0:0:0:
256,192,68908,1,0,0:0:0:0:
256,192,69011,1,8,0:0:0:0:
256,192,69115,1,0,0:0:0:0:
256,192,69322,1,0,0:0:0:0:
256,192,69425,1,8,0:0:0:0:
256,192,69477,1,8,0:0:0:0:
256,192,69529,1,8,0:0:0:0:
256,192,69632,1,0,0:0:0:0:
256,192,69736,1,8,0:0:0:0:
256,192,69839,1,0,0:0:0:0:
256,192,69891,1,0,0:0:0:0:
256,192,69942,1,8,0:0:0:0:
256,192,70046,1,8,0:0:0:0:
256,192,70149,1,0,0:0:0:0:
256,192,70201,1,0,0:0:0:0:
256,192,70253,1,8,0:0:0:0:
256,192,70304,1,8,0:0:0:0:
256,192,70356,1,0,0:0:0:0:
256,192,70563,1,8,0:0:0:0:
256,192,70667,1,8,0:0:0:0:
256,192,70770,1,0,0:0:0:0:
256,192,70873,1,8,0:0:0:0:
256,192,70925,1,0,0:0:0:0:
256,192,70977,1,8,0:0:0:0:
256,192,71080,1,0,0:0:0:0:
256,192,71184,1,8,0:0:0:0:
256,192,71287,1,8,0:0:0:0:
256,192,71391,1,0,0:0:0:0:
256,192,71442,1,8,0:0:0:0:
256,192,71494,1,0,0:0:0:0:
256,192,71546,1,0,0:0:0:0:
256,192,71598,1,8,0:0:0:0:
256,192,71804,1,8,0:0:0:0:
256,192,71908,1,0,0:0:0:0:
256,192,72115,1,0,0:0:0:0:
256,192,72167,1,0,0:0:0:0:
256,192,72218,1,8,0:0:0:0:
256,192,72425,1,8,0:0:0:0:
256,192,72529,1,0,0:0:0:0:
256,192,72736,1,0,0:0:0:0:
256,192,72787,1,0,0:0:0:0:
256,192,72839,1,8,0:0:0:0:
256,192,72942,1,0,0:0:0:0:
256,192,73046,1,8,0:0:0:0:
256,192,73098,1,0,0:0:0:0:
256,192,73149,1,8,0:0:0:0:
256,192,73253,1,0,0:0:0:0:
256,192,73356,1,8,0:0:0:0:
256,192,73408,1,8,0:0:0:0:
256,192,73460,1,8,0:0:0:0:
256,192,73563,1,0,0:0:0:0:
256,192,73667,1,8,0:0:0:0:
256,192,73718,1,8,0:0:0:0:
256,192,73770,1,0,0:0:0:0:
256,192,73822,1,0,0:0:0:0:
256,192,73873,1,8,0:0:0:0:
256,192,73977,1,0,0:0:0:0:
256,192,74080,1,12,0:0:0:0:
256,192,74287,1,0,0:0:0:0:
256,192,74339,1,0,0:0:0:0:
256,192,74391,1,0,0:0:0:0:
256,192,74494,1,8,0:0:0:0:
256,192,74598,1,0,0:0:0:0:
256,192,74649,1,0,0:0:0:0:
256,192,74701,1,8,0:0:0:0:
256,192,74804,1,8,0:0:0:0:
256,192,74908,1,0,0:0:0:0:
256,192,74960,1,8,0:0:0:0:
256,192,75011,1,0,0:0:0:0:
256,192,75063,1,0,0:0:0:0:
256,192,75115,1,8,0:0:0:0:
256,192,75218,1,0,0:0:0:0:
256,192,75322,1,12,0:0:0:0:
256,192,75529,1,8,0:0:0:0:
256,192,75632,1,0,0:0:0:0:
256,192,75736,1,8,0:0:0:0:
256,192,75839,1,0,0:0:0:0:
256,192,75891,1,0,0:0:0:0:
256,192,75942,1,12,0:0:0:0:
256,192,76149,1,0,0:0:0:0:
256,192,76253,1,8,0:0:0:0:
256,192,76356,1,0,0:0:0:0:
256,192,76408,1,8,0:0:0:0:
256,192,76460,1,0,0:0:0:0:
256,192,76511,1,0,0:0:0:0:
256,192,76563,1,12,0:0:0:0:
256,192,76873,1,12,0:0:0:0:
256,192,77184,1,12,0:0:0:0:
256,192,77494,1,12,0:0:0:0:
256,192,77804,1,4,0:0:0:0:
256,192,77908,1,4,0:0:0:0:
256,192,78115,1,4,0:0:0:0:
256,192,78322,1,4,0:0:0:0:
256,192,78529,1,4,0:0:0:0:
256,192,78632,1,12,0:0:0:0:
256,192,78839,1,12,0:0:0:0:
256,192,79046,1,4,0:0:0:0:
256,192,79149,1,4,0:0:0:0:
256,192,79356,1,4,0:0:0:0:
256,192,79563,1,4,0:0:0:0:
256,192,79770,1,12,0:0:0:0:
256,192,79873,1,4,0:0:0:0:
256,192,80080,1,4,0:0:0:0:
256,192,80287,1,4,0:0:0:0:
256,192,80391,1,4,0:0:0:0:
256,192,80598,1,4,0:0:0:0:
256,192,80804,1,4,0:0:0:0:
256,192,81011,1,4,0:0:0:0:
256,192,81115,1,12,0:0:0:0:
256,192,81322,1,12,0:0:0:0:
256,192,81529,1,4,0:0:0:0:
256,192,81736,1,8,0:0:0:0:
256,192,81787,1,8,0:0:0:0:
256,192,81839,1,0,0:0:0:0:
256,192,81891,1,0,0:0:0:0:
256,192,81942,1,8,0:0:0:0:
256,192,82046,1,0,0:0:0:0:
256,192,82098,1,0,0:0:0:0:
256,192,82149,1,8,0:0:0:0:
256,192,82253,1,8,0:0:0:0:
256,192,82356,1,8,0:0:0:0:
256,192,82460,1,8,0:0:0:0:
256,192,82563,1,0,0:0:0:0:
256,192,82615,1,0,0:0:0:0:
256,192,82667,1,0,0:0:0:0:
256,192,82718,1,0,0:0:0:0:
256,192,82770,1,12,0:0:0:0:
256,192,82873,1,4,0:0:0:0:
256,192,83080,1,4,0:0:0:0:
256,192,83287,1,4,0:0:0:0:
256,192,83494,1,4,0:0:0:0:
256,192,83598,1,12,0:0:0:0:
256,192,83804,1,12,0:0:0:0:
256,192,84011,1,4,0:0:0:0:
256,192,84115,1,4,0:0:0:0:
256,192,84322,1,4,0:0:0:0:
256,192,84529,1,4,0:0:0:0:
256,192,84736,1,12,0:0:0:0:
256,192,84839,1,4,0:0:0:0:
256,192,85046,1,4,0:0:0:0:
256,192,85253,1,4,0:0:0:0:
256,192,85356,1,4,0:0:0:0:
256,192,85563,1,4,0:0:0:0:
256,192,85770,1,4,0:0:0:0:
256,192,85977,1,4,0:0:0:0:
256,192,86080,1,12,0:0:0:0:
256,192,86287,1,12,0:0:0:0:
256,192,86598,1,12,0:0:0:0:
256,192,86804,1,4,0:0:0:0:
256,192,87011,1,12,0:0:0:0:
256,192,87115,1,12,0:0:0:0:
256,192,87322,1,4,0:0:0:0:
256,192,87529,1,4,0:0:0:0:
256,192,87736,1,8,0:0:0:0:
256,192,87839,1,0,0:0:0:0:
256,192,87942,1,8,0:0:0:0:
256,192,88046,1,8,0:0:0:0:
256,192,88149,1,0,0:0:0:0:
256,192,88253,1,8,0:0:0:0:
256,192,88356,1,0,0:0:0:0:
256,192,88563,1,8,0:0:0:0:
256,192,88770,1,0,0:0:0:0:
256,192,88873,1,0,0:0:0:0:
256,192,88977,1,8,0:0:0:0:
256,192,89080,1,8,0:0:0:0:
256,192,89184,1,0,0:0:0:0:
256,192,89287,1,8,0:0:0:0:
256,192,89391,1,0,0:0:0:0:
256,192,89598,1,8,0:0:0:0:
256,192,89804,1,0,0:0:0:0:
256,192,89908,1,0,0:0:0:0:
256,192,90011,1,8,0:0:0:0:
256,192,90115,1,8,0:0:0:0:
256,192,90218,1,0,0:0:0:0:
256,192,90322,1,0,0:0:0:0:
256,192,90425,1,8,0:0:0:0:
256,192,90632,1,0,0:0:0:0:
256,192,90736,1,0,0:0:0:0:
256,192,90839,1,8,0:0:0:0:
256,192,91149,1,0,0:0:0:0:
256,192,91460,1,8,0:0:0:0:
256,192,91667,1,8,0:0:0:0:
256,192,91873,1,0,0:0:0:0:
256,192,91977,1,0,0:0:0:0:
256,192,92080,1,8,0:0:0:0:
256,192,92184,1,0,0:0:0:0:
256,192,92287,1,8,0:0:0:0:
256,192,92391,1,8,0:0:0:0:
256,192,92494,1,0,0:0:0:0:
256,192,92701,1,8,0:0:0:0:
256,192,92856,1,0,0:0:0:0:
256,192,92908,1,8,0:0:0:0:
256,192,93011,1,0,0:0:0:0:
256,192,93115,1,8,0:0:0:0:
256,192,93218,1,8,0:0:0:0:
256,192,93322,1,0,0:0:0:0:
256,192,93425,1,8,0:0:0:0:
256,192,93529,1,0,0:0:0:0:
256,192,93736,1,8,0:0:0:0:
256,192,93891,1,0,0:0:0:0:
256,192,93942,1,8,0:0:0:0:
256,192,94149,1,0,0:0:0:0:
256,192,94356,1,0,0:0:0:0:
256,192,94563,1,8,0:0:0:0:
256,192,94615,1,8,0:0:0:0:
256,192,94770,1,8,0:0:0:0:
256,192,94977,1,0,0:0:0:0:
256,192,95028,1,0,0:0:0:0:
256,192,95597,1,8,0:0:0:0:
256,192,96218,1,8,0:0:0:0:
256,192,96321,1,0,0:0:0:0:
256,192,96424,1,8,0:0:0:0:
256,192,96528,1,8,0:0:0:0:
256,192,96631,1,0,0:0:0:0:
256,192,96735,1,8,0:0:0:0:
256,192,96838,1,0,0:0:0:0:
256,192,97045,1,8,0:0:0:0:
256,192,97252,1,0,0:0:0:0:
256,192,97355,1,0,0:0:0:0:
256,192,97459,1,8,0:0:0:0:
256,192,97562,1,8,0:0:0:0:
256,192,97666,1,0,0:0:0:0:
256,192,97769,1,8,0:0:0:0:
256,192,97873,1,0,0:0:0:0:
256,192,98080,1,8,0:0:0:0:
256,192,98286,1,0,0:0:0:0:
256,192,98390,1,0,0:0:0:0:
256,192,98493,1,8,0:0:0:0:
256,192,98597,1,8,0:0:0:0:
256,192,98700,1,0,0:0:0:0:
256,192,98804,1,0,0:0:0:0:
256,192,98907,1,8,0:0:0:0:
256,192,99114,1,0,0:0:0:0:
256,192,99218,1,0,0:0:0:0:
256,192,99321,1,8,0:0:0:0:
256,192,99528,1,0,0:0:0:0:
256,192,99631,1,8,0:0:0:0:
256,192,99735,1,0,0:0:0:0:
256,192,99838,1,0,0:0:0:0:
256,192,99942,1,8,0:0:0:0:
256,192,100149,1,8,0:0:0:0:
256,192,100355,1,0,0:0:0:0:
256,192,100459,1,0,0:0:0:0:
256,192,100562,1,8,0:0:0:0:
256,192,100666,1,8,0:0:0:0:
256,192,100769,1,0,0:0:0:0:
256,192,100873,1,8,0:0:0:0:
256,192,100976,1,0,0:0:0:0:
256,192,101183,1,8,0:0:0:0:
256,192,101390,1,0,0:0:0:0:
256,192,101493,1,0,0:0:0:0:
256,192,101597,1,8,0:0:0:0:
256,192,101700,1,8,0:0:0:0:
256,192,101804,1,0,0:0:0:0:
256,192,101907,1,0,0:0:0:0:
256,192,102011,1,8,0:0:0:0:
256,192,102218,1,8,0:0:0:0:
256,192,102424,1,0,0:0:0:0:
256,192,102528,1,0,0:0:0:0:
256,192,102631,1,8,0:0:0:0:
256,192,102735,1,0,0:0:0:0:
256,192,102838,1,8,0:0:0:0:
256,192,102942,1,8,0:0:0:0:
256,192,103045,1,0,0:0:0:0:
256,192,103252,1,0,0:0:0:0:
256,192,103355,1,0,0:0:0:0:
256,192,103459,1,8,0:0:0:0:
256,192,103614,1,8,0:0:0:0:
256,192,103769,1,0,0:0:0:0:
256,192,103924,1,8,0:0:0:0:
256,192,104079,1,0,0:0:0:0:
256,192,104234,1,8,0:0:0:0:
256,192,104390,1,0,0:0:0:0:
256,192,104700,1,8,0:0:0:0:
256,192,104803,1,0,0:0:0:0:
256,192,104906,1,8,0:0:0:0:
256,192,105010,1,8,0:0:0:0:
256,192,105113,1,0,0:0:0:0:
256,192,105217,1,8,0:0:0:0:
256,192,105320,1,0,0:0:0:0:
256,192,105527,1,8,0:0:0:0:
256,192,105734,1,0,0:0:0:0:
256,192,105837,1,0,0:0:0:0:
256,192,105941,1,8,0:0:0:0:
256,192,106044,1,8,0:0:0:0:
256,192,106148,1,0,0:0:0:0:
256,192,106251,1,8,0:0:0:0:
256,192,106355,1,0,0:0:0:0:
256,192,106562,1,8,0:0:0:0:
256,192,106768,1,0,0:0:0:0:
256,192,106872,1,0,0:0:0:0:
256,192,106975,1,8,0:0:0:0:
256,192,107079,1,8,0:0:0:0:
256,192,107182,1,0,0:0:0:0:
256,192,107286,1,0,0:0:0:0:
256,192,107389,1,8,0:0:0:0:
256,192,107596,1,0,0:0:0:0:
256,192,107700,1,0,0:0:0:0:
256,192,107803,1,8,0:0:0:0:
256,192,108010,1,0,0:0:0:0:
256,192,108113,1,8,0:0:0:0:
256,192,108217,1,0,0:0:0:0:
256,192,108320,1,0,0:0:0:0:
256,192,108424,1,8,0:0:0:0:
256,192,108631,1,8,0:0:0:0:
256,192,108837,1,0,0:0:0:0:
256,192,108941,1,8,0:0:0:0:
256,192,109044,1,8,0:0:0:0:
256,192,109148,1,8,0:0:0:0:
256,192,109251,1,0,0:0:0:0:
256,192,109355,1,8,0:0:0:0:
256,192,109458,1,0,0:0:0:0:
256,192,109665,1,8,0:0:0:0:
256,192,109820,1,0,0:0:0:0:
256,192,109872,1,8,0:0:0:0:
256,192,109975,1,0,0:0:0:0:
256,192,110079,1,8,0:0:0:0:
256,192,110182,1,8,0:0:0:0:
256,192,110286,1,0,0:0:0:0:
256,192,110389,1,8,0:0:0:0:
256,192,110493,1,0,0:0:0:0:
256,192,110700,1,8,0:0:0:0:
256,192,110855,1,0,0:0:0:0:
256,192,110906,1,8,0:0:0:0:
256,192,111113,1,0,0:0:0:0:
256,192,111217,1,8,0:0:0:0:
256,192,111320,1,0,0:0:0:0:
256,192,111424,1,0,0:0:0:0:
256,192,111527,1,8,0:0:0:0:
256,192,111579,1,8,0:0:0:0:
256,192,111734,1,8,0:0:0:0:
256,192,111941,1,0,0:0:0:0:
256,192,111992,1,0,0:0:0:0:
256,192,112096,1,8,0:0:0:0:
256,192,112251,1,8,0:0:0:0:
256,192,112406,1,8,0:0:0:0:
256,192,112561,1,8,0:0:0:0:
256,192,112716,1,8,0:0:0:0:
256,192,112872,1,8,0:0:0:0:
256,192,113027,1,8,0:0:0:0:
256,192,113182,1,4,0:0:0:0:
256,192,113388,1,8,0:0:0:0:
256,192,113492,1,8,0:0:0:0:
256,192,113595,1,0,0:0:0:0:
256,192,113699,1,8,0:0:0:0:
256,192,113802,1,0,0:0:0:0:
256,192,114009,1,8,0:0:0:0:
256,192,114216,1,4,0:0:0:0:
256,192,114423,1,8,0:0:0:0:
256,192,114526,1,8,0:0:0:0:
256,192,114630,1,0,0:0:0:0:
256,192,114733,1,8,0:0:0:0:
256,192,114837,1,0,0:0:0:0:
256,192,115044,1,8,0:0:0:0:
256,192,115250,1,4,0:0:0:0:
256,192,115457,1,8,0:0:0:0:
256,192,115561,1,8,0:0:0:0:
256,192,115664,1,0,0:0:0:0:
256,192,115768,1,8,0:0:0:0:
256,192,115871,1,0,0:0:0:0:
256,192,116078,1,8,0:0:0:0:
256,192,116285,1,4,0:0:0:0:
256,192,116492,1,4,0:0:0:0:
256,192,116699,1,4,0:0:0:0:
256,192,116906,1,4,0:0:0:0:
256,192,117113,1,4,0:0:0:0:
256,192,117319,1,12,0:0:0:0:
256,192,117371,12,0,118250,0:0:0:0:
256,192,118354,5,0,0:0:0:0:
256,192,118560,1,12,0:0:0:0:
256,192,118664,1,0,0:0:0:0:
256,192,118716,1,0,0:0:0:0:
256,192,118767,1,8,0:0:0:0:
256,192,118871,1,0,0:0:0:0:
256,192,118974,1,8,0:0:0:0:
256,192,119181,1,0,0:0:0:0:
256,192,119233,1,8,0:0:0:0:
256,192,119285,1,0,0:0:0:0:
256,192,119336,1,0,0:0:0:0:
256,192,119388,1,8,0:0:0:0:
256,192,119491,1,0,0:0:0:0:
256,192,119595,1,8,0:0:0:0:
256,192,119698,1,0,0:0:0:0:
256,192,119750,1,0,0:0:0:0:
256,192,119802,1,8,0:0:0:0:
256,192,120009,1,0,0:0:0:0:
256,192,120112,1,0,0:0:0:0:
256,192,120216,1,8,0:0:0:0:
256,192,120267,1,0,0:0:0:0:
256,192,120319,1,8,0:0:0:0:
256,192,120371,1,8,0:0:0:0:
256,192,120422,1,0,0:0:0:0:
256,192,120526,1,0,0:0:0:0:
256,192,120629,1,8,0:0:0:0:
256,192,120733,1,0,0:0:0:0:
256,192,120785,1,0,0:0:0:0:
256,192,120836,1,8,0:0:0:0:
256,192,120940,1,0,0:0:0:0:
256,192,121043,1,8,0:0:0:0:
256,192,121095,1,8,0:0:0:0:
256,192,121147,1,0,0:0:0:0:
256,192,121250,1,8,0:0:0:0:
256,192,121302,1,8,0:0:0:0:
256,192,121354,1,0,0:0:0:0:
256,192,121405,1,0,0:0:0:0:
256,192,121457,1,8,0:0:0:0:
256,192,121560,1,0,0:0:0:0:
256,192,121612,1,0,0:0:0:0:
256,192,121664,1,8,0:0:0:0:
256,192,121871,1,0,0:0:0:0:
256,192,121922,1,0,0:0:0:0:
256,192,121974,1,8,0:0:0:0:
256,192,122026,1,0,0:0:0:0:
256,192,122078,1,8,0:0:0:0:
256,192,122181,1,0,0:0:0:0:
256,192,122285,1,8,0:0:0:0:
256,192,122388,1,8,0:0:0:0:
256,192,122491,1,0,0:0:0:0:
256,192,122595,1,8,0:0:0:0:
256,192,122698,1,0,0:0:0:0:
256,192,122750,1,0,0:0:0:0:
256,192,122802,1,8,0:0:0:0:
256,192,122905,1,0,0:0:0:0:
256,192,123009,1,8,0:0:0:0:
256,192,123060,1,0,0:0:0:0:
256,192,123112,1,8,0:0:0:0:
256,192,123216,1,0,0:0:0:0:
256,192,123319,1,8,0:0:0:0:
256,192,123422,1,8,0:0:0:0:
256,192,123526,1,0,0:0:0:0:
256,192,123578,1,0,0:0:0:0:
256,192,123629,1,8,0:0:0:0:
256,192,123681,1,0,0:0:0:0:
256,192,123733,1,8,0:0:0:0:
256,192,123836,1,0,0:0:0:0:
256,192,123940,1,8,0:0:0:0:
256,192,123991,1,8,0:0:0:0:
256,192,124043,1,0,0:0:0:0:
256,192,124095,1,0,0:0:0:0:
256,192,124147,1,8,0:0:0:0:
256,192,124354,1,0,0:0:0:0:
256,192,124405,1,0,0:0:0:0:
256,192,124457,1,8,0:0:0:0:
256,192,124664,1,0,0:0:0:0:
256,192,124767,1,8,0:0:0:0:
256,192,124974,1,12,0:0:0:0:
256,192,125078,1,0,0:0:0:0:
256,192,125129,1,0,0:0:0:0:
256,192,125181,1,8,0:0:0:0:
256,192,125285,1,0,0:0:0:0:
256,192,125388,1,8,0:0:0:0:
256,192,125440,1,8,0:0:0:0:
256,192,125491,1,0,0:0:0:0:
256,192,125543,1,0,0:0:0:0:
256,192,125595,1,8,0:0:0:0:
256,192,125802,1,8,0:0:0:0:
256,192,125905,1,0,0:0:0:0:
256,192,125957,1,0,0:0:0:0:
256,192,126009,1,8,0:0:0:0:
256,192,126112,1,8,0:0:0:0:
256,192,126216,1,0,0:0:0:0:
256,192,126319,1,0,0:0:0:0:
256,192,126422,1,8,0:0:0:0:
256,192,126474,1,0,0:0:0:0:
256,192,126526,1,8,0:0:0:0:
256,192,126578,1,8,0:0:0:0:
256,192,126629,1,0,0:0:0:0:
256,192,126836,1,8,0:0:0:0:
256,192,126940,1,0,0:0:0:0:
256,192,127043,1,8,0:0:0:0:
256,192,127095,1,8,0:0:0:0:
256,192,127147,1,0,0:0:0:0:
256,192,127198,1,0,0:0:0:0:
256,192,127250,1,8,0:0:0:0:
256,192,127354,1,0,0:0:0:0:
256,192,127405,1,0,0:0:0:0:
256,192,127457,1,8,0:0:0:0:
256,192,127560,1,8,0:0:0:0:
256,192,127664,1,0,0:0:0:0:
256,192,127767,1,0,0:0:0:0:
256,192,127871,1,8,0:0:0:0:
256,192,127922,1,8,0:0:0:0:
256,192,127974,1,0,0:0:0:0:
256,192,128078,1,8,0:0:0:0:
256,192,128129,1,8,0:0:0:0:
256,192,128181,1,0,0:0:0:0:
256,192,128233,1,0,0:0:0:0:
256,192,128285,1,8,0:0:0:0:
256,192,128491,1,0,0:0:0:0:
256,192,128595,1,8,0:0:0:0:
256,192,128698,1,0,0:0:0:0:
256,192,128750,1,8,0:0:0:0:
256,192,128802,1,0,0:0:0:0:
256,192,128854,1,0,0:0:0:0:
256,192,128905,1,8,0:0:0:0:
256,192,129009,1,0,0:0:0:0:
256,192,129060,1,0,0:0:0:0:
256,192,129112,1,8,0:0:0:0:
256,192,129319,1,0,0:0:0:0:
256,192,129422,1,8,0:0:0:0:
256,192,129629,1,0,0:0:0:0:
256,192,129681,1,0,0:0:0:0:
256,192,129733,1,8,0:0:0:0:
256,192,129785,1,0,0:0:0:0:
256,192,129836,1,8,0:0:0:0:
256,192,129888,1,8,0:0:0:0:
256,192,129940,1,4,0:0:0:0:
256,192,130043,1,4,0:0:0:0:
256,192,130250,1,4,0:0:0:0:
256,192,130457,1,4,0:0:0:0:
256,192,130664,1,4,0:0:0:0:
256,192,130905,1,12,0:0:0:0:
256,192,131043,1,12,0:0:0:0:
256,192,131181,1,12,0:0:0:0:
256,192,131319,1,12,0:0:0:0:
256,192,131457,1,12,0:0:0:0:
256,192,131595,1,4,0:0:0:0:
256,192,131802,1,8,0:0:0:0:
256,192,131905,1,8,0:0:0:0:
256,192,132009,1,0,0:0:0:0:
256,192,132112,1,0,0:0:0:0:
256,192,132216,1,8,0:0:0:0:
256,192,132422,1,8,0:0:0:0:
256,192,132526,1,0,0:0:0:0:
256,192,132629,1,8,0:0:0:0:
256,192,132733,1,8,0:0:0:0:
256,192,132836,1,0,0:0:0:0:
256,192,132940,1,8,0:0:0:0:
256,192,133043,1,0,0:0:0:0:
256,192,133250,1,0,0:0:0:0:
256,192,133354,1,0,0:0:0:0:
256,192,133457,1,8,0:0:0:0:
256,192,133560,1,0,0:0:0:0:
256,192,133664,1,8,0:0:0:0:
256,192,133767,1,8,0:0:0:0:
256,192,133871,1,0,0:0:0:0:
256,192,133974,1,8,0:0:0:0:
256,192,134078,1,0,0:0:0:0:
256,192,134285,1,0,0:0:0:0:
256,192,134491,1,8,0:0:0:0:
256,192,134698,1,8,0:0:0:0:
256,192,134905,1,0,0:0:0:0:
256,192,135009,1,0,0:0:0:0:
256,192,135112,1,8,0:0:0:0:
256,192,135216,1,8,0:0:0:0:
256,192,135319,1,0,0:0:0:0:
256,192,135422,1,8,0:0:0:0:
256,192,135526,1,0,0:0:0:0:
256,192,135733,1,8,0:0:0:0:
256,192,135836,1,8,0:0:0:0:
256,192,135940,1,0,0:0:0:0:
256,192,136043,1,0,0:0:0:0:
256,192,136147,1,8,0:0:0:0:
256,192,136250,1,8,0:0:0:0:
256,192,136354,1,0,0:0:0:0:
256,192,136560,1,8,0:0:0:0:
256,192,136716,1,0,0:0:0:0:
256,192,136871,1,8,0:0:0:0:
256,192,136922,1,8,0:0:0:0:
256,192,136974,1,8,0:0:0:0:
256,192,137129,1,0,0:0:0:0:
256,192,137285,1,8,0:0:0:0:
256,192,137336,1,8,0:0:0:0:
256,192,137388,1,4,0:0:0:0:
256,192,137595,1,4,0:0:0:0:
256,192,137802,1,12,0:0:0:0:
256,192,138009,1,12,0:0:0:0:
256,192,138216,1,4,0:0:0:0:
256,192,138422,1,8,0:0:0:0:
256,192,138474,1,8,0:0:0:0:
256,192,138526,1,0,0:0:0:0:
256,192,138629,1,8,0:0:0:0:
256,192,138681,1,8,0:0:0:0:
256,192,138733,1,0,0:0:0:0:
256,192,138785,1,8,0:0:0:0:
256,192,138836,1,0,0:0:0:0:
256,192,138888,1,0,0:0:0:0:
256,192,138940,1,8,0:0:0:0:
256,192,138991,1,8,0:0:0:0:
256,192,139043,1,0,0:0:0:0:
256,192,139147,1,0,0:0:0:0:
256,192,139250,1,8,0:0:0:0:
256,192,139354,1,0,0:0:0:0:
256,192,139457,1,8,0:0:0:0:
256,192,139509,1,8,0:0:0:0:
256,192,139560,1,0,0:0:0:0:
256,192,139612,1,0,0:0:0:0:
256,192,139664,1,8,0:0:0:0:
256,192,139716,1,8,0:0:0:0:
256,192,139767,1,0,0:0:0:0:
256,192,139819,1,0,0:0:0:0:
256,192,139871,1,8,0:0:0:0:
256,192,139974,1,0,0:0:0:0:
256,192,140078,1,8,0:0:0:0:
256,192,140181,1,0,0:0:0:0:
256,192,140285,1,8,0:0:0:0:
256,192,140336,1,8,0:0:0:0:
256,192,140388,1,0,0:0:0:0:
256,192,140440,1,8,0:0:0:0:
256,192,140491,1,0,0:0:0:0:
256,192,140543,1,0,0:0:0:0:
256,192,140595,1,8,0:0:0:0:
256,192,140647,1,8,0:0:0:0:
256,192,140698,1,4,0:0:0:0:
256,192,140905,1,4,0:0:0:0:
256,192,141112,1,12,0:0:0:0:
256,192,141319,1,12,0:0:0:0:
256,192,141526,1,4,0:0:0:0:
256,192,141629,1,4,0:0:0:0:
256,192,141836,1,4,0:0:0:0:
256,192,142146,1,12,0:0:0:0:
256,192,142250,1,12,0:0:0:0:
256,192,142457,1,12,0:0:0:0:
256,192,142767,1,4,0:0:0:0:
256,192,142870,1,4,0:0:0:0:
256,192,143077,1,4,0:0:0:0:
256,192,143388,1,12,0:0:0:0:
256,192,143491,1,12,0:0:0:0:
256,192,143698,1,12,0:0:0:0:
256,192,144008,1,4,0:0:0:0:
256,192,144112,1,4,0:0:0:0:
256,192,144319,1,4,0:0:0:0:
256,192,144629,1,12,0:0:0:0:
256,192,144732,1,12,0:0:0:0:
256,192,144939,1,12,0:0:0:0:
256,192,145250,1,4,0:0:0:0:
256,192,145457,1,12,0:0:0:0:
256,192,145663,1,4,0:0:0:0:
256,192,145973,1,8,0:0:0:0:
256,192,146283,1,8,0:0:0:0:
256,192,146594,1,0,0:0:0:0:
256,192,146904,1,0,0:0:0:0:
256,192,147319,1,12,0:0:0:0:
256,192,147732,1,8,0:0:0:0:
256,192,148146,1,0,0:0:0:0:
256,192,148353,1,0,0:0:0:0:
256,192,148560,1,8,0:0:0:0:
256,192,148974,1,0,0:0:0:0:
256,192,149387,1,8,0:0:0:0:
256,192,149594,1,8,0:0:0:0:
256,192,149801,1,0,0:0:0:0:
256,192,150008,1,8,0:0:0:0:
256,192,150112,1,0,0:0:0:0:
256,192,150215,1,8,0:0:0:0:
256,192,150319,1,8,0:0:0:0:
256,192,150422,1,0,0:0:0:0:
256,192,150629,1,8,0:0:0:0:
256,192,150732,1,0,0:0:0:0:
256,192,150836,1,8,0:0:0:0:
256,192,151043,1,8,0:0:0:0:
256,192,151146,1,0,0:0:0:0:
256,192,151250,1,0,0:0:0:0:
256,192,151353,1,8,0:0:0:0:
256,192,151456,1,0,0:0:0:0:
256,192,151560,1,0,0:0:0:0:
256,192,151663,1,8,0:0:0:0:
256,192,151767,1,0,0:0:0:0:
256,192,151870,1,0,0:0:0:0:
256,192,151974,1,8,0:0:0:0:
256,192,152025,1,0,0:0:0:0:
256,192,152077,1,0,0:0:0:0:
256,192,152129,1,8,0:0:0:0:
256,192,152181,1,0,0:0:0:0:
256,192,152232,1,0,0:0:0:0:
256,192,152284,1,12,0:0:0:0:
256,192,152491,1,0,0:0:0:0:
256,192,152594,1,0,0:0:0:0:
256,192,152698,1,0,0:0:0:0:
256,192,152905,1,8,0:0:0:0:
256,192,153112,1,8,0:0:0:0:
256,192,153215,1,8,0:0:0:0:
256,192,153319,1,0,0:0:0:0:
256,192,153525,1,8,0:0:0:0:
256,192,153732,1,0,0:0:0:0:
256,192,153836,1,8,0:0:0:0:
256,192,153939,1,0,0:0:0:0:
256,192,154146,1,8,0:0:0:0:
256,192,154353,1,0,0:0:0:0:
256,192,154456,1,0,0:0:0:0:
256,192,154560,1,8,0:0:0:0:
256,192,154767,1,0,0:0:0:0:
256,192,154870,1,0,0:0:0:0:
256,192,154974,1,8,0:0:0:0:
256,192,155077,1,0,0:0:0:0:
256,192,155181,1,8,0:0:0:0:
256,192,155284,1,8,0:0:0:0:
256,192,155387,1,0,0:0:0:0:
256,192,155491,1,0,0:0:0:0:
256,192,155594,1,8,0:0:0:0:
256,192,155698,1,8,0:0:0:0:
256,192,155801,1,0,0:0:0:0:
256,192,155905,1,8,0:0:0:0:
256,192,156008,1,4,0:0:0:0:
256,192,156112,1,4,0:0:0:0:
256,192,156319,1,4,0:0:0:0:
256,192,156525,1,4,0:0:0:0:
256,192,156732,1,4,0:0:0:0:
256,192,156939,1,4,0:0:0:0:
256,192,157043,1,4,0:0:0:0:
256,192,157250,1,8,0:0:0:0:
256,192,157353,1,0,0:0:0:0:
256,192,157456,1,8,0:0:0:0:
256,192,157560,1,8,0:0:0:0:
256,192,157663,1,0,0:0:0:0:
256,192,157767,1,8,0:0:0:0:
256,192,157870,1,0,0:0:0:0:
256,192,158077,1,8,0:0:0:0:
256,192,158284,1,8,0:0:0:0:
256,192,158491,1,0,0:0:0:0:
256,192,158594,1,0,0:0:0:0:
256,192,158698,1,8,0:0:0:0:
256,192,158801,1,8,0:0:0:0:
256,192,158905,1,0,0:0:0:0:
256,192,159008,1,8,0:0:0:0:
256,192,159112,1,0,0:0:0:0:
256,192,159319,1,8,0:0:0:0:
256,192,159525,1,8,0:0:0:0:
256,192,159732,1,0,0:0:0:0:
256,192,159836,1,0,0:0:0:0:
256,192,159939,1,8,0:0:0:0:
256,192,160043,1,8,0:0:0:0:
256,192,160146,1,0,0:0:0:0:
256,192,160250,1,0,0:0:0:0:
256,192,160353,1,8,0:0:0:0:
256,192,160560,1,0,0:0:0:0:
256,192,160663,1,8,0:0:0:0:
256,192,160767,1,0,0:0:0:0:
256,192,160870,1,0,0:0:0:0:
256,192,160974,1,8,0:0:0:0:
256,192,161284,1,0,0:0:0:0:
256,192,161594,1,8,0:0:0:0:
256,192,161905,1,8,0:0:0:0:
256,192,162215,1,0,0:0:0:0:
256,192,162319,1,0,0:0:0:0:
256,192,162422,1,8,0:0:0:0:
256,192,162525,1,0,0:0:0:0:
256,192,162629,1,8,0:0:0:0:
256,192,162732,1,8,0:0:0:0:
256,192,162836,1,0,0:0:0:0:
256,192,163043,1,8,0:0:0:0:
256,192,163250,1,8,0:0:0:0:
256,192,163405,1,0,0:0:0:0:
256,192,163456,1,8,0:0:0:0:
256,192,163560,1,0,0:0:0:0:
256,192,163663,1,8,0:0:0:0:
256,192,163767,1,8,0:0:0:0:
256,192,163870,1,0,0:0:0:0:
256,192,163974,1,8,0:0:0:0:
256,192,164077,1,0,0:0:0:0:
256,192,164284,1,8,0:0:0:0:
256,192,164491,1,8,0:0:0:0:
256,192,164646,1,0,0:0:0:0:
256,192,164698,1,8,0:0:0:0:
256,192,164905,1,0,0:0:0:0:
256,192,165112,1,0,0:0:0:0:
256,192,165319,1,8,0:0:0:0:
256,192,165370,1,8,0:0:0:0:
256,192,165525,1,0,0:0:0:0:
256,192,165732,1,8,0:0:0:0:
256,192,165939,1,0,0:0:0:0:
256,192,165991,1,0,0:0:0:0:
256,192,166560,1,8,0:0:0:0:
256,192,167181,1,6,0:0:0:0:
256,192,167387,1,8,0:0:0:0:
256,192,167491,1,8,0:0:0:0:
256,192,167594,1,0,0:0:0:0:
256,192,167698,1,0,0:0:0:0:
256,192,167801,1,8,0:0:0:0:
256,192,168008,1,0,0:0:0:0:
256,192,168215,1,0,0:0:0:0:
256,192,168422,1,8,0:0:0:0:
256,192,168525,1,0,0:0:0:0:
256,192,168629,1,8,0:0:0:0:
256,192,168732,1,8,0:0:0:0:
256,192,168836,1,8,0:0:0:0:
256,192,168939,1,0,0:0:0:0:
256,192,169043,1,8,0:0:0:0:
256,192,169250,1,0,0:0:0:0:
256,192,169456,1,0,0:0:0:0:
256,192,169663,1,8,0:0:0:0:
256,192,169767,1,0,0:0:0:0:
256,192,169870,1,0,0:0:0:0:
256,192,169974,1,8,0:0:0:0:
256,192,170077,1,0,0:0:0:0:
256,192,170181,1,0,0:0:0:0:
256,192,170284,1,8,0:0:0:0:
256,192,170491,1,0,0:0:0:0:
256,192,170594,1,8,0:0:0:0:
256,192,170698,1,0,0:0:0:0:
256,192,170801,1,0,0:0:0:0:
256,192,170905,1,12,0:0:0:0:
256,192,171215,1,4,0:0:0:0:
256,192,171525,1,12,0:0:0:0:
256,192,171836,1,4,0:0:0:0:
256,192,172146,1,12,0:0:0:0:
256,192,172353,1,8,0:0:0:0:
256,192,172456,1,8,0:0:0:0:
256,192,172560,1,0,0:0:0:0:
256,192,172663,1,0,0:0:0:0:
256,192,172767,1,8,0:0:0:0:
256,192,172974,1,0,0:0:0:0:
256,192,173181,1,0,0:0:0:0:
256,192,173336,1,8,0:0:0:0:
256,192,173387,1,8,0:0:0:0:
256,192,173491,1,0,0:0:0:0:
256,192,173594,1,8,0:0:0:0:
256,192,173698,1,8,0:0:0:0:
256,192,173801,1,8,0:0:0:0:
256,192,173905,1,0,0:0:0:0:
256,192,174008,1,8,0:0:0:0:
256,192,174215,1,0,0:0:0:0:
256,192,174422,1,0,0:0:0:0:
256,192,174629,1,12,0:0:0:0:
256,192,174939,1,8,0:0:0:0:
256,192,175146,1,0,0:0:0:0:
256,192,175250,1,12,0:0:0:0:
256,192,175560,1,8,0:0:0:0:
256,192,175767,1,0,0:0:0:0:
256,192,175870,1,12,0:0:0:0:
256,192,176181,1,4,0:0:0:0:
256,192,176491,1,12,0:0:0:0:
256,192,176801,1,4,0:0:0:0:
256,192,177112,1,12,0:0:0:0:
256,192,177319,1,0,0:0:0:0:
256,192,177422,1,0,0:0:0:0:
256,192,177525,1,8,0:0:0:0:
256,192,177629,1,0,0:0:0:0:
256,192,177681,1,0,0:0:0:0:
256,192,177732,1,8,0:0:0:0:
256,192,177836,1,0,0:0:0:0:
256,192,177939,1,8,0:0:0:0:
256,192,178043,1,8,0:0:0:0:
256,192,178146,1,0,0:0:0:0:
256,192,178250,1,8,0:0:0:0:
256,192,178353,1,0,0:0:0:0:
256,192,178560,1,0,0:0:0:0:
256,192,178612,1,8,0:0:0:0:
256,192,178663,1,0,0:0:0:0:
256,192,178715,1,0,0:0:0:0:
256,192,178767,1,8,0:0:0:0:
256,192,178870,1,0,0:0:0:0:
256,192,178974,1,8,0:0:0:0:
256,192,179025,1,8,0:0:0:0:
256,192,179077,1,0,0:0:0:0:
256,192,179129,1,0,0:0:0:0:
256,192,179181,1,8,0:0:0:0:
256,192,179284,1,8,0:0:0:0:
256,192,179387,1,0,0:0:0:0:
256,192,179439,1,0,0:0:0:0:
256,192,179491,1,8,0:0:0:0:
256,192,179543,1,8,0:0:0:0:
256,192,179594,1,0,0:0:0:0:
256,192,179801,1,8,0:0:0:0:
256,192,179905,1,8,0:0:0:0:
256,192,180008,1,0,0:0:0:0:
256,192,180060,1,0,0:0:0:0:
256,192,180112,1,8,0:0:0:0:
256,192,180163,1,0,0:0:0:0:
256,192,180215,1,8,0:0:0:0:
256,192,180319,1,0,0:0:0:0:
256,192,180422,1,8,0:0:0:0:
256,192,180525,1,8,0:0:0:0:
256,192,180629,1,0,0:0:0:0:
256,192,180681,1,8,0:0:0:0:
256,192,180732,1,0,0:0:0:0:
256,192,180784,1,0,0:0:0:0:
256,192,180836,1,8,0:0:0:0:
256,192,181043,1,8,0:0:0:0:
256,192,181146,1,0,0:0:0:0:
256,192,181353,1,0,0:0:0:0:
256,192,181405,1,0,0:0:0:0:
256,192,181456,1,8,0:0:0:0:
256,192,181663,1,8,0:0:0:0:
256,192,181767,1,0,0:0:0:0:
256,192,181974,1,0,0:0:0:0:
256,192,182025,1,0,0:0:0:0:
256,192,182077,1,8,0:0:0:0:
256,192,182181,1,0,0:0:0:0:
256,192,182284,1,8,0:0:0:0:
256,192,182336,1,0,0:0:0:0:
256,192,182387,1,8,0:0:0:0:
256,192,182491,1,0,0:0:0:0:
256,192,182594,1,8,0:0:0:0:
256,192,182646,1,8,0:0:0:0:
256,192,182698,1,8,0:0:0:0:
256,192,182801,1,0,0:0:0:0:
256,192,182905,1,8,0:0:0:0:
256,192,182956,1,8,0:0:0:0:
256,192,183008,1,0,0:0:0:0:
256,192,183060,1,0,0:0:0:0:
256,192,183112,1,8,0:0:0:0:
256,192,183215,1,0,0:0:0:0:
256,192,183267,1,0,0:0:0:0:
256,192,183319,1,12,0:0:0:0:
256,192,183525,1,0,0:0:0:0:
256,192,183577,1,0,0:0:0:0:
256,192,183629,1,0,0:0:0:0:
256,192,183732,1,8,0:0:0:0:
256,192,183836,1,0,0:0:0:0:
256,192,183887,1,0,0:0:0:0:
256,192,183939,1,8,0:0:0:0:
256,192,184146,1,8,0:0:0:0:
256,192,184198,1,8,0:0:0:0:
256,192,184250,1,0,0:0:0:0:
256,192,184301,1,0,0:0:0:0:
256,192,184353,1,8,0:0:0:0:
256,192,184560,1,12,0:0:0:0:
256,192,184767,1,8,0:0:0:0:
256,192,184870,1,0,0:0:0:0:
256,192,184974,1,8,0:0:0:0:
256,192,185077,1,0,0:0:0:0:
256,192,185129,1,0,0:0:0:0:
256,192,185181,1,12,0:0:0:0:
256,192,185387,1,0,0:0:0:0:
256,192,185491,1,8,0:0:0:0:
256,192,185594,1,0,0:0:0:0:
256,192,185646,1,8,0:0:0:0:
256,192,185698,1,0,0:0:0:0:
256,192,185750,1,0,0:0:0:0:
256,192,185801,1,12,0:0:0:0:
256,192,186112,1,12,0:0:0:0:
256,192,186422,1,12,0:0:0:0:
256,192,186732,1,12,0:0:0:0:
256,192,187043,1,0,0:0:0:0:
256,192,187146,1,0,0:0:0:0:
256,192,187250,1,8,0:0:0:0:
256,192,187353,1,0,0:0:0:0:
256,192,187405,1,0,0:0:0:0:
256,192,187456,1,8,0:0:0:0:
256,192,187560,1,8,0:0:0:0:
256,192,187663,1,0,0:0:0:0:
256,192,187767,1,0,0:0:0:0:
256,192,187870,1,8,0:0:0:0:
256,192,187974,1,0,0:0:0:0:
256,192,188025,1,0,0:0:0:0:
256,192,188077,1,8,0:0:0:0:
256,192,188181,1,8,0:0:0:0:
256,192,188284,1,4,0:0:0:0:
256,192,188491,1,8,0:0:0:0:
256,192,188594,1,0,0:0:0:0:
256,192,188698,1,8,0:0:0:0:
256,192,188801,1,8,0:0:0:0:
256,192,188905,1,0,0:0:0:0:
256,192,189008,1,0,0:0:0:0:
256,192,189112,1,8,0:0:0:0:
256,192,189215,1,0,0:0:0:0:
256,192,189319,1,8,0:0:0:0:
256,192,189525,1,4,0:0:0:0:
256,192,189732,1,8,0:0:0:0:
256,192,189836,1,8,0:0:0:0:
256,192,189939,1,0,0:0:0:0:
256,192,190043,1,8,0:0:0:0:
256,192,190146,1,4,0:0:0:0:
256,192,190353,1,8,0:0:0:0:
256,192,190456,1,0,0:0:0:0:
256,192,190560,1,8,0:0:0:0:
256,192,190767,1,4,0:0:0:0:
256,192,191077,1,4,0:0:0:0:
256,192,191387,1,8,0:0:0:0:
256,192,191491,1,8,0:0:0:0:
256,192,191594,1,0,0:0:0:0:
256,192,191698,1,0,0:0:0:0:
256,192,191801,1,8,0:0:0:0:
256,192,191853,1,8,0:0:0:0:
256,192,191905,1,8,0:0:0:0:
256,192,191956,1,8,0:0:0:0:
256,192,192008,1,4,0:0:0:0:
256,192,192112,1,4,0:0:0:0:
256,192,192319,1,4,0:0:0:0:
256,192,192525,1,4,0:0:0:0:
256,192,192732,1,4,0:0:0:0:
256,192,192836,1,12,0:0:0:0:
256,192,193043,1,12,0:0:0:0:
256,192,193250,1,4,0:0:0:0:
256,192,193353,1,4,0:0:0:0:
256,192,193560,1,4,0:0:0:0:
256,192,193767,1,4,0:0:0:0:
256,192,193974,1,12,0:0:0:0:
256,192,194077,1,4,0:0:0:0:
256,192,194284,1,4,0:0:0:0:
256,192,194491,1,4,0:0:0:0:
256,192,194594,1,4,0:0:0:0:
256,192,194801,1,4,0:0:0:0:
256,192,195008,1,4,0:0:0:0:
256,192,195215,1,4,0:0:0:0:
256,192,195319,1,12,0:0:0:0:
256,192,195525,1,12,0:0:0:0:
256,192,195732,1,4,0:0:0:0:
256,192,195939,1,8,0:0:0:0:
256,192,195991,1,8,0:0:0:0:
256,192,196043,1,0,0:0:0:0:
256,192,196094,1,0,0:0:0:0:
256,192,196146,1,8,0:0:0:0:
256,192,196250,1,0,0:0:0:0:
256,192,196301,1,0,0:0:0:0:
256,192,196353,1,8,0:0:0:0:
256,192,196456,1,8,0:0:0:0:
256,192,196560,1,8,0:0:0:0:
256,192,196663,1,8,0:0:0:0:
256,192,196767,1,0,0:0:0:0:
256,192,196819,1,0,0:0:0:0:
256,192,196870,1,0,0:0:0:0:
256,192,196922,1,0,0:0:0:0:
256,192,196974,1,12,0:0:0:0:
256,192,197077,1,4,0:0:0:0:
256,192,197284,1,4,0:0:0:0:
256,192,197491,1,4,0:0:0:0:
256,192,197698,1,4,0:0:0:0:
256,192,197801,1,12,0:0:0:0:
256,192,198008,1,12,0:0:0:0:
256,192,198215,1,4,0:0:0:0:
256,192,198319,1,4,0:0:0:0:
256,192,198525,1,4,0:0:0:0:
256,192,198732,1,4,0:0:0:0:
256,192,198939,1,12,0:0:0:0:
256,192,199043,1,4,0:0:0:0:
256,192,199250,1,4,0:0:0:0:
256,192,199456,1,4,0:0:0:0:
256,192,199560,1,4,0:0:0:0:
256,192,199767,1,4,0:0:0:0:
256,192,199974,1,4,0:0:0:0:
256,192,200181,1,4,0:0:0:0:
256,192,200284,1,12,0:0:0:0:
256,192,200491,1,12,0:0:0:0:
256,192,200801,1,12,0:0:0:0:
256,192,201008,1,4,0:0:0:0:
256,192,201215,1,12,0:0:0:0:
256,192,201319,1,4,0:0:0:0:
256,192,201525,1,12,0:0:0:0:
256,192,201732,1,12,0:0:0:0:
256,192,201939,1,4,0:0:0:0:
256,192,202146,1,8,0:0:0:0:
256,192,202353,1,0,0:0:0:0:
256,192,202560,1,0,0:0:0:0:
256,192,202767,1,8,0:0:0:0:
256,192,202974,1,0,0:0:0:0:
256,192,203181,1,8,0:0:0:0:
256,192,203387,1,0,0:0:0:0:
256,192,203491,1,8,0:0:0:0:
256,192,203594,1,0,0:0:0:0:
256,192,203801,1,8,0:0:0:0:
256,192,204008,1,0,0:0:0:0:
256,192,204112,1,0,0:0:0:0:
256,192,204215,1,8,0:0:0:0:
256,192,204422,1,8,0:0:0:0:
256,192,204629,1,0,0:0:0:0:
256,192,204836,1,8,0:0:0:0:
256,192,205043,1,0,0:0:0:0:
256,192,205250,1,0,0:0:0:0:
256,192,205456,1,8,0:0:0:0:
256,192,205663,1,8,0:0:0:0:
256,192,205870,1,0,0:0:0:0:
256,192,205974,1,8,0:0:0:0:
256,192,206077,1,8,0:0:0:0:
256,192,206284,1,0,0:0:0:0:
256,192,206362,1,0,0:0:0:0:
256,192,206439,1,0,0:0:0:0:
256,192,206517,1,0,0:0:0:0:
256,192,206594,1,0,0:0:0:0:
256,192,206672,1,0,0:0:0:0:
256,192,206750,1,0,0:0:0:0:
256,192,206827,1,0,0:0:0:0:
256,192,206905,1,12,0:0:0:0:
256,192,207112,1,0,0:0:0:0:
256,192,207215,1,0,0:0:0:0:
256,192,207319,1,8,0:0:0:0:
256,192,207525,1,4,0:0:0:0:
256,192,207732,1,0,0:0:0:0:
256,192,207836,1,0,0:0:0:0:
256,192,207939,1,8,0:0:0:0:
256,192,208043,1,0,0:0:0:0:
256,192,208146,1,12,0:0:0:0:
256,192,208353,1,0,0:0:0:0:
256,192,208456,1,8,0:0:0:0:
256,192,208560,1,8,0:0:0:0:
256,192,208767,1,4,0:0:0:0:
256,192,208974,1,0,0:0:0:0:
256,192,209077,1,8,0:0:0:0:
256,192,209181,1,0,0:0:0:0:
256,192,209284,1,0,0:0:0:0:
256,192,209387,1,12,0:0:0:0:
256,192,209594,1,8,0:0:0:0:
256,192,209698,1,8,0:0:0:0:
256,192,209801,1,0,0:0:0:0:
256,192,209905,1,0,0:0:0:0:
256,192,210008,1,12,0:0:0:0:
256,192,210215,1,0,0:0:0:0:
256,192,210319,1,8,0:0:0:0:
256,192,210422,1,0,0:0:0:0:
256,192,210525,1,0,0:0:0:0:
256,192,210629,1,12,0:0:0:0:
256,192,210939,1,4,0:0:0:0:
256,192,211250,1,12,0:0:0:0:
256,192,211456,1,8,0:0:0:0:
256,192,211508,1,8,0:0:0:0:
256,192,211560,1,0,0:0:0:0:
256,192,211612,1,0,0:0:0:0:
256,192,211663,1,8,0:0:0:0:
256,192,211715,1,0,0:0:0:0:
256,192,211767,1,8,0:0:0:0:
256,192,211819,1,8,0:0:0:0:
256,192,211870,1,4,0:0:0:0:
256,192,212077,1,8,0:0:0:0:
256,192,212181,1,8,0:0:0:0:
256,192,212284,1,0,0:0:0:0:
256,192,212491,1,8,0:0:0:0:
256,192,212698,1,0,0:0:0:0:
256,192,212801,1,0,0:0:0:0:
256,192,212905,1,8,0:0:0:0:
256,192,213112,1,0,0:0:0:0:
256,192,213319,1,8,0:0:0:0:
256,192,213422,1,8,0:0:0:0:
256,192,213525,1,0,0:0:0:0:
256,192,213732,1,8,0:0:0:0:
256,192,213939,1,0,0:0:0:0:
256,192,214043,1,0,0:0:0:0:
256,192,214146,1,8,0:0:0:0:
256,192,214250,1,0,0:0:0:0:
256,192,214353,1,8,0:0:0:0:
256,192,214560,1,0,0:0:0:0:
256,192,214767,1,8,0:0:0:0:
256,192,214870,1,0,0:0:0:0:
256,192,214974,1,8,0:0:0:0:
256,192,215181,1,0,0:0:0:0:
256,192,215284,1,0,0:0:0:0:
256,192,215387,1,8,0:0:0:0:
256,192,215594,1,0,0:0:0:0:
256,192,215801,1,8,0:0:0:0:
256,192,215905,1,8,0:0:0:0:
256,192,216008,1,8,0:0:0:0:
256,192,216215,1,8,0:0:0:0:
256,192,216319,1,0,0:0:0:0:
256,192,216422,1,8,0:0:0:0:
256,192,216525,1,8,0:0:0:0:
256,192,216629,1,0,0:0:0:0:
256,192,216681,1,0,0:0:0:0:
256,192,216732,1,8,0:0:0:0:
256,192,216784,1,8,0:0:0:0:
256,192,216836,1,4,0:0:0:0:
256,192,217043,1,8,0:0:0:0:
256,192,217146,1,8,0:0:0:0:
256,192,217250,1,8,0:0:0:0:
256,192,217456,1,0,0:0:0:0:
256,192,217663,1,8,0:0:0:0:
256,192,217767,1,0,0:0:0:0:
256,192,217870,1,8,0:0:0:0:
256,192,218077,1,4,0:0:0:0:
256,192,218181,1,4,0:0:0:0:
256,192,218387,1,4,0:0:0:0:
256,192,218594,1,8,0:0:0:0:
256,192,218698,1,4,0:0:0:0:
64,320,218801,1,4,0:0:0:0:
448,64,218905,1,8,0:0:0:0:
256,192,219008,1,4,0:0:0:0:
256,192,219215,1,8,0:0:0:0:
256,192,219319,1,4,0:0:0:0:
256,192,219525,1,8,0:0:0:0:
256,192,219629,1,0,0:0:0:0:
256,192,219732,1,0,0:0:0:0:
256,192,219836,1,0,0:0:0:0:
256,192,219939,1,8,0:0:0:0:
256,192,220146,1,8,0:0:0:0:
256,192,220250,1,8,0:0:0:0:
256,192,220353,1,0,0:0:0:0:
256,192,220456,1,0,0:0:0:0:
256,192,220560,1,8,0:0:0:0:
256,192,220663,1,0,0:0:0:0:
256,192,220767,1,8,0:0:0:0:
256,192,220870,1,0,0:0:0:0:
256,192,220974,1,8,0:0:0:0:
256,192,221025,1,8,0:0:0:0:
256,192,221077,1,0,0:0:0:0:
256,192,221129,1,0,0:0:0:0:
256,192,221181,1,12,0:0:0:0:
256,192,221387,1,12,0:0:0:0:
256,192,221594,1,12,0:0:0:0:
256,192,221801,1,4,0:0:0:0:
256,192,222008,1,8,0:0:0:0:
256,192,222112,1,8,0:0:0:0:
256,192,222215,1,0,0:0:0:0:
256,192,222267,1,0,0:0:0:0:
256,192,222319,1,0,0:0:0:0:
256,192,222422,1,8,0:0:0:0:
256,192,222629,1,0,0:0:0:0:
256,192,222732,1,0,0:0:0:0:
256,192,222836,1,8,0:0:0:0:
256,192,223043,1,8,0:0:0:0:
256,192,223146,1,0,0:0:0:0:
256,192,223198,1,0,0:0:0:0:
256,192,223250,1,8,0:0:0:0:
256,192,223353,1,8,0:0:0:0:
256,192,223456,1,0,0:0:0:0:
256,192,223560,1,0,0:0:0:0:
256,192,223663,1,8,0:0:0:0:
256,192,223870,1,0,0:0:0:0:
256,192,223974,1,8,0:0:0:0:
256,192,224077,1,0,0:0:0:0:
256,192,224284,1,8,0:0:0:0:
256,192,224387,1,8,0:0:0:0:
256,192,224491,1,0,0:0:0:0:
256,192,224594,1,8,0:0:0:0:
256,192,224698,1,0,0:0:0:0:
256,192,224750,1,0,0:0:0:0:
256,192,224801,1,0,0:0:0:0:
256,192,224905,1,8,0:0:0:0:
256,192,225112,1,0,0:0:0:0:
256,192,225319,1,8,0:0:0:0:
256,192,225422,1,8,0:0:0:0:
256,192,225525,1,8,0:0:0:0:
256,192,225732,1,0,0:0:0:0:
256,192,225784,1,0,0:0:0:0:
256,192,225836,1,0,0:0:0:0:
256,192,225939,1,8,0:0:0:0:
256,192,226043,1,0,0:0:0:0:
256,192,226146,1,8,0:0:0:0:
256,192,226353,1,0,0:0:0:0:
256,192,226456,1,0,0:0:0:0:
256,192,226560,1,8,0:0:0:0:
256,192,226612,1,8,0:0:0:0:
256,192,226663,1,8,0:0:0:0:
256,192,226715,1,8,0:0:0:0:
256,192,226767,1,4,0:0:0:0:
256,192,226974,1,8,0:0:0:0:
256,192,227077,1,0,0:0:0:0:
256,192,227181,1,8,0:0:0:0:
256,192,227284,1,8,0:0:0:0:
256,192,227387,1,0,0:0:0:0:
256,192,227594,1,8,0:0:0:0:
256,192,227698,1,8,0:0:0:0:
256,192,227801,1,8,0:0:0:0:
256,192,228008,1,0,0:0:0:0:
256,192,228215,1,8,0:0:0:0:
256,192,228422,1,0,0:0:0:0:
256,192,228525,1,0,0:0:0:0:
256,192,228629,1,8,0:0:0:0:
256,192,228836,1,8,0:0:0:0:
256,192,228939,1,0,0:0:0:0:
256,192,229043,1,0,0:0:0:0:
256,192,229146,1,0,0:0:0:0:
256,192,229250,1,8,0:0:0:0:
256,192,229456,1,0,0:0:0:0:
256,192,229663,1,8,0:0:0:0:
256,192,229767,1,8,0:0:0:0:
256,192,229870,1,0,0:0:0:0:
256,192,229974,1,0,0:0:0:0:
256,192,230077,1,8,0:0:0:0:
256,192,230181,1,0,0:0:0:0:
256,192,230284,1,8,0:0:0:0:
256,192,230491,1,0,0:0:0:0:
256,192,230698,1,8,0:0:0:0:
256,192,230905,1,0,0:0:0:0:
256,192,231008,1,0,0:0:0:0:
256,192,231112,1,8,0:0:0:0:
256,192,231215,1,8,0:0:0:0:
256,192,231319,1,0,0:0:0:0:
256,192,231422,1,8,0:0:0:0:
256,192,231525,1,0,0:0:0:0:
256,192,231629,1,0,0:0:0:0:
448,64,231732,1,8,0:0:0:0:
256,192,231939,1,0,0:0:0:0:
256,192,232043,1,8,0:0:0:0:
256,192,232146,1,0,0:0:0:0:
256,192,232250,1,0,0:0:0:0:
256,192,232353,1,8,0:0:0:0:
256,192,232456,1,0,0:0:0:0:
256,192,232560,1,8,0:0:0:0:
256,192,232663,1,8,0:0:0:0:
256,192,232767,1,0,0:0:0:0:
256,192,232819,1,0,0:0:0:0:
256,192,232870,1,0,0:0:0:0:
256,192,232922,1,0,0:0:0:0:
256,192,232974,1,12,0:0:0:0:
256,192,233077,1,12,0:0:0:0:
256,192,233284,1,12,0:0:0:0:
256,192,233491,1,12,0:0:0:0:
256,192,233594,1,4,0:0:0:0:
256,192,233698,1,4,0:0:0:0:
256,192,233905,1,12,0:0:0:0:
256,192,234112,1,4,0:0:0:0:
256,192,234215,1,12,0:0:0:0:
256,192,234319,1,12,0:0:0:0:
256,192,234525,1,4,0:0:0:0:
256,192,234732,1,4,0:0:0:0:
256,192,234836,1,12,0:0:0:0:
448,320,235043,1,12,0:0:0:0:
64,64,235250,1,0,0:0:0:0:
64,64,235353,1,0,0:0:0:0:
256,192,235456,1,12,0:0:0:0:
256,192,235663,1,0,0:0:0:0:
256,192,235870,1,0,0:0:0:0:
256,192,236077,1,12,0:0:0:0:
256,192,236284,1,0,0:0:0:0:
256,192,236491,1,8,0:0:0:0:
256,192,236698,1,0,0:0:0:0:
256,192,236801,1,0,0:0:0:0:
256,192,236905,1,0,0:0:0:0:
256,192,237008,1,0,0:0:0:0:
256,192,237112,1,0,0:0:0:0:
256,192,237215,1,0,0:0:0:0:
256,192,237319,1,12,0:0:0:0:
256,192,237422,12,0,237732,0:0:0:0:
256,192,237939,5,12,0:0:0:0:
256,192,238250,1,8,0:0:0:0:
256,192,238560,1,0,0:0:0:0:
256,192,238767,1,0,0:0:0:0:
256,192,238974,1,0,0:0:0:0:
256,192,239181,1,8,0:0:0:0:
256,192,239232,1,8,0:0:0:0:
256,192,239491,1,8,0:0:0:0:
256,192,239801,1,0,0:0:0:0:
256,192,240008,1,0,0:0:0:0:
256,192,240215,1,0,0:0:0:0:
256,192,240422,1,8,0:0:0:0:
256,192,240474,1,8,0:0:0:0:
256,192,240732,1,0,0:0:0:0:
256,192,241043,1,8,0:0:0:0:
256,192,241250,1,8,0:0:0:0:
256,192,241456,1,8,0:0:0:0:
256,192,241663,1,0,0:0:0:0:
256,192,242077,1,8,0:0:0:0:
256,192,242284,1,0,0:0:0:0:
256,192,242353,1,8,0:0:0:0:
256,192,242422,1,0,0:0:0:0:
256,192,242491,1,8,0:0:0:0:
256,192,242560,1,0,0:0:0:0:
256,192,242629,1,8,0:0:0:0:
256,192,242698,1,0,0:0:0:0:
256,192,242905,1,0,0:0:0:0:
256,192,243008,1,0,0:0:0:0:
256,192,243112,1,8,0:0:0:0:
256,192,243215,1,0,0:0:0:0:
256,192,243319,1,8,0:0:0:0:
256,192,243422,1,8,0:0:0:0:
256,192,243525,1,0,0:0:0:0:
256,192,243629,1,8,0:0:0:0:
256,192,243732,1,0,0:0:0:0:
256,192,243836,1,0,0:0:0:0:
256,192,243939,1,8,0:0:0:0:
256,192,244043,1,0,0:0:0:0:
256,192,244146,1,8,0:0:0:0:
256,192,244250,1,8,0:0:0:0:
256,192,244353,1,0,0:0:0:0:
256,192,244456,1,8,0:0:0:0:
256,192,244560,1,0,0:0:0:0:
256,192,244663,1,0,0:0:0:0:
256,192,244767,1,8,0:0:0:0:
256,192,244870,1,8,0:0:0:0:
256,192,244974,1,0,0:0:0:0:
256,192,245077,1,0,0:0:0:0:
256,192,245181,1,8,0:0:0:0:
256,192,245284,1,0,0:0:0:0:
256,192,245387,1,12,0:0:0:0:
256,192,245491,1,12,0:0:0:0:
256,192,245698,1,4,0:0:0:0:
256,192,245905,1,4,0:0:0:0:
256,192,246008,1,12,0:0:0:0:
256,192,246112,1,12,0:0:0:0:
256,192,246319,1,4,0:0:0:0:
256,192,246525,1,4,0:0:0:0:
256,192,246629,1,12,0:0:0:0:
256,192,246836,1,12,0:0:0:0:
256,192,247043,1,12,0:0:0:0:
256,192,247250,1,4,0:0:0:0:
256,192,247663,1,0,0:0:0:0:
256,192,247870,1,12,0:0:0:0:
256,192,248077,1,8,0:0:0:0:
256,192,248181,1,8,0:0:0:0:
256,192,248284,1,0,0:0:0:0:
256,192,248387,1,0,0:0:0:0:
256,192,248439,1,0,0:0:0:0:
256,192,248491,1,8,0:0:0:0:
256,192,248594,1,0,0:0:0:0:
256,192,248698,1,8,0:0:0:0:
256,192,248801,1,8,0:0:0:0:
256,192,248905,1,0,0:0:0:0:
256,192,249008,1,8,0:0:0:0:
256,192,249060,1,8,0:0:0:0:
256,192,249112,1,0,0:0:0:0:
256,192,249319,1,8,0:0:0:0:
256,192,249422,1,8,0:0:0:0:
256,192,249525,1,0,0:0:0:0:
256,192,249629,1,0,0:0:0:0:
256,192,249732,1,8,0:0:0:0:
256,192,249836,1,0,0:0:0:0:
256,192,249887,1,0,0:0:0:0:
256,192,249939,1,8,0:0:0:0:
256,192,250043,1,0,0:0:0:0:
256,192,250146,1,8,0:0:0:0:
256,192,250198,1,8,0:0:0:0:
256,192,250250,1,0,0:0:0:0:
256,192,250301,1,0,0:0:0:0:
256,192,250353,1,12,0:0:0:0:
256,192,250560,1,0,0:0:0:0:
256,192,250663,1,0,0:0:0:0:
256,192,250767,1,0,0:0:0:0:
256,192,250870,1,0,0:0:0:0:
256,192,250974,1,12,0:0:0:0:
256,192,251181,1,8,0:0:0:0:
256,192,251284,1,8,0:0:0:0:
256,192,251387,1,8,0:0:0:0:
256,192,251491,1,8,0:0:0:0:
256,192,251594,1,4,0:0:0:0:
256,192,251801,1,8,0:0:0:0:
256,192,251905,1,4,0:0:0:0:
256,192,252112,1,0,0:0:0:0:
256,192,252215,1,12,0:0:0:0:
256,192,252319,12,0,252732,0:0:0:0:
256,192,252836,5,12,0:0:0:0:
256,192,253043,1,0,0:0:0:0:
256,192,253146,1,0,0:0:0:0:
256,192,253250,1,8,0:0:0:0:
256,192,253353,1,8,0:0:0:0:
256,192,253456,1,0,0:0:0:0:
256,192,253560,1,8,0:0:0:0:
256,192,253663,1,0,0:0:0:0:
256,192,253767,1,0,0:0:0:0:
256,192,253870,1,8,0:0:0:0:
256,192,253974,1,8,0:0:0:0:
256,192,254077,1,0,0:0:0:0:
256,192,254181,1,8,0:0:0:0:
256,192,254284,1,8,0:0:0:0:
256,192,254387,1,0,0:0:0:0:
256,192,254491,1,8,0:0:0:0:
256,192,254594,1,8,0:0:0:0:
256,192,254698,1,0,0:0:0:0:
256,192,254801,1,8,0:0:0:0:
256,192,254905,1,0,0:0:0:0:
256,192,255008,1,0,0:0:0:0:
256,192,255112,1,8,0:0:0:0:
256,192,255215,1,0,0:0:0:0:
256,192,255319,1,12,0:0:0:0:
256,192,255525,1,12,0:0:0:0:
256,192,255939,1,12,0:0:0:0:
256,192,256043,1,4,0:0:0:0:
256,192,256146,1,12,0:0:0:0:
256,192,256560,1,4,0:0:0:0:
256,192,256767,1,4,0:0:0:0:
256,192,256974,1,4,0:0:0:0:
256,192,257181,1,8,0:0:0:0:
256,192,257284,1,8,0:0:0:0:
256,192,257387,1,8,0:0:0:0:
256,192,257491,1,8,0:0:0:0:
256,192,257594,1,8,0:0:0:0:
256,192,257698,1,8,0:0:0:0:
256,192,257801,1,0,0:0:0:0:
256,192,258007,1,12,0:0:0:0:
256,192,258214,1,0,0:0:0:0:
256,192,258318,1,0,0:0:0:0:
256,192,258421,1,8,0:0:0:0:
256,192,258525,1,8,0:0:0:0:
256,192,258628,1,0,0:0:0:0:
256,192,258680,1,8,0:0:0:0:
256,192,258732,1,0,0:0:0:0:
256,192,258783,1,0,0:0:0:0:
256,192,258835,1,8,0:0:0:0:
256,192,258938,1,0,0:0:0:0:
256,192,259042,1,8,0:0:0:0:
256,192,259094,1,8,0:0:0:0:
256,192,259145,1,0,0:0:0:0:
256,192,259197,1,0,0:0:0:0:
256,192,259249,1,8,0:0:0:0:
256,192,259352,1,0,0:0:0:0:
256,192,259456,1,8,0:0:0:0:
256,192,259559,1,0,0:0:0:0:
256,192,259611,1,0,0:0:0:0:
256,192,259663,1,8,0:0:0:0:
256,192,259766,1,8,0:0:0:0:
256,192,259869,1,0,0:0:0:0:
256,192,259921,1,0,0:0:0:0:
256,192,259973,1,0,0:0:0:0:
256,192,260076,1,8,0:0:0:0:
256,192,260180,1,8,0:0:0:0:
256,192,260283,1,0,0:0:0:0:
256,192,260335,1,0,0:0:0:0:
256,192,260387,1,8,0:0:0:0:
256,192,260438,1,0,0:0:0:0:
256,192,260490,1,8,0:0:0:0:
256,192,260594,1,0,0:0:0:0:
256,192,260697,1,8,0:0:0:0:
256,192,260749,1,8,0:0:0:0:
256,192,260801,1,0,0:0:0:0:
256,192,260904,1,8,0:0:0:0:
256,192,260956,1,8,0:0:0:0:
256,192,261007,1,0,0:0:0:0:
256,192,261059,1,0,0:0:0:0:
256,192,261111,1,8,0:0:0:0:
256,192,261214,1,0,0:0:0:0:
256,192,261266,1,0,0:0:0:0:
256,192,261318,1,8,0:0:0:0:
256,192,261421,1,0,0:0:0:0:
256,192,261525,1,8,0:0:0:0:
256,192,261576,1,8,0:0:0:0:
256,192,261628,1,0,0:0:0:0:
256,192,261732,1,8,0:0:0:0:
256,192,261783,1,8,0:0:0:0:
256,192,261835,1,0,0:0:0:0:
256,192,261938,1,8,0:0:0:0:
256,192,262042,1,0,0:0:0:0:
256,192,262094,1,0,0:0:0:0:
256,192,262145,1,8,0:0:0:0:
256,192,262249,1,0,0:0:0:0:
256,192,262352,1,8,0:0:0:0:
256,192,262404,1,8,0:0:0:0:
256,192,262456,1,0,0:0:0:0:
256,192,262559,1,8,0:0:0:0:
256,192,262611,1,8,0:0:0:0:
256,192,262663,1,0,0:0:0:0:
256,192,262766,1,8,0:0:0:0:
256,192,262869,1,0,0:0:0:0:
256,192,262921,1,0,0:0:0:0:
256,192,262973,1,8,0:0:0:0:
256,192,263076,1,0,0:0:0:0:
256,192,263180,1,8,0:0:0:0:
256,192,263232,1,8,0:0:0:0:
256,192,263283,1,0,0:0:0:0:
256,192,263387,1,8,0:0:0:0:
256,192,263438,1,8,0:0:0:0:
256,192,263490,1,0,0:0:0:0:
256,192,263542,1,0,0:0:0:0:
256,192,263594,1,8,0:0:0:0:
256,192,263801,1,0,0:0:0:0:
256,192,263852,1,0,0:0:0:0:
256,192,263904,1,8,0:0:0:0:
256,192,264111,1,0,0:0:0:0:
256,192,264214,1,8,0:0:0:0:
256,192,264421,1,0,0:0:0:0:
256,192,264628,1,12,0:0:0:0:
256,192,264835,1,0,0:0:0:0:
256,192,264938,1,0,0:0:0:0:
256,192,265042,1,8,0:0:0:0:
256,192,265094,1,8,0:0:0:0:
256,192,265145,1,0,0:0:0:0:
256,192,265197,1,0,0:0:0:0:
256,192,265249,1,8,0:0:0:0:
256,192,265352,1,0,0:0:0:0:
256,192,265404,1,0,0:0:0:0:
256,192,265456,1,8,0:0:0:0:
256,192,265559,1,0,0:0:0:0:
256,192,265663,1,8,0:0:0:0:
256,192,265714,1,8,0:0:0:0:
256,192,265766,1,8,0:0:0:0:
256,192,265869,1,0,0:0:0:0:
256,192,265973,1,0,0:0:0:0:
256,192,266076,1,8,0:0:0:0:
256,192,266128,1,8,0:0:0:0:
256,192,266180,1,0,0:0:0:0:
256,192,266283,1,8,0:0:0:0:
256,192,266387,1,0,0:0:0:0:
256,192,266438,1,0,0:0:0:0:
256,192,266490,1,8,0:0:0:0:
256,192,266594,1,0,0:0:0:0:
256,192,266697,1,8,0:0:0:0:
256,192,266749,1,0,0:0:0:0:
256,192,266801,1,8,0:0:0:0:
256,192,266852,1,8,0:0:0:0:
256,192,266904,1,0,0:0:0:0:
256,192,267007,1,8,0:0:0:0:
256,192,267111,1,8,0:0:0:0:
256,192,267214,1,0,0:0:0:0:
256,192,267318,1,8,0:0:0:0:
256,192,267421,1,8,0:0:0:0:
256,192,267525,1,0,0:0:0:0:
256,192,267576,1,0,0:0:0:0:
256,192,267628,1,8,0:0:0:0:
256,192,267680,1,0,0:0:0:0:
256,192,267732,1,8,0:0:0:0:
256,192,267835,1,0,0:0:0:0:
256,192,267887,1,0,0:0:0:0:
256,192,267938,1,8,0:0:0:0:
256,192,268042,1,0,0:0:0:0:
256,192,268145,1,8,0:0:0:0:
256,192,268197,1,8,0:0:0:0:
256,192,268249,1,0,0:0:0:0:
256,192,268352,1,8,0:0:0:0:
256,192,268404,1,8,0:0:0:0:
256,192,268456,1,0,0:0:0:0:
256,192,268559,1,8,0:0:0:0:
256,192,268663,1,0,0:0:0:0:
256,192,268714,1,0,0:0:0:0:
256,192,268766,1,8,0:0:0:0:
256,192,268869,1,0,0:0:0:0:
256,192,268973,1,8,0:0:0:0:
256,192,269025,1,8,0:0:0:0:
256,192,269076,1,0,0:0:0:0:
256,192,269128,1,0,0:0:0:0:
256,192,269180,1,8,0:0:0:0:
256,192,269283,1,0,0:0:0:0:
256,192,269387,1,8,0:0:0:0:
256,192,269490,1,0,0:0:0:0:
256,192,269542,1,0,0:0:0:0:
256,192,269594,1,8,0:0:0:0:
256,192,269697,1,0,0:0:0:0:
256,192,269801,1,8,0:0:0:0:
256,192,269852,1,8,0:0:0:0:
256,192,269904,1,0,0:0:0:0:
256,192,270007,1,8,0:0:0:0:
256,192,270059,1,8,0:0:0:0:
256,192,270111,1,0,0:0:0:0:
256,192,270214,1,8,0:0:0:0:
256,192,270266,1,8,0:0:0:0:
256,192,270318,1,0,0:0:0:0:
256,192,270369,1,8,0:0:0:0:
256,192,270421,1,0,0:0:0:0:
256,192,270473,1,0,0:0:0:0:
256,192,270525,1,8,0:0:0:0:
256,192,270576,1,8,0:0:0:0:
256,192,270628,1,0,0:0:0:0:
256,192,270680,1,8,0:0:0:0:
256,192,270732,1,0,0:0:0:0:
256,192,270783,1,0,0:0:0:0:
256,192,270835,1,8,0:0:0:0:
256,192,270887,1,8,0:0:0:0:
256,192,270938,1,0,0:0:0:0:
256,192,270990,1,0,0:0:0:0:
256,192,271042,1,12,0:0:0:0:
256,192,271249,1,0,0:0:0:0:
256,192,271456,1,12,0:0:0:0:
256,192,271663,1,0,0:0:0:0:
256,192,271869,1,12,0:0:0:0:
256,192,272076,1,0,0:0:0:0:
256,192,272283,1,12,0:0:0:0:
256,192,272490,1,0,0:0:0:0:
256,192,272697,1,12,0:0:0:0:
256,192,272801,1,0,0:0:0:0:
256,192,272904,1,12,0:0:0:0:
256,192,273007,1,0,0:0:0:0:
256,192,273111,1,12,0:0:0:0:
256,192,273214,1,0,0:0:0:0:
256,192,273318,1,12,0:0:0:0:
256,192,273421,1,0,0:0:0:0:
256,192,273525,1,12,0:0:0:0:
256,192,273628,1,12,0:0:0:0:
256,192,273732,1,12,0:0:0:0:
256,192,273835,1,12,0:0:0:0:
256,192,273938,1,0,0:0:0:0:
256,192,273990,1,0,0:0:0:0:
256,192,274042,1,8,0:0:0:0:
256,192,274094,1,8,0:0:0:0:
256,192,274145,1,0,0:0:0:0:
256,192,274197,1,0,0:0:0:0:
256,192,274249,1,8,0:0:0:0:
256,192,274301,1,8,0:0:0:0:
256,192,274352,12,0,276421,0:0:0:0:
