osu file format v14

[General]
AudioFilename: audio.mp3
AudioLeadIn: 0
PreviewTime: 77710
Countdown: 0
SampleSet: Normal
StackLeniency: 0.7
Mode: 1
LetterboxInBreaks: 0
WidescreenStoryboard: 1

[Editor]
Bookmarks: 15588,29988,97188,116688
DistanceSpacing: 1.1
BeatDivisor: 4
GridSize: 32
TimelineZoom: 2.3

[Metadata]
Title:%UnDeciphered-CryptoGraph in the Edifice%
TitleUnicode:%UnDeciphered-CryptoGraph in the Edifice%
Artist:seatrus
ArtistUnicode:seatrus
Creator:WTHBRO
Version:%Muzukashii%
Source:
Tags:dubcore hardcore electronic instrumental eupholic selections vol. 1
BeatmapID:2506029
BeatmapSetID:1203238

[Difficulty]
HPDrainRate:5.5
CircleSize:5
OverallDifficulty:5
ApproachRate:5
SliderMultiplier:1.4
SliderTickRate:1

[Events]
//Background and Video events
0,0,"%%.jpg",0,40
//Break Periods
//Storyboard Layer 0 (Background)
//Storyboard Layer 1 (Fail)
//Storyboard Layer 2 (Pass)
//Storyboard Layer 3 (Foreground)
//Storyboard Layer 4 (Overlay)
//Storyboard Sound Samples

[TimingPoints]
10,300,4,1,0,80,1,0
6010,-90.9090909090909,4,1,0,90,0,0
10810,-100,4,1,0,75,0,0
20710,-95.2380952380952,4,1,0,80,0,0
25210,-95.2380952380952,4,1,0,85,0,0
30310,-105.263157894737,4,1,0,70,0,0
39610,-86.9565217391304,4,1,0,70,0,0
40210,-90.9090909090909,4,1,0,80,0,0
44410,-83.3333333333333,4,1,0,80,0,0
49210,-111.111111111111,4,1,0,65,0,0
58810,-105.263157894737,4,1,0,75,0,0
63610,-105.263157894737,4,1,0,80,0,0
68410,-80,4,1,0,100,0,1
70510,-80,4,1,0,100,0,0
70810,-80,4,1,0,100,0,1
76810,-80,4,1,0,100,0,0
77710,-86.9565217391304,4,1,0,95,0,0
78010,-86.9565217391304,4,1,0,95,0,1
87610,-86.9565217391304,4,1,0,95,0,0
87910,-86.9565217391304,4,1,0,95,0,1
97510,-105.263157894737,4,1,0,80,0,0
106960,-100,4,1,0,85,0,0
111610,-95.2380952380952,4,1,0,90,0,0
115210,-86.9565217391304,4,1,0,95,0,0
116710,-100,4,1,0,100,0,0

[HitObjects]
256,192,1210,5,4,0:0:0:0:
256,192,1510,1,0,0:0:0:0:
256,192,1810,1,8,0:0:0:0:
256,192,2110,1,8,0:0:0:0:
272,189,2260,1,8,0:0:0:0:
256,192,2410,1,0,0:0:0:0:
256,192,2710,1,0,0:0:0:0:
256,192,3010,1,8,0:0:0:0:
256,192,3310,1,8,0:0:0:0:
256,192,3460,1,0,0:0:0:0:
256,192,3610,1,0,0:0:0:0:
256,192,3910,1,0,0:0:0:0:
256,192,4210,1,8,0:0:0:0:
256,192,4510,1,8,0:0:0:0:
256,192,4660,1,0,0:0:0:0:
256,192,4810,1,0,0:0:0:0:
256,192,5110,1,8,0:0:0:0:
256,192,5260,1,8,0:0:0:0:
256,192,5335,1,8,0:0:0:0:
256,192,5410,1,8,0:0:0:0:
256,192,6010,5,4,0:0:0:0:
256,192,6160,1,8,0:0:0:0:
256,192,6310,1,0,0:0:0:0:
256,192,6460,1,8,0:0:0:0:
256,192,6535,1,8,0:0:0:0:
256,192,6610,1,8,0:0:0:0:
256,192,6760,1,8,0:0:0:0:
256,192,6910,1,0,0:0:0:0:
256,192,7210,1,0,0:0:0:0:
256,192,7360,1,8,0:0:0:0:
256,192,7510,1,0,0:0:0:0:
256,192,7660,1,8,0:0:0:0:
256,192,7735,1,8,0:0:0:0:
256,192,7810,1,8,0:0:0:0:
256,192,7960,1,8,0:0:0:0:
256,192,8110,1,0,0:0:0:0:
256,192,8185,1,0,0:0:0:0:
256,192,8260,1,0,0:0:0:0:
256,192,8410,1,0,0:0:0:0:
256,192,8710,1,0,0:0:0:0:
256,192,8860,1,8,0:0:0:0:
256,192,8935,1,8,0:0:0:0:
256,192,9010,1,8,0:0:0:0:
256,192,9160,1,8,0:0:0:0:
256,192,9310,1,0,0:0:0:0:
256,192,9610,1,0,0:0:0:0:
256,192,9760,1,8,0:0:0:0:
256,192,9910,1,0,0:0:0:0:
256,192,10060,1,8,0:0:0:0:
256,192,10135,1,8,0:0:0:0:
256,192,10210,1,8,0:0:0:0:
256,160,10810,1,4,0:0:0:0:
256,160,10960,1,8,0:0:0:0:
256,192,11110,1,0,0:0:0:0:
256,192,11410,1,0,0:0:0:0:
256,192,11560,1,0,0:0:0:0:
256,192,11710,1,8,0:0:0:0:
256,192,12010,1,0,0:0:0:0:
256,192,12160,1,8,0:0:0:0:
256,192,12310,1,0,0:0:0:0:
267,195,12460,1,0,0:0:0:0:
256,192,12610,1,8,0:0:0:0:
256,192,12760,1,8,0:0:0:0:
256,192,12910,1,0,0:0:0:0:
256,192,13210,1,0,0:0:0:0:
256,192,13360,1,8,0:0:0:0:
256,192,13510,1,0,0:0:0:0:
256,192,13810,1,8,0:0:0:0:
256,192,13960,1,8,0:0:0:0:
256,192,14110,1,0,0:0:0:0:
256,192,14410,1,0,0:0:0:0:
256,192,14560,1,8,0:0:0:0:
256,192,14710,1,0,0:0:0:0:
268,195,14860,1,0,0:0:0:0:
256,192,15010,1,8,0:0:0:0:
256,160,15610,1,0,0:0:0:0:
256,160,15760,1,8,0:0:0:0:
256,192,15910,1,0,0:0:0:0:
256,192,16210,1,0,0:0:0:0:
256,192,16360,1,0,0:0:0:0:
256,192,16510,1,8,0:0:0:0:
256,192,16810,1,0,0:0:0:0:
256,192,16960,1,8,0:0:0:0:
256,192,17110,1,0,0:0:0:0:
262,180,17260,1,8,0:0:0:0:
256,192,17410,1,8,0:0:0:0:
256,192,17560,1,8,0:0:0:0:
256,192,17710,1,0,0:0:0:0:
256,192,18010,1,0,0:0:0:0:
256,192,18160,1,8,0:0:0:0:
256,192,18310,1,0,0:0:0:0:
256,192,18610,1,8,0:0:0:0:
256,192,18760,1,8,0:0:0:0:
256,192,18910,1,0,0:0:0:0:
256,192,19210,1,0,0:0:0:0:
256,192,19360,1,8,0:0:0:0:
256,192,19510,1,0,0:0:0:0:
255,184,19660,1,0,0:0:0:0:
256,192,19810,1,8,0:0:0:0:
256,192,19960,1,8,0:0:0:0:
256,192,20110,1,0,0:0:0:0:
256,192,20185,1,0,0:0:0:0:
256,192,20260,1,0,0:0:0:0:
256,192,20710,1,12,0:0:0:0:
256,192,21010,1,0,0:0:0:0:
256,192,21160,1,0,0:0:0:0:
256,192,21310,1,8,0:0:0:0:
256,192,21610,1,0,0:0:0:0:
256,192,21760,1,8,0:0:0:0:
256,192,21910,1,0,0:0:0:0:
258,182,22060,1,0,0:0:0:0:
256,192,22210,1,8,0:0:0:0:
256,192,22360,1,8,0:0:0:0:
256,192,22510,1,0,0:0:0:0:
256,192,22810,1,0,0:0:0:0:
256,192,22960,1,8,0:0:0:0:
256,192,23110,1,0,0:0:0:0:
256,192,23410,1,8,0:0:0:0:
256,192,23560,1,8,0:0:0:0:
256,192,23710,1,0,0:0:0:0:
256,192,24010,1,0,0:0:0:0:
256,192,24160,1,8,0:0:0:0:
256,192,24310,1,0,0:0:0:0:
257,182,24460,1,8,0:0:0:0:
256,192,24610,1,8,0:0:0:0:
256,192,25210,1,4,0:0:0:0:
256,192,25360,1,0,0:0:0:0:
256,192,25510,1,8,0:0:0:0:
256,192,25660,1,0,0:0:0:0:
256,192,25810,1,0,0:0:0:0:
256,192,25960,1,0,0:0:0:0:
256,192,26110,1,8,0:0:0:0:
256,192,26410,1,4,0:0:0:0:
256,192,26560,1,8,0:0:0:0:
256,192,26710,1,0,0:0:0:0:
256,192,26860,1,8,0:0:0:0:
256,192,27010,1,8,0:0:0:0:
256,192,27160,1,0,0:0:0:0:
256,192,27310,1,8,0:0:0:0:
256,192,27610,1,0,0:0:0:0:
256,192,27760,1,8,0:0:0:0:
256,192,27910,1,0,0:0:0:0:
256,192,28210,1,8,0:0:0:0:
256,192,28360,1,8,0:0:0:0:
256,192,28510,1,0,0:0:0:0:
256,192,28660,1,8,0:0:0:0:
256,192,28810,1,0,0:0:0:0:
256,192,28960,1,0,0:0:0:0:
256,192,29110,1,8,0:0:0:0:
256,192,30010,1,4,0:0:0:0:
256,192,30460,1,8,0:0:0:0:
256,192,30610,1,0,0:0:0:0:
256,192,30760,1,8,0:0:0:0:
256,192,30910,1,0,0:0:0:0:
256,192,31060,1,0,0:0:0:0:
256,192,31135,1,0,0:0:0:0:
256,192,31210,1,0,0:0:0:0:
256,192,31360,1,8,0:0:0:0:
256,192,31510,1,0,0:0:0:0:
256,192,31660,1,8,0:0:0:0:
256,192,31810,1,8,0:0:0:0:
256,192,32110,1,8,0:0:0:0:
256,192,32410,1,8,0:0:0:0:
256,192,32860,1,8,0:0:0:0:
256,192,33010,1,0,0:0:0:0:
256,192,33160,1,8,0:0:0:0:
256,192,33310,1,0,0:0:0:0:
256,192,33460,1,8,0:0:0:0:
256,192,33535,1,8,0:0:0:0:
256,192,33610,1,8,0:0:0:0:
256,192,33760,1,8,0:0:0:0:
256,192,33910,1,0,0:0:0:0:
256,192,34060,1,8,0:0:0:0:
256,192,34210,1,8,0:0:0:0:
256,192,34510,1,0,0:0:0:0:
256,192,34810,1,12,0:0:0:0:
256,192,35260,1,8,0:0:0:0:
256,192,35410,1,0,0:0:0:0:
256,192,35560,1,8,0:0:0:0:
256,192,35710,1,0,0:0:0:0:
256,192,35860,1,0,0:0:0:0:
256,192,35935,1,0,0:0:0:0:
256,192,36010,1,0,0:0:0:0:
256,192,36160,1,8,0:0:0:0:
256,192,36310,1,0,0:0:0:0:
256,192,36460,1,8,0:0:0:0:
256,192,36610,1,8,0:0:0:0:
256,192,36910,1,8,0:0:0:0:
256,192,37210,1,0,0:0:0:0:
256,192,37360,1,8,0:0:0:0:
256,192,37510,1,0,0:0:0:0:
256,192,37810,1,8,0:0:0:0:
256,192,37960,1,8,0:0:0:0:
256,192,38110,1,0,0:0:0:0:
256,192,38410,1,0,0:0:0:0:
256,192,38710,1,0,0:0:0:0:
256,192,38860,1,0,0:0:0:0:
256,192,39010,1,8,0:0:0:0:
256,192,39160,1,8,0:0:0:0:
256,192,39310,1,8,0:0:0:0:
256,192,39385,1,8,0:0:0:0:
256,192,39460,1,8,0:0:0:0:
256,192,39610,1,4,0:0:0:0:
256,192,40210,1,8,0:0:0:0:
256,192,40510,1,8,0:0:0:0:
256,192,40660,1,8,0:0:0:0:
256,192,40810,1,8,0:0:0:0:
256,192,40960,1,0,0:0:0:0:
256,192,41260,1,0,0:0:0:0:
256,192,41410,1,8,0:0:0:0:
256,192,41560,1,8,0:0:0:0:
256,192,41635,1,8,0:0:0:0:
256,192,41710,1,8,0:0:0:0:
256,192,42010,1,4,0:0:0:0:
256,192,42610,1,8,0:0:0:0:
256,192,42910,1,8,0:0:0:0:
256,192,43060,1,8,0:0:0:0:
256,192,43210,1,8,0:0:0:0:
256,192,43360,1,0,0:0:0:0:
256,192,43660,1,0,0:0:0:0:
256,192,43810,1,8,0:0:0:0:
256,192,43960,1,0,0:0:0:0:
256,192,44110,1,8,0:0:0:0:
256,192,44410,1,4,0:0:0:0:
256,192,44710,1,0,0:0:0:0:
256,192,44860,1,8,0:0:0:0:
256,192,44935,1,8,0:0:0:0:
256,192,45010,1,8,0:0:0:0:
256,192,45610,1,4,0:0:0:0:
256,192,45910,1,0,0:0:0:0:
256,192,46060,1,8,0:0:0:0:
268,194,46135,1,8,0:0:0:0:
256,192,46210,1,0,0:0:0:0:
256,192,46810,1,0,0:0:0:0:
256,192,46960,1,0,0:0:0:0:
256,192,47110,1,0,0:0:0:0:
256,192,47260,1,0,0:0:0:0:
256,192,47410,1,8,0:0:0:0:
256,192,47485,1,8,0:0:0:0:
256,192,47560,1,8,0:0:0:0:
256,192,47710,1,0,0:0:0:0:
256,192,47785,1,0,0:0:0:0:
256,192,47860,1,0,0:0:0:0:
256,192,48010,1,0,0:0:0:0:
256,192,49210,1,4,0:0:0:0:
256,192,49510,1,8,0:0:0:0:
256,192,49660,1,0,0:0:0:0:
256,192,49960,1,8,0:0:0:0:
256,192,50110,1,0,0:0:0:0:
256,192,50260,1,8,0:0:0:0:
256,192,50335,1,8,0:0:0:0:
256,192,50410,1,8,0:0:0:0:
256,192,51010,1,0,0:0:0:0:
256,192,51160,1,8,0:0:0:0:
256,192,51310,1,8,0:0:0:0:
256,192,51460,1,0,0:0:0:0:
256,192,51610,1,8,0:0:0:0:
256,192,52210,1,0,0:0:0:0:
256,192,52360,1,0,0:0:0:0:
256,192,52510,1,8,0:0:0:0:
256,192,52810,1,0,0:0:0:0:
256,192,53110,1,8,0:0:0:0:
256,192,53410,1,0,0:0:0:0:
256,192,54010,1,8,0:0:0:0:
256,192,54910,1,8,0:0:0:0:
256,192,55210,1,0,0:0:0:0:
256,192,55810,1,8,0:0:0:0:
256,192,56410,1,0,0:0:0:0:
256,192,56860,1,8,0:0:0:0:
256,192,57010,1,0,0:0:0:0:
256,192,57310,1,8,0:0:0:0:
256,192,57610,1,0,0:0:0:0:
256,192,58210,1,0,0:0:0:0:
256,192,58810,1,4,0:0:0:0:
256,192,58960,1,8,0:0:0:0:
256,192,59260,1,8,0:0:0:0:
256,192,59560,1,8,0:0:0:0:
256,192,59860,1,8,0:0:0:0:
256,192,60010,1,0,0:0:0:0:
256,192,60160,1,8,0:0:0:0:
256,192,60460,1,8,0:0:0:0:
256,192,60610,1,0,0:0:0:0:
256,192,60760,1,8,0:0:0:0:
256,192,61060,1,8,0:0:0:0:
256,192,61210,1,0,0:0:0:0:
256,192,61360,1,0,0:0:0:0:
256,192,61660,1,8,0:0:0:0:
256,192,61960,1,8,0:0:0:0:
256,192,62260,1,8,0:0:0:0:
256,192,62410,1,0,0:0:0:0:
256,192,62560,1,8,0:0:0:0:
256,192,62860,1,8,0:0:0:0:
256,192,63010,1,0,0:0:0:0:
256,192,63610,1,4,0:0:0:0:
256,192,63760,1,8,0:0:0:0:
256,192,64060,1,8,0:0:0:0:
256,192,64360,1,8,0:0:0:0:
256,192,64810,1,4,0:0:0:0:
256,192,64960,1,8,0:0:0:0:
256,192,65260,1,8,0:0:0:0:
256,192,65410,1,8,0:0:0:0:
256,192,65560,1,8,0:0:0:0:
256,192,66010,1,4,0:0:0:0:
288,160,66160,1,8,0:0:0:0:
288,160,66460,1,8,0:0:0:0:
288,160,66610,1,4,0:0:0:0:
288,160,66760,1,8,0:0:0:0:
288,160,67060,1,8,0:0:0:0:
288,160,67210,1,4,0:0:0:0:
288,160,67360,1,8,0:0:0:0:
288,160,67435,1,8,0:0:0:0:
288,160,67510,1,8,0:0:0:0:
288,160,67810,1,0,0:0:0:0:
288,160,68410,1,8,0:0:0:0:
288,160,68610,1,0,0:0:0:0:
288,160,68810,1,8,0:0:0:0:
288,160,68910,1,8,0:0:0:0:
288,160,69010,1,8,0:0:0:0:
288,160,69210,1,8,0:0:0:0:
288,160,69410,1,8,0:0:0:0:
288,160,69610,1,8,0:0:0:0:
288,160,69710,1,0,0:0:0:0:
288,160,69810,1,8,0:0:0:0:
288,160,70010,1,0,0:0:0:0:
288,160,70210,1,8,0:0:0:0:
288,160,70310,1,8,0:0:0:0:
288,160,70410,1,8,0:0:0:0:
288,160,70810,1,8,0:0:0:0:
288,160,71010,1,0,0:0:0:0:
288,160,71210,1,8,0:0:0:0:
288,160,71310,1,8,0:0:0:0:
288,160,71410,1,8,0:0:0:0:
288,160,71610,1,8,0:0:0:0:
288,160,71710,1,0,0:0:0:0:
288,160,71810,1,8,0:0:0:0:
288,160,72010,1,8,0:0:0:0:
288,160,72110,1,8,0:0:0:0:
288,160,72210,1,8,0:0:0:0:
288,160,72410,1,8,0:0:0:0:
288,160,72610,1,4,0:0:0:0:
288,160,72810,1,4,0:0:0:0:
288,160,73010,1,4,0:0:0:0:
288,160,73210,1,8,0:0:0:0:
288,160,73610,1,8,0:0:0:0:
288,160,73710,1,8,0:0:0:0:
288,160,73810,1,8,0:0:0:0:
288,160,74010,1,0,0:0:0:0:
288,160,74110,1,8,0:0:0:0:
288,160,74310,1,0,0:0:0:0:
288,160,74410,1,8,0:0:0:0:
288,160,74610,1,0,0:0:0:0:
288,160,74710,1,8,0:0:0:0:
288,160,74810,1,8,0:0:0:0:
288,160,75010,1,8,0:0:0:0:
288,160,75210,1,8,0:0:0:0:
288,160,75310,1,8,0:0:0:0:
288,160,75410,1,8,0:0:0:0:
288,160,75610,1,8,0:0:0:0:
288,160,75760,1,0,0:0:0:0:
288,160,75910,1,8,0:0:0:0:
288,160,76060,1,0,0:0:0:0:
288,160,76210,1,8,0:0:0:0:
288,160,76285,1,8,0:0:0:0:
288,160,76360,1,8,0:0:0:0:
288,160,76510,1,8,0:0:0:0:
288,160,76660,1,8,0:0:0:0:
288,160,76810,1,0,0:0:0:0:
256,192,77710,1,0,0:0:0:0:
256,192,77785,1,0,0:0:0:0:
256,192,77860,1,0,0:0:0:0:
256,192,78010,1,12,0:0:0:0:
256,192,78235,1,0,0:0:0:0:
256,192,78460,1,8,0:0:0:0:
256,192,78685,1,0,0:0:0:0:
256,192,78910,1,0,0:0:0:0:
256,192,78985,1,0,0:0:0:0:
256,192,79060,1,0,0:0:0:0:
256,192,79210,1,8,0:0:0:0:
256,192,79435,1,0,0:0:0:0:
256,192,79660,1,8,0:0:0:0:
256,192,79885,1,8,0:0:0:0:
256,192,80110,1,8,0:0:0:0:
256,192,80185,1,8,0:0:0:0:
256,192,80260,1,8,0:0:0:0:
256,192,80410,1,8,0:0:0:0:
256,192,80635,1,8,0:0:0:0:
256,192,80860,1,0,0:0:0:0:
256,192,81085,1,0,0:0:0:0:
256,192,81310,1,0,0:0:0:0:
256,192,81385,1,0,0:0:0:0:
256,192,81460,1,0,0:0:0:0:
256,192,81610,1,8,0:0:0:0:
256,192,81835,1,8,0:0:0:0:
256,192,82060,1,0,0:0:0:0:
256,192,82510,1,8,0:0:0:0:
256,192,82810,1,8,0:0:0:0:
256,192,83035,1,0,0:0:0:0:
256,192,83260,1,8,0:0:0:0:
256,192,83485,1,0,0:0:0:0:
256,192,83710,1,0,0:0:0:0:
256,192,83785,1,0,0:0:0:0:
256,192,83860,1,0,0:0:0:0:
256,192,84010,1,8,0:0:0:0:
256,192,84235,1,8,0:0:0:0:
256,192,84460,1,8,0:0:0:0:
256,192,84685,1,0,0:0:0:0:
256,192,84910,1,8,0:0:0:0:
256,192,85210,1,8,0:0:0:0:
256,192,85360,1,0,0:0:0:0:
256,192,85435,1,0,0:0:0:0:
256,192,85510,1,0,0:0:0:0:
256,192,85660,1,8,0:0:0:0:
256,192,85810,1,8,0:0:0:0:
256,192,85885,1,8,0:0:0:0:
256,192,85960,1,8,0:0:0:0:
256,192,86110,1,0,0:0:0:0:
256,192,86410,1,4,0:0:0:0:
256,192,86635,1,4,0:0:0:0:
256,192,86860,1,12,0:0:0:0:
256,192,87085,1,12,0:0:0:0:
256,192,87310,1,8,0:0:0:0:
256,192,87460,1,0,0:0:0:0:
256,192,87910,1,12,0:0:0:0:
256,192,88060,1,8,0:0:0:0:
256,192,88285,1,8,0:0:0:0:
256,192,88510,1,0,0:0:0:0:
256,192,88585,1,0,0:0:0:0:
256,192,88660,1,0,0:0:0:0:
256,192,88810,1,8,0:0:0:0:
256,192,89035,1,8,0:0:0:0:
256,192,89260,1,8,0:0:0:0:
256,192,89485,1,0,0:0:0:0:
256,192,89710,1,0,0:0:0:0:
256,192,89785,1,0,0:0:0:0:
256,192,89860,1,0,0:0:0:0:
256,192,90010,1,8,0:0:0:0:
256,192,90235,1,0,0:0:0:0:
256,192,90460,1,8,0:0:0:0:
256,192,90685,1,8,0:0:0:0:
256,192,90910,1,0,0:0:0:0:
256,192,91060,1,8,0:0:0:0:
256,192,91210,1,4,0:0:0:0:
256,192,91435,1,12,0:0:0:0:
256,192,91660,1,12,0:0:0:0:
256,192,92110,1,8,0:0:0:0:
256,192,92410,1,8,0:0:0:0:
256,192,92635,1,0,0:0:0:0:
256,192,92860,1,8,0:0:0:0:
256,192,93085,1,8,0:0:0:0:
256,192,93310,1,8,0:0:0:0:
256,192,93460,1,0,0:0:0:0:
256,192,93610,1,0,0:0:0:0:
256,192,93835,1,0,0:0:0:0:
256,192,94060,1,8,0:0:0:0:
256,192,94285,1,8,0:0:0:0:
256,192,94510,1,0,0:0:0:0:
256,192,94660,1,8,0:0:0:0:
256,192,94810,1,8,0:0:0:0:
256,192,95110,1,8,0:0:0:0:
256,192,95410,1,0,0:0:0:0:
256,192,95710,1,8,0:0:0:0:
256,192,96010,1,0,0:0:0:0:
256,192,96085,1,0,0:0:0:0:
256,192,96160,1,0,0:0:0:0:
256,192,96310,1,8,0:0:0:0:
256,192,96460,1,0,0:0:0:0:
256,192,96610,1,8,0:0:0:0:
256,192,96685,1,8,0:0:0:0:
256,192,96760,1,8,0:0:0:0:
256,192,96835,1,8,0:0:0:0:
256,192,96910,1,8,0:0:0:0:
256,192,97510,1,12,0:0:0:0:
256,192,97810,1,0,0:0:0:0:
256,192,97960,1,8,0:0:0:0:
256,192,98110,1,0,0:0:0:0:
256,192,98410,1,0,0:0:0:0:
256,192,98560,1,8,0:0:0:0:
256,192,98710,1,8,0:0:0:0:
256,192,98785,1,8,0:0:0:0:
256,192,98860,1,8,0:0:0:0:
256,192,99010,1,0,0:0:0:0:
256,192,99160,1,8,0:0:0:0:
256,192,99310,1,0,0:0:0:0:
256,192,99610,1,8,0:0:0:0:
256,192,99910,1,8,0:0:0:0:
256,192,100060,1,0,0:0:0:0:
256,192,100360,1,0,0:0:0:0:
256,192,100510,1,8,0:0:0:0:
256,192,100810,1,8,0:0:0:0:
256,192,101110,1,0,0:0:0:0:
256,192,101260,1,8,0:0:0:0:
256,192,102010,1,12,0:0:0:0:
256,192,102310,1,8,0:0:0:0:
256,192,102460,1,0,0:0:0:0:
256,192,102610,1,8,0:0:0:0:
256,192,102760,1,0,0:0:0:0:
256,192,102835,1,0,0:0:0:0:
256,192,102910,1,0,0:0:0:0:
256,192,103210,1,0,0:0:0:0:
256,192,103360,1,8,0:0:0:0:
256,192,103435,1,8,0:0:0:0:
256,192,103510,1,8,0:0:0:0:
256,192,103660,1,8,0:0:0:0:
256,192,103810,1,0,0:0:0:0:
256,192,103885,1,0,0:0:0:0:
256,192,103960,1,0,0:0:0:0:
256,192,104110,1,0,0:0:0:0:
256,192,104410,1,8,0:0:0:0:
256,192,104560,1,0,0:0:0:0:
256,192,104710,1,8,0:0:0:0:
256,192,105010,1,8,0:0:0:0:
263,189,105160,1,0,0:0:0:0:
256,192,105310,1,8,0:0:0:0:
256,192,105610,1,8,0:0:0:0:
256,192,106060,1,8,0:0:0:0:
256,192,106210,1,0,0:0:0:0:
256,192,106285,1,0,0:0:0:0:
256,192,106360,1,0,0:0:0:0:
256,192,106510,1,0,0:0:0:0:
256,192,106960,1,0,0:0:0:0:
256,192,107110,1,12,0:0:0:0:
256,192,107410,1,0,0:0:0:0:
256,192,107710,1,8,0:0:0:0:
256,192,107860,1,0,0:0:0:0:
256,192,108010,1,8,0:0:0:0:
256,192,108085,1,8,0:0:0:0:
256,192,108160,1,8,0:0:0:0:
256,192,108310,1,8,0:0:0:0:
256,192,108460,1,0,0:0:0:0:
256,192,108610,1,8,0:0:0:0:
256,192,108685,1,8,0:0:0:0:
256,192,108760,1,8,0:0:0:0:
256,192,108910,1,0,0:0:0:0:
256,192,109210,1,0,0:0:0:0:
256,192,109285,1,0,0:0:0:0:
256,192,109360,1,0,0:0:0:0:
256,192,109510,1,0,0:0:0:0:
256,192,109660,1,8,0:0:0:0:
256,192,109810,1,8,0:0:0:0:
243,180,109960,1,0,0:0:0:0:
256,192,110110,1,8,0:0:0:0:
256,192,110410,1,8,0:0:0:0:
256,192,110485,1,8,0:0:0:0:
256,192,110560,1,8,0:0:0:0:
256,192,110710,1,8,0:0:0:0:
256,192,110860,1,0,0:0:0:0:
256,192,111010,1,8,0:0:0:0:
256,192,111610,1,12,0:0:0:0:
256,192,111910,1,8,0:0:0:0:
256,192,112060,1,0,0:0:0:0:
256,192,112210,1,0,0:0:0:0:
256,192,112360,1,8,0:0:0:0:
256,192,112510,1,0,0:0:0:0:
256,192,112585,1,0,0:0:0:0:
256,192,112660,1,0,0:0:0:0:
256,192,112810,1,8,0:0:0:0:
256,192,113110,1,8,0:0:0:0:
256,192,113260,1,0,0:0:0:0:
256,192,113410,1,0,0:0:0:0:
256,192,113560,1,8,0:0:0:0:
256,192,113710,1,8,0:0:0:0:
256,192,113785,1,8,0:0:0:0:
256,192,113860,1,8,0:0:0:0:
256,192,114010,1,0,0:0:0:0:
256,192,114160,1,8,0:0:0:0:
256,192,114235,1,8,0:0:0:0:
256,192,114310,1,8,0:0:0:0:
256,192,114460,1,0,0:0:0:0:
256,192,114610,1,8,0:0:0:0:
256,192,114685,1,8,0:0:0:0:
256,192,114760,1,8,0:0:0:0:
256,192,114835,1,8,0:0:0:0:
256,192,114910,1,8,0:0:0:0:
256,192,115210,1,8,0:0:0:0:
256,192,115360,1,8,0:0:0:0:
256,192,115510,1,8,0:0:0:0:
261,175,115660,1,8,0:0:0:0:
256,192,115810,12,0,116410,0:0:0:0:
256,192,116710,5,4,0:0:0:0:
