osu file format v14

[General]
AudioFilename: audio.mp3
AudioLeadIn: 0
PreviewTime: 40367
Countdown: 0
SampleSet: Normal
StackLeniency: 0.7
Mode: 1
LetterboxInBreaks: 0
WidescreenStoryboard: 0

[Editor]
Bookmarks: 13598,23444,33290,43136,52982,55444,60367,70213,80059,89905,92367,102213,112059,121905,131751,136674,146521,148982,158828
DistanceSpacing: 1.2
BeatDivisor: 3
GridSize: 32
TimelineZoom: 1.2

[Metadata]
Title:Yubikiri
TitleUnicode:指切り
Artist:scop
ArtistUnicode:すこっぷ
Creator:Noffy
Version:Muzukashii
Source:初音ミク -Project DIVA- F 2nd
Tags:Ayyri Vocaloid F2nd Hatsune Miku HELL YA TRAINS Pinky Promise Swear thousand needles Light and Shadow Love Songs 〜Girls Side〜 Days ~Best of Scop~ BALLOOM BEST Yuri ムラサキ Murasaki violet Purple Arcade Future Tone Sound Colorful Deluxe DX
BeatmapID:1346980
BeatmapSetID:634876

[Difficulty]
HPDrainRate:6
CircleSize:2
OverallDifficulty:5.5
ApproachRate:7
SliderMultiplier:1.4
SliderTickRate:1

[Events]
//Background and Video events
0,0,"yubki.jpg",0,-30
//Break Periods
//Storyboard Layer 0 (Background)
//Storyboard Layer 1 (Fail)
//Storyboard Layer 2 (Pass)
//Storyboard Layer 3 (Foreground)
//Storyboard Sound Samples

[TimingPoints]
3752,307.692307692308,4,1,0,100,1,0
43136,-100,4,1,0,100,0,1
55444,-100,4,1,0,100,0,0
80059,-100,4,1,0,100,0,1
92367,-100,4,1,0,100,0,0
136675,-100,4,1,0,100,0,1
148982,-100,4,1,0,100,0,0

[Colours]
Combo1 : 139,98,157
Combo2 : 79,131,71
Combo3 : 113,152,159
Combo4 : 184,140,82

[HitObjects]
352,96,3751,5,4,0:0:0:0:
160,96,4059,1,0,0:0:0:0:
160,96,4367,1,8,0:0:0:0:
160,96,4675,1,8,0:0:0:0:
160,96,4982,1,0,0:0:0:0:
160,96,5290,1,0,0:0:0:0:
160,96,5598,1,8,0:0:0:0:
160,96,5906,1,8,0:0:0:0:
160,96,6213,1,0,0:0:0:0:
160,96,6521,1,0,0:0:0:0:
160,96,6828,1,8,0:0:0:0:
160,96,7136,1,0,0:0:0:0:
160,96,7443,1,0,0:0:0:0:
160,96,7751,1,8,0:0:0:0:
160,96,7957,1,8,0:0:0:0:
160,96,8059,1,8,0:0:0:0:
160,96,8264,1,8,0:0:0:0:
160,96,8367,1,8,0:0:0:0:
352,96,8674,5,4,0:0:0:0:
352,96,9290,1,12,0:0:0:0:
352,96,9905,1,4,0:0:0:0:
352,96,10521,1,12,0:0:0:0:
160,96,11136,1,0,0:0:0:0:
160,96,11444,1,8,0:0:0:0:
160,96,11751,1,0,0:0:0:0:
160,96,12059,1,8,0:0:0:0:
352,96,12367,1,4,0:0:0:0:
160,96,12674,1,8,0:0:0:0:
160,96,12880,1,8,0:0:0:0:
160,96,12982,1,8,0:0:0:0:
160,96,13187,1,8,0:0:0:0:
160,96,13290,1,8,0:0:0:0:
352,96,13598,5,4,0:0:0:0:
160,96,13906,1,0,0:0:0:0:
160,96,14214,1,8,0:0:0:0:
160,96,14522,1,8,0:0:0:0:
160,96,14829,1,0,0:0:0:0:
160,96,15137,1,0,0:0:0:0:
160,96,15444,1,8,0:0:0:0:
160,96,15752,1,8,0:0:0:0:
160,96,16059,1,0,0:0:0:0:
160,96,16367,1,0,0:0:0:0:
160,96,16674,1,8,0:0:0:0:
160,96,16982,1,0,0:0:0:0:
160,96,17289,1,0,0:0:0:0:
160,96,17597,1,8,0:0:0:0:
160,96,17803,1,8,0:0:0:0:
160,96,17905,1,8,0:0:0:0:
160,96,18110,1,8,0:0:0:0:
160,96,18213,1,8,0:0:0:0:
352,96,18521,5,4,0:0:0:0:
352,96,19137,1,12,0:0:0:0:
352,96,19752,1,4,0:0:0:0:
352,96,20368,1,12,0:0:0:0:
160,96,20983,1,0,0:0:0:0:
160,96,21291,1,8,0:0:0:0:
160,96,21598,1,0,0:0:0:0:
160,96,21906,1,8,0:0:0:0:
352,96,22214,1,4,0:0:0:0:
160,96,22521,1,8,0:0:0:0:
160,96,22727,1,8,0:0:0:0:
160,96,22829,1,8,0:0:0:0:
160,96,23034,1,8,0:0:0:0:
160,96,23137,1,8,0:0:0:0:
352,96,23444,5,4,0:0:0:0:
160,96,23751,1,0,0:0:0:0:
160,96,23957,1,0,0:0:0:0:
160,96,24059,1,0,0:0:0:0:
160,96,24367,1,8,0:0:0:0:
160,96,24674,1,8,0:0:0:0:
160,96,24982,1,0,0:0:0:0:
160,96,25187,1,8,0:0:0:0:
160,96,25290,1,8,0:0:0:0:
160,96,25598,1,0,0:0:0:0:
160,96,25905,1,8,0:0:0:0:
160,96,26213,1,8,0:0:0:0:
160,96,26418,1,0,0:0:0:0:
160,96,26520,1,0,0:0:0:0:
160,96,26828,1,8,0:0:0:0:
160,96,27136,1,0,0:0:0:0:
160,96,28059,5,8,0:0:0:0:
352,96,28367,1,4,0:0:0:0:
160,96,28674,1,0,0:0:0:0:
160,96,28880,1,0,0:0:0:0:
160,96,28982,1,0,0:0:0:0:
160,96,29290,1,8,0:0:0:0:
160,96,29597,1,8,0:0:0:0:
160,96,29905,1,0,0:0:0:0:
160,96,30110,1,8,0:0:0:0:
160,96,30213,1,8,0:0:0:0:
160,96,30521,1,0,0:0:0:0:
160,96,30828,1,8,0:0:0:0:
160,96,31136,1,0,0:0:0:0:
160,96,31443,1,8,0:0:0:0:
160,96,31751,1,0,0:0:0:0:
160,96,32059,1,0,0:0:0:0:
160,96,32367,1,8,0:0:0:0:
160,96,32572,1,8,0:0:0:0:
160,96,32674,1,8,0:0:0:0:
352,96,33290,5,4,0:0:0:0:
160,96,33598,1,0,0:0:0:0:
160,96,33905,1,8,0:0:0:0:
160,96,34213,1,0,0:0:0:0:
160,96,34521,1,8,0:0:0:0:
160,96,34726,1,0,0:0:0:0:
160,96,34829,1,0,0:0:0:0:
160,96,35033,1,8,0:0:0:0:
160,96,35136,1,8,0:0:0:0:
160,96,35444,1,0,0:0:0:0:
160,96,35751,1,8,0:0:0:0:
160,96,36059,1,0,0:0:0:0:
160,96,36366,1,8,0:0:0:0:
160,96,36674,1,8,0:0:0:0:
160,96,36982,1,0,0:0:0:0:
160,96,37187,1,8,0:0:0:0:
160,96,37290,1,8,0:0:0:0:
160,96,37494,1,0,0:0:0:0:
160,96,37597,1,0,0:0:0:0:
160,96,37803,1,8,0:0:0:0:
160,96,37905,1,8,0:0:0:0:
352,96,38213,1,4,0:0:0:0:
160,96,38521,1,0,0:0:0:0:
160,96,38828,1,8,0:0:0:0:
160,96,39136,1,0,0:0:0:0:
160,96,39444,1,0,0:0:0:0:
160,96,39752,1,8,0:0:0:0:
160,96,40059,1,8,0:0:0:0:
160,96,40367,1,0,0:0:0:0:
352,96,40674,1,4,0:0:0:0:
160,96,40982,1,8,0:0:0:0:
160,96,41290,1,0,0:0:0:0:
160,96,41598,1,8,0:0:0:0:
160,96,41905,1,8,0:0:0:0:
160,96,42213,1,0,0:0:0:0:
160,96,42418,1,8,0:0:0:0:
160,96,42521,1,8,0:0:0:0:
160,96,42726,1,0,0:0:0:0:
160,96,42828,1,0,0:0:0:0:
352,96,43136,5,4,0:0:0:0:
352,96,43444,1,4,0:0:0:0:
352,96,43751,1,12,0:0:0:0:
352,96,44059,1,12,0:0:0:0:
352,96,44367,1,4,0:0:0:0:
160,96,44674,1,8,0:0:0:0:
160,96,44982,1,8,0:0:0:0:
160,96,45290,1,0,0:0:0:0:
160,96,45598,1,8,0:0:0:0:
160,96,45905,1,8,0:0:0:0:
160,96,46213,1,0,0:0:0:0:
160,96,46521,1,8,0:0:0:0:
160,96,46829,1,0,0:0:0:0:
160,96,47136,1,8,0:0:0:0:
160,96,47341,1,8,0:0:0:0:
160,96,47444,1,8,0:0:0:0:
160,96,47649,1,8,0:0:0:0:
160,96,47752,1,8,0:0:0:0:
352,96,48059,1,4,0:0:0:0:
160,96,48264,1,8,0:0:0:0:
160,96,48367,1,8,0:0:0:0:
160,96,48572,1,0,0:0:0:0:
160,96,48880,1,8,0:0:0:0:
160,96,48983,1,8,0:0:0:0:
160,96,49188,1,0,0:0:0:0:
160,96,49290,1,0,0:0:0:0:
160,96,49495,1,8,0:0:0:0:
160,96,49598,1,8,0:0:0:0:
160,96,49803,1,0,0:0:0:0:
160,96,50111,1,8,0:0:0:0:
160,96,50214,1,8,0:0:0:0:
160,96,50419,1,0,0:0:0:0:
160,96,50521,1,0,0:0:0:0:
160,96,50726,1,8,0:0:0:0:
160,96,50829,1,8,0:0:0:0:
160,96,51034,1,0,0:0:0:0:
160,96,51342,1,8,0:0:0:0:
160,96,51445,1,8,0:0:0:0:
160,96,51752,1,0,0:0:0:0:
160,96,52059,1,0,0:0:0:0:
160,96,52162,1,0,0:0:0:0:
160,96,52264,1,0,0:0:0:0:
160,96,52367,1,0,0:0:0:0:
160,96,52674,1,8,0:0:0:0:
352,96,52982,5,4,0:0:0:0:
160,96,53598,1,8,0:0:0:0:
352,96,54213,1,4,0:0:0:0:
160,96,54418,1,8,0:0:0:0:
160,96,54521,1,8,0:0:0:0:
160,96,54726,1,0,0:0:0:0:
160,96,54828,1,0,0:0:0:0:
160,96,55136,1,8,0:0:0:0:
352,96,55444,5,4,0:0:0:0:
160,96,55752,1,0,0:0:0:0:
160,96,56059,1,8,0:0:0:0:
160,96,56367,1,0,0:0:0:0:
160,96,56674,1,8,0:0:0:0:
160,96,56982,1,8,0:0:0:0:
160,96,57290,1,0,0:0:0:0:
160,96,57598,1,8,0:0:0:0:
160,96,57905,1,0,0:0:0:0:
160,96,58213,1,0,0:0:0:0:
160,96,58521,1,8,0:0:0:0:
160,96,58828,1,0,0:0:0:0:
160,96,59136,1,0,0:0:0:0:
160,96,59649,1,0,0:0:0:0:
160,96,59751,1,0,0:0:0:0:
160,96,59957,1,8,0:0:0:0:
160,96,60059,1,8,0:0:0:0:
352,96,60367,5,4,0:0:0:0:
160,96,60674,1,0,0:0:0:0:
160,96,60880,1,0,0:0:0:0:
160,96,60982,1,0,0:0:0:0:
160,96,61290,1,8,0:0:0:0:
160,96,61597,1,8,0:0:0:0:
160,96,61905,1,0,0:0:0:0:
160,96,62110,1,8,0:0:0:0:
160,96,62213,1,8,0:0:0:0:
160,96,62521,1,8,0:0:0:0:
160,96,62828,1,0,0:0:0:0:
160,96,63136,1,0,0:0:0:0:
160,96,63443,1,8,0:0:0:0:
160,96,63751,1,8,0:0:0:0:
160,96,64059,1,0,0:0:0:0:
160,96,64982,5,8,0:0:0:0:
352,96,65290,1,4,0:0:0:0:
160,96,65597,1,0,0:0:0:0:
160,96,65803,1,0,0:0:0:0:
160,96,65905,1,0,0:0:0:0:
160,96,66213,1,8,0:0:0:0:
160,96,66520,1,0,0:0:0:0:
160,96,66828,1,0,0:0:0:0:
160,96,67136,1,8,0:0:0:0:
160,96,67444,1,8,0:0:0:0:
160,96,67752,1,8,0:0:0:0:
160,96,68059,1,0,0:0:0:0:
160,96,68366,1,8,0:0:0:0:
160,96,68674,1,0,0:0:0:0:
160,96,68982,1,8,0:0:0:0:
352,96,69290,1,4,0:0:0:0:
352,96,69597,1,4,0:0:0:0:
352,96,69905,1,12,0:0:0:0:
352,96,70213,5,4,0:0:0:0:
160,96,70521,1,0,0:0:0:0:
160,96,70828,1,8,0:0:0:0:
160,96,71136,1,0,0:0:0:0:
160,96,71444,1,8,0:0:0:0:
160,96,71649,1,0,0:0:0:0:
160,96,71752,1,0,0:0:0:0:
160,96,71956,1,8,0:0:0:0:
160,96,72059,1,8,0:0:0:0:
160,96,72367,1,0,0:0:0:0:
160,96,72674,1,8,0:0:0:0:
160,96,72982,1,0,0:0:0:0:
160,96,73290,1,8,0:0:0:0:
160,96,73597,1,8,0:0:0:0:
160,96,73905,1,0,0:0:0:0:
160,96,74110,1,8,0:0:0:0:
160,96,74213,1,8,0:0:0:0:
160,96,74417,1,0,0:0:0:0:
160,96,74520,1,0,0:0:0:0:
160,96,74726,1,8,0:0:0:0:
160,96,74828,1,8,0:0:0:0:
352,96,75136,1,4,0:0:0:0:
160,96,75444,1,0,0:0:0:0:
160,96,75751,1,8,0:0:0:0:
160,96,76059,1,0,0:0:0:0:
160,96,76367,1,0,0:0:0:0:
160,96,76675,1,8,0:0:0:0:
160,96,76982,1,8,0:0:0:0:
160,96,77290,1,0,0:0:0:0:
352,96,77597,1,4,0:0:0:0:
160,96,77905,1,8,0:0:0:0:
160,96,78213,1,0,0:0:0:0:
160,96,78521,1,8,0:0:0:0:
160,96,78828,1,8,0:0:0:0:
160,96,79136,1,0,0:0:0:0:
160,96,79341,1,8,0:0:0:0:
160,96,79444,1,8,0:0:0:0:
160,96,79649,1,0,0:0:0:0:
160,96,79751,1,0,0:0:0:0:
352,96,80059,5,4,0:0:0:0:
352,96,80367,1,4,0:0:0:0:
352,96,80674,1,12,0:0:0:0:
352,96,80982,1,12,0:0:0:0:
352,96,81290,1,4,0:0:0:0:
160,96,81598,1,8,0:0:0:0:
160,96,81905,1,8,0:0:0:0:
160,96,82213,1,0,0:0:0:0:
160,96,82521,1,8,0:0:0:0:
160,96,82828,1,8,0:0:0:0:
160,96,83136,1,0,0:0:0:0:
160,96,83444,1,8,0:0:0:0:
160,96,83752,1,0,0:0:0:0:
160,96,84059,1,8,0:0:0:0:
160,96,84264,1,8,0:0:0:0:
160,96,84367,1,8,0:0:0:0:
160,96,84572,1,8,0:0:0:0:
160,96,84675,1,8,0:0:0:0:
352,96,84982,1,4,0:0:0:0:
160,96,85187,1,8,0:0:0:0:
160,96,85290,1,8,0:0:0:0:
160,96,85495,1,0,0:0:0:0:
160,96,85803,1,8,0:0:0:0:
160,96,85906,1,8,0:0:0:0:
160,96,86111,1,0,0:0:0:0:
160,96,86213,1,0,0:0:0:0:
160,96,86418,1,8,0:0:0:0:
160,96,86521,1,8,0:0:0:0:
160,96,86726,1,0,0:0:0:0:
160,96,87034,1,8,0:0:0:0:
160,96,87137,1,8,0:0:0:0:
160,96,87342,1,0,0:0:0:0:
160,96,87444,1,0,0:0:0:0:
160,96,87649,1,8,0:0:0:0:
160,96,87752,1,8,0:0:0:0:
160,96,87957,1,0,0:0:0:0:
160,96,88265,1,8,0:0:0:0:
160,96,88368,1,8,0:0:0:0:
160,96,88675,1,0,0:0:0:0:
160,96,88982,1,0,0:0:0:0:
160,96,89085,1,0,0:0:0:0:
160,96,89187,1,0,0:0:0:0:
160,96,89290,1,0,0:0:0:0:
160,96,89597,1,8,0:0:0:0:
352,96,89905,1,4,0:0:0:0:
160,96,90521,1,8,0:0:0:0:
352,96,91136,1,4,0:0:0:0:
160,96,91341,1,8,0:0:0:0:
160,96,91444,1,8,0:0:0:0:
160,96,91649,1,0,0:0:0:0:
160,96,91751,1,0,0:0:0:0:
160,96,92059,1,8,0:0:0:0:
352,96,92367,5,4,0:0:0:0:
160,96,92572,1,8,0:0:0:0:
160,96,92674,1,8,0:0:0:0:
160,96,92880,1,8,0:0:0:0:
160,96,92982,1,8,0:0:0:0:
160,96,93187,1,0,0:0:0:0:
160,96,93289,1,0,0:0:0:0:
160,96,93598,1,0,0:0:0:0:
160,96,93803,1,0,0:0:0:0:
160,96,93905,1,0,0:0:0:0:
160,96,94110,1,8,0:0:0:0:
160,96,94212,1,8,0:0:0:0:
160,96,94418,1,0,0:0:0:0:
160,96,94521,1,0,0:0:0:0:
160,96,94828,1,0,0:0:0:0:
160,96,95136,1,0,0:0:0:0:
160,96,95444,1,8,0:0:0:0:
160,96,95751,1,0,0:0:0:0:
160,96,96059,1,8,0:0:0:0:
160,96,96162,1,8,0:0:0:0:
160,96,96264,1,8,0:0:0:0:
160,96,96367,1,8,0:0:0:0:
160,96,96572,1,0,0:0:0:0:
160,96,96674,1,0,0:0:0:0:
160,96,96880,1,8,0:0:0:0:
160,96,96982,1,8,0:0:0:0:
160,96,97187,1,0,0:0:0:0:
160,96,97290,1,0,0:0:0:0:
160,96,97905,1,0,0:0:0:0:
160,96,98110,1,0,0:0:0:0:
160,96,98315,1,0,0:0:0:0:
160,96,98521,1,8,0:0:0:0:
160,96,98726,1,8,0:0:0:0:
160,96,98931,1,8,0:0:0:0:
160,96,99136,1,0,0:0:0:0:
160,96,99444,1,0,0:0:0:0:
160,96,99752,1,8,0:0:0:0:
160,96,99854,1,8,0:0:0:0:
160,96,99957,1,8,0:0:0:0:
160,96,100059,1,8,0:0:0:0:
160,96,100264,1,0,0:0:0:0:
160,96,100367,1,0,0:0:0:0:
160,96,100674,1,8,0:0:0:0:
352,96,100982,1,4,0:0:0:0:
160,96,101290,1,8,0:0:0:0:
160,96,101495,1,8,0:0:0:0:
160,96,101598,1,8,0:0:0:0:
352,96,102213,5,4,0:0:0:0:
160,96,102521,1,8,0:0:0:0:
160,96,102828,1,0,0:0:0:0:
160,96,103136,1,8,0:0:0:0:
160,96,103341,1,0,0:0:0:0:
160,96,103444,1,0,0:0:0:0:
160,96,103649,1,8,0:0:0:0:
160,96,103751,1,8,0:0:0:0:
160,96,103957,1,0,0:0:0:0:
160,96,104059,1,0,0:0:0:0:
352,96,104367,1,4,0:0:0:0:
160,96,104674,1,8,0:0:0:0:
160,96,104982,1,0,0:0:0:0:
160,96,105290,1,8,0:0:0:0:
160,96,105598,1,0,0:0:0:0:
160,96,105803,1,8,0:0:0:0:
160,96,105905,1,8,0:0:0:0:
160,96,106213,1,8,0:0:0:0:
160,96,106315,1,8,0:0:0:0:
160,96,106419,1,8,0:0:0:0:
160,96,106521,1,8,0:0:0:0:
352,96,107136,5,4,0:0:0:0:
160,96,107444,1,0,0:0:0:0:
160,96,107751,1,8,0:0:0:0:
160,96,108059,1,8,0:0:0:0:
160,96,108367,1,0,0:0:0:0:
160,96,108675,1,0,0:0:0:0:
160,96,108982,1,8,0:0:0:0:
160,96,109598,5,0,0:0:0:0:
160,96,109803,1,0,0:0:0:0:
160,96,110008,1,0,0:0:0:0:
160,96,110214,1,8,0:0:0:0:
160,96,110419,1,8,0:0:0:0:
160,96,110624,1,8,0:0:0:0:
352,96,110829,1,4,0:0:0:0:
160,96,111136,1,8,0:0:0:0:
160,96,111342,1,8,0:0:0:0:
160,96,111444,1,8,0:0:0:0:
160,96,111649,1,8,0:0:0:0:
160,96,111752,1,8,0:0:0:0:
352,96,112059,5,4,0:0:0:0:
160,96,112367,1,0,0:0:0:0:
160,96,112982,1,0,0:0:0:0:
160,96,113187,1,8,0:0:0:0:
160,96,113598,1,0,0:0:0:0:
160,96,113905,1,0,0:0:0:0:
160,96,114213,1,8,0:0:0:0:
160,96,114521,1,0,0:0:0:0:
160,96,114828,1,0,0:0:0:0:
160,96,115136,1,8,0:0:0:0:
160,96,115444,1,0,0:0:0:0:
160,96,115649,1,8,0:0:0:0:
160,96,115751,1,8,0:0:0:0:
160,96,116059,1,0,0:0:0:0:
160,96,116367,1,0,0:0:0:0:
160,96,116674,1,8,0:0:0:0:
160,96,116982,1,8,0:0:0:0:
160,96,117290,1,0,0:0:0:0:
160,96,117598,1,0,0:0:0:0:
160,96,117905,1,8,0:0:0:0:
160,96,118110,1,8,0:0:0:0:
160,96,118521,1,0,0:0:0:0:
160,96,118828,1,0,0:0:0:0:
160,96,119136,1,8,0:0:0:0:
160,96,119444,1,0,0:0:0:0:
160,96,119751,1,0,0:0:0:0:
160,96,120059,1,8,0:0:0:0:
160,96,120367,1,0,0:0:0:0:
160,96,120572,1,8,0:0:0:0:
160,96,120674,1,8,0:0:0:0:
160,96,120982,1,0,0:0:0:0:
160,96,121290,1,8,0:0:0:0:
352,96,121905,5,4,0:0:0:0:
160,96,122213,1,0,0:0:0:0:
160,96,122521,1,0,0:0:0:0:
160,96,122828,1,8,0:0:0:0:
160,96,123033,1,8,0:0:0:0:
160,96,123444,1,0,0:0:0:0:
160,96,123751,1,0,0:0:0:0:
160,96,124059,1,8,0:0:0:0:
160,96,124367,1,0,0:0:0:0:
160,96,124675,1,8,0:0:0:0:
160,96,124982,1,0,0:0:0:0:
160,96,125291,1,8,0:0:0:0:
160,96,125495,1,8,0:0:0:0:
160,96,125597,1,8,0:0:0:0:
160,96,125905,1,0,0:0:0:0:
160,96,126213,1,8,0:0:0:0:
160,96,126520,1,8,0:0:0:0:
352,96,126828,1,12,0:0:0:0:
160,96,127136,1,0,0:0:0:0:
160,96,127444,1,8,0:0:0:0:
160,96,127751,1,0,0:0:0:0:
160,96,127957,1,8,0:0:0:0:
160,96,128059,1,8,0:0:0:0:
160,96,128367,1,8,0:0:0:0:
160,96,128674,1,8,0:0:0:0:
160,96,128982,1,0,0:0:0:0:
160,96,129290,1,8,0:0:0:0:
160,96,129597,1,8,0:0:0:0:
160,96,129905,1,8,0:0:0:0:
160,96,130213,1,0,0:0:0:0:
160,96,130520,1,8,0:0:0:0:
256,203,130982,2,0,L|256:334,2,104.999989085197
352,96,131751,5,4,0:0:0:0:
160,96,132058,1,0,0:0:0:0:
160,96,132366,1,8,0:0:0:0:
160,96,132674,1,0,0:0:0:0:
160,96,132981,1,8,0:0:0:0:
160,96,133289,1,8,0:0:0:0:
160,96,133597,1,0,0:0:0:0:
160,96,133905,1,8,0:0:0:0:
352,96,134213,1,4,0:0:0:0:
160,96,134521,1,8,0:0:0:0:
352,96,134829,1,4,0:0:0:0:
160,96,135136,1,8,0:0:0:0:
352,96,135444,1,4,0:0:0:0:
160,96,135751,1,8,0:0:0:0:
352,96,136059,1,4,0:0:0:0:
160,96,136366,1,8,0:0:0:0:
352,96,136674,5,4,0:0:0:0:
352,96,136982,1,4,0:0:0:0:
352,96,137289,1,12,0:0:0:0:
352,96,137597,1,12,0:0:0:0:
352,96,137905,1,4,0:0:0:0:
160,96,138213,1,8,0:0:0:0:
160,96,138521,1,8,0:0:0:0:
160,96,138828,1,0,0:0:0:0:
160,96,139136,1,8,0:0:0:0:
160,96,139443,1,8,0:0:0:0:
160,96,139751,1,0,0:0:0:0:
160,96,140059,1,8,0:0:0:0:
160,96,140367,1,0,0:0:0:0:
160,96,140675,1,8,0:0:0:0:
160,96,140879,1,8,0:0:0:0:
160,96,140982,1,8,0:0:0:0:
160,96,141187,1,8,0:0:0:0:
160,96,141290,1,8,0:0:0:0:
352,96,141597,1,4,0:0:0:0:
160,96,141802,1,8,0:0:0:0:
160,96,141905,1,8,0:0:0:0:
160,96,142110,1,0,0:0:0:0:
160,96,142418,1,8,0:0:0:0:
160,96,142521,1,8,0:0:0:0:
160,96,142726,1,0,0:0:0:0:
160,96,142828,1,0,0:0:0:0:
160,96,143033,1,8,0:0:0:0:
160,96,143136,1,8,0:0:0:0:
160,96,143341,1,0,0:0:0:0:
160,96,143649,1,8,0:0:0:0:
160,96,143752,1,8,0:0:0:0:
160,96,143957,1,0,0:0:0:0:
160,96,144059,1,0,0:0:0:0:
160,96,144264,1,8,0:0:0:0:
160,96,144367,1,8,0:0:0:0:
160,96,144572,1,0,0:0:0:0:
160,96,144880,1,8,0:0:0:0:
160,96,144983,1,8,0:0:0:0:
160,96,145290,1,0,0:0:0:0:
160,96,145597,1,0,0:0:0:0:
160,96,145700,1,0,0:0:0:0:
160,96,145802,1,0,0:0:0:0:
160,96,145905,1,0,0:0:0:0:
160,96,146212,1,8,0:0:0:0:
352,96,146520,1,4,0:0:0:0:
160,96,147136,1,8,0:0:0:0:
352,96,147751,1,4,0:0:0:0:
160,96,147956,1,8,0:0:0:0:
160,96,148059,1,8,0:0:0:0:
160,96,148264,1,0,0:0:0:0:
160,96,148366,1,0,0:0:0:0:
160,96,148674,1,8,0:0:0:0:
352,96,148982,5,4,0:0:0:0:
160,96,149290,1,0,0:0:0:0:
160,96,149598,1,8,0:0:0:0:
160,96,149905,1,8,0:0:0:0:
160,96,150213,1,0,0:0:0:0:
160,96,150521,1,0,0:0:0:0:
160,96,150829,1,8,0:0:0:0:
160,96,151136,1,8,0:0:0:0:
160,96,151444,1,0,0:0:0:0:
160,96,151752,1,0,0:0:0:0:
160,96,152059,1,8,0:0:0:0:
160,96,152367,1,0,0:0:0:0:
160,96,152674,1,0,0:0:0:0:
160,96,152982,1,8,0:0:0:0:
160,96,153188,1,8,0:0:0:0:
160,96,153290,1,8,0:0:0:0:
160,96,153495,1,8,0:0:0:0:
160,96,153598,1,8,0:0:0:0:
352,96,153905,5,4,0:0:0:0:
352,96,154521,1,12,0:0:0:0:
352,96,155136,1,4,0:0:0:0:
352,96,155752,1,12,0:0:0:0:
160,96,156367,1,0,0:0:0:0:
160,96,156675,1,8,0:0:0:0:
160,96,156982,1,0,0:0:0:0:
160,96,157290,1,8,0:0:0:0:
160,96,157598,1,0,0:0:0:0:
160,96,157803,1,8,0:0:0:0:
160,96,157905,1,8,0:0:0:0:
160,96,158111,1,8,0:0:0:0:
160,96,158213,1,8,0:0:0:0:
352,96,158521,1,4,0:0:0:0:
