osu file format v14

[General]
AudioFilename: audio.mp3
AudioLeadIn: 0
PreviewTime: 40367
Countdown: 0
SampleSet: Soft
StackLeniency: 0.7
Mode: 0
LetterboxInBreaks: 0
WidescreenStoryboard: 1

[Editor]
Bookmarks: 13598,23444,33290,43136,52982,55444,60367,70213,80059,89905,92367,102213,112059,121905,131751,136674,146521,148982,158828
DistanceSpacing: 1.5
BeatDivisor: 6
GridSize: 32
TimelineZoom: 2.3

[Metadata]
Title:Yubikiri
TitleUnicode:指切り
Artist:scop
ArtistUnicode:すこっぷ
Creator:Noffy
Version:Insane
Source:初音ミク -Project DIVA- F 2nd
Tags:Ayyri Vocaloid F2nd Hatsune Miku HELL YA TRAINS Pinky Promise Swear thousand needles Light and Shadow Love Songs 〜Girls Side〜 Days ~Best of Scop~ BALLOOM BEST Yuri ムラサキ Murasaki violet Purple Arcade Future Tone Sound Colorful Deluxe DX
BeatmapID:1346979
BeatmapSetID:634876

[Difficulty]
HPDrainRate:6
CircleSize:4.5
OverallDifficulty:7
ApproachRate:8.5
SliderMultiplier:1.5
SliderTickRate:1

[Events]
//Background and Video events
0,0,"yubki.jpg",0,0
Video,670,"prom.avi"
//Break Periods
2,13798,21576
//Storyboard Layer 0 (Background)
//Storyboard Layer 1 (Fail)
//Storyboard Layer 2 (Pass)
//Storyboard Layer 3 (Foreground)
//Storyboard Sound Samples

[TimingPoints]
3752,307.692307692308,4,2,1,100,1,0
40367,-50,4,2,1,100,0,0
40572,-100,4,2,1,100,0,0
43136,-100,4,2,1,100,0,1
43444,-80,4,2,1,100,0,1
43751,-66.6666666666667,4,2,1,100,0,1
44059,-57.1428571428571,4,2,1,100,0,1
44367,-100,4,2,1,100,0,1
55444,-100,4,2,1,100,0,0
60777,-100,4,2,1,70,0,0
60880,-100,4,2,1,50,0,0
60982,-100,4,2,1,100,0,0
65700,-100,4,2,1,70,0,0
65803,-100,4,2,1,50,0,0
65905,-100,4,2,1,100,0,0
77290,-50,4,2,1,100,0,0
77393,-100,4,2,1,100,0,0
80059,-100,4,2,1,100,0,1
80367,-80,4,2,1,100,0,1
80675,-66.6666666666667,4,2,1,100,0,1
80982,-57.1428571428571,4,2,1,100,0,1
81290,-100,4,2,1,100,0,1
92367,-100,4,2,1,100,0,0
99444,-50,4,2,1,100,0,0
99649,-100,4,2,1,100,0,0
112059,-125,4,2,1,100,0,0
121905,-117.647058823529,4,2,1,100,0,0
126828,-111.111111111111,4,2,1,100,0,0
129290,-105.263157894737,4,2,1,100,0,0
131752,-100,4,2,1,100,0,0
136777,-100,4,2,1,100,0,1
136982,-80,4,2,1,100,0,1
137290,-66.6666666666667,4,2,1,100,0,1
137598,-57.1428571428571,4,2,1,100,0,1
137905,-100,4,2,1,100,0,1
148982,-100,4,2,1,100,0,0

[Colours]
Combo1 : 255,255,255
Combo2 : 79,131,71
Combo3 : 113,152,159
Combo4 : 184,140,82
Combo5 : 139,98,157
Combo6 : 193,9,55

[HitObjects]
64,23,3751,5,4,0:1:0:0:
127,159,3957,1,0,0:0:0:0:
85,220,4059,1,4,0:3:0:0:
256,73,4367,1,0,0:0:0:0:
319,209,4572,1,0,0:0:0:0:
277,270,4675,1,4,0:3:0:0:
437,112,4982,5,0,0:0:0:0:
500,248,5187,1,0,0:0:0:0:
458,309,5290,1,4,0:3:0:0:
319,131,5598,1,0,0:0:0:0:
256,267,5803,1,0,0:0:0:0:
298,328,5905,1,4,0:3:0:0:
423,141,6213,6,0,P|410:87|365:39,1,100,0|0,0:0|0:0,0:0:0:0:
312,25,6521,2,0,L|213:65,1,100,4|0,0:3|0:0,0:0:0:0:
199,134,6828,2,0,L|98:179,1,100,0|0,0:0|0:0,0:0:0:0:
63,236,7136,2,0,P|73:284|102:324,1,100,4|0,0:3|0:0,0:0:0:0:
165,366,7444,5,0,0:0:0:0:
333,218,7752,2,0,P|384:227|446:212,1,100,4|0,0:3|0:0,0:0:0:0:
492,175,8059,1,4,0:3:0:0:
451,30,8264,1,0,0:0:0:0:
421,99,8367,1,4,0:3:0:0:
211,180,8675,6,0,P|138:164|85:113,1,150,4|4,0:1|0:3,0:0:0:0:
301,180,9290,2,0,P|382:160|431:105,1,150,0|4,0:0|0:3,0:0:0:0:
211,180,9905,2,0,P|138:195|85:246,1,150,0|4,0:0|0:3,0:0:0:0:
301,179,10521,2,0,P|373:195|426:246,1,150,0|4,0:0|0:3,0:0:0:0:
403,22,11136,38,0,L|383:143,1,100,4|0,0:3|0:0,0:0:0:0:
373,195,11444,1,4,0:3:0:0:
186,320,11752,2,0,L|206:199,1,100,4|0,0:3|0:0,0:0:0:0:
216,147,12059,1,4,0:3:0:0:
349,328,12367,5,4,0:1:0:0:
452,128,12675,2,0,P|398:101|344:97,1,100,4|0,0:3|0:0,0:0:0:0:
284,103,12982,1,4,0:3:0:0:
226,241,13187,1,4,0:3:0:0:
190,174,13290,1,4,0:3:0:0:
52,352,13598,5,4,0:1:0:0:
391,55,23136,37,2,0:1:0:0:
384,280,23444,2,0,P|450:228|451:155,1,150,4|0,0:1|0:0,0:0:0:0:
304,161,23957,2,0,L|284:213,1,50,2|2,0:1|0:1,0:0:0:0:
121,55,24367,5,0,0:0:0:0:
128,280,24675,2,0,P|62:228|61:155,1,150,2|2,0:1|0:1,0:0:0:0:
208,161,25187,1,2,0:1:0:0:
245,95,25290,1,8,0:2:0:0:
294,314,25598,5,2,0:1:0:0:
367,101,25905,2,0,P|393:64|441:34,1,100,8|0,0:0|0:0,0:0:0:0:
495,84,26213,2,0,L|502:198,1,100,2|2,0:1|0:1,0:0:0:0:
437,224,26521,2,0,L|442:331,1,100,2|0,0:1|0:0,0:0:0:0:
383,370,26828,5,2,0:1:0:0:
305,158,27136,1,0,0:0:0:0:
229,370,27444,1,8,0:0:0:0:
139,249,27649,2,0,L|202:221,1,50,8|8,0:0|0:0,0:0:0:0:
334,60,28059,37,8,0:0:0:0:
126,147,28367,2,0,P|216:134|279:198,1,150,4|2,0:1|0:1,0:0:0:0:
347,288,28880,2,0,L|373:232,1,50,2|2,0:1|0:1,0:0:0:0:
464,39,29290,5,2,0:1:0:0:
462,264,29598,2,0,P|446:192|387:150,1,150,2|2,0:1|0:1,0:0:0:0:
239,123,30110,1,2,0:1:0:0:
202,188,30213,1,8,0:0:0:0:
37,33,30521,6,0,L|61:145,1,100,2|0,0:1|0:0,0:0:0:0:
75,203,30828,2,0,L|122:105,1,100,8|0,0:0|0:0,0:0:0:0:
146,43,31136,2,0,L|170:155,1,100,2|2,0:1|0:1,0:0:0:0:
187,213,31444,2,0,L|230:122,1,100,8|0,0:0|0:1,0:0:0:0:
264,56,31752,5,2,0:1:0:0:
341,267,32059,2,0,P|408:239|440:172,1,150,2|8,0:1|0:0,0:0:0:0:
447,21,32572,1,8,0:0:0:0:
501,73,32675,1,8,0:0:0:0:
197,220,33290,38,0,P|135:238|39:213,1,150,4|8,0:1|0:1,0:0:0:0:
188,41,33905,1,8,0:1:0:0:
272,249,34213,1,8,0:1:0:0:
495,218,34521,2,0,P|460:182|413:165,1,100,8|8,0:1|0:1,0:0:0:0:
339,164,34828,1,8,0:1:0:0:
205,232,35034,2,0,P|177:228|143:198,1,50,8|8,0:0|0:0,0:0:0:0:
278,25,35444,5,8,0:1:0:0:
296,248,35752,2,0,P|350:239|406:256,1,100,8|0,0:0|0:0,0:0:0:0:
447,302,36059,2,0,L|490:200,1,100,8|0,0:1|0:0,0:0:0:0:
485,134,36367,2,0,L|446:41,1,100,8|0,0:0|0:0,0:0:0:0:
392,94,36675,2,0,P|343:104|294:95,1,100,8|0,0:1|0:0,0:0:0:0:
235,50,36982,2,0,P|185:45|137:57,1,100,8|0,0:0|0:0,0:0:0:0:
80,106,37290,5,0,0:0:0:0:
144,242,37495,1,0,0:0:0:0:
178,308,37598,1,4,0:3:0:0:
285,203,37803,1,4,0:3:0:0:
314,271,37905,2,0,L|346:336,2,50,4|4|4,0:3|0:3|0:3,0:0:0:0:
337,144,38213,6,0,P|382:138|433:97,1,100,4|0,0:1|0:0,0:0:0:0:
462,42,38521,1,4,0:3:0:0:
250,116,38828,2,0,P|205:110|154:69,1,100,0|0,0:0|0:0,0:0:0:0:
125,15,39136,1,4,0:3:0:0:
185,232,39444,2,0,P|179:277|138:328,1,100,0|0,0:0|0:0,0:0:0:0:
83,357,39752,1,4,0:3:0:0:
48,135,40059,1,0,0:0:0:0:
272,120,40367,22,0,P|313:144|354:119,1,100,8|8,0:1|0:1,0:0:0:0:
395,58,40572,1,8,0:1:0:0:
456,100,40675,6,2,B|470:183|470:183|448:266,1,150,6|4,0:1|0:3,0:0:0:0:
239,320,41290,2,0,B|192:285|192:285|83:285,1,150,0|4,0:0|0:3,0:0:0:0:
24,73,41905,6,0,P|42:124|76:154,1,100,4|4,0:3|0:3,0:0:0:0:
148,164,42213,1,4,0:3:0:0:
256,59,42418,1,4,0:3:0:0:
322,94,42521,2,0,B|381:103|381:103|427:82,1,100,0|4,0:0|0:3,0:0:0:0:
476,41,42828,1,4,0:3:0:0:
473,190,43034,1,4,0:3:0:0:
421,245,43136,38,0,P|373:248|309:296,1,100,4|0,0:1|0:0,0:0:0:0:
384,348,43444,22,0,P|383:284|348:231,1,125,4|0,0:3|0:0,0:0:0:0:
251,193,43752,54,0,P|194:196|119:253,1,150.000005722046,4|0,0:3|0:0,0:0:0:0:
207,314,44059,22,0,P|197:217|122:150,1,175.00000166893,4|4,0:3|0:3,0:0:0:0:
14,115,44367,53,4,0:3:0:0:
235,73,44675,38,0,P|276:98|345:73,1,100,4|0,0:3|0:0,0:0:0:0:
391,57,44982,2,0,P|439:49|481:75,1,100,4|0,0:3|0:0,0:0:0:0:
424,125,45290,2,0,L|404:223,1,100,4|0,0:3|0:0,0:0:0:0:
348,273,45598,2,0,P|389:298|438:291,1,100,4|0,0:3|0:0,0:0:0:0:
499,334,45905,2,0,P|470:357|411:373,1,100,4|0,0:3|0:0,0:0:0:0:
340,361,46213,2,0,P|299:332|275:289,1,100,4|0,0:3|0:0,0:0:0:0:
261,214,46521,1,4,0:3:0:0:
251,22,46828,5,4,0:3:0:0:
65,49,47136,2,0,P|47:95|51:158,1,100,4|8,0:3|0:1,0:0:0:0:
77,214,47444,1,4,0:3:0:0:
226,222,47649,1,8,0:1:0:0:
208,294,47752,1,4,0:3:0:0:
157,74,48059,5,4,0:1:0:0:
297,22,48264,1,0,0:0:0:0:
372,28,48367,2,0,P|424:52|458:101,1,100,4|0,0:3|0:0,0:0:0:0:
370,294,48880,1,0,0:0:0:0:
317,241,48982,2,0,B|311:203|311:203|331:124,1,100,4|0,0:3|0:0,0:0:0:0:
297,22,49290,5,4,0:1:0:0:
184,120,49495,1,0,0:0:0:0:
199,193,49598,2,0,B|205:231|205:231|190:290,1,100,4|0,0:3|0:0,0:0:0:0:
55,111,50110,1,0,0:0:0:0:
92,45,50213,2,0,P|137:16|190:12,1,100,4|0,0:3|0:0,0:0:0:0:
297,22,50521,37,4,0:1:0:0:
249,164,50726,1,0,0:0:0:0:
271,235,50828,2,0,P|310:288|341:300,1,100,4|0,0:3|0:0,0:0:0:0:
410,86,51341,1,0,0:0:0:0:
438,154,51444,2,0,P|452:201|440:248,1,100,4|0,0:3|0:0,0:0:0:0:
404,315,51752,6,0,L|360:202,1,100,4|4,0:3|0:3,0:0:0:0:
336,153,52059,2,0,L|315:98,2,50,4|4|4,0:3|0:3|0:3,0:0:0:0:
268,262,52367,5,4,0:3:0:0:
55,335,52675,1,4,0:3:0:0:
41,110,52982,2,0,P|117:100|171:31,1,150,4|4,0:1|0:3,0:0:0:0:
287,237,53598,2,0,P|213:236|159:187,1,150,0|4,0:0|0:3,0:0:0:0:
366,99,54213,6,0,P|403:126|428:197,1,100,4|0,0:1|0:0,0:0:0:0:
437,248,54521,1,4,0:3:0:0:
287,237,54726,1,0,0:0:0:0:
231,286,54828,2,0,B|193:306|193:306|134:301,1,100,4|0,0:3|0:0,0:0:0:0:
78,252,55136,2,0,P|93:205|81:144,1,100,4|0,0:3|0:0,0:0:0:0:
93,80,55444,38,0,P|152:79|206:54,1,100,4|0,0:1|0:0,0:0:0:0:
255,30,55752,2,0,P|271:77|270:126,1,100,4|0,0:3|0:0,0:0:0:0:
255,200,56059,2,0,P|256:259|281:313,1,100,8|0,0:0|0:0,0:0:0:0:
328,345,56367,2,0,P|375:328|424:329,1,100,4|0,0:3|0:0,0:0:0:0:
431,254,56675,6,0,P|424:204|439:157,1,100,8|0,0:0|0:0,0:0:0:0:
462,87,56982,2,0,B|419:68|419:68|381:10,1,100,4|0,0:3|0:0,0:0:0:0:
315,40,57290,2,0,P|268:52|209:39,1,100,8|0,0:0|0:0,0:0:0:0:
146,18,57598,2,0,B|116:62|116:62|73:81,1,100,4|0,0:3|0:0,0:0:0:0:
121,137,57905,6,0,B|119:214|119:214|119:273|169:292,1,150,8|4,0:0|0:3,0:0:0:0:
358,356,58521,2,0,B|360:279|360:279|360:220|310:201,1,150,8|4,0:0|0:3,0:0:0:0:
28,140,59136,1,8,0:1:0:0:
28,140,59649,2,0,P|54:160|86:167,1,50,0|0,0:0|0:0,0:0:0:0:
195,81,59957,1,0,0:0:0:0:
209,154,60059,37,8,0:1:0:0:
112,357,60367,1,4,0:1:0:0:
322,277,60675,2,0,B|346:277|346:277|370:291|394:277|394:277|428:277,1,100,8|0,0:3|0:0,0:0:0:0:
493,277,60982,1,4,0:3:0:0:
423,62,61290,5,0,0:0:0:0:
201,104,61598,2,0,P|153:115|105:104,1,100
40,65,61905,1,8,0:1:0:0:
23,213,62110,2,0,P|32:248|52:277,1,50,0|4,0:0|0:3,0:0:0:0:
260,307,62521,6,2,P|284:272|310:306,1,100,8|0,0:1|0:0,0:0:0:0:
362,359,62828,2,0,P|415:346|453:298,1,100,8|0,0:1|0:0,0:0:0:0:
466,241,63136,2,0,L|474:141,1,100,8|0,0:1|0:0,0:0:0:0:
433,78,63444,2,0,B|383:66|385:100|328:77,1,100,2|0,0:0|0:0,0:0:0:0:
268,47,63752,5,2,0:0:0:0:
206,263,64059,1,8,0:1:0:0:
135,49,64367,1,0,0:0:0:0:
112,197,64572,2,0,P|137:169|171:157,1,50,0|4,0:0|0:3,0:0:0:0:
367,114,64982,37,0,0:0:0:0:
407,335,65290,1,4,0:1:0:0:
190,277,65598,2,0,B|166:277|166:277|142:291|118:277|118:277|84:277,1,100,8|0,0:3|0:0,0:0:0:0:
19,277,65905,1,4,0:3:0:0:
89,62,66213,5,0,0:0:0:0:
311,104,66521,2,0,P|359:115|407:104,1,100,0|0,0:0|0:0,0:0:0:0:
472,65,66828,1,8,0:1:0:0:
500,212,67034,1,0,0:0:0:0:
471,281,67136,2,0,B|422:296|421:262|366:290,1,100,2|0,0:0|0:0,0:0:0:0:
319,339,67444,5,2,0:0:0:0:
95,314,67752,2,0,L|130:198,1,100,8|0,0:1|0:0,0:0:0:0:
151,148,68059,1,8,0:1:0:0:
305,314,68367,2,0,L|270:198,1,100,4|0,0:3|0:0,0:0:0:0:
249,148,68675,1,8,0:1:0:0:
95,314,68982,5,8,0:1:0:0:
227,75,69290,2,2,P|202:39|178:75,1,100,4|0,0:3|0:0,0:0:0:0:
202,145,69598,1,4,0:3:0:0:
319,336,69905,1,4,0:3:0:0:
489,206,70213,38,0,P|420:187|338:207,1,150,4|8,0:1|0:1,0:0:0:0:
166,341,70828,1,8,0:1:0:0:
116,121,71136,1,8,0:1:0:0:
331,54,71444,2,0,P|379:42|429:45,1,100,8|8,0:1|0:1,0:0:0:0:
500,68,71752,1,8,0:1:0:0:
439,205,71957,2,0,P|446:243|472:276,1,50,8|8,0:0|0:0,0:0:0:0:
255,365,72367,5,8,0:1:0:0:
362,167,72675,2,0,P|322:135|249:135,1,100,8|0,0:0|0:0,0:0:0:0:
204,154,72982,2,0,B|181:157|181:157|111:125,1,100,8|0,0:1|0:0,0:0:0:0:
36,130,73290,2,0,P|8:174|10:244,1,100,8|0,0:0|0:0,0:0:0:0:
45,283,73598,2,0,B|115:315|115:315|167:306,1,100,8|0,0:1|0:0,0:0:0:0:
208,332,73905,2,0,P|256:344|304:335,1,100,8|0,0:0|0:0,0:0:0:0:
375,311,74213,5,0,0:0:0:0:
402,162,74418,1,0,0:0:0:0:
374,91,74521,1,4,0:3:0:0:
258,112,74726,1,4,0:3:0:0:
224,45,74828,2,0,L|200:-7,2,50,4|4|4,0:3|0:3|0:3,0:0:0:0:
217,175,75136,6,0,P|166:194|110:182,1,100,4|0,0:1|0:0,0:0:0:0:
51,160,75444,1,4,0:3:0:0:
179,343,75752,2,0,P|130:335|90:305,1,100,0|0,0:0|0:0,0:0:0:0:
36,252,76059,1,4,0:3:0:0:
222,15,76367,2,0,P|184:47|136:59,1,100,0|0,0:0|0:0,0:0:0:0:
62,67,76675,1,4,0:3:0:0:
239,191,76982,1,0,0:0:0:0:
471,350,77290,22,0,P|495:308|473:265,1,100,8|8,0:1|0:1,0:0:0:0:
414,218,77495,1,8,0:1:0:0:
469,167,77598,6,4,P|501:125|439:47,1,150,4|4,0:1|0:3,0:0:0:0:
256,153,78213,2,0,P|272:221|342:232,1,150,0|4,0:0|0:3,0:0:0:0:
147,120,78828,6,0,P|141:163|150:225,1,100,4|4,0:3|0:3,0:0:0:0:
180,286,79136,1,4,0:3:0:0:
317,346,79341,1,4,0:3:0:0:
308,270,79444,2,0,B|299:211|299:211|320:165,1,100,0|4,0:0|0:3,0:0:0:0:
356,111,79752,1,4,0:3:0:0:
229,30,79957,1,4,0:3:0:0:
192,95,80059,38,0,P|159:133|94:143,1,100,4|0,0:1|0:0,0:0:0:0:
21,121,80367,22,0,L|36:265,1,125,4|0,0:3|0:0,0:0:0:0:
73,349,80675,54,0,P|114:300|196:287,1,150.000005722046,4|0,0:3|0:0,0:0:0:0:
291,316,80982,22,0,L|271:132,1,175.00000166893,4|4,0:3|0:3,0:0:0:0:
258,2,81290,53,4,0:3:0:0:
468,81,81598,38,0,L|452:179,1,100,4|0,0:3|0:0,0:0:0:0:
433,252,81905,2,0,P|410:295|365:315,1,100,0|0,0:0|0:0,0:0:0:0:
358,241,82213,2,0,L|247:221,1,100,4|0,0:3|0:0,0:0:0:0:
235,295,82521,2,0,P|195:265|184:217,1,100,4|0,0:3|0:0,0:0:0:0:
193,143,82828,2,0,L|208:44,1,100,4|0,0:3|0:0,0:0:0:0:
278,70,83136,2,0,P|335:89|394:81,1,100,4|0,0:3|0:0,0:0:0:0:
448,69,83444,1,4,0:3:0:0:
468,293,83752,5,4,0:3:0:0:
255,364,84059,2,0,P|196:344|160:300,1,100,4|8,0:3|0:1,0:0:0:0:
129,254,84367,1,4,0:3:0:0:
93,109,84572,1,8,0:1:0:0:
107,36,84675,1,4,0:3:0:0:
256,204,84982,5,4,0:1:0:0:
354,90,85187,1,0,0:0:0:0:
406,36,85290,2,0,P|448:69|456:134,1,100,4|0,0:3|0:0,0:0:0:0:
376,321,85803,1,0,0:0:0:0:
428,375,85905,2,0,P|470:342|478:277,1,100,4|0,0:3|0:0,0:0:0:0:
486,223,86213,5,4,0:1:0:0:
385,110,86418,1,0,0:0:0:0:
311,129,86521,2,0,B|250:141|250:141|201:125,1,100,4|0,0:3|0:0,0:0:0:0:
79,20,87034,1,0,0:0:0:0:
36,81,87136,2,0,P|20:127|35:174,1,100,4|0,0:3|0:0,0:0:0:0:
75,239,87444,37,4,0:1:0:0:
202,317,87649,1,0,0:0:0:0:
274,302,87752,2,0,B|335:290|335:290|384:306,1,100,4|0,0:3|0:0,0:0:0:0:
440,86,88264,1,0,0:0:0:0:
367,65,88367,2,0,P|324:68|278:102,1,100,4|0,0:3|0:0,0:0:0:0:
259,172,88675,6,0,L|147:195,1,100,4|4,0:3|0:3,0:0:0:0:
87,174,88982,2,0,L|50:127,2,50,4|4|4,0:3|0:3|0:3,0:0:0:0:
104,302,89290,5,4,0:3:0:0:
319,365,89598,1,4,0:3:0:0:
425,166,89905,2,0,P|445:96|405:35,1,150,4|4,0:1|0:3,0:0:0:0:
330,247,90521,2,0,P|290:186|310:116,1,150,0|4,0:0|0:3,0:0:0:0:
86,148,91136,6,0,P|102:207|68:258,1,100,4|0,0:1|0:0,0:0:0:0:
62,311,91444,1,4,0:3:0:0:
211,301,91649,1,0,0:0:0:0:
204,226,91752,2,0,B|194:126,1,100,4|0,0:3|0:0,0:0:0:0:
139,76,92059,2,0,P|180:51|229:60,1,100,4|0,0:3|0:0,0:0:0:0:
291,105,92367,69,4,0:1:0:0:
428,45,92572,1,2,0:0:0:0:
471,105,92675,2,0,P|485:156|469:210,1,100,8|8,0:1|0:1,0:0:0:0:
451,272,92982,1,2,0:0:0:0:
319,344,93187,1,2,0:0:0:0:
351,275,93290,2,0,P|361:226|347:179,1,100,8|8,0:1|0:1,0:0:0:0:
305,116,93598,54,0,B|339:96|340:63|340:63|370:32,2,100,2|8|8,0:0|0:1|0:1,0:0:0:0:
233,137,94110,1,8,0:1:0:0:
162,111,94213,2,0,L|162:44,2,50,2|2|2,0:0|0:0|0:0,0:0:0:0:
93,142,94521,2,0,P|69:216|76:244,1,100,8|2,0:1|0:0,0:0:0:0:
99,305,94828,21,8,0:1:0:0:
145,286,94931,1,8,0:1:0:0:
195,285,95034,1,8,0:1:0:0:
241,303,95136,53,2,0:0:0:0:
273,341,95239,1,2,0:0:0:0:
316,364,95341,1,2,0:0:0:0:
364,356,95444,21,8,0:1:0:0:
393,316,95546,1,8,0:1:0:0:
390,267,95649,1,8,0:1:0:0:
384,217,95752,53,2,0:0:0:0:
397,168,95854,1,2,0:0:0:0:
424,125,95957,1,2,0:0:0:0:
440,52,96059,22,0,P|464:61|482:77,2,50,8|2|8,0:1|0:0|0:1,0:0:0:0:
365,41,96367,1,2,0:0:0:0:
309,199,96572,2,0,P|281:191|263:176,1,50,8|2,0:1|0:0,0:1:0:0:
124,266,96880,1,8,0:1:0:0:
60,308,96982,1,2,0:0:0:0:
192,377,97187,1,8,0:1:0:0:
256,335,97290,5,4,0:1:0:0:
181,147,97905,2,0,B|155:162|138:209|138:209|182:210,2,100,8|8|8,0:1|0:1|0:1,0:0:0:0:
331,146,98521,2,0,B|356:161|371:208|371:208|328:209,2,100,2|2|2,0:0|0:0|0:0,0:0:0:0:
256,55,99136,1,8,0:1:0:0:
256,334,99444,6,0,L|256:119,1,200,2|2,0:0|0:0,0:0:0:0:
256,55,99752,21,2,0:0:0:0:
181,42,99854,2,0,P|156:50|123:72,2,50,8|8|0,0:1|0:1|0:0,0:0:0:0:
15,250,100264,21,2,0:0:0:0:
56,277,100367,1,8,0:1:0:0:
105,276,100469,1,8,0:1:0:0:
150,254,100572,1,8,0:1:0:0:
189,223,100675,53,2,0:0:0:0:
239,221,100777,1,2,0:0:0:0:
285,239,100880,1,2,0:0:0:0:
325,301,100982,22,0,P|380:320|440:295,1,100,4|0,3:1|0:0,0:0:0:0:
475,261,101290,1,4,0:3:0:0:
494,112,101495,1,8,0:1:0:0:
442,167,101598,1,4,0:3:0:0:
34,357,102213,37,4,0:1:0:0:
66,134,102521,1,4,0:3:0:0:
253,257,102828,2,0,B|205:274|205:274|146:255,1,100,8|0,0:0|0:0,0:0:0:0:
91,223,103136,1,4,0:3:0:0:
155,87,103341,22,0,B|205:102|205:102|301:80,1,150
375,73,103752,2,0,P|415:111|416:170,1,100,4|4,0:3|0:3,0:0:0:0:
381,218,104059,2,0,B|336:250|336:250|316:303,1,100,8|0,0:0|0:0,0:0:0:0:
305,365,104367,1,4,0:3:0:0:
89,306,104675,54,0,P|77:255|89:206,1,100,8|0,0:0|0:0,0:0:0:0:
162,213,104982,2,0,B|173:167|173:167|162:113,1,100,4|0,0:3|0:0,0:0:0:0:
214,60,105290,2,0,B|256:34|256:34|299:60,1,100,8|0,0:0|0:0,0:0:0:0:
349,115,105598,2,0,B|339:167|339:167|350:213,1,100,4|0,0:3|0:0,0:0:0:0:
379,281,105905,21,8,0:0:0:0:
154,268,106213,2,0,L|169:319,2,50,4|0|4,0:3|0:0|0:3,0:0:0:0:
83,240,106521,2,0,P|64:183|88:93,1,150,4|4,0:3|0:3,0:0:0:0:
306,60,107136,54,0,B|357:60|357:60|394:95,1,100,4|0,0:1|0:0,0:0:0:0:
437,154,107444,2,0,P|426:212|443:258,1,100,4|0,0:3|0:0,0:0:0:0:
401,317,107752,2,0,B|350:317|350:317|314:283,1,100,8|0,0:0|0:0,0:0:0:0:
249,321,108059,2,0,P|201:333|153:322,1,100,4|0,0:3|0:0,0:0:0:0:
95,273,108367,22,0,B|115:201|115:201|95:173,1,100,8|0,0:0|0:0,0:0:0:0:
161,138,108675,2,0,B|146:117|146:117|166:45,1,100,4|0,0:3|0:0,0:0:0:0:
236,20,108982,2,0,B|251:41|251:41|232:110|232:110|243:137|232:165,1,150,8|4,0:0|0:3,0:0:0:0:
319,370,109598,54,0,P|376:351|406:296,2,100,8|0|0,0:0|0:0|0:0,0:0:0:0:
183,306,110213,2,0,L|167:364,2,50,8|0|0,0:0|0:0|0:0,0:0:0:0:
161,233,110521,2,0,L|143:286,2,50,4|0|0,0:3|0:0|0:0,0:0:0:0:
188,163,110828,21,4,0:1:0:0:
391,68,111136,2,0,P|430:99|445:150,1,100,2|2,0:1|0:1,0:0:0:0:
439,220,111444,1,2,0:1:0:0:
361,348,111649,1,2,0:1:0:0:
334,277,111752,1,2,0:1:0:0:
158,319,112059,53,4,0:1:0:0:
48,175,112367,2,0,P|63:110|111:65,1,120,2|0,0:0|0:0,0:0:0:0:
280,69,112982,1,2,0:0:0:0:
241,168,113187,1,2,0:0:0:0:
380,363,113598,2,0,P|419:318|430:260,2,120,2|2|2,0:0|0:0|0:0,0:0:0:0:
199,362,114521,53,2,0:0:0:0:
256,192,114828,1,2,0:0:0:0:
199,22,115136,1,2,0:0:0:0:
138,191,115444,1,2,0:0:0:0:
199,294,115649,1,2,0:0:0:0:
250,324,115752,2,0,P|308:335|366:322,1,120,2|2,0:0|0:0,0:0:0:0:
431,153,116367,2,0,P|372:141|314:154,1,120,2|2,0:0|0:0,0:0:0:0:
169,260,116982,21,2,0:0:0:0:
107,90,117290,2,0,P|171:75|229:88,1,120,2|2,0:0|0:0,0:0:0:0:
376,181,117905,1,2,0:0:0:0:
438,78,118110,1,2,0:0:0:0:
255,235,118521,2,0,B|237:309|281:286|255:371,2,120,2|2|2,0:0|0:0|0:0,0:0:0:0:
366,93,119444,53,2,0:0:0:0:
255,235,119752,1,2,0:0:0:0:
146,93,120059,1,2,0:0:0:0:
255,235,120367,1,2,0:0:0:0:
171,321,120572,1,2,0:0:0:0:
222,350,120675,2,0,P|285:351|335:322,1,120,2|2,0:0|0:0,0:0:0:0:
435,174,121290,2,0,P|446:232|433:290,1,120,2|2,0:0|0:0,0:0:0:0:
256,216,121905,21,4,0:1:0:0:
72,161,122213,2,0,P|59:224|74:288,1,127.50000243187,2|2,0:1|0:1,0:0:0:0:
256,216,122828,1,2,0:0:0:0:
362,285,123034,1,2,0:0:0:0:
315,33,123444,2,0,P|256:18|182:43,2,127.50000243187,2|2|2,0:0|0:0|0:0,0:0:0:0:
396,205,124367,54,0,P|360:219|303:212,1,85.0000016212464,2|0,0:0|0:0,0:0:0:0:
256,192,124675,1,2,0:0:0:0:
146,348,124982,1,2,0:0:0:0:
33,192,125290,1,2,0:0:0:0:
146,249,125495,1,2,0:0:0:0:
209,247,125598,2,0,P|267:224|313:172,1,127.50000243187,2|2,0:0|0:0,0:0:0:0:
154,67,126213,2,0,P|129:125|132:188,1,127.50000243187,2|2,0:0|0:0,0:0:0:0:
256,347,126828,21,2,0:0:0:0:
398,204,127136,1,8,0:0:0:0:
256,61,127444,1,2,0:0:0:0:
114,204,127752,1,8,0:0:0:0:
208,300,127957,1,2,0:0:0:0:
270,324,128059,2,0,P|319:333|376:316,1,89.999997253418,2|0,0:0|0:0,0:0:0:0:
413,285,128367,2,0,B|411:241|411:241|435:190,1,89.999997253418,8|0,0:0|0:0,0:0:0:0:
445,134,128675,2,0,P|380:116|315:132,1,134.999995880127,2|8,0:0|0:0,0:0:0:0:
104,119,129290,54,0,P|151:117|197:131,1,94.9999974632264,2|0,0:0|0:0,0:0:0:0:
255,171,129598,2,0,L|255:266,1,94.9999974632264,8|0,0:0|0:0,0:0:0:0:
300,321,129905,2,0,P|255:337|211:322,1,94.9999974632264,2|0,0:0|0:0,0:0:0:0:
170,264,130213,1,8,0:0:0:0:
342,264,130521,1,4,0:0:0:0:
210,127,130982,2,0,P|254:16|297:128,1,308.749991755486,0|8,0:0|0:1,0:0:0:0:
292,203,131752,38,0,P|318:248|374:273,1,100,4|0,0:1|0:0,0:0:0:0:
385,342,132059,2,0,P|348:366|287:376,1,100,4|0,0:3|0:0,0:0:0:0:
218,376,132367,2,0,P|168:367|126:341,1,100,8|0,0:0|0:0,0:0:0:0:
151,270,132675,2,0,P|194:246|219:203,1,100,4|0,0:3|0:0,0:0:0:0:
209,129,132982,6,0,P|203:77|223:25,1,100,8|0,0:0|0:0,0:0:0:0:
293,32,133290,2,0,P|309:79|303:129,1,100,4|0,0:3|0:0,0:0:0:0:
292,203,133598,2,0,P|317:246|360:270,1,100,8|0,0:0|0:0,0:0:0:0:
385,342,133905,2,0,P|348:366|287:376,1,100,4|0,0:3|0:0,0:0:0:0:
219,376,134213,6,0,P|151:359|85:293,1,150,4|4,0:1|0:3,0:0:0:0:
328,222,134828,2,0,P|256:241|183:224,1,150,4|4,0:1|0:3,0:0:0:0:
345,34,135444,38,0,P|292:86|221:108,1,150,4|4,0:1|0:3,0:0:0:0:
464,36,136059,2,0,P|450:108|404:167,1,150,4|4,0:1|0:3,0:0:0:0:
225,304,136675,54,0,P|186:271|136:303,1,100,4|0,0:1|0:0,0:0:0:0:
73,348,136982,22,0,P|114:299|74:236,1,125,4|0,0:3|0:0,0:0:0:0:
11,171,137290,54,0,P|69:220|144:172,1,150.000005722046,4|0,0:3|0:0,0:0:0:0:
164,68,137598,22,0,P|137:146|193:208,1,175.00000166893,4|4,0:3|0:3,0:0:0:0:
407,236,137905,53,4,0:3:0:0:
192,304,138213,38,0,P|242:290|279:247,1,100,4|0,0:3|0:0,0:0:0:0:
330,306,138521,2,0,P|369:336|418:341,1,100,0|0,0:0|0:0,0:0:0:0:
474,291,138828,2,0,L|465:182,1,100,4|0,0:3|0:0,0:0:0:0:
421,132,139136,2,0,P|382:135|327:165,1,100,4|0,0:3|0:0,0:0:0:0:
288,101,139444,2,0,P|250:68|201:60,1,100,4|0,0:3|0:0,0:0:0:0:
172,129,139752,2,0,L|180:228,1,100,4|0,0:3|0:0,0:0:0:0:
192,304,140059,1,4,0:3:0:0:
418,340,140367,5,4,0:3:0:0:
504,132,140675,2,0,P|469:92|424:78,1,100,4|8,0:3|0:1,0:0:0:0:
350,71,140982,1,4,0:3:0:0:
273,200,141187,1,8,0:1:0:0:
227,141,141290,1,4,0:3:0:0:
52,306,141598,5,4,0:1:0:0:
203,356,141803,1,0,0:0:0:0:
282,360,141905,2,0,P|329:347|359:308,1,100,4|0,0:3|0:0,0:0:0:0:
483,120,142418,1,0,0:0:0:0:
460,192,142521,2,0,B|452:234|452:234|471:288,1,100,4|0,0:3|0:0,0:0:0:0:
506,354,142828,5,4,0:1:0:0:
359,308,143034,1,0,0:0:0:0:
339,235,143136,2,0,P|309:196|261:183,1,100,4|0,0:3|0:0,0:0:0:0:
45,245,143649,1,0,0:0:0:0:
65,173,143752,2,0,B|72:130|72:130|53:76,1,100,4|0,0:3|0:0,0:0:0:0:
15,10,144059,37,4,0:1:0:0:
163,26,144264,1,0,0:0:0:0:
202,89,144367,2,0,P|248:111|303:105,1,100,4|0,0:3|0:0,0:0:0:0:
500,13,144880,1,0,0:0:0:0:
467,80,144982,2,0,P|456:128|472:175,1,100,4|0,0:3|0:0,0:0:0:0:
494,247,145290,6,0,B|468:270|468:270|394:276,1,100,4|4,0:3|0:3,0:0:0:0:
350,328,145598,2,0,L|370:373,2,50,4|4|4,0:3|0:3|0:3,0:0:0:0:
292,216,145905,5,4,0:3:0:0:
118,359,146213,1,4,0:3:0:0:
34,150,146521,2,0,P|99:118|166:146,1,150,4|4,0:1|0:3,0:0:0:0:
389,127,147136,2,0,P|321:155|256:123,1,150,0|4,0:0|0:3,0:0:0:0:
84,290,147752,6,0,P|130:274|175:294,1,100,4|0,0:1|0:0,0:0:0:0:
230,347,148059,1,4,0:3:0:0:
341,261,148264,1,0,0:0:0:0:
409,294,148367,2,0,P|459:289|494:254,1,100,4|0,0:3|0:0,0:0:0:0:
512,184,148675,2,0,B|516:115|516:115|492:74,1,100,4|0,0:3|0:0,0:0:0:0:
448,23,148982,21,4,0:1:0:0:
385,159,149187,1,0,0:0:0:0:
427,220,149290,1,4,0:3:0:0:
256,73,149598,1,0,0:0:0:0:
193,209,149803,1,0,0:0:0:0:
235,270,149905,1,4,0:3:0:0:
443,352,150213,5,0,0:0:0:0:
506,216,150418,1,0,0:0:0:0:
464,155,150521,1,4,0:3:0:0:
256,73,150828,1,0,0:0:0:0:
319,209,151034,1,0,0:0:0:0:
277,269,151136,1,4,0:3:0:0:
53,291,151444,6,0,L|39:173,1,100,0|0,0:0|0:0,0:0:0:0:
68,121,151752,2,0,P|116:120|167:161,1,100,4|0,0:3|0:0,0:0:0:0:
211,198,152059,2,0,P|252:226|302:224,1,100,0|0,0:0|0:0,0:0:0:0:
372,197,152367,2,0,L|383:296,1,100,4|0,0:3|0:0,0:0:0:0:
392,371,152675,5,0,0:0:0:0:
163,343,152982,2,0,L|152:244,1,100,4|0,0:3|0:0,0:0:0:0:
143,168,153290,1,4,0:3:0:0:
167,20,153495,1,0,0:0:0:0:
112,71,153598,1,4,0:3:0:0:
301,204,153905,38,0,P|374:220|427:271,1,150,4|4,0:1|0:3,0:0:0:0:
211,204,154521,2,0,P|130:224|81:279,1,150,0|4,0:0|0:3,0:0:0:0:
301,204,155136,2,0,P|374:189|427:138,1,150,0|4,0:0|0:3,0:0:0:0:
211,205,155752,2,0,P|139:189|86:138,1,150,0|4,0:0|0:3,0:0:0:0:
210,325,156367,6,0,P|256:341|302:324,1,100,4|4,0:3|0:3,0:0:0:0:
256,266,156675,1,0,0:0:0:0:
210,46,156982,2,0,P|256:29|302:46,1,100,4|0,0:3|0:0,0:0:0:0:
256,105,157290,1,4,0:3:0:0:
256,330,157598,5,4,0:3:0:0:
107,310,157803,1,0,0:0:0:0:
158,255,157905,2,0,P|183:213|165:137,1,100,4|0,0:3|0:0,0:0:0:0:
151,93,158213,1,4,0:3:0:0:
364,164,158521,22,0,L|382:130,2,25,2|0|0,0:0|0:0|0:0,0:0:0:0:
