osu file format v14

[General]
AudioFilename: audio.mp3
AudioLeadIn: 0
PreviewTime: 40367
Countdown: 0
SampleSet: Soft
StackLeniency: 0.7
Mode: 0
LetterboxInBreaks: 0
WidescreenStoryboard: 0

[Editor]
Bookmarks: 13598,23444,33290,43136,52982,55444,60367,70213,80059,89905,92367,102213,112059,121905,131751,136674,146521,148982,158828
DistanceSpacing: 1.2
BeatDivisor: 3
GridSize: 32
TimelineZoom: 1.2

[Metadata]
Title:Yubikiri
TitleUnicode:指切り
Artist:scop
ArtistUnicode:すこっぷ
Creator:Noffy
Version:Hard
Source:初音ミク -Project DIVA- F 2nd
Tags:Ayyri Vocaloid F2nd Hatsune Miku HELL YA TRAINS Pinky Promise Swear thousand needles Light and Shadow Love Songs 〜Girls Side〜 Days ~Best of Scop~ BALLOOM BEST Yuri ムラサキ Murasaki violet Purple Arcade Future Tone Sound Colorful Deluxe DX
BeatmapID:1346978
BeatmapSetID:634876

[Difficulty]
HPDrainRate:5
CircleSize:4
OverallDifficulty:6
ApproachRate:7.5
SliderMultiplier:1.5
SliderTickRate:1

[Events]
//Background and Video events
0,0,"yubki.jpg",0,0
Video,670,"prom.avi"
//Break Periods
2,13798,22236
//Storyboard Layer 0 (Background)
//Storyboard Layer 1 (Fail)
//Storyboard Layer 2 (Pass)
//Storyboard Layer 3 (Foreground)
//Storyboard Sound Samples

[TimingPoints]
3752,307.692307692308,4,2,1,100,1,0
43136,-100,4,2,1,100,0,1
55444,-100,4,2,1,100,0,0
80059,-100,4,2,1,100,0,1
92367,-100,4,2,1,100,0,0
112060,-125,4,2,1,100,0,0
121906,-117.647058823529,4,2,1,100,0,0
126829,-111.111111111111,4,2,1,100,0,0
129290,-105.263157894737,4,2,1,100,0,0
131752,-100,4,2,1,100,0,0
136675,-100,4,2,1,100,0,1
148982,-100,4,2,1,100,0,0

[Colours]
Combo1 : 193,9,55
Combo2 : 79,131,71
Combo3 : 113,152,159
Combo4 : 184,140,82
Combo5 : 139,98,157

[HitObjects]
345,52,3751,5,4,0:1:0:0:
325,171,3957,2,0,P|333:212|351:237,1,50,0|4,0:0|0:3,0:0:0:0:
190,113,4367,1,0,0:0:0:0:
210,232,4573,2,0,P|202:273|184:298,1,50,0|4,0:0|0:3,0:0:0:0:
37,198,4982,5,0,0:0:0:0:
47,77,5188,2,0,P|53:50|73:25,1,50,0|4,0:0|0:3,0:0:0:0:
227,109,5598,1,0,0:0:0:0:
348,99,5804,2,0,P|375:93|400:73,1,50,0|4,0:0|0:3,0:0:0:0:
406,259,6213,6,0,P|376:307|340:329,1,100,0|0,0:0|0:0,0:0:0:0:
282,347,6521,2,0,L|261:246,1,100,4|0,0:3|0:0,0:0:0:0:
206,227,6828,2,0,P|164:254|139:297,1,100,0|0,0:0|0:0,0:0:0:0:
83,318,7136,2,0,L|62:217,1,100,4|0,0:3|0:0,0:0:0:0:
47,161,7444,5,0,0:0:0:0:
154,17,7752,1,4,0:3:0:0:
265,61,7957,2,0,P|295:65|331:62,1,50,8|4,0:1|0:3,0:3:0:0:
346,180,8264,2,0,P|312:182|272:176,1,50,8|4,0:1|0:3,0:3:0:0:
127,122,8674,6,0,P|108:221|122:294,1,150,4|4,0:1|0:3,0:0:0:0:
285,328,9290,2,0,P|211:314|136:320,1,150,0|4,0:0|0:3,0:0:0:0:
312,280,9905,2,0,P|325:206|319:131,1,150,0|4,0:0|0:3,0:0:0:0:
148,72,10521,2,0,P|221:85|296:79,1,150,0|4,0:0|0:3,0:0:0:0:
464,15,11136,22,0,L|435:123,1,100,4|0,0:3|0:0,0:0:0:0:
418,168,11444,1,4,0:3:0:0:
275,277,11751,2,0,P|286:218|307:178,1,100,4|0,0:3|0:0,0:0:0:0:
337,132,12059,1,4,0:3:0:0:
507,191,12367,5,4,0:1:0:0:
476,13,12675,1,4,0:3:0:0:
356,23,12880,2,0,P|328:30|288:59,1,50,8|4,0:1|0:3,0:3:0:0:
242,139,13187,2,0,P|212:154|170:155,1,50,4|4,0:3|0:3,0:3:0:0:
31,82,13598,5,4,0:1:0:0:
157,148,23136,21,2,0:1:0:0:
295,32,23444,2,0,P|199:36|122:79,1,150,4|0,0:1|0:0,0:0:0:0:
51,125,23957,2,0,L|52:176,1,50,2|2,0:1|0:1,0:0:0:0:
181,300,24367,5,0,0:0:0:0:
334,206,24675,2,0,P|386:135|401:65,1,150,2|2,0:1|0:1,0:0:0:0:
286,37,25187,1,2,0:1:0:0:
261,91,25290,1,8,0:2:0:0:
88,38,25598,5,2,0:1:0:0:
56,214,25905,2,0,P|76:276|105:314,1,100,8|0,0:0|0:0,0:0:0:0:
155,309,26213,2,0,P|212:293|265:300,1,100,2|2,0:1|0:1,0:0:0:0:
300,259,26521,2,0,P|271:200|267:158,1,100,2|0,0:1|0:0,0:0:0:0:
265,106,26828,5,2,0:1:0:0:
438,156,27136,1,0,0:0:0:0:
338,305,27444,1,8,0:0:0:0:
222,271,27649,2,0,P|195:271|165:279,1,50,8|8,0:0|0:0,0:0:0:0:
12,357,28059,21,8,0:0:0:0:
49,180,28367,2,0,P|133:144|207:137,1,150,4|2,0:1|0:1,0:0:0:0:
300,185,28880,2,0,L|325:257,1,50,2|2,0:1|0:1,0:0:0:0:
489,180,29290,5,2,0:1:0:0:
376,319,29597,2,0,P|322:345|222:357,1,150,2|2,0:1|0:1,0:0:0:0:
123,308,30110,1,2,0:1:0:0:
90,359,30213,1,8,0:0:0:0:
105,179,30521,5,2,0:1:0:0:
284,172,30828,2,0,P|343:163|392:141,1,100,8|0,0:0|0:0,0:0:0:0:
430,114,31136,1,2,0:1:0:0:
251,87,31444,2,0,P|197:92|152:85,1,100,8|0,0:0|0:1,0:0:0:0:
94,69,31751,5,2,0:1:0:0:
15,231,32059,2,0,P|35:302|122:349,1,150,2|8,0:1|0:0,0:0:0:0:
215,339,32572,1,8,0:0:0:0:
186,285,32675,1,8,0:0:0:0:
460,115,33290,22,0,P|379:99|298:119,1,150,4|8,0:1|0:1,0:0:0:0:
384,277,33905,1,8,0:1:0:0:
508,147,34213,1,8,0:1:0:0:
395,6,34521,2,0,P|355:5|295:19,1,100,8|8,0:1|0:1,0:0:0:0:
248,53,34828,1,8,0:1:0:0:
237,172,35033,2,0,P|232:210|211:244,1,50,8|8,0:0|0:0,0:0:0:0:
58,157,35444,5,8,0:1:0:0:
153,309,35751,2,0,P|226:323|299:306,1,150,8|8,0:0|0:1,0:0:0:0:
455,217,36366,1,8,0:0:0:0:
370,57,36674,1,8,0:1:0:0:
273,208,36982,2,0,P|224:219|176:206,1,100,8|0,0:0|0:0,0:0:0:0:
124,177,37289,5,0,0:0:0:0:
261,59,37598,2,0,L|367:70,1,100,4|4,0:3|0:3,0:0:0:0:
418,55,37905,2,0,B|429:7,2,50,4|4|4,0:3|0:3|0:3,0:3:0:0:
463,95,38213,6,0,P|479:142|482:191,1,100,4|0,0:1|0:0,0:0:0:0:
475,251,38520,1,4,0:3:0:0:
320,344,38828,2,0,P|332:286|329:241,1,100,0|0,0:0|0:0,0:0:0:0:
314,189,39135,1,4,0:3:0:0:
211,40,39444,2,0,P|266:23|311:22,1,100
366,33,39751,1,4,0:3:0:0:
491,161,40059,1,0,0:0:0:0:
347,269,40367,22,0,P|357:291|378:310,2,50,8|8|8,0:1|0:1|0:1,0:0:0:0:
299,233,40674,2,0,B|226:215|220:241|136:234,1,150,4|4,0:1|0:3,0:0:0:0:
13,118,41290,2,0,B|86:136|92:110|176:117,1,150,0|4,0:0|0:3,0:0:0:0:
336,160,41905,6,0,P|385:163|434:152,1,100,4|4,0:3|0:3,3:0:0:0:
485,120,42213,1,4,0:3:0:0:
402,33,42418,2,0,P|351:21|210:48,1,150,4|4,0:3|0:3,0:0:0:0:
201,58,42828,1,0,0:0:0:0:
118,146,43034,1,4,0:3:0:0:
168,178,43136,38,0,P|231:181|286:151,1,100,4|0,0:1|0:0,0:0:0:0:
316,136,43444,2,0,L|411:192,1,100,4|0,0:3|0:0,0:0:0:0:
391,245,43751,2,0,P|382:288|399:357,1,100,4|0,0:3|0:0,0:0:0:0:
337,365,44059,2,0,L|240:310,1,100,4|0,0:3|0:0,0:0:0:0:
197,286,44367,1,4,0:3:0:0:
23,240,44674,21,4,0:3:0:0:
92,70,44982,1,0,0:0:0:0:
254,139,45290,1,4,0:3:0:0:
420,70,45598,2,0,P|458:100|484:154,1,100,4|0,0:3|0:0,0:0:0:0:
492,204,45906,1,4,0:3:0:0:
341,301,46213,2,0,P|352:242|373:202,1,100,4|0,0:3|0:0,0:0:0:0:
406,158,46521,1,4,0:3:0:0:
291,18,46829,5,4,0:3:0:0:
253,193,47136,1,4,0:3:0:0:
147,250,47341,2,0,P|137:224|135:184,1,50,8|4,0:1|0:3,0:0:0:0:
48,117,47649,2,0,P|56:89|58:50,1,50,8|4,0:1|0:3,0:0:0:0:
230,17,48059,5,4,0:1:0:0:
251,135,48264,1,0,0:0:0:0:
293,178,48367,2,0,P|347:205|401:209,1,100,4|0,0:3|0:0,0:0:0:0:
477,54,48880,1,0,0:0:0:0:
457,110,48982,2,0,P|442:165|451:216,1,100,4|0,0:3|0:0,0:0:0:0:
478,258,49290,5,4,0:1:0:0:
387,337,49495,1,0,0:0:0:0:
326,335,49598,2,0,P|277:322|236:295,1,100,4|0,0:3|0:0,0:0:0:0:
130,150,50110,1,0,0:0:0:0:
190,147,50213,2,0,P|232:167|280:208,1,100,4|0,0:3|0:0,0:0:0:0:
312,246,50521,21,4,0:1:0:0:
387,337,50726,1,0,0:0:0:0:
425,291,50828,2,0,P|441:246|446:188,1,100,4|0,0:3|0:0,0:0:0:0:
351,40,51341,1,0,0:0:0:0:
313,86,51444,2,0,L|296:193,1,100,4|0,0:3|0:0,0:0:0:0:
279,241,51751,6,0,P|241:271|183:279,1,100,4|4,0:3|0:3,0:0:0:0:
132,292,52059,2,0,L|131:357,2,50,4|4|4,0:3|0:3|0:3,0:0:0:0:
99,241,52367,5,4,0:3:0:0:
55,66,52674,1,4,0:3:0:0:
224,5,52982,2,0,P|297:-6|367:17,1,150,4|4,0:1|0:3,0:0:0:0:
444,181,53598,2,0,P|370:193|299:172,1,150,0|4,0:0|0:3,0:0:0:0:
142,82,54213,6,0,P|157:146|145:204,1,100,4|0,0:1|0:0,0:0:0:0:
135,236,54521,1,4,0:3:0:0:
182,346,54726,1,0,0:0:0:0:
238,365,54828,2,0,P|287:364|335:340,1,100,4|0,0:3|0:0,0:0:0:0:
373,298,55136,2,0,P|368:249|376:190,1,100,4|0,0:3|0:0,0:0:0:0:
387,140,55444,22,0,P|356:129|308:79,1,100,4|0,0:1|0:0,0:0:0:0:
282,28,55751,2,0,P|232:23|185:40,1,100,4|0,0:3|0:0,0:0:0:0:
154,91,56059,2,0,P|149:140|124:183,1,100,8|0,0:0|0:0,0:0:0:0:
114,242,56366,2,0,P|166:253|222:245,1,100,4|0,0:3|0:0,0:0:0:0:
272,243,56674,6,0,P|325:238|375:214,1,100,8|0,0:0|0:0,0:0:0:0:
345,165,56981,2,0,P|317:123|308:75,1,100,4|0,0:3|0:0,0:0:0:0:
351,32,57290,2,0,P|400:39|448:28,1,100,8|0,0:0|0:0,0:0:0:0:
504,51,57597,2,0,P|501:100|484:147,1,100,4|0,0:3|0:0,0:0:0:0:
454,200,57905,6,0,L|465:349,1,150,8|4,0:0|0:3,0:0:0:0:
323,274,58521,2,0,L|333:124,1,150,8|4,0:0|0:3,0:0:0:0:
162,69,59136,1,8,0:1:0:0:
162,69,60059,21,8,0:1:0:0:
83,231,60367,1,4,0:1:0:0:
218,348,60674,2,0,B|194:292|227:292|224:243,1,100,8|0,0:3|0:0,0:0:0:0:
213,192,60982,1,4,0:3:0:0:
90,60,61290,5,0,0:0:0:0:
269,80,61598,2,0,P|348:79|437:42,1,150,0|8,0:0|0:1,0:0:0:0:
455,168,62110,1,0,0:0:0:0:
432,224,62213,1,4,0:3:0:0:
300,347,62521,5,8,0:1:0:0:
122,319,62828,2,0,P|105:263|120:205,1,100,8|0,0:1|0:0,0:0:0:0:
171,215,63136,2,0,L|220:115,1,100,8|0,0:1|0:0,0:0:0:0:
265,158,63444,2,0,P|314:179|361:147,1,100,2|0,0:0|0:0,0:0:0:0:
394,116,63751,5,2,0:0:0:0:
495,264,64059,1,8,0:1:0:0:
347,367,64367,1,0,0:0:0:0:
258,286,64572,2,0,P|243:255|243:221,1,50,0|4,0:0|0:3,0:0:0:0:
267,61,64982,21,0,0:0:0:0:
372,208,65290,1,4,0:1:0:0:
191,205,65598,2,0,B|135:229|135:196|94:198,1,100,8|0,0:3|0:0,0:0:0:0:
36,211,65905,1,4,0:3:0:0:
93,40,66213,5,0,0:0:0:0:
272,46,66521,2,0,P|270:121|251:195,1,150,0|8,0:0|0:1,0:0:0:0:
206,306,67033,1,0,0:0:0:0:
251,346,67136,2,0,P|300:367|347:335,1,100,2|0,0:0|0:0,0:0:0:0:
379,303,67444,5,2,0:0:0:0:
419,128,67751,2,0,P|400:61|383:34,1,100,8|0,0:1|0:0,0:0:0:0:
335,1,68059,1,8,0:1:0:0:
257,161,68367,2,0,P|256:231|269:276,1,100,4|0,0:3|0:0,0:0:0:0:
274,318,68675,1,8,0:1:0:0:
423,218,68982,5,8,0:1:0:0:
384,35,69290,1,4,0:3:0:0:
464,123,69495,2,0,P|467:150|463:179,1,50,0|4,0:0|0:3,0:0:0:0:
404,342,69905,1,4,0:3:0:0:
223,336,70213,22,0,P|147:303|104:248,1,150,4|8,0:1|0:1,0:0:0:0:
59,77,70828,1,8,0:1:0:0:
19,252,71136,1,8,0:1:0:0:
173,159,71444,2,0,P|233:151|283:161,1,100,8|8,0:1|0:1,0:0:0:0:
328,175,71751,1,8,0:1:0:0:
440,216,71956,2,0,P|435:179|448:140,1,50,8|8,0:0|0:0,0:0:0:0:
512,336,72367,5,8,0:1:0:0:
332,331,72674,2,0,P|251:347|170:327,1,150,8|8,0:0|0:1,0:0:0:0:
39,229,73289,1,8,0:0:0:0:
127,71,73597,1,8,0:1:0:0:
202,234,73905,2,0,P|251:245|299:232,1,100,8|0,0:0|0:0,0:0:0:0:
352,207,74212,5,0,0:0:0:0:
500,103,74521,2,0,L|482:216,1,100,4|4,0:3|0:3,0:0:0:0:
480,261,74828,2,0,B|518:309,2,50,4|4|4,0:3|0:3|0:3,0:0:0:0:
435,301,75136,6,0,P|396:332|351:351,1,100,4|0,0:1|0:0,0:0:0:0:
292,360,75443,1,4,0:3:0:0:
123,296,75751,2,0,P|181:292|224:278,1,100,0|0,0:0|0:0,0:0:0:0:
271,249,76058,1,4,0:3:0:0:
335,80,76367,2,0,P|296:111|251:130,1,100,0|0,0:0|0:0,0:0:0:0:
192,139,76674,1,4,0:3:0:0:
64,12,76982,1,0,0:0:0:0:
53,191,77290,22,0,P|28:186|7:173,2,50,8|8|8,0:1|0:1|0:1,0:0:0:0:
112,197,77597,2,0,B|118:266|92:272|110:345,1,150,4|4,0:1|0:3,0:0:0:0:
255,238,78213,2,0,B|273:165|247:159|254:89,1,150,0|4,0:0|0:3,0:0:0:0:
425,33,78828,6,0,P|448:75|462:124,1,100,4|4,0:3|0:3,0:0:0:0:
472,184,79136,1,4,0:3:0:0:
360,191,79341,2,0,P|369:265|339:348,1,150,4|4,0:3|0:3,0:0:0:0:
301,376,79752,1,4,0:3:0:0:
181,374,79957,1,0,0:0:0:0:
124,359,80059,38,0,P|87:333|54:286,1,100,4|0,3:1|3:0,3:0:0:0:
37,231,80367,2,0,L|37:125,1,100,4|0,3:3|3:0,3:0:0:0:
58,75,80674,2,0,P|85:116|124:147,1,100,4|0,0:3|3:0,3:0:0:0:
182,165,80982,2,0,L|182:280,1,100,4|4,3:3|3:3,3:0:0:0:
182,325,81290,1,4,3:3:0:0:
359,353,81598,21,4,0:3:0:0:
317,177,81906,1,0,0:0:0:0:
406,18,82214,1,4,0:3:0:0:
472,185,82522,2,0,P|476:232|465:297,1,100,4|0,0:3|0:0,0:0:0:0:
456,343,82828,1,4,0:3:0:0:
339,207,83136,2,0,P|332:157|336:107,1,100,4|0,0:3|0:0,0:0:0:0:
345,47,83445,1,4,0:3:0:0:
488,153,83751,5,4,0:3:0:0:
443,327,84059,1,4,0:3:0:0:
326,299,84264,2,0,P|300:301|265:313,1,50,8|4,0:1|0:3,0:3:0:0:
156,297,84572,2,0,P|132:286|103:262,1,50,8|4,3:1|3:3,3:3:0:0:
101,91,84983,5,4,0:1:0:0:
190,11,85188,1,0,0:0:0:0:
235,50,85291,2,0,L|320:117,1,100,4|0,0:3|0:0,0:0:0:0:
449,229,85803,1,0,0:0:0:0:
398,262,85906,2,0,P|340:257|302:235,1,100,4|0,0:3|0:0,0:0:0:0:
258,198,86214,5,4,0:1:0:0:
167,120,86418,1,0,0:0:0:0:
107,130,86521,2,0,P|58:165|33:204,1,100,4|0,0:3|0:0,0:0:0:0:
61,376,87033,1,0,0:0:0:0:
116,352,87136,2,0,P|160:312|182:271,1,100,4|0,0:3|0:0,0:0:0:0:
201,220,87445,21,4,0:1:0:0:
316,216,87649,1,0,0:0:0:0:
336,273,87751,2,0,P|374:323|416:350,1,100,4|0,0:3|0:0,0:0:0:0:
494,188,88265,1,0,0:0:0:0:
468,133,88368,2,0,L|416:28,1,100,4|0,0:3|0:0,0:0:0:0:
364,39,88675,6,0,P|317:58|288:98,1,100,4|4,0:3|0:3,0:0:0:0:
272,155,88983,2,0,L|297:206,2,50,4|4|0,0:3|0:3|0:0,0:0:0:0:
213,167,89291,5,4,0:3:0:0:
147,333,89598,1,4,0:3:0:0:
77,166,89906,2,0,P|66:93|89:23,1,150,4|4,0:1|0:3,0:0:0:0:
248,108,90522,2,0,P|260:182|239:253,1,150,0|4,0:0|0:3,0:0:0:0:
73,323,91137,6,0,P|146:315|195:330,1,100,4|0,0:1|0:0,0:0:0:0:
228,337,91445,1,4,0:3:0:0:
339,381,91650,1,0,0:0:0:0:
381,340,91751,2,0,P|400:294|404:244,1,100,4|0,0:3|0:0,0:0:0:0:
391,185,92059,2,0,P|341:187|287:161,1,100,4|0,0:3|0:0,0:0:0:0:
243,137,92367,53,4,0:1:0:0:
168,42,92572,2,0,L|151:89,1,50,2|8,0:0|0:1,0:0:0:0:
34,116,92880,2,0,L|66:153,1,50,8|2,0:1|0:0,0:0:0:0:
36,269,93187,2,0,L|85:259,1,50,2|8,0:0|0:1,0:0:0:0:
186,324,93495,1,8,0:1:0:0:
237,355,93598,38,0,P|297:363|338:325,1,100,2|8,0:0|0:1,0:0:0:0:
390,241,94008,2,0,P|418:234|443:234,1,50,8|8,0:1|0:1,0:0:0:0:
497,221,94213,2,0,L|529:183,3,50,2|2|2|8,0:0|0:0|0:0|0:1,0:0:0:0:
452,90,94726,1,2,0:0:0:0:
406,50,94828,22,0,P|361:27|316:62,1,100,8|8,0:1|0:1,0:0:0:0:
263,33,95136,2,0,P|235:75|179:67,1,100,2|2,0:0|0:0,0:0:0:0:
174,133,95444,2,0,P|127:150|118:197,1,100,8|8,0:1|0:1,0:0:0:0:
67,227,95751,2,0,P|72:274|36:305,1,100,2|2,0:0|0:0,0:0:0:0:
79,346,96059,38,0,B|136:362|136:337|195:347,1,100,8|8,0:1|0:1,0:0:0:0:
237,351,96367,1,2,0:0:0:0:
338,286,96572,2,0,P|359:298|397:309,1,50,8|2,0:1|0:0,0:0:0:0:
503,312,96880,1,8,0:1:0:0:
475,259,96982,1,2,0:0:0:0:
478,139,97187,1,8,0:1:0:0:
448,86,97290,37,4,0:1:0:0:
195,145,97905,2,0,B|167:162|149:214|149:214|197:215,2,100,8|8|8,0:1|0:1|0:1,0:0:0:0:
316,145,98521,2,0,B|344:162|362:214|362:214|314:215,2,100,2|2|2,0:0|0:0|0:0,0:0:0:0:
256,41,99136,1,8,0:1:0:0:
256,221,99444,2,0,L|256:347,1,100,2|2,0:0|0:0,0:0:0:0:
375,321,99854,22,0,P|394:331|429:335,2,50,8|8|8,0:1|0:1|0:1,0:0:0:0:
431,215,100264,1,2,0:0:0:0:
472,171,100367,2,0,P|483:126|463:64,1,100,8|8,0:1|0:1,0:0:0:0:
428,31,100674,2,0,P|380:46|332:37,1,100,2|2,0:0|0:0,0:0:0:0:
277,12,100982,22,0,P|260:85|273:162,1,150,4|4,0:1|0:3,0:0:0:0:
327,264,101495,1,8,0:1:0:0:
301,318,101598,1,4,0:3:0:0:
26,85,102213,21,4,0:1:0:0:
158,207,102521,1,4,0:3:0:0:
140,28,102828,2,0,B|203:88|203:88|279:88,1,150,8|4,0:0|0:3,0:0:0:0:
366,21,103341,22,0,P|396:88|367:155,1,150
315,184,103751,2,0,L|315:286,1,100,4|4,0:3|0:3,0:0:0:0:
283,335,104059,2,0,P|224:308|171:226,1,150,8|4,0:0|0:3,0:0:0:0:
315,126,104674,38,0,L|315:26,1,100,8|0,0:0|0:0,0:0:0:0:
258,5,104982,2,0,P|214:23|184:77,1,100,4|0,0:3|0:0,0:0:0:0:
189,125,105290,2,0,B|198:187|198:187|191:231,1,100,8|0,0:0|0:0,0:0:0:0:
185,283,105598,2,0,P|232:323|302:322,1,100,4|0,0:3|0:0,0:0:0:0:
327,319,105905,21,8,0:0:0:0:
323,138,106213,2,0,L|315:86,2,50,4|0|4,0:3|0:0|0:3,0:0:0:0:
347,193,106521,2,0,P|423:202|493:250,1,150,4|4,0:3|0:3,0:0:0:0:
327,319,107136,38,0,B|264:329|264:329|226:316,1,100,4|0,0:1|0:0,0:0:0:0:
181,281,107444,2,0,P|186:234|166:185,1,100,4|0,0:3|0:0,0:0:0:0:
136,134,107751,2,0,B|199:124|199:124|233:135,1,100,8|0,0:0|0:0,0:0:0:0:
290,153,108059,2,0,P|305:108|344:72,1,100,4|0,0:3|0:0,0:0:0:0:
400,91,108367,22,0,B|415:131|415:131|487:131,1,100,8|0,0:0|0:0,0:0:0:0:
507,179,108674,2,0,B|492:219|492:219|420:219,1,100,4|0,0:3|0:0,0:0:0:0:
431,279,108982,2,0,B|416:319|416:319|348:311|348:311|302:319,1,150,8|4,0:0|0:3,0:0:0:0:
128,334,109598,38,0,P|71:315|41:260,2,100,8|0|0,0:0|0:0|0:0,0:0:0:0:
147,215,110213,2,0,B|126:185|126:185|134:97,2,100,8|0|0,0:0|0:0|0:0,0:0:0:0:
238,292,110828,21,4,0:1:0:0:
401,366,111136,1,2,0:1:0:0:
461,262,111341,2,0,P|479:230|487:195,1,50,2|2,0:1|0:1,0:1:0:0:
483,96,111649,2,0,P|474:72|460:51,1,50,2|2,0:1|0:1,0:1:0:0:
286,34,112059,37,4,0:1:0:0:
305,176,112367,2,0,P|309:246|295:311,1,120,2|0,0:0|0:0,0:0:0:0:
178,372,112982,1,2,0:0:0:0:
193,277,113187,1,2,0:0:0:0:
36,165,113598,2,0,P|26:115|38:45,2,120,2|2|2,0:0|0:0|0:0,0:0:0:0:
122,280,114521,53,2,0:0:0:0:
260,242,114828,1,2,0:0:0:0:
399,277,115136,1,2,0:0:0:0:
466,149,115444,1,2,0:0:0:0:
387,94,115649,1,2,0:0:0:0:
342,76,115751,2,0,P|281:65|216:82,1,120,2|2,0:0|0:0,0:0:0:0:
129,186,116367,2,0,P|187:173|245:184,1,120,2|2,0:0|0:0,0:0:0:0:
384,222,116982,5,2,0:0:0:0:
453,95,117290,2,0,P|477:149|485:208,1,120,2|2,0:0|0:0,0:0:0:0:
464,351,117905,1,2,0:0:0:0:
369,368,118110,1,2,0:0:0:0:
188,301,118521,2,0,B|114:283|137:327|52:301,2,120,2|2|2,0:0|0:0|0:0,0:0:0:0:
326,341,119444,53,2,0:0:0:0:
283,203,119751,1,2,0:0:0:0:
343,72,120059,1,2,0:0:0:0:
198,70,120367,1,2,0:0:0:0:
135,142,120572,1,2,0:0:0:0:
113,186,120674,2,0,P|100:244|111:302,1,120,2|2,0:0|0:0,0:0:0:0:
238,371,121290,2,0,P|251:312|239:254,1,120,2|2,0:0|0:0,0:0:0:0:
163,132,121905,5,4,0:1:0:0:
306,186,122213,2,0,P|369:184|428:150,1,127.50000243187,2|2,0:1|0:1,0:0:0:0:
324,37,122828,1,2,0:0:0:0:
262,118,123033,1,2,0:0:0:0:
142,283,123444,2,0,P|195:316|258:322,2,127.50000243187,2|2|2,0:0|0:0|0:0,0:0:0:0:
47,162,124367,54,0,P|89:170|141:161,1,85.0000016212464,2|0,0:0|0:0,0:0:0:0:
176,142,124674,1,2,0:0:0:0:
254,10,124982,1,2,0:0:0:0:
397,65,125290,1,2,0:0:0:0:
428,162,125495,1,2,0:0:0:0:
378,170,125597,2,0,P|333:193|303:274,1,127.50000243187,2|2,0:0|0:0,0:0:0:0:
405,375,126213,2,0,P|416:325|373:250,1,127.50000243187,2|2,0:0|0:0,0:0:0:0:
222,245,126828,5,2,0:0:0:0:
68,191,127136,1,8,0:0:0:0:
19,36,127444,1,2,0:0:0:0:
170,93,127751,1,8,0:0:0:0:
259,31,127957,1,2,0:0:0:0:
303,60,128059,2,0,P|340:79|394:79,1,89.999997253418,2|0,0:0|0:0,0:0:0:0:
438,62,128367,2,0,P|444:115|469:158,1,89.999997253418,8|0,0:0|0:0,0:0:0:0:
486,194,128674,2,0,P|422:215|382:267,1,134.999995880127,2|8,0:0|0:0,0:0:0:0:
217,316,129290,54,0,P|205:256|214:213,1,94.9999974632264,2|0,0:0|0:0,0:0:0:0:
222,167,129598,2,0,P|166:157|115:171,1,94.9999974632264,8|0,0:0|0:0,0:0:0:0:
73,176,129905,2,0,P|65:129|72:82,1,94.9999974632264,2|0,0:0|0:0,0:0:0:0:
93,29,130213,1,8,0:0:0:0:
262,2,130521,1,4,0:0:0:0:
262,2,131136,1,8,0:1:0:0:
366,344,131752,6,0,P|417:314|442:269,1,100,4|0,0:1|0:0,0:0:0:0:
462,225,132059,2,0,P|429:184|422:124,1,100,4|0,0:3|0:0,0:0:0:0:
374,100,132367,2,0,P|339:135|291:149,1,100,8|0,0:0|0:0,0:0:0:0:
232,153,132674,2,0,P|231:103|207:60,1,100,4|0,0:3|0:0,0:0:0:0:
147,52,132982,6,0,P|104:93|92:161,1,100,8|0,0:0|0:0,0:0:0:0:
110,187,133290,2,0,P|117:252|96:301,1,100,4|0,0:3|0:0,0:0:0:0:
100,343,133598,2,0,P|155:362|217:357,1,100,8|0,0:0|0:0,0:0:0:0:
219,307,133905,2,0,P|232:259|264:221,1,100,4|0,0:3|0:0,0:0:0:0:
316,192,134213,6,0,L|352:356,1,150,4|4,0:1|0:3,0:0:0:0:
440,182,134828,2,0,L|451:29,1,150,4|4,0:1|0:3,0:0:0:0:
284,102,135444,6,0,P|209:106|139:81,1,150,4|4,0:1|0:3,0:0:0:0:
306,11,136059,2,0,P|380:6|450:31,1,150,4|4,0:1|0:3,0:0:0:0:
441,207,136674,6,0,P|378:214|333:185,1,100,4|0,0:1|0:0,0:0:0:0:
361,140,136982,2,0,P|338:183|294:206,1,100,4|0,0:3|0:0,0:0:0:0:
245,170,137290,2,0,P|271:212|269:262,1,100,4|0,0:3|0:0,0:0:0:0:
214,285,137598,2,0,P|264:283|306:309,1,100,4|4,0:3|0:3,0:0:0:0:
341,355,137905,1,4,0:3:0:0:
473,256,138213,21,4,0:3:0:0:
420,70,138521,1,0,0:0:0:0:
256,146,138829,1,4,0:3:0:0:
92,70,139137,2,0,P|54:100|28:154,1,100,4|0,0:3|0:0,0:0:0:0:
20,204,139445,1,4,0:3:0:0:
171,301,139752,2,0,P|160:242|139:202,1,100,4|0,0:3|0:0,0:0:0:0:
106,158,140060,1,4,0:3:0:0:
221,18,140368,5,4,0:3:0:0:
399,39,140675,1,4,0:3:0:0:
474,131,140880,2,0,P|479:163|471:207,1,50,8|4,0:1|0:3,0:0:0:0:
412,280,141187,2,0,P|404:261|398:214,1,50,8|4,0:1|0:3,0:0:0:0:
292,85,141598,5,4,0:1:0:0:
169,83,141803,1,0,0:0:0:0:
167,143,141906,2,0,P|178:197|208:240,1,100,4|0,0:3|0:0,0:0:0:0:
340,348,142419,1,0,0:0:0:0:
365,294,142521,2,0,P|407:239|455:218,1,100,4|0,0:3|0:0,0:0:0:0:
490,207,142829,5,4,0:1:0:0:
466,89,143034,1,0,0:0:0:0:
405,89,143137,2,0,P|355:79|315:49,1,100,4|0,0:3|0:0,0:0:0:0:
221,202,143649,1,0,0:0:0:0:
184,153,143752,2,0,P|152:129|91:108,1,100,4|0,0:3|0:0,0:0:0:0:
35,114,144060,21,4,0:1:0:0:
39,233,144265,1,0,0:0:0:0:
65,286,144367,2,0,P|103:314|160:333,1,100,4|0,0:3|0:0,0:0:0:0:
328,371,144880,1,0,0:0:0:0:
344,313,144983,2,0,L|365:202,1,100,4|0,0:3|0:0,0:0:0:0:
372,155,145290,6,0,P|343:113|272:87,1,100,4|4,0:3|0:3,0:0:0:0:
241,79,145598,2,0,L|232:29,2,50,4|4|4,0:3|0:3|0:3,0:0:0:0:
219,135,145906,5,4,0:3:0:0:
117,282,146213,1,4,0:3:0:0:
60,112,146521,2,0,P|99:48|164:13,1,150,4|4,0:1|0:3,0:0:0:0:
348,13,147136,2,0,P|411:47|452:113,1,150,0|4,0:0|0:3,0:0:0:0:
423,286,147751,6,0,P|389:322|343:342,1,100,4|0,0:1|0:0,0:0:0:0:
293,309,148060,1,4,0:3:0:0:
163,288,148265,1,0,0:0:0:0:
107,307,148367,2,0,P|63:259|49:201,1,100,4|0,0:3|0:0,0:0:0:0:
85,177,148675,2,0,P|92:127|118:85,1,100,4|0,0:3|0:0,0:0:0:0:
167,52,148982,5,4,0:1:0:0:
187,171,149188,2,0,P|179:212|161:237,1,50,0|4,0:0|0:3,0:0:0:0:
322,113,149598,1,0,0:0:0:0:
302,232,149804,2,0,P|310:273|328:298,1,50,0|4,0:0|0:3,0:0:0:0:
470,191,150213,5,0,0:0:0:0:
481,71,150418,2,0,P|452:71|405:87,1,50,0|4,0:0|0:3,0:0:0:0:
259,129,150829,1,0,0:0:0:0:
188,30,151033,2,0,P|163:48|140:90,1,50,0|4,0:0|0:3,0:0:0:0:
41,206,151444,6,0,L|133:251,1,100,0|0,0:0|0:0,0:0:0:0:
187,273,151752,2,0,P|208:228|247:197,1,100,4|0,0:3|0:0,0:0:0:0:
305,213,152059,2,0,L|400:260,1,100,0|0,0:0|0:0,0:0:0:0:
450,280,152367,2,0,P|482:243|495:195,1,100,4|0,0:3|0:0,0:0:0:0:
492,134,152675,5,0,0:0:0:0:
358,12,152983,1,4,0:3:0:0:
242,45,153188,2,0,P|212:49|176:46,1,50,8|4,0:1|0:3,0:3:0:0:
161,164,153495,2,0,P|195:166|235:160,1,50,8|4,0:1|0:3,0:3:0:0:
385,122,153905,22,0,P|404:221|390:294,1,150,4|4,0:1|0:3,0:0:0:0:
227,328,154521,2,0,P|301:314|376:320,1,150,0|4,0:0|0:3,0:0:0:0:
200,280,155136,2,0,P|187:206|193:131,1,150,0|4,0:0|0:3,0:0:0:0:
364,72,155752,2,0,P|291:85|216:79,1,150,0|4,0:0|0:3,0:0:0:0:
39,43,156367,6,0,L|48:142,1,100,4|4,0:3|0:3,0:0:0:0:
57,202,156675,1,0,0:0:0:0:
145,358,156982,2,0,L|162:248,1,100,4|0,0:3|0:0,0:0:0:0:
173,200,157290,1,4,0:3:0:0:
201,22,157598,5,4,0:3:0:0:
316,52,157803,1,0,0:0:0:0:
369,24,157905,2,0,P|414:18|472:35,1,100,4|0,0:3|0:0,0:0:0:0:
510,73,158213,1,4,0:3:0:0:
351,159,158521,21,2,0:0:0:0:
