osu file format v14

[General]
AudioFilename: audio.mp3
AudioLeadIn: 0
PreviewTime: 40367
Countdown: 0
SampleSet: Soft
StackLeniency: 0.4
Mode: 0
LetterboxInBreaks: 0
WidescreenStoryboard: 0

[Editor]
Bookmarks: 3752,13599,23445,33291,40675,48060,55445,60368,70214,77599,84983,92368,97291,102214,112060,121906,131752,141599,148983,158522
DistanceSpacing: 1.1
BeatDivisor: 3
GridSize: 32
TimelineZoom: 4.599998

[Metadata]
Title:Yubikiri
TitleUnicode:指切り
Artist:scop
ArtistUnicode:すこっぷ
Creator:Noffy
Version:Ayyri's Promise
Source:初音ミク -Project DIVA- F 2nd
Tags:Ayyri Vocaloid F2nd Hatsune Miku HELL YA TRAINS Pinky Promise Swear thousand needles Light and Shadow Love Songs 〜Girls Side〜 Days ~Best of Scop~ BALLOOM BEST Yuri ムラサキ Murasaki violet Purple Arcade Future Tone Sound Colorful Deluxe DX
BeatmapID:1346976
BeatmapSetID:634876

[Difficulty]
HPDrainRate:7
CircleSize:4
OverallDifficulty:8
ApproachRate:9
SliderMultiplier:1.5
SliderTickRate:1

[Events]
//Background and Video events
0,0,"Yubikiri.(VOCALOID).full.1763612.jpg",0,0
Video,670,"prom.avi"
//Break Periods
2,13798,21598
//Storyboard Layer 0 (Background)
//Storyboard Layer 1 (Fail)
//Storyboard Layer 2 (Pass)
//Storyboard Layer 3 (Foreground)
//Storyboard Sound Samples

[TimingPoints]
3752,307.692307692308,4,2,1,100,1,0
43136,-100,4,2,1,100,0,1
43239,-100,4,2,1,100,0,0
43444,-66.6666666666667,4,2,1,100,0,1
43546,-66.6666666666667,4,2,1,100,0,0
43752,-50,4,2,1,100,0,1
43854,-50,4,2,1,100,0,0
44059,-40,4,2,1,100,0,1
44162,-40,4,2,1,100,0,0
44367,-33.3333333333333,4,2,1,100,0,1
44469,-33.3333333333333,4,2,1,100,0,0
44675,-100,4,2,1,100,0,0
48059,-100,4,2,1,100,0,1
55444,-100,4,2,1,100,0,0
69905,-50,4,2,1,100,0,0
70213,-100,4,2,1,100,0,0
80059,-100,4,2,1,100,0,1
80162,-100,4,2,1,100,0,0
80367,-66.6666666666667,4,2,1,100,0,1
80469,-66.6666666666667,4,2,1,100,0,0
80675,-50,4,2,1,100,0,1
80777,-50,4,2,1,100,0,0
80982,-40,4,2,1,100,0,1
81085,-40,4,2,1,100,0,0
81290,-33.3333333333333,4,2,1,100,0,1
81393,-33.3333333333333,4,2,1,100,0,0
81599,-100,4,2,1,100,0,0
84982,-100,4,2,1,100,0,1
92367,-100,4,2,1,100,0,0
112059,-125,4,2,1,100,0,0
121905,-117.647058823529,4,2,1,100,0,0
126828,-111.111111111111,4,2,1,100,0,0
129290,-105.263157894737,4,2,1,100,0,0
131752,-100,4,2,1,100,0,0
136675,-100,4,2,1,100,0,1
136777,-100,4,2,1,100,0,0
136982,-66.6666666666667,4,2,1,100,0,1
137085,-66.6666666666667,4,2,1,100,0,0
137290,-50,4,2,1,100,0,1
137393,-50,4,2,1,100,0,0
137598,-40,4,2,1,100,0,1
137700,-40,4,2,1,100,0,0
137905,-33.3333333333333,4,2,1,100,0,1
138008,-33.3333333333333,4,2,1,100,0,0
138213,-100,4,2,1,100,0,0
141598,-100,4,2,1,100,0,1
148982,-100,4,2,1,100,0,0
158521,-100,4,2,1,100,0,1
158623,-100,4,2,1,100,0,0

[Colours]
Combo1 : 193,9,55
Combo2 : 44,148,90
Combo3 : 91,174,181
Combo4 : 235,203,160
Combo5 : 194,117,210

[HitObjects]
345,52,3751,5,4,0:1:0:0:
325,171,3957,2,0,P|333:212|351:237,1,50,0|4,0:0|0:3,0:0:0:0:
190,113,4367,1,0,0:0:0:0:
210,232,4572,2,0,P|202:273|184:298,1,50,0|4,0:0|0:3,0:0:0:0:
37,198,4982,5,0,0:0:0:0:
47,77,5187,2,0,P|53:50|73:25,1,50,0|4,0:0|0:3,0:0:0:0:
37,198,5598,1,0,0:0:0:0:
63,316,5803,2,0,P|70:340|85:360,1,50,0|4,0:0|0:3,0:0:0:0:
256,307,6213,6,0,P|308:308|367:350,1,100
396,292,6521,2,0,P|388:240|421:175,1,100,4|0,0:3|0:0,0:0:0:0:
357,152,6828,2,0,P|311:171|261:167,1,100,0|0,0:0|0:0,0:0:0:0:
224,214,7136,2,0,P|249:256|254:319,1,100,4|0,0:3|0:0,0:0:0:0:
238,363,7444,5,0,0:0:0:0:
59,378,7752,2,0,P|33:335|29:286,1,100,4|0,0:3|0:0,0:0:0:0:
46,229,8059,1,4,0:3:0:0:
163,207,8264,1,0,0:0:0:0:
179,150,8367,2,0,P|175:100|149:58,1,100,4|0,0:3|0:0,0:0:0:0:
121,5,8675,6,0,P|205:17|264:-8,1,150,4|4,0:1|0:3,0:0:0:0:
396,114,9290,2,0,P|312:102|253:127,1,150,0|4,0:0|0:3,0:0:0:0:
272,305,9905,2,0,P|356:317|415:292,1,150,0|4,0:0|0:3,0:0:0:0:
247,221,10521,2,0,P|177:195|104:208,1,150,0|4,0:0|0:3,0:0:0:0:
0,243,11034,21,0,0:0:0:0:
16,300,11136,2,0,P|49:345|93:368,1,100,4|0,0:3|0:0,0:0:0:0:
144,382,11444,1,4,0:3:0:0:
175,205,11752,2,0,P|208:160|252:137,1,100,4|0,0:3|0:0,0:0:0:0:
303,123,12059,1,4,0:3:0:0:
372,289,12367,5,4,0:1:0:0:
274,359,12572,1,0,0:0:0:0:
215,370,12675,2,0,P|151:369|113:357,1,100,4|0,0:3|0:0,0:0:0:0:
74,316,12982,2,0,P|55:262|59:206,1,100,4|4,0:3|0:3,0:0:0:0:
67,160,13290,1,4,0:3:0:0:
148,71,13495,5,4,0:3:0:0:
187,116,13598,1,4,0:1:0:0:
96,96,23136,21,2,0:1:0:0:
198,244,23444,2,0,P|258:261|360:245,1,150,4|0,0:1|0:0,0:0:0:0:
444,185,23957,2,0,P|451:164|455:125,1,50,2|2,0:1|0:1,0:0:0:0:
454,136,24367,5,0,0:0:0:0:
344,251,24675,2,0,P|270:262|198:244,1,150,2|2,0:1|0:1,0:0:0:0:
98,192,25187,2,0,P|91:171|87:132,1,50,2|8,0:1|0:2,0:0:0:0:
88,38,25598,5,2,0:1:0:0:
18,203,25905,2,0,P|27:251|53:301,1,100,8|0,0:0|0:0,0:0:0:0:
108,313,26213,2,0,P|156:303|206:277,1,100,2|2,0:1|0:1,0:0:0:0:
261,283,26521,2,0,P|305:305|354:315,1,100,2|0,0:1|0:0,0:0:0:0:
414,316,26828,1,2,0:1:0:0:
438,156,27136,5,0,0:0:0:0:
354,315,27444,1,8,0:0:0:0:
201,280,27649,2,0,P|177:289|156:302,1,50,8|8,0:0|0:0,0:0:0:0:
64,369,28059,21,8,0:0:0:0:
28,192,28367,2,0,P|57:140|48:38,1,150,4|2,0:1|0:1,0:0:0:0:
159,233,28880,2,0,P|143:213|132:191,1,50,2|2,0:1|0:1,0:0:0:0:
294,307,29290,5,2,0:1:0:0:
484,192,29598,2,0,P|455:140|464:38,1,150,2|2,0:1|0:1,0:0:0:0:
353,233,30110,2,0,P|368:213|379:191,1,50,2|8,0:1|0:0,0:0:0:0:
294,307,30521,5,2,0:1:0:0:
180,162,30828,2,0,P|217:118|223:74,1,100,8|0,0:0|0:0,0:0:0:0:
292,77,31136,2,0,P|301:125|335:161,1,100,2|2,0:1|0:1,0:0:0:0:
335,222,31444,2,0,P|301:258|292:307,1,100,8|0,0:0|0:1,0:0:0:0:
223,306,31752,2,0,P|213:258|180:222,1,100,2|0,0:1|0:0,0:0:0:0:
123,246,32059,6,0,P|55:295|-14:288,1,150,2|8,0:1|0:0,0:0:0:0:
33,196,32572,2,0,P|27:158|34:124,1,50,8|8,0:0|0:0,0:0:0:0:
388,245,33290,22,0,P|446:291|519:290,1,150,4|8,0:1|0:1,0:0:0:0:
478,196,33905,1,8,0:1:0:0:
347,344,34213,1,8,0:1:0:0:
368,165,34521,2,0,P|333:129|286:112,1,100,8|8,0:1|0:1,0:0:0:0:
227,110,34828,1,8,0:1:0:0:
173,217,35034,2,0,P|145:243|108:257,1,50,8|8,0:0|0:0,0:0:0:0:
286,112,35444,5,8,0:1:0:0:
333,285,35752,2,0,P|377:315|400:360,1,100,8|0,0:0|0:0,0:0:0:0:
435,307,36059,2,0,P|459:263|500:236,1,100,8|0,0:1|0:0,0:0:0:0:
500,147,36367,2,0,P|459:120|435:77,1,100,8|0,0:0|0:0,0:0:0:0:
398,28,36675,2,0,P|374:71|332:99,1,100,8|0,0:1|0:0,0:0:0:0:
256,55,36982,2,0,P|199:51|150:66,1,100,8|0,0:0|0:0,0:0:0:0:
103,87,37290,5,0,0:0:0:0:
103,184,37495,1,0,0:0:0:0:
72,235,37598,2,0,P|34:251|11:253,2,50,4|0|4,0:3|0:0|0:3,0:0:0:0:
103,87,37905,1,4,0:3:0:0:
158,63,38008,1,4,0:3:0:0:
214,82,38110,1,4,0:3:0:0:
263,116,38213,6,0,P|314:119|374:76,1,100,4|0,0:1|0:0,0:0:0:0:
393,50,38521,1,4,0:3:0:0:
248,267,38828,2,0,P|199:264|155:286,1,100,0|0,0:0|0:0,0:0:0:0:
119,334,39136,1,4,0:3:0:0:
263,116,39444,2,0,P|314:119|374:76,1,100,0|0,0:0|0:0,0:0:0:0:
393,50,39752,1,4,0:3:0:0:
158,63,40059,1,0,0:0:0:0:
88,281,40367,5,8,0:1:0:0:
86,295,40418,1,8,0:1:0:0:
84,310,40469,1,8,0:1:0:0:
83,325,40521,2,0,L|43:323,2,25,8|8|8,0:1|0:1|0:1,0:0:0:0:
108,347,40675,6,0,B|146:340|173:369|209:369|260:333,1,150,4|4,0:1|0:3,0:0:0:0:
404,37,41290,2,0,B|360:6|324:6|297:35|259:28,1,150,0|4,0:0|0:3,0:0:0:0:
134,162,41905,5,4,0:3:0:0:
84,165,42008,1,4,0:3:0:0:
41,142,42110,1,4,0:3:0:0:
15,99,42213,1,4,0:3:0:0:
106,66,42418,6,0,P|150:43|199:48,1,100,4|4,0:3|0:3,0:0:0:0:
223,103,42726,1,4,0:3:0:0:
262,147,42828,1,4,0:3:0:0:
321,156,42931,1,4,0:3:0:0:
377,135,43034,1,4,0:3:0:0:
404,314,43136,22,2,P|355:322|307:308,1,100,4|0,0:3|0:0,0:1:0:0:
272,274,43444,6,2,P|331:318|404:315,1,150.000005722046,4|0,0:3|0:0,0:1:0:0:
404,315,43752,54,2,P|288:293|260:178,1,200,4|0,0:3|0:0,0:1:0:0:
260,178,44059,6,2,P|288:293|405:315,1,250,4|4,0:3|0:3,0:1:0:0:
405,315,44367,54,2,P|289:294|312:118,1,300.000011444092,4|0,0:3|0:0,0:1:0:0:
326,92,44675,21,4,0:3:0:0:
150,49,44982,1,0,0:0:0:0:
115,225,45290,1,4,0:3:0:0:
424,34,45598,2,0,P|462:64|488:118,1,100,4|0,0:3|0:0,0:0:0:0:
496,168,45905,1,4,0:3:0:0:
332,241,46213,2,0,P|294:211|268:157,1,100,4|0,0:3|0:0,0:0:0:0:
260,107,46521,1,4,0:3:0:0:
289,0,46828,5,4,0:3:0:0:
260,107,47034,1,4,0:3:0:0:
270,166,47136,2,0,P|239:204|195:227,1,100,4|0,0:3|0:0,0:0:0:0:
136,237,47444,1,4,0:3:0:0:
52,165,47649,1,0,0:0:0:0:
52,105,47752,2,0,P|74:60|114:30,1,100,4|0,0:3|0:0,0:0:0:0:
256,32,48059,5,4,0:1:0:0:
261,226,48264,1,0,0:0:0:0:
274,285,48367,2,0,P|300:327|340:355,1,100,4|0,0:3|0:0,0:0:0:0:
493,259,48880,1,0,0:0:0:0:
480,200,48982,2,0,P|454:158|414:130,1,100,4|0,0:3|0:0,0:0:0:0:
355,112,49290,5,4,0:1:0:0:
313,239,49495,1,0,0:0:0:0:
274,285,49598,2,0,P|229:306|180:307,1,100,4|0,0:3|0:0,0:0:0:0:
49,183,50110,1,0,0:0:0:0:
88,137,50213,2,0,P|132:115|181:114,1,100,4|0,0:3|0:0,0:0:0:0:
242,122,50521,21,4,0:1:0:0:
339,192,50726,1,0,0:0:0:0:
368,140,50828,2,0,P|385:88|370:20,1,100,4|0,0:3|0:0,0:0:0:0:
247,212,51341,1,0,0:0:0:0:
286,257,51444,2,0,P|355:284|427:274,1,100,4|0,0:3|0:0,0:0:0:0:
400,340,51752,6,0,P|355:362|305:367,1,100,4|4,0:3|0:3,0:0:0:0:
245,363,52059,1,4,0:3:0:0:
184,362,52162,1,4,0:3:0:0:
126,376,52264,1,4,0:3:0:0:
34,265,52367,5,4,0:3:0:0:
42,85,52675,1,4,0:3:0:0:
206,11,52982,2,0,P|290:23|349:-2,1,150,4|4,0:1|0:3,0:0:0:0:
481,120,53598,2,0,P|397:108|338:133,1,150,0|4,0:0|0:3,0:0:0:0:
241,284,54213,6,0,P|177:310|131:306,1,100,4|0,0:1|0:0,0:0:0:0:
87,297,54521,1,4,0:3:0:0:
88,177,54726,1,0,0:0:0:0:
148,165,54828,2,0,P|197:168|241:190,1,100,4|0,0:3|0:0,0:0:0:0:
385,168,55136,2,0,P|407:123|410:74,1,100,4|0,0:3|0:0,0:0:0:0:
377,23,55444,22,0,P|326:44|253:42,1,100,4|0,0:1|0:0,0:0:0:0:
230,46,55752,2,0,P|180:42|135:22,1,100,4|0,0:3|0:0,0:0:0:0:
101,74,56059,2,0,P|104:123|127:168,1,100,8|0,0:0|0:0,0:0:0:0:
127,216,56367,2,0,P|104:260|101:309,1,100,4|0,0:3|0:0,0:0:0:0:
134,361,56675,6,0,P|180:341|230:337,1,100,8|0,0:0|0:0,0:0:0:0:
281,337,56982,2,0,P|331:341|377:361,1,100,4|0,0:3|0:0,0:0:0:0:
410,309,57290,2,0,P|407:260|385:216,1,100,8|0,0:0|0:0,0:0:0:0:
385,168,57598,2,0,P|407:123|410:74,1,100,4|0,0:3|0:0,0:0:0:0:
283,87,57905,6,0,P|188:91|108:48,1,150,8|4,0:0|0:3,0:0:0:0:
182,246,58521,2,0,P|256:238|326:262,1,150,8|4,0:0|0:3,0:0:0:0:
410,74,59136,1,8,0:1:0:0:
410,74,60059,21,8,0:1:0:0:
256,192,60367,1,4,0:1:0:0:
358,339,60675,2,2,L|296:346,2,50,2|0|0,0:0|0:0|0:0,0:1:0:0:
417,328,60982,2,2,B|435:304|435:304|445:227,1,100,4|0,0:3|0:0,0:1:0:0:
260,256,61290,6,0,P|212:237|192:181,1,100,0|0,0:0|0:0,0:0:0:0:
186,135,61598,2,0,P|253:141|333:90,1,150,0|8,0:0|0:1,0:0:0:0:
440,16,62213,1,4,0:3:0:0:
512,192,62521,5,8,0:1:0:0:
406,347,62828,2,0,P|370:301|368:236,1,100,8|0,0:1|0:0,0:0:0:0:
303,262,63136,2,0,P|292:310|260:347,1,100,8|0,0:1|0:0,0:0:0:0:
200,344,63444,2,0,P|164:298|162:233,1,100,8|0,0:0|0:0,0:0:0:0:
158,198,63752,2,0,P|106:186|41:199,1,100,8|0,0:1|0:0,0:0:0:0:
3,212,64059,5,8,0:1:0:0:
71,45,64367,1,0,0:0:0:0:
175,103,64572,2,0,P|203:100|243:105,1,50,0|4,0:0|0:3,0:0:0:0:
403,122,64982,21,0,0:0:0:0:
322,283,65290,1,4,0:1:0:0:
255,115,65598,2,2,L|245:53,2,50,2|0|0,0:0|0:0|0:0,0:1:0:0:
207,152,65905,2,2,B|185:173|185:173|167:248,1,100,4|0,0:3|0:0,0:1:0:0:
53,365,66213,6,0,P|23:317|35:233,1,100,0|0,0:0|0:0,0:0:0:0:
39,217,66521,2,0,P|75:152|46:49,1,150,0|8,0:0|0:1,0:0:0:0:
256,32,67136,1,8,0:0:0:0:
446,79,67444,5,8,0:1:0:0:
461,225,67752,2,0,P|425:271|423:336,1,100,8|0,0:1|0:0,0:0:0:0:
358,310,68059,2,0,P|347:261|315:224,1,100,8|0,0:1|0:0,0:0:0:0:
255,228,68367,2,0,P|219:274|217:339,1,100,4|0,0:3|0:0,0:0:0:0:
213,374,68675,2,0,P|161:386|96:373,1,100,8|0,0:1|0:0,0:0:0:0:
58,360,68982,5,8,0:1:0:0:
18,193,69290,1,4,0:3:0:0:
132,229,69495,2,0,P|169:222|190:213,1,50,0|4,0:0|0:3,0:0:0:0:
332,148,69905,6,0,B|348:95|333:9|333:9|300:59|308:90,1,200,4|0,0:3|0:0,0:0:0:0:
395,224,70213,6,0,P|337:246|250:202,1,150,4|8,0:1|0:1,0:0:0:0:
169,57,70828,1,8,0:1:0:0:
106,256,71136,1,8,0:1:0:0:
252,151,71444,2,0,P|307:145|359:158,1,100,8|8,0:1|0:1,0:0:0:0:
404,179,71752,1,8,0:1:0:0:
406,299,71957,1,8,0:0:0:0:
352,324,72059,6,0,P|303:333|253:327,1,100,8|0,0:0|0:0,0:0:0:0:
176,280,72367,2,0,P|149:237|137:189,1,100,8|0,0:1|0:0,0:0:0:0:
146,94,72675,2,0,P|209:75|259:7,1,150,8|8,0:0|0:1,0:0:0:0:
350,154,73290,2,0,P|280:177|237:238,1,150,8|8,0:0|0:1,0:0:0:0:
138,190,73905,2,0,P|150:112|126:59,1,100,8|0,0:0|0:0,0:0:0:0:
132,34,74213,5,0,0:0:0:0:
253,82,74418,1,0,0:0:0:0:
284,31,74521,2,0,P|322:15|345:13,2,50,4|0|4,0:3|0:0|0:3,0:0:0:0:
312,175,74828,1,4,0:3:0:0:
257,199,74931,1,4,0:3:0:0:
201,180,75034,1,4,0:3:0:0:
152,146,75136,6,0,P|101:143|41:186,1,100,4|0,0:1|0:0,0:0:0:0:
22,212,75444,1,4,0:3:0:0:
127,265,75752,2,0,P|176:268|220:246,1,100
257,199,76059,1,4,0:3:0:0:
387,265,76367,2,0,P|337:268|293:246,1,100,0|0,0:0|0:0,0:0:0:0:
257,199,76675,1,4,0:3:0:0:
256,19,76982,1,0,0:0:0:0:
277,182,77290,5,8,0:1:0:0:
279,196,77341,1,8,0:1:0:0:
281,211,77392,1,8,0:1:0:0:
282,226,77444,2,0,L|322:224,2,25,8|8|8,0:1|0:1|0:1,0:0:0:0:
257,248,77598,6,0,B|219:241|192:270|156:270|105:234,1,150,4|4,0:1|0:3,0:0:0:0:
256,128,78213,2,0,B|294:121|321:150|357:150|408:114,1,150,0|4,0:0|0:3,0:0:0:0:
166,62,78828,5,4,0:3:0:0:
199,24,78931,1,4,0:3:0:0:
245,10,79034,1,4,0:3:0:0:
294,22,79136,1,4,0:3:0:0:
336,51,79239,1,4,0:3:0:0:
256,128,79341,6,0,P|258:177|233:219,1,100,4|4,0:3|0:3,0:0:0:0:
173,218,79649,1,4,0:3:0:0:
116,235,79752,1,4,0:3:0:0:
83,284,79854,1,4,0:3:0:0:
78,344,79957,1,4,0:3:0:0:
107,68,80059,22,2,P|155:61|203:75,1,100,4|0,0:3|0:0,0:1:0:0:
239,109,80367,6,2,P|180:65|107:68,1,150.000005722046,4|0,0:3|0:0,0:1:0:0:
107,68,80675,54,2,P|223:90|251:205,1,200,4|0,0:3|0:0,0:1:0:0:
251,205,80982,6,2,P|223:90|106:69,1,250,4|4,0:3|0:3,0:1:0:0:
106,69,81290,54,2,P|239:109|225:247,1,300.000011444092,4|0,0:3|0:0,0:1:0:0:
186,292,81598,21,4,0:3:0:0:
352,352,81905,1,0,0:0:0:0:
422,186,82213,1,4,0:3:0:0:
258,259,82521,2,0,P|220:229|194:175,1,100,4|0,0:3|0:0,0:0:0:0:
186,125,82828,1,4,0:3:0:0:
350,52,83136,2,0,P|388:82|414:136,1,100,4|0,0:3|0:0,0:0:0:0:
422,186,83444,1,4,0:3:0:0:
364,357,83752,5,4,0:3:0:0:
232,273,83957,1,4,0:3:0:0:
252,216,84059,2,0,P|262:165|249:84,1,100,4|0,0:3|0:0,0:0:0:0:
250,57,84367,1,4,0:3:0:0:
91,59,84572,1,0,0:0:0:0:
82,119,84675,2,0,P|79:169|89:218,1,100,4|0,0:3|0:0,0:0:0:0:
176,161,84982,5,4,0:1:0:0:
91,59,85187,1,0,0:0:0:0:
151,50,85290,2,0,P|201:47|250:57,1,100,4|0,0:3|0:0,0:0:0:0:
317,222,85803,1,0,0:0:0:0:
333,279,85905,2,0,P|360:340|393:364,1,100,4|0,0:3|0:0,0:0:0:0:
441,381,86213,5,4,0:1:0:0:
505,279,86418,1,0,0:0:0:0:
489,222,86521,2,0,P|462:161|429:137,1,100,4|0,0:3|0:0,0:0:0:0:
290,35,87034,1,0,0:0:0:0:
235,59,87136,2,0,P|191:99|169:140,1,100,4|0,0:3|0:0,0:0:0:0:
150,191,87444,21,4,0:1:0:0:
288,192,87649,1,0,0:0:0:0:
268,249,87752,2,0,P|230:299|188:326,1,100,4|0,0:3|0:0,0:0:0:0:
150,191,88264,1,0,0:0:0:0:
130,134,88367,2,0,P|92:84|50:57,1,100,4|0,0:3|0:0,0:0:0:0:
41,7,88675,6,0,P|88:0|154:11,1,100,4|4,0:3|0:3,0:0:0:0:
195,29,88982,1,4,0:3:0:0:
252,44,89085,1,4,0:3:0:0:
310,29,89187,1,4,0:3:0:0:
456,103,89290,5,4,0:3:0:0:
338,263,89598,1,4,0:3:0:0:
401,168,89905,2,0,P|329:149|262:178,1,150,4|4,0:1|0:3,0:0:0:0:
275,357,90521,2,0,P|347:376|414:347,1,150,0|4,0:0|0:3,0:0:0:0:
180,240,91136,6,0,P|161:168|177:123,1,100,4|0,0:1|0:0,0:0:0:0:
186,88,91444,1,4,0:3:0:0:
326,88,91649,1,0,0:0:0:0:
345,144,91752,2,0,P|350:194|332:240,1,100,4|0,0:3|0:0,0:0:0:0:
302,292,92059,2,0,P|339:336|392:349,1,100,4|0,0:3|0:0,0:0:0:0:
438,343,92367,53,4,0:1:0:0:
480,224,92572,1,2,0:0:0:0:
487,164,92675,1,8,0:1:0:0:
383,102,92880,1,8,0:1:0:0:
364,44,92982,1,2,0:0:0:0:
248,77,93187,1,2,0:0:0:0:
206,32,93290,1,8,0:1:0:0:
121,118,93495,1,8,0:1:0:0:
64,95,93598,1,2,0:0:0:0:
48,214,93803,38,0,P|23:213|-1:206,1,50,8|2,0:1|0:0,0:0:0:0:
121,118,94008,2,0,P|149:111|174:111,1,50,8|8,0:1|0:1,0:0:0:0:
243,183,94213,1,2,0:0:0:0:
267,139,94316,1,2,0:0:0:0:
269,90,94418,1,2,0:0:0:0:
248,45,94521,1,8,0:1:0:0:
172,277,94726,21,2,0:0:0:0:
214,252,94828,1,8,0:1:0:0:
261,240,94931,1,8,0:1:0:0:
310,252,95034,1,8,0:1:0:0:
353,278,95136,37,2,0:0:0:0:
410,290,95239,1,2,0:0:0:0:
462,263,95341,1,2,0:0:0:0:
485,208,95444,21,8,0:1:0:0:
453,149,95546,1,8,0:1:0:0:
386,135,95649,1,8,0:1:0:0:
324,169,95752,37,2,0:0:0:0:
256,191,95854,1,2,0:0:0:0:
182,180,95957,1,2,0:0:0:0:
246,282,96059,22,0,P|245:306|238:331,2,50,8|2|8,0:1|0:0|0:1,0:0:0:0:
182,180,96367,1,2,0:0:0:0:
325,125,96572,2,0,P|301:130|276:132,1,50,8|2,0:1|0:0,0:0:0:0:
177,23,96880,2,0,P|201:29|226:30,1,50,8|2,0:1|0:0,0:0:0:0:
76,140,97187,1,8,0:1:0:0:
96,192,97290,5,4,0:1:0:0:
256,192,97598,1,4,0:3:0:0:
311,360,97905,2,0,B|322:290|322:290|314:238,2,100,8|8|8,0:1|0:1|0:1,0:0:0:0:
201,360,98521,2,0,B|190:290|190:290|194:261,2,100,2|2|2,0:0|0:0|0:0,0:0:0:0:
256,192,99136,1,8,0:1:0:0:
255,72,99444,21,2,0:0:0:0:
255,92,99495,1,8,0:1:0:0:
255,112,99546,1,2,0:0:0:0:
255,132,99598,1,8,0:1:0:0:
255,152,99649,1,2,0:0:0:0:
255,172,99700,1,8,0:1:0:0:
256,192,99752,1,2,0:0:0:0:
256,320,99854,2,0,P|226:298|179:291,2,50,8|8|8,0:1|0:1|0:1,0:0:0:0:
377,383,100264,21,2,0:0:0:0:
425,371,100367,1,8,0:1:0:0:
460,337,100469,1,8,0:1:0:0:
474,290,100572,1,8,0:1:0:0:
463,242,100675,37,2,0:0:0:0:
398,246,100777,1,2,0:0:0:0:
333,251,100880,1,2,0:0:0:0:
268,255,100982,22,0,P|241:199|254:118,1,100,4|0,0:1|0:0,0:0:0:0:
247,102,101290,1,4,0:3:0:0:
344,31,101495,1,8,0:1:0:0:
410,27,101598,2,0,P|437:83|424:164,1,100,4|0,0:3|0:0,0:0:0:0:
431,180,101905,21,4,0:3:0:0:
364,307,102110,1,0,0:0:0:0:
305,321,102213,1,4,0:1:0:0:
220,161,102521,1,4,0:3:0:0:
172,334,102828,2,0,B|67:353|67:353|18:330,1,150,8|4,0:0|0:3,0:0:0:0:
101,239,103341,22,0,P|121:166|85:87,1,150
66,46,103752,2,0,P|87:30|122:15,2,50,4|0|4,0:3|0:0|0:3,0:0:0:0:
9,171,104059,2,0,P|82:191|161:155,1,150,8|4,0:0|0:3,0:0:0:0:
297,63,104675,38,0,P|366:37|425:55,1,100,8|0,0:0|0:0,0:0:0:0:
449,55,104982,1,4,0:3:0:0:
452,174,105187,1,0,0:0:0:0:
448,234,105290,2,0,B|441:306|441:306|457:364,1,100,8|0,0:0|0:0,0:0:0:0:
358,375,105598,2,0,P|310:361|238:369,1,100,4|0,0:3|0:0,0:0:0:0:
202,375,105905,21,8,0:0:0:0:
98,227,106213,2,0,L|32:221,2,50,4|0|4,0:3|0:0|0:3,0:0:0:0:
156,211,106521,2,0,P|177:148|149:42,1,150,4|4,0:3|0:3,0:0:0:0:
356,211,107136,38,0,B|335:148|335:148|342:84,1,100,4|0,0:1|0:0,0:0:0:0:
352,56,107444,2,0,B|403:46|403:46|450:54,1,100,4|0,0:3|0:0,0:0:0:0:
467,111,107752,2,0,B|470:144|470:144|449:207,1,100,8|0,0:0|0:0,0:0:0:0:
424,262,108059,2,0,B|403:325|403:325|406:358,1,100,4|0,0:3|0:0,0:0:0:0:
346,360,108367,22,0,B|298:351|298:351|247:361,1,100,8|0,0:0|0:0,0:0:0:0:
189,373,108675,2,0,B|138:383|138:383|90:374,1,100,4|0,0:3|0:0,0:0:0:0:
34,353,108982,2,0,B|15:325|15:325|-4:184,1,150,8|4,0:0|0:3,0:0:0:0:
62,40,109598,38,0,P|135:28|188:55,2,100,8|0|0,0:0|0:0|0:0,0:0:0:0:
114,124,110213,2,0,P|89:160|60:176,2,50,8|0|0,0:0|0:0|0:0,0:0:0:0:
200,199,110521,2,0,P|225:235|254:251,2,50,4|0|0,0:3|0:0|0:0,0:0:0:0:
189,140,110828,21,4,0:1:0:0:
312,270,111136,2,0,P|358:240|383:188,1,100,2|2,0:1|0:1,0:0:0:0:
394,143,111444,1,2,0:1:0:0:
291,66,111649,1,2,0:1:0:0:
230,77,111752,2,0,P|179:72|137:45,1,100,2|0,0:1|0:0,0:0:0:0:
103,0,112059,37,4,0:1:0:0:
54,135,112367,2,0,P|44:196|69:274,1,120,2|0,0:0|0:0,0:0:0:0:
143,367,112982,1,2,0:0:0:0:
193,285,113187,1,2,0:0:0:0:
367,366,113598,2,0,P|423:356|463:293,2,120,2|2|2,0:0|0:0|0:0,0:0:0:0:
274,255,114521,53,2,0:0:0:0:
136,217,114828,1,2,0:0:0:0:
0,252,115136,1,2,0:0:0:0:
47,115,115444,1,2,0:0:0:0:
126,59,115649,1,2,0:0:0:0:
171,42,115752,2,0,P|232:31|297:48,1,120,2|2,0:0|0:0,0:0:0:0:
346,175,116367,2,0,P|288:188|230:177,1,120,2|2,0:0|0:0,0:0:0:0:
171,42,116931,2,0,L|164:77,1,20,2|0,0:0|0:0,0:0:0:0:
123,199,117290,5,2,0:0:0:0:
182,330,117598,1,2,0:0:0:0:
299,247,117905,1,2,0:0:0:0:
395,257,118110,1,2,0:0:0:0:
256,128,118521,2,0,B|274:54|230:77|256:-8,2,120,2|2|2,0:0|0:0|0:0,0:0:0:0:
186,341,119444,53,2,0:0:0:0:
138,205,119752,1,2,0:0:0:0:
189,70,120059,1,2,0:0:0:0:
323,70,120367,1,2,0:0:0:0:
372,152,120572,1,2,0:0:0:0:
392,195,120675,2,0,P|405:253|394:311,1,120,2|2,0:0|0:0,0:0:0:0:
257,361,121290,2,0,P|244:302|256:244,1,120,2|2,0:0|0:0,0:0:0:0:
319,105,121905,5,4,0:1:0:0:
189,186,122213,2,0,P|126:184|68:149,1,127.50000243187,2|2,0:0|0:0,0:0:0:0:
162,29,122828,1,2,0:0:0:0:
224,110,123034,1,2,0:0:0:0:
135,293,123444,2,0,P|187:326|257:320,2,127.50000243187,2|2|2,0:0|0:0|0:0,0:0:0:0:
60,159,124367,54,0,P|52:117|57:75,1,85.0000016212464,2|0,0:0|0:0,0:0:0:0:
80,29,124675,1,2,0:0:0:0:
256,0,124982,1,2,0:0:0:0:
432,29,125290,1,2,0:0:0:0:
470,123,125495,1,2,0:0:0:0:
451,170,125598,2,0,P|436:233|459:310,1,127.50000243187,2|2,0:0|0:0,0:0:0:0:
306,347,126213,2,0,P|319:285|304:223,1,127.50000243187,2|2,0:0|0:0,0:0:0:0:
243,73,126828,5,2,0:0:0:0:
164,214,127136,1,8,0:0:0:0:
78,75,127444,1,2,0:0:0:0:
220,147,127752,1,8,0:0:0:0:
108,150,127957,2,0,L|96:188,1,22.4999993133545,2|0,0:0|0:0,0:0:0:0:
93,197,128059,2,0,P|70:246|19:275,1,89.999997253418,2|0,0:0|0:0,0:0:0:0:
95,279,128367,2,0,P|111:320|145:349,1,89.999997253418,8|0,0:0|0:0,0:0:0:0:
199,348,128675,2,0,P|233:304|217:209,1,134.999995880127,2|8,0:0|0:0,0:0:0:0:
419,187,129290,54,0,P|442:138|511:105,1,94.9999974632264,2|0,0:0|0:0,0:0:0:0:
417,105,129598,2,0,P|400:63|346:25,1,94.9999974632264,8|0,0:0|0:0,0:0:0:0:
313,36,129905,2,0,P|279:80|286:153,1,94.9999974632264,2|0,0:0|0:0,0:0:0:0:
287,174,130213,1,8,0:0:0:0:
212,19,130521,1,4,0:0:0:0:
124,206,130982,5,8,0:1:0:0:
122,220,131033,1,8,0:1:0:0:
120,235,131084,1,8,0:1:0:0:
118,249,131136,2,8,L|95:248,5,23.7499993658066,8|8|8|8|8|8,0:1|0:1|0:1|0:1|0:1|0:1,0:1:0:0:
187,327,131444,2,8,L|210:326,5,23.7499993658066,8|8|8|8|8|8,0:1|0:1|0:1|0:1|0:1|0:1,0:1:0:0:
306,341,131752,6,0,P|343:311|357:248,1,100,4|0,0:1|0:0,0:0:0:0:
365,202,132059,2,0,P|322:168|308:117,1,100,4|0,0:3|0:0,0:0:0:0:
302,65,132367,2,0,P|254:53|206:65,1,100,8|0,0:0|0:0,0:0:0:0:
203,126,132675,2,0,P|186:172|147:202,1,100,4|0,0:3|0:0,0:0:0:0:
153,262,132982,6,0,P|168:309|206:341,1,100,8|0,0:0|0:0,0:0:0:0:
265,352,133290,1,4,0:3:0:0:
358,262,133495,1,0,0:0:0:0:
418,256,133598,2,0,P|455:224|470:177,1,100,8|0,0:0|0:0,0:0:0:0:
474,117,133905,2,0,P|434:87|417:41,1,100,4|0,0:3|0:0,0:0:0:0:
391,5,134213,6,0,P|307:17|248:-8,1,150,4|4,0:1|0:3,0:0:0:0:
116,114,134828,2,0,P|200:102|259:127,1,150,4|4,0:1|0:3,0:0:0:0:
305,164,135239,1,4,0:3:0:0:
340,211,135341,1,4,0:3:0:0:
404,342,135444,22,0,P|320:354|261:329,1,150,4|4,0:1|0:3,0:0:0:0:
70,151,135957,1,4,0:3:0:0:
116,114,136059,2,0,P|200:102|259:127,1,150,4|4,0:1|0:3,0:0:0:0:
305,164,136469,1,4,0:3:0:0:
340,211,136572,1,4,0:3:0:0:
403,341,136675,54,2,P|354:349|306:335,1,100,4|0,0:3|0:0,0:1:0:0:
270,301,136982,6,2,P|329:345|402:342,1,150.000005722046,4|0,0:3|0:0,0:1:0:0:
402,342,137290,54,2,P|286:320|258:205,1,200,4|0,0:3|0:0,0:1:0:0:
258,205,137598,6,2,P|286:320|403:341,1,250,4|4,0:3|0:3,0:1:0:0:
403,342,137905,54,2,P|287:321|310:145,1,300.000011444092,4|0,0:3|0:0,0:1:0:0:
324,119,138213,21,4,0:3:0:0:
148,78,138521,1,0,0:0:0:0:
113,252,138828,1,4,0:3:0:0:
284,163,139136,2,0,P|322:131|370:121,1,100,4|0,0:3|0:0,0:0:0:0:
432,126,139444,1,4,0:3:0:0:
459,303,139752,2,0,P|420:334|372:344,1,100,4|0,0:3|0:0,0:0:0:0:
311,340,140059,1,4,0:3:0:0:
256,192,140367,5,4,0:3:0:0:
201,340,140572,1,4,0:3:0:0:
139,344,140675,2,0,P|91:334|53:303,1,100,4|0,0:3|0:0,0:0:0:0:
14,257,140982,1,4,0:3:0:0:
14,137,141187,1,0,0:0:0:0:
48,87,141290,2,0,P|86:55|134:45,1,100,4|0,0:3|0:0,0:0:0:0:
256,128,141598,5,4,0:1:0:0:
374,45,141803,1,0,0:0:0:0:
426,70,141905,2,0,P|464:101|482:148,1,100,4|0,0:3|0:0,0:0:0:0:
417,249,142418,1,0,0:0:0:0:
360,266,142521,2,0,P|318:294|291:336,1,100,4|0,0:3|0:0,0:0:0:0:
256,384,142828,5,4,0:1:0:0:
256,384,143034,1,0,0:0:0:0:
220,336,143136,2,0,P|193:294|151:266,1,100,4|0,0:3|0:0,0:0:0:0:
30,148,143649,1,0,0:0:0:0:
54,92,143752,2,0,P|85:54|131:37,1,100,4|0,0:3|0:0,0:0:0:0:
191,37,144059,1,4,0:1:0:0:
256,128,144264,21,0,0:0:0:0:
256,187,144367,2,0,P|250:244|214:293,1,100,4|0,0:3|0:0,0:0:0:0:
177,311,144675,1,0,0:0:0:0:
352,384,144880,1,0,0:0:0:0:
377,329,144982,2,0,P|423:288|499:293,1,100,4|0,0:3|0:0,0:0:0:0:
483,226,145290,6,0,P|448:190|400:178,1,100,4|4,0:3|0:3,0:0:0:0:
340,179,145598,1,4,0:3:0:0:
280,187,145700,1,4,0:3:0:0:
227,215,145803,1,4,0:3:0:0:
107,298,145905,5,4,0:3:0:0:
24,138,146213,1,4,0:3:0:0:
161,15,146521,2,0,P|245:27|304:2,1,150,4|4,0:1|0:3,0:0:0:0:
436,124,147136,2,0,P|352:112|293:137,1,150,0|4,0:0|0:3,0:0:0:0:
303,315,147752,6,0,P|393:325|433:311,1,100,4|0,0:1|0:0,0:0:0:0:
460,311,148059,1,4,0:3:0:0:
229,229,148264,1,0,0:0:0:0:
172,207,148367,2,0,P|82:197|42:211,1,100,4|0,0:3|0:0,0:0:0:0:
25,164,148675,2,0,P|5:107|20:48,1,100,4|0,0:3|0:0,0:0:0:0:
163,40,148982,5,4,0:1:0:0:
183,159,149187,2,0,P|175:200|157:225,1,50,0|4,0:0|0:3,0:0:0:0:
318,101,149598,1,0,0:0:0:0:
298,220,149803,2,0,P|306:261|324:286,1,50,0|4,0:0|0:3,0:0:0:0:
480,192,150213,5,0,0:0:0:0:
470,71,150418,2,0,P|464:44|444:19,1,50,0|4,0:0|0:3,0:0:0:0:
480,192,150828,1,0,0:0:0:0:
454,310,151034,2,0,P|447:334|432:354,1,50,0|4,0:0|0:3,0:0:0:0:
256,320,151444,6,0,P|204:321|145:363,1,100,0|0,0:0|0:0,0:0:0:0:
116,305,151752,2,0,P|124:253|91:188,1,100,4|0,0:3|0:0,0:0:0:0:
155,165,152059,2,0,P|201:184|251:180,1,100,0|0,0:0|0:0,0:0:0:0:
288,227,152367,2,0,P|263:269|258:332,1,100,4|0,0:3|0:0,0:0:0:0:
274,376,152675,5,0,0:0:0:0:
454,378,152982,2,0,P|480:335|484:286,1,100,4|0,0:3|0:0,0:0:0:0:
467,229,153290,1,4,0:3:0:0:
349,207,153495,1,0,0:0:0:0:
333,150,153598,2,0,P|337:100|363:58,1,100,4|0,0:3|0:0,0:0:0:0:
391,5,153905,22,0,P|307:17|248:-8,1,150,4|4,0:1|0:3,0:0:0:0:
116,114,154521,2,0,P|200:102|259:127,1,150,0|4,0:0|0:3,0:0:0:0:
240,305,155136,2,0,P|156:317|97:292,1,150,0|4,0:0|0:3,0:0:0:0:
265,221,155752,2,0,P|335:195|408:208,1,150,0|4,0:0|0:3,0:0:0:0:
510,244,156264,5,0,0:0:0:0:
494,301,156367,2,0,P|461:346|417:369,1,100,4|4,0:3|0:3,0:0:0:0:
366,383,156675,1,0,0:0:0:0:
335,206,156982,2,0,P|302:161|258:138,1,100,4|0,0:3|0:0,0:0:0:0:
207,124,157290,1,4,0:3:0:0:
58,21,157598,5,4,0:3:0:0:
63,140,157803,1,0,0:0:0:0:
91,192,157905,2,0,P|143:226|208:224,1,100,4|0,0:3|0:0,0:0:0:0:
237,214,158213,1,4,0:3:0:0:
350,158,158521,22,0,L|358:115,2,25,2|0|0,0:0|0:0|0:0,0:0:0:0:
