osu file format v14

[General]
AudioFilename: audio.mp3
AudioLeadIn: 0
PreviewTime: 40367
Countdown: 0
SampleSet: Normal
StackLeniency: 0.4
Mode: 1
LetterboxInBreaks: 0
WidescreenStoryboard: 0

[Editor]
Bookmarks: 3751,13598,23444,33290,40674,48059,55444,60367,70213,77598,84982,92367,97290,102213,112059,121905,131751,141598,148982,158521
DistanceSpacing: 1.2
BeatDivisor: 3
GridSize: 32
TimelineZoom: 3.099999

[Metadata]
Title:Yubikiri
TitleUnicode:指切り
Artist:scop
ArtistUnicode:すこっぷ
Creator:Noffy
Version:Ayyri's Hari Senbon
Source:初音ミク -Project DIVA- F 2nd
Tags:Ayyri Vocaloid F2nd Hatsune Miku HELL YA TRAINS Pinky Promise Swear thousand needles Light and Shadow Love Songs 〜Girls Side〜 Days ~Best of Scop~ BALLOOM BEST Yuri ムラサキ Murasaki violet Purple Arcade Future Tone Sound Colorful Deluxe DX
BeatmapID:1346975
BeatmapSetID:634876

[Difficulty]
HPDrainRate:6
CircleSize:2
OverallDifficulty:7
ApproachRate:10
SliderMultiplier:1.4
SliderTickRate:1

[Events]
//Background and Video events
0,0,"Yubikiri.(VOCALOID).full.1763612.jpg",0,100
//Break Periods
//Storyboard Layer 0 (Background)
//Storyboard Layer 1 (Fail)
//Storyboard Layer 2 (Pass)
//Storyboard Layer 3 (Foreground)
//Storyboard Sound Samples

[TimingPoints]
3752,307.692307692308,4,1,0,75,1,0
43136,-100,4,1,0,75,0,1
43444,-80,4,1,0,75,0,1
43751,-66.6666666666667,4,1,0,75,0,1
44059,-57.1428571428571,4,1,0,75,0,1
44367,-50,4,1,0,75,0,1
44675,-57.1428571428571,4,1,0,75,0,0
44982,-66.6666666666667,4,1,0,75,0,0
45290,-80,4,1,0,75,0,0
45495,-90.9090909090909,4,1,0,75,0,0
45598,-95.2380952380952,4,1,0,75,0,0
45905,-100,4,1,0,75,0,0
48059,-100,4,1,0,75,0,1
55444,-100,4,1,0,75,0,0
80059,-100,4,1,0,75,0,1
80367,-80,4,1,0,75,0,1
80674,-66.6666666666667,4,1,0,75,0,1
80982,-57.1428571428571,4,1,0,75,0,1
81290,-50,4,1,0,75,0,1
81598,-57.1428571428571,4,1,0,75,0,0
81905,-66.6666666666667,4,1,0,75,0,0
82213,-80,4,1,0,75,0,0
82418,-90.9090909090909,4,1,0,75,0,0
82521,-95.2380952380952,4,1,0,75,0,0
82828,-100,4,1,0,75,0,0
84982,-100,4,1,0,75,0,1
92367,-100,4,1,0,75,0,0
112059,-103.092783505155,4,1,0,75,0,0
112367,-105.263157894737,4,1,0,75,0,0
112674,-107.52688172043,4,1,0,75,0,0
112982,-111.111111111111,4,1,0,75,0,0
113290,-114.942528735632,4,1,0,75,0,0
113598,-117.647058823529,4,1,0,75,0,0
113905,-120.481927710843,4,1,0,75,0,0
114213,-125,4,1,0,75,0,0
121905,-120.481927710843,4,1,0,75,0,0
122213,-117.647058823529,4,1,0,75,0,0
122521,-114.942528735632,4,1,0,75,0,0
122828,-111.111111111111,4,1,0,75,0,0
126828,-107.52688172043,4,1,0,75,0,0
127136,-105.263157894737,4,1,0,75,0,0
127444,-103.092783505155,4,1,0,75,0,0
127751,-100,4,1,0,75,0,0
136675,-100,4,1,0,75,0,1
136982,-80,4,1,0,75,0,1
137290,-66.6666666666667,4,1,0,75,0,1
137598,-57.1428571428571,4,1,0,75,0,1
137905,-50,4,1,0,75,0,1
138213,-57.1428571428571,4,1,0,75,0,0
138521,-66.6666666666667,4,1,0,75,0,0
138828,-80,4,1,0,75,0,0
139033,-90.9090909090909,4,1,0,75,0,0
139136,-95.2380952380952,4,1,0,75,0,0
139444,-100,4,1,0,75,0,0
141598,-100,4,1,0,75,0,1
148982,-100,4,1,0,75,0,0

[Colours]
Combo1 : 194,117,210
Combo2 : 193,9,55
Combo3 : 91,174,181
Combo4 : 235,203,160

[HitObjects]
256,192,3751,5,8,0:0:0:0:
256,192,3957,1,0,0:0:0:0:
256,192,4059,1,8,0:0:0:0:
256,192,4367,1,8,0:0:0:0:
256,192,4572,1,0,0:0:0:0:
256,192,4674,1,8,0:0:0:0:
256,192,4982,1,8,0:0:0:0:
256,192,5187,1,0,0:0:0:0:
256,192,5289,1,8,0:0:0:0:
256,192,5598,1,8,0:0:0:0:
256,192,5803,1,0,0:0:0:0:
256,192,5905,1,8,0:0:0:0:
256,192,6213,1,0,0:0:0:0:
256,192,6521,1,0,0:0:0:0:
256,192,6828,1,8,0:0:0:0:
256,192,7136,1,8,0:0:0:0:
256,192,7444,1,0,0:0:0:0:
256,192,7751,1,8,0:0:0:0:
256,192,7957,1,8,0:0:0:0:
256,192,8059,1,0,0:0:0:0:
256,192,8264,1,0,0:0:0:0:
256,192,8367,1,8,0:0:0:0:
256,192,8572,1,0,0:0:0:0:
256,192,8674,1,12,0:0:0:0:
256,192,8982,1,0,0:0:0:0:
256,192,9290,1,12,0:0:0:0:
256,192,9598,1,0,0:0:0:0:
256,192,9905,1,12,0:0:0:0:
256,192,10213,1,0,0:0:0:0:
256,192,10521,1,12,0:0:0:0:
256,192,10828,1,0,0:0:0:0:
256,192,11033,1,0,0:0:0:0:
256,192,11136,1,8,0:0:0:0:
256,192,11341,1,0,0:0:0:0:
256,192,11444,1,8,0:0:0:0:
256,192,11751,1,0,0:0:0:0:
256,192,12059,1,8,0:0:0:0:
256,192,12367,1,12,0:0:0:0:
256,192,12674,1,8,0:0:0:0:
256,192,12880,1,8,0:0:0:0:
256,192,12982,1,0,0:0:0:0:
256,192,13187,1,0,0:0:0:0:
256,192,13290,1,8,0:0:0:0:
256,192,13495,1,0,0:0:0:0:
256,192,13598,1,12,0:0:0:0:
256,192,13804,1,0,0:0:0:0:
256,192,13906,1,8,0:0:0:0:
256,192,14214,1,8,0:0:0:0:
256,192,14419,1,0,0:0:0:0:
256,192,14521,1,8,0:0:0:0:
256,192,14829,1,8,0:0:0:0:
256,192,15034,1,0,0:0:0:0:
256,192,15136,1,8,0:0:0:0:
256,192,15445,1,8,0:0:0:0:
256,192,15650,1,0,0:0:0:0:
256,192,15752,1,8,0:0:0:0:
256,192,16060,1,0,0:0:0:0:
256,192,16368,1,0,0:0:0:0:
256,192,16675,1,8,0:0:0:0:
256,192,16983,1,8,0:0:0:0:
256,192,17291,1,0,0:0:0:0:
256,192,17598,1,8,0:0:0:0:
256,192,17804,1,8,0:0:0:0:
256,192,17906,1,0,0:0:0:0:
256,192,18111,1,0,0:0:0:0:
256,192,18214,1,8,0:0:0:0:
256,192,18419,1,0,0:0:0:0:
256,192,18521,1,12,0:0:0:0:
256,192,18829,1,0,0:0:0:0:
256,192,19137,1,12,0:0:0:0:
256,192,19445,1,0,0:0:0:0:
256,192,19752,1,12,0:0:0:0:
256,192,20060,1,0,0:0:0:0:
256,192,20368,1,12,0:0:0:0:
256,192,20675,1,0,0:0:0:0:
256,192,20880,1,0,0:0:0:0:
256,192,20983,1,8,0:0:0:0:
256,192,21188,1,0,0:0:0:0:
256,192,21291,1,8,0:0:0:0:
256,192,21598,1,0,0:0:0:0:
256,192,21906,1,8,0:0:0:0:
256,192,22214,1,12,0:0:0:0:
256,192,22521,1,8,0:0:0:0:
256,192,22727,1,8,0:0:0:0:
256,192,22829,1,0,0:0:0:0:
256,192,23034,1,0,0:0:0:0:
256,192,23137,1,8,0:0:0:0:
256,192,23342,1,0,0:0:0:0:
256,192,23445,1,12,0:0:0:0:
256,192,23751,1,0,0:0:0:0:
256,192,23957,1,0,0:0:0:0:
256,192,24059,1,0,0:0:0:0:
256,192,24367,1,0,0:0:0:0:
256,192,24674,1,8,0:0:0:0:
256,192,24982,1,0,0:0:0:0:
256,192,25187,1,0,0:0:0:0:
256,192,25290,1,8,0:0:0:0:
256,192,25598,1,0,0:0:0:0:
256,192,25905,1,8,0:0:0:0:
256,192,26213,1,0,0:0:0:0:
256,192,26418,1,0,0:0:0:0:
256,192,26521,1,8,0:0:0:0:
256,192,26828,1,0,0:0:0:0:
256,192,27136,1,8,0:0:0:0:
256,192,27444,1,8,0:0:0:0:
256,192,27649,1,0,0:0:0:0:
256,192,27751,1,8,0:0:0:0:
256,192,27957,1,8,0:0:0:0:
256,192,28059,1,8,0:0:0:0:
256,192,28367,1,12,0:0:0:0:
256,192,28674,1,0,0:0:0:0:
256,192,28880,1,0,0:0:0:0:
256,192,28982,1,0,0:0:0:0:
256,192,29290,1,0,0:0:0:0:
256,192,29598,1,8,0:0:0:0:
256,192,29905,1,0,0:0:0:0:
256,192,30110,1,0,0:0:0:0:
256,192,30213,1,8,0:0:0:0:
256,192,30521,1,0,0:0:0:0:
256,192,30828,1,8,0:0:0:0:
256,192,31136,1,0,0:0:0:0:
256,192,31341,1,0,0:0:0:0:
256,192,31444,1,8,0:0:0:0:
256,192,31751,1,0,0:0:0:0:
256,192,32059,1,8,0:0:0:0:
256,192,32367,1,8,0:0:0:0:
256,192,32572,1,8,0:0:0:0:
256,192,32674,1,0,0:0:0:0:
256,192,33290,1,12,0:0:0:0:
256,192,33495,1,0,0:0:0:0:
256,192,33598,1,8,0:0:0:0:
256,192,33905,1,8,0:0:0:0:
256,192,34213,1,8,0:0:0:0:
256,192,34418,1,0,0:0:0:0:
256,192,34521,1,8,0:0:0:0:
256,192,34726,1,0,0:0:0:0:
256,192,34828,1,8,0:0:0:0:
256,192,35033,1,8,0:0:0:0:
256,192,35136,1,0,0:0:0:0:
256,192,35444,1,0,0:0:0:0:
256,192,35751,1,8,0:0:0:0:
256,192,35957,1,0,0:0:0:0:
256,192,36059,1,8,0:0:0:0:
256,192,36264,1,8,0:0:0:0:
256,192,36367,1,0,0:0:0:0:
256,192,36572,1,0,0:0:0:0:
256,192,36674,1,8,0:0:0:0:
256,192,36982,1,8,0:0:0:0:
256,192,37290,1,0,0:0:0:0:
256,192,37495,1,0,0:0:0:0:
256,192,37598,1,8,0:0:0:0:
256,192,37803,1,8,0:0:0:0:
256,192,37905,1,0,0:0:0:0:
256,192,38008,1,0,0:0:0:0:
256,192,38110,1,0,0:0:0:0:
256,192,38213,1,12,0:0:0:0:
256,192,38521,1,0,0:0:0:0:
256,192,38828,1,8,0:0:0:0:
256,192,39136,1,0,0:0:0:0:
256,192,39444,1,8,0:0:0:0:
256,192,39751,1,0,0:0:0:0:
256,192,39957,1,0,0:0:0:0:
256,192,40059,1,8,0:0:0:0:
256,192,40367,1,0,0:0:0:0:
256,192,40418,1,0,0:0:0:0:
256,192,40469,1,0,0:0:0:0:
256,192,40521,1,0,0:0:0:0:
256,192,40572,1,0,0:0:0:0:
256,192,40623,1,0,0:0:0:0:
256,192,40674,1,8,0:0:0:0:
256,192,40982,1,0,0:0:0:0:
256,192,41187,1,0,0:0:0:0:
256,192,41290,1,8,0:0:0:0:
256,192,41598,1,0,0:0:0:0:
256,192,41803,1,0,0:0:0:0:
256,192,41905,1,8,0:0:0:0:
256,192,42008,1,0,0:0:0:0:
256,192,42110,1,0,0:0:0:0:
256,192,42213,1,8,0:0:0:0:
256,192,42418,1,0,0:0:0:0:
256,192,42521,1,8,0:0:0:0:
256,192,42726,1,8,0:0:0:0:
256,192,42828,1,0,0:0:0:0:
256,192,42931,1,0,0:0:0:0:
256,192,43033,1,0,0:0:0:0:
256,192,43136,1,12,0:0:0:0:
256,192,43444,1,12,0:0:0:0:
256,192,43751,1,12,0:0:0:0:
256,192,44059,1,12,0:0:0:0:
256,192,44367,1,12,0:0:0:0:
256,192,44674,1,0,0:0:0:0:
256,192,44982,1,8,0:0:0:0:
256,192,45290,1,0,0:0:0:0:
256,192,45495,1,0,0:0:0:0:
256,192,45598,1,8,0:0:0:0:
256,192,45905,1,0,0:0:0:0:
256,192,46213,1,8,0:0:0:0:
256,192,46521,1,0,0:0:0:0:
256,192,46726,1,0,0:0:0:0:
256,192,46828,1,8,0:0:0:0:
256,192,47033,1,8,0:0:0:0:
256,192,47136,1,0,0:0:0:0:
256,192,47341,1,0,0:0:0:0:
256,192,47444,1,8,0:0:0:0:
256,192,47649,1,8,0:0:0:0:
256,192,47751,1,0,0:0:0:0:
256,192,47957,1,0,0:0:0:0:
256,192,48059,1,12,0:0:0:0:
256,192,48367,1,8,0:0:0:0:
256,192,48572,1,8,0:0:0:0:
256,192,48674,1,0,0:0:0:0:
256,192,48880,1,0,0:0:0:0:
256,192,48982,1,8,0:0:0:0:
256,192,49187,1,0,0:0:0:0:
256,192,49290,1,12,0:0:0:0:
256,192,49598,1,8,0:0:0:0:
256,192,49803,1,8,0:0:0:0:
256,192,49905,1,0,0:0:0:0:
256,192,50111,1,0,0:0:0:0:
256,192,50213,1,8,0:0:0:0:
256,192,50418,1,0,0:0:0:0:
256,192,50521,1,12,0:0:0:0:
256,192,50828,1,8,0:0:0:0:
256,192,51033,1,8,0:0:0:0:
256,192,51136,1,0,0:0:0:0:
256,192,51341,1,0,0:0:0:0:
256,192,51444,1,8,0:0:0:0:
256,192,51751,1,8,0:0:0:0:
256,192,51957,1,8,0:0:0:0:
256,192,52059,1,8,0:0:0:0:
256,192,52162,1,8,0:0:0:0:
256,192,52264,1,8,0:0:0:0:
256,192,52367,1,0,0:0:0:0:
256,192,52469,1,0,0:0:0:0:
256,192,52572,1,0,0:0:0:0:
256,192,52674,1,8,0:0:0:0:
256,192,52777,1,8,0:0:0:0:
256,192,52880,1,0,0:0:0:0:
256,192,52982,1,12,0:0:0:0:
256,192,53290,1,8,0:0:0:0:
256,192,53495,1,0,0:0:0:0:
256,192,53598,1,8,0:0:0:0:
256,192,53803,1,0,0:0:0:0:
256,192,53905,1,8,0:0:0:0:
256,192,54110,1,0,0:0:0:0:
256,192,54213,1,12,0:0:0:0:
256,192,54521,1,8,0:0:0:0:
256,192,54726,1,0,0:0:0:0:
256,192,54828,1,8,0:0:0:0:
256,192,55033,1,0,0:0:0:0:
256,192,55136,1,8,0:0:0:0:
256,192,55444,1,12,0:0:0:0:
256,192,55649,1,0,0:0:0:0:
256,192,55751,1,8,0:0:0:0:
256,192,55957,1,8,0:0:0:0:
256,192,56059,1,0,0:0:0:0:
256,192,56264,1,0,0:0:0:0:
256,192,56367,1,8,0:0:0:0:
256,192,56572,1,8,0:0:0:0:
256,192,56674,1,0,0:0:0:0:
256,192,56880,1,0,0:0:0:0:
256,192,56982,1,8,0:0:0:0:
256,192,57187,1,8,0:0:0:0:
256,192,57290,1,0,0:0:0:0:
256,192,57495,1,0,0:0:0:0:
256,192,57598,1,8,0:0:0:0:
256,192,57803,1,0,0:0:0:0:
256,192,57905,1,8,0:0:0:0:
256,192,58213,1,8,0:0:0:0:
256,192,58521,1,0,0:0:0:0:
256,192,58726,1,0,0:0:0:0:
256,192,58828,1,8,0:0:0:0:
256,192,59136,1,0,0:0:0:0:
256,192,59649,1,0,0:0:0:0:
256,192,59751,1,8,0:0:0:0:
256,192,59957,1,8,0:0:0:0:
256,192,60059,1,0,0:0:0:0:
256,192,60367,1,12,0:0:0:0:
256,192,60675,1,0,0:0:0:0:
256,192,60879,1,0,0:0:0:0:
256,192,60981,1,8,0:0:0:0:
256,192,61289,1,0,0:0:0:0:
256,192,61598,1,0,0:0:0:0:
256,192,61904,1,8,0:0:0:0:
256,192,62212,1,8,0:0:0:0:
256,192,62520,1,0,0:0:0:0:
256,192,62827,1,8,0:0:0:0:
256,192,63135,1,0,0:0:0:0:
256,192,63443,1,8,0:0:0:0:
256,192,63752,1,0,0:0:0:0:
256,192,64058,1,0,0:0:0:0:
256,192,64367,1,0,0:0:0:0:
256,192,64675,1,8,0:0:0:0:
256,192,64981,1,0,0:0:0:0:
256,192,65187,1,0,0:0:0:0:
256,192,65290,1,12,0:0:0:0:
256,192,65598,1,0,0:0:0:0:
256,192,65802,1,0,0:0:0:0:
256,192,65904,1,8,0:0:0:0:
256,192,66212,1,0,0:0:0:0:
256,192,66521,1,0,0:0:0:0:
256,192,66827,1,8,0:0:0:0:
256,192,67135,1,8,0:0:0:0:
256,192,67443,1,0,0:0:0:0:
256,192,67752,1,8,0:0:0:0:
256,192,68058,1,0,0:0:0:0:
256,192,68366,1,8,0:0:0:0:
256,192,68675,1,0,0:0:0:0:
256,192,68981,1,0,0:0:0:0:
256,192,69290,1,8,0:0:0:0:
256,192,69598,1,8,0:0:0:0:
256,192,69904,1,4,0:0:0:0:
256,192,70213,1,12,0:0:0:0:
256,192,70418,1,0,0:0:0:0:
256,192,70521,1,8,0:0:0:0:
256,192,70828,1,8,0:0:0:0:
256,192,71136,1,8,0:0:0:0:
256,192,71341,1,0,0:0:0:0:
256,192,71444,1,8,0:0:0:0:
256,192,71649,1,0,0:0:0:0:
256,192,71751,1,8,0:0:0:0:
256,192,71956,1,8,0:0:0:0:
256,192,72059,1,0,0:0:0:0:
256,192,72367,1,0,0:0:0:0:
256,192,72674,1,8,0:0:0:0:
256,192,72880,1,0,0:0:0:0:
256,192,72982,1,8,0:0:0:0:
256,192,73187,1,8,0:0:0:0:
256,192,73290,1,0,0:0:0:0:
256,192,73495,1,0,0:0:0:0:
256,192,73597,1,8,0:0:0:0:
256,192,73905,1,8,0:0:0:0:
256,192,74213,1,0,0:0:0:0:
256,192,74418,1,0,0:0:0:0:
256,192,74521,1,8,0:0:0:0:
256,192,74726,1,8,0:0:0:0:
256,192,74828,1,0,0:0:0:0:
256,192,74931,1,0,0:0:0:0:
256,192,75033,1,0,0:0:0:0:
256,192,75136,1,12,0:0:0:0:
256,192,75444,1,0,0:0:0:0:
256,192,75751,1,8,0:0:0:0:
256,192,76059,1,0,0:0:0:0:
256,192,76367,1,8,0:0:0:0:
256,192,76674,1,0,0:0:0:0:
256,192,76880,1,0,0:0:0:0:
256,192,76982,1,8,0:0:0:0:
256,192,77290,1,0,0:0:0:0:
256,192,77341,1,0,0:0:0:0:
256,192,77392,1,0,0:0:0:0:
256,192,77444,1,0,0:0:0:0:
256,192,77495,1,0,0:0:0:0:
256,192,77546,1,0,0:0:0:0:
256,192,77597,1,8,0:0:0:0:
256,192,77905,1,0,0:0:0:0:
256,192,78110,1,0,0:0:0:0:
256,192,78213,1,8,0:0:0:0:
256,192,78521,1,0,0:0:0:0:
256,192,78726,1,0,0:0:0:0:
256,192,78828,1,8,0:0:0:0:
256,192,78931,1,0,0:0:0:0:
256,192,79033,1,0,0:0:0:0:
256,192,79136,1,8,0:0:0:0:
256,192,79239,1,8,0:0:0:0:
256,192,79341,1,0,0:0:0:0:
256,192,79444,1,8,0:0:0:0:
256,192,79546,1,0,0:0:0:0:
256,192,79649,1,8,0:0:0:0:
256,192,79751,1,0,0:0:0:0:
256,192,79854,1,0,0:0:0:0:
256,192,79956,1,0,0:0:0:0:
256,192,80059,1,12,0:0:0:0:
256,192,80367,1,12,0:0:0:0:
256,192,80674,1,12,0:0:0:0:
256,192,80982,1,12,0:0:0:0:
256,192,81290,1,12,0:0:0:0:
256,192,81597,1,0,0:0:0:0:
256,192,81905,1,8,0:0:0:0:
256,192,82213,1,0,0:0:0:0:
256,192,82418,1,0,0:0:0:0:
256,192,82521,1,8,0:0:0:0:
256,192,82828,1,0,0:0:0:0:
256,192,83136,1,8,0:0:0:0:
256,192,83444,1,0,0:0:0:0:
256,192,83649,1,0,0:0:0:0:
256,192,83751,1,8,0:0:0:0:
256,192,83956,1,8,0:0:0:0:
256,192,84059,1,0,0:0:0:0:
256,192,84264,1,0,0:0:0:0:
256,192,84367,1,8,0:0:0:0:
256,192,84572,1,8,0:0:0:0:
256,192,84674,1,0,0:0:0:0:
256,192,84880,1,0,0:0:0:0:
256,192,84982,1,12,0:0:0:0:
256,192,85290,1,8,0:0:0:0:
256,192,85495,1,8,0:0:0:0:
256,192,85597,1,0,0:0:0:0:
256,192,85803,1,0,0:0:0:0:
256,192,85905,1,8,0:0:0:0:
256,192,86110,1,0,0:0:0:0:
256,192,86213,1,12,0:0:0:0:
256,192,86521,1,8,0:0:0:0:
256,192,86726,1,8,0:0:0:0:
256,192,86828,1,0,0:0:0:0:
256,192,87034,1,0,0:0:0:0:
256,192,87136,1,8,0:0:0:0:
256,192,87341,1,0,0:0:0:0:
256,192,87444,1,12,0:0:0:0:
256,192,87751,1,8,0:0:0:0:
256,192,87956,1,8,0:0:0:0:
256,192,88059,1,0,0:0:0:0:
256,192,88264,1,0,0:0:0:0:
256,192,88367,1,8,0:0:0:0:
256,192,88674,1,8,0:0:0:0:
256,192,88880,1,8,0:0:0:0:
256,192,88982,1,8,0:0:0:0:
256,192,89085,1,8,0:0:0:0:
256,192,89187,1,8,0:0:0:0:
256,192,89290,1,0,0:0:0:0:
256,192,89392,1,0,0:0:0:0:
256,192,89495,1,0,0:0:0:0:
256,192,89597,1,8,0:0:0:0:
256,192,89700,1,8,0:0:0:0:
256,192,89803,1,0,0:0:0:0:
256,192,89905,1,12,0:0:0:0:
256,192,90213,1,8,0:0:0:0:
256,192,90418,1,0,0:0:0:0:
256,192,90521,1,8,0:0:0:0:
256,192,90726,1,0,0:0:0:0:
256,192,90828,1,8,0:0:0:0:
256,192,91033,1,0,0:0:0:0:
256,192,91136,1,12,0:0:0:0:
256,192,91444,1,8,0:0:0:0:
256,192,91649,1,0,0:0:0:0:
256,192,91751,1,8,0:0:0:0:
256,192,91956,1,0,0:0:0:0:
256,192,92059,1,8,0:0:0:0:
256,192,92367,1,12,0:0:0:0:
256,192,92572,1,0,0:0:0:0:
256,192,92674,1,8,0:0:0:0:
256,192,92880,1,8,0:0:0:0:
256,192,92982,1,0,0:0:0:0:
256,192,93187,1,0,0:0:0:0:
256,192,93290,1,8,0:0:0:0:
256,192,93495,1,8,0:0:0:0:
256,192,93598,1,0,0:0:0:0:
256,192,93803,1,8,0:0:0:0:
256,192,93905,1,0,0:0:0:0:
256,192,94008,1,8,0:0:0:0:
256,192,94110,1,0,0:0:0:0:
256,192,94213,1,8,0:0:0:0:
256,192,94315,1,8,0:0:0:0:
256,192,94418,1,0,0:0:0:0:
256,192,94521,1,8,0:0:0:0:
256,192,94726,1,0,0:0:0:0:
256,192,94828,1,8,0:0:0:0:
256,192,94931,1,8,0:0:0:0:
256,192,95033,1,8,0:0:0:0:
256,192,95136,1,0,0:0:0:0:
256,192,95239,1,0,0:0:0:0:
256,192,95341,1,0,0:0:0:0:
256,192,95444,1,8,0:0:0:0:
256,192,95546,1,8,0:0:0:0:
256,192,95649,1,8,0:0:0:0:
256,192,95751,1,0,0:0:0:0:
256,192,95854,1,0,0:0:0:0:
256,192,95957,1,0,0:0:0:0:
256,192,96059,1,8,0:0:0:0:
256,192,96162,1,8,0:0:0:0:
256,192,96264,1,0,0:0:0:0:
256,192,96367,1,8,0:0:0:0:
256,192,96572,1,0,0:0:0:0:
256,192,96674,1,8,0:0:0:0:
256,192,96880,1,8,0:0:0:0:
256,192,96982,1,0,0:0:0:0:
256,192,97187,1,0,0:0:0:0:
256,192,97290,1,12,0:0:0:0:
256,192,97598,1,8,0:0:0:0:
256,192,97905,1,0,0:0:0:0:
256,192,98110,1,0,0:0:0:0:
256,192,98315,1,0,0:0:0:0:
256,192,98521,1,8,0:0:0:0:
256,192,98726,1,8,0:0:0:0:
256,192,98931,1,8,0:0:0:0:
256,192,99136,1,0,0:0:0:0:
256,192,99444,1,0,0:0:0:0:
256,192,99495,1,0,0:0:0:0:
256,192,99546,1,0,0:0:0:0:
256,192,99598,1,0,0:0:0:0:
256,192,99649,1,0,0:0:0:0:
256,192,99700,1,0,0:0:0:0:
256,192,99751,1,8,0:0:0:0:
256,192,99854,1,0,0:0:0:0:
256,192,99957,1,0,0:0:0:0:
256,192,100059,1,8,0:0:0:0:
256,192,100264,1,0,0:0:0:0:
256,192,100367,1,8,0:0:0:0:
256,192,100469,1,0,0:0:0:0:
256,192,100572,1,0,0:0:0:0:
256,192,100674,1,8,0:0:0:0:
256,192,100777,1,8,0:0:0:0:
256,192,100880,1,0,0:0:0:0:
256,192,100982,1,12,0:0:0:0:
256,192,101187,1,0,0:0:0:0:
256,192,101290,1,8,0:0:0:0:
256,192,101495,1,8,0:0:0:0:
256,192,101598,1,0,0:0:0:0:
256,192,101803,1,0,0:0:0:0:
256,192,101905,1,8,0:0:0:0:
256,192,102110,1,0,0:0:0:0:
256,192,102213,1,12,0:0:0:0:
256,192,102521,1,8,0:0:0:0:
256,192,102828,1,0,0:0:0:0:
256,192,103033,1,0,0:0:0:0:
256,192,103136,1,8,0:0:0:0:
256,192,103341,1,8,0:0:0:0:
256,192,103444,1,8,0:0:0:0:
256,192,103649,1,0,0:0:0:0:
256,192,103751,1,8,0:0:0:0:
256,192,103957,1,8,0:0:0:0:
256,192,104059,1,0,0:0:0:0:
256,192,104264,1,0,0:0:0:0:
256,192,104367,1,8,0:0:0:0:
256,192,104572,1,8,0:0:0:0:
256,192,104674,1,0,0:0:0:0:
256,192,104880,1,0,0:0:0:0:
256,192,104982,1,8,0:0:0:0:
256,192,105187,1,0,0:0:0:0:
256,192,105290,1,0,0:0:0:0:
256,192,105495,1,0,0:0:0:0:
256,192,105598,1,8,0:0:0:0:
256,192,105803,1,0,0:0:0:0:
256,192,105905,1,8,0:0:0:0:
256,192,106213,1,8,0:0:0:0:
256,192,106316,1,0,0:0:0:0:
256,192,106418,1,0,0:0:0:0:
256,192,106521,1,8,0:0:0:0:
256,192,106726,1,0,0:0:0:0:
256,192,106828,1,8,0:0:0:0:
256,192,107033,1,0,0:0:0:0:
256,192,107136,1,12,0:0:0:0:
256,192,107341,1,8,0:0:0:0:
256,192,107444,1,8,0:0:0:0:
256,192,107649,1,0,0:0:0:0:
256,192,107751,1,8,0:0:0:0:
256,192,107957,1,8,0:0:0:0:
256,192,108059,1,8,0:0:0:0:
256,192,108264,1,0,0:0:0:0:
256,192,108367,1,8,0:0:0:0:
256,192,108572,1,8,0:0:0:0:
256,192,108674,1,8,0:0:0:0:
256,192,108880,1,0,0:0:0:0:
256,192,108982,1,8,0:0:0:0:
256,192,109187,1,8,0:0:0:0:
256,192,109290,1,0,0:0:0:0:
256,192,109598,1,0,0:0:0:0:
256,192,109803,1,0,0:0:0:0:
256,192,109905,1,8,0:0:0:0:
256,192,110008,1,8,0:0:0:0:
256,192,110110,1,8,0:0:0:0:
256,192,110213,1,0,0:0:0:0:
256,192,110315,1,8,0:0:0:0:
256,192,110418,1,0,0:0:0:0:
256,192,110521,1,8,0:0:0:0:
256,192,110623,1,0,0:0:0:0:
256,192,110726,1,0,0:0:0:0:
256,192,110828,1,12,0:0:0:0:
256,192,111033,1,0,0:0:0:0:
256,192,111136,1,8,0:0:0:0:
256,192,111341,1,8,0:0:0:0:
256,192,111444,1,0,0:0:0:0:
256,192,111649,1,0,0:0:0:0:
256,192,111751,1,8,0:0:0:0:
256,192,112059,1,12,0:0:0:0:
256,192,112367,1,0,0:0:0:0:
256,192,112674,1,8,0:0:0:0:
256,192,112982,1,0,0:0:0:0:
256,192,113290,1,8,0:0:0:0:
256,192,113598,1,0,0:0:0:0:
256,192,113905,1,0,0:0:0:0:
256,192,114213,1,0,0:0:0:0:
256,192,114521,1,8,0:0:0:0:
256,192,114828,1,8,0:0:0:0:
256,192,115136,1,0,0:0:0:0:
256,192,115444,1,8,0:0:0:0:
256,192,115751,1,0,0:0:0:0:
256,192,116059,1,0,0:0:0:0:
256,192,116367,1,0,0:0:0:0:
256,192,116674,1,8,0:0:0:0:
256,192,116982,1,0,0:0:0:0:
256,192,117290,1,8,0:0:0:0:
256,192,117598,1,8,0:0:0:0:
256,192,117905,1,0,0:0:0:0:
256,192,118213,1,8,0:0:0:0:
256,192,118521,1,0,0:0:0:0:
256,192,118828,1,0,0:0:0:0:
256,192,119136,1,0,0:0:0:0:
256,192,119444,1,8,0:0:0:0:
256,192,119751,1,0,0:0:0:0:
256,192,120059,1,8,0:0:0:0:
256,192,120367,1,0,0:0:0:0:
256,192,120674,1,8,0:0:0:0:
256,192,120982,1,8,0:0:0:0:
256,192,121290,1,0,0:0:0:0:
256,192,121598,1,0,0:0:0:0:
256,192,121905,1,12,0:0:0:0:
256,192,122213,1,0,0:0:0:0:
256,192,122521,1,8,0:0:0:0:
256,192,122828,1,8,0:0:0:0:
256,192,123136,1,0,0:0:0:0:
256,192,123444,1,8,0:0:0:0:
256,192,123751,1,0,0:0:0:0:
256,192,124059,1,8,0:0:0:0:
256,192,124367,1,0,0:0:0:0:
256,192,124674,1,0,0:0:0:0:
256,192,124982,1,8,0:0:0:0:
256,192,125290,1,0,0:0:0:0:
256,192,125598,1,8,0:0:0:0:
256,192,125905,1,8,0:0:0:0:
256,192,126213,1,0,0:0:0:0:
256,192,126521,1,8,0:0:0:0:
256,192,126828,1,0,0:0:0:0:
256,192,127136,1,8,0:0:0:0:
256,192,127444,1,0,0:0:0:0:
256,192,127751,1,0,0:0:0:0:
256,192,128059,1,8,0:0:0:0:
256,192,128367,1,8,0:0:0:0:
256,192,128674,1,0,0:0:0:0:
256,192,128982,1,0,0:0:0:0:
256,192,129290,1,8,0:0:0:0:
256,192,129598,1,0,0:0:0:0:
256,192,129905,1,8,0:0:0:0:
256,192,130213,1,0,0:0:0:0:
256,192,130521,1,8,0:0:0:0:
256,192,130982,1,0,0:0:0:0:
256,192,131033,1,0,0:0:0:0:
256,192,131084,1,0,0:0:0:0:
256,192,131136,1,0,0:0:0:0:
256,192,131187,1,0,0:0:0:0:
256,192,131238,1,0,0:0:0:0:
256,192,131290,1,0,0:0:0:0:
256,192,131341,1,0,0:0:0:0:
256,192,131392,1,0,0:0:0:0:
256,192,131444,1,0,0:0:0:0:
256,192,131495,1,0,0:0:0:0:
256,192,131546,1,0,0:0:0:0:
256,192,131598,1,0,0:0:0:0:
256,192,131649,1,0,0:0:0:0:
256,192,131700,1,0,0:0:0:0:
256,192,131751,1,8,0:0:0:0:
256,192,131957,1,0,0:0:0:0:
256,192,132059,1,8,0:0:0:0:
256,192,132264,1,8,0:0:0:0:
256,192,132367,1,0,0:0:0:0:
256,192,132572,1,0,0:0:0:0:
256,192,132674,1,8,0:0:0:0:
256,192,132880,1,0,0:0:0:0:
256,192,132982,1,8,0:0:0:0:
256,192,133187,1,8,0:0:0:0:
256,192,133290,1,8,0:0:0:0:
256,192,133495,1,0,0:0:0:0:
256,192,133598,1,8,0:0:0:0:
256,192,133803,1,8,0:0:0:0:
256,192,133905,1,0,0:0:0:0:
256,192,134110,1,0,0:0:0:0:
256,192,134213,1,12,0:0:0:0:
256,192,134521,1,0,0:0:0:0:
256,192,134828,1,12,0:0:0:0:
256,192,135136,1,0,0:0:0:0:
256,192,135239,1,0,0:0:0:0:
256,192,135341,1,0,0:0:0:0:
256,192,135444,1,12,0:0:0:0:
256,192,135751,1,0,0:0:0:0:
256,192,135957,1,0,0:0:0:0:
256,192,136059,1,12,0:0:0:0:
256,192,136264,1,8,0:0:0:0:
256,192,136366,1,0,0:0:0:0:
256,192,136469,1,0,0:0:0:0:
256,192,136571,1,0,0:0:0:0:
256,192,136674,1,12,0:0:0:0:
256,192,136982,1,12,0:0:0:0:
256,192,137290,1,12,0:0:0:0:
256,192,137598,1,12,0:0:0:0:
256,192,137905,1,12,0:0:0:0:
256,192,138213,1,0,0:0:0:0:
256,192,138521,1,8,0:0:0:0:
256,192,138828,1,0,0:0:0:0:
256,192,139033,1,0,0:0:0:0:
256,192,139136,1,8,0:0:0:0:
256,192,139443,1,0,0:0:0:0:
256,192,139751,1,8,0:0:0:0:
256,192,140059,1,0,0:0:0:0:
256,192,140264,1,0,0:0:0:0:
256,192,140366,1,8,0:0:0:0:
256,192,140571,1,8,0:0:0:0:
256,192,140674,1,0,0:0:0:0:
256,192,140879,1,0,0:0:0:0:
256,192,140982,1,8,0:0:0:0:
256,192,141187,1,8,0:0:0:0:
256,192,141289,1,0,0:0:0:0:
256,192,141495,1,0,0:0:0:0:
256,192,141598,1,12,0:0:0:0:
256,192,141906,1,8,0:0:0:0:
256,192,142111,1,8,0:0:0:0:
256,192,142213,1,0,0:0:0:0:
256,192,142419,1,0,0:0:0:0:
256,192,142521,1,8,0:0:0:0:
256,192,142726,1,0,0:0:0:0:
256,192,142829,1,12,0:0:0:0:
256,192,143137,1,8,0:0:0:0:
256,192,143342,1,8,0:0:0:0:
256,192,143444,1,0,0:0:0:0:
256,192,143650,1,0,0:0:0:0:
256,192,143752,1,8,0:0:0:0:
256,192,143957,1,0,0:0:0:0:
256,192,144060,1,12,0:0:0:0:
256,192,144367,1,8,0:0:0:0:
256,192,144572,1,8,0:0:0:0:
256,192,144675,1,0,0:0:0:0:
256,192,144880,1,0,0:0:0:0:
256,192,144983,1,8,0:0:0:0:
256,192,145290,1,8,0:0:0:0:
256,192,145496,1,8,0:0:0:0:
256,192,145598,1,8,0:0:0:0:
256,192,145701,1,8,0:0:0:0:
256,192,145803,1,8,0:0:0:0:
256,192,145906,1,0,0:0:0:0:
256,192,146008,1,0,0:0:0:0:
256,192,146111,1,0,0:0:0:0:
256,192,146213,1,8,0:0:0:0:
256,192,146316,1,8,0:0:0:0:
256,192,146419,1,0,0:0:0:0:
256,192,146521,1,12,0:0:0:0:
256,192,146829,1,8,0:0:0:0:
256,192,147034,1,0,0:0:0:0:
256,192,147137,1,8,0:0:0:0:
256,192,147342,1,0,0:0:0:0:
256,192,147444,1,8,0:0:0:0:
256,192,147649,1,0,0:0:0:0:
256,192,147752,1,12,0:0:0:0:
256,192,147957,1,8,0:0:0:0:
256,192,148060,1,8,0:0:0:0:
256,192,148162,1,0,0:0:0:0:
256,192,148265,1,0,0:0:0:0:
256,192,148367,1,8,0:0:0:0:
256,192,148572,1,0,0:0:0:0:
256,192,148675,1,8,0:0:0:0:
256,192,148982,1,12,0:0:0:0:
256,192,149188,1,0,0:0:0:0:
256,192,149290,1,8,0:0:0:0:
256,192,149598,1,8,0:0:0:0:
256,192,149803,1,0,0:0:0:0:
256,192,149905,1,8,0:0:0:0:
256,192,150213,1,8,0:0:0:0:
256,192,150418,1,0,0:0:0:0:
256,192,150520,1,8,0:0:0:0:
256,192,150829,1,8,0:0:0:0:
256,192,151034,1,0,0:0:0:0:
256,192,151136,1,8,0:0:0:0:
256,192,151444,1,0,0:0:0:0:
256,192,151752,1,0,0:0:0:0:
256,192,152059,1,8,0:0:0:0:
256,192,152367,1,8,0:0:0:0:
256,192,152675,1,0,0:0:0:0:
256,192,152982,1,8,0:0:0:0:
256,192,153188,1,8,0:0:0:0:
256,192,153290,1,0,0:0:0:0:
256,192,153495,1,0,0:0:0:0:
256,192,153598,1,8,0:0:0:0:
256,192,153803,1,0,0:0:0:0:
256,192,153905,1,12,0:0:0:0:
256,192,154213,1,0,0:0:0:0:
256,192,154521,1,12,0:0:0:0:
256,192,154829,1,0,0:0:0:0:
256,192,155136,1,12,0:0:0:0:
256,192,155444,1,0,0:0:0:0:
256,192,155752,1,12,0:0:0:0:
256,192,156059,1,0,0:0:0:0:
256,192,156264,1,8,0:0:0:0:
256,192,156367,1,0,0:0:0:0:
256,192,156572,1,8,0:0:0:0:
256,192,156675,1,0,0:0:0:0:
256,192,156982,1,0,0:0:0:0:
256,192,157290,1,8,0:0:0:0:
256,192,157495,1,8,0:0:0:0:
256,192,157598,1,0,0:0:0:0:
256,192,157803,1,0,0:0:0:0:
256,192,157905,1,8,0:0:0:0:
256,192,158213,1,0,0:0:0:0:
256,192,158521,1,8,0:0:0:0:
256,192,158572,1,0,0:0:0:0:
