osu file format v14

[General]
AudioFilename: audio.mp3
AudioLeadIn: 0
PreviewTime: 40367
Countdown: 0
SampleSet: Soft
StackLeniency: 0.7
Mode: 0
LetterboxInBreaks: 0
WidescreenStoryboard: 1

[Editor]
Bookmarks: 13598,23444,33290,43136,52982,55444,60367,70213,80059,89905,92367,102213,112059,121905,131751,136674,146521,148982,158828
DistanceSpacing: 1.1
BeatDivisor: 3
GridSize: 32
TimelineZoom: 1.9

[Metadata]
Title:Yubikiri
TitleUnicode:指切り
Artist:scop
ArtistUnicode:すこっぷ
Creator:Noffy
Version:Advanced
Source:初音ミク -Project DIVA- F 2nd
Tags:Ayyri Vocaloid F2nd Hatsune Miku HELL YA TRAINS Pinky Promise Swear thousand needles Light and Shadow Love Songs 〜Girls Side〜 Days ~Best of Scop~ BALLOOM BEST Yuri ムラサキ Murasaki violet Purple Arcade Future Tone Sound Colorful Deluxe DX
BeatmapID:1346973
BeatmapSetID:634876

[Difficulty]
HPDrainRate:4
CircleSize:3.7
OverallDifficulty:5
ApproachRate:6.5
SliderMultiplier:1.4
SliderTickRate:1

[Events]
//Background and Video events
0,0,"yubki.jpg",0,0
Video,670,"prom.avi"
//Break Periods
2,13798,22086
//Storyboard Layer 0 (Background)
//Storyboard Layer 1 (Fail)
//Storyboard Layer 2 (Pass)
//Storyboard Layer 3 (Foreground)
//Storyboard Sound Samples

[TimingPoints]
3752,307.692307692308,4,2,1,100,1,0
43136,-100,4,2,1,100,0,1
55444,-100,4,2,1,100,0,0
60880,-100,4,2,1,70,0,0
60982,-100,4,2,1,100,0,0
65803,-100,4,2,1,70,0,0
65905,-100,4,2,1,100,0,0
80059,-100,4,2,1,100,0,1
92367,-100,4,2,1,100,0,0
112060,-125,4,2,1,100,0,0
121906,-111.111111111111,4,2,1,100,0,0
131752,-100,4,2,1,100,0,0
136675,-100,4,2,1,100,0,1
148982,-100,4,2,1,100,0,0

[Colours]
Combo1 : 193,9,55
Combo2 : 79,131,71
Combo3 : 113,152,159
Combo4 : 184,140,82
Combo5 : 139,98,157

[HitObjects]
69,98,3751,6,0,P|56:143|61:189,1,93.3333333333333,4|0,0:1|0:0,0:0:0:0:
81,236,4059,1,4,0:3:0:0:
211,151,4367,2,0,P|266:141|320:159,1,93.3333333333333,0|0,0:0|0:0,0:0:0:0:
348,170,4674,1,4,0:3:0:0:
394,316,4982,6,0,P|338:325|284:307,1,93.3333333333333,0|0,0:0|0:0,0:0:0:0:
257,293,5290,1,4,0:3:0:0:
348,170,5598,2,0,P|361:125|356:79,1,93.3333333333333,0|0,0:0|0:0,0:0:0:0:
334,32,5905,1,4,0:3:0:0:
178,32,6213,6,0,P|156:103|176:171,1,140,0|4,0:0|0:3,0:0:0:0:
190,326,6828,2,0,B|255:302|255:302|321:326,1,140,0|4,0:0|0:3,0:0:0:0:
348,170,7444,5,0,0:0:0:0:
449,57,7751,2,0,P|399:42|370:12,1,93.3333333333333,4|0,0:3|0:0,0:0:0:0:
319,13,8059,2,0,P|285:44|240:56,1,93.3333333333333,4|0,0:3|0:0,0:0:0:0:
189,56,8367,1,4,0:3:0:0:
47,119,8674,6,0,P|26:184|48:249,1,140,4|4,0:1|0:3,0:0:0:0:
178,334,9290,2,0,P|200:268|179:203,1,140,0|4,0:0|0:3,0:0:0:0:
333,203,9905,2,0,P|312:268|334:333,1,140,0|4,0:0|0:3,0:0:0:0:
463,249,10521,2,0,P|485:184|465:119,1,140,0|4,0:0|0:3,0:0:0:0:
318,69,11136,22,0,L|214:42,1,93.3333333333333,4|0,0:3|0:0,0:0:0:0:
178,28,11444,1,4,0:3:0:0:
112,166,11751,2,0,L|216:193,1,93.3333333333333,4|0,0:3|0:0,0:0:0:0:
252,201,12059,1,4,0:3:0:0:
403,232,12367,5,4,0:1:0:0:
448,85,12674,2,0,P|403:73|358:83,1,93.3333333333333,4|0,0:3|0:0,0:0:0:0:
314,55,12982,2,0,P|268:45|224:57,1,93.3333333333333,4|0,0:3|0:0,0:0:0:0:
184,89,13290,1,4,0:3:0:0:
269,217,13598,5,4,0:1:0:0:
90,84,23136,21,2,0:1:0:0:
69,236,23444,2,0,P|120:310|170:325,1,140,4|0,0:1|0:0,0:0:0:0:
267,328,23957,2,0,L|317:297,1,46.6666666666667,2|2,0:1|0:1,0:0:0:0:
437,221,24367,5,0,0:0:0:0:
402,71,24674,2,0,P|339:99|306:159,1,140,2|2,0:1|0:1,0:0:0:0:
229,228,25187,2,0,L|189:252,1,46.6666666666667,2|8,0:1|0:2,0:0:0:0:
60,338,25598,5,2,0:1:0:0:
48,184,25905,2,0,P|75:145|123:121,1,93.3333333333333,8|0,0:0|0:0,0:0:0:0:
162,104,26213,1,2,0:1:0:0:
288,191,26521,2,0,L|316:297,1,93.3333333333333,2|0,0:1|0:0,0:0:0:0:
326,330,26827,5,0,0:0:0:0:
478,349,27136,1,0,0:0:0:0:
487,195,27444,2,0,P|463:129|408:88,1,140,8|8,0:0|0:0,0:0:0:0:
258,52,28059,21,8,0:0:0:0:
125,130,28367,2,0,P|84:185|86:254,1,140,4|2,0:1|0:1,0:0:0:0:
156,330,28880,2,0,L|201:304,1,46.6666666666667,2|2,0:1|0:1,0:0:0:0:
325,223,29290,5,2,0:1:0:0:
363,372,29598,2,0,P|425:343|458:283,1,140,2|2,0:1|0:1,0:0:0:0:
465,179,30110,2,0,L|452:131,1,46.6666666666667,2|8,0:1|0:0,0:0:0:0:
340,28,30521,5,2,0:1:0:0:
227,132,30828,2,0,L|193:282,1,140,8|2,0:0|0:1,0:0:0:0:
74,364,31444,2,0,L|43:227,1,140,8|2,0:0|0:1,0:0:0:0:
16,74,32059,5,2,0:1:0:0:
159,16,32367,2,0,P|207:17|254:41,1,93.3333333333333,8|0,0:0|0:0,0:0:0:0:
285,70,32674,1,8,0:0:0:0:
221,371,33290,22,0,P|195:308|214:217,1,140,4|8,0:1|0:1,0:0:0:0:
349,286,33905,1,8,0:1:0:0:
466,185,34213,1,8,0:1:0:0:
383,54,34521,2,0,P|314:45|250:71,1,140,8|0,0:1|0:0,0:0:0:0:
223,170,35033,2,0,L|211:240,1,46.6666666666667,8|8,0:0|0:0,0:0:0:0:
191,368,35444,5,8,0:1:0:0:
70,272,35751,2,0,P|44:209|63:118,1,140,8|8,0:0|0:1,0:0:0:0:
153,21,36367,1,8,0:0:0:0:
270,120,36674,1,8,0:1:0:0:
402,40,36982,2,0,P|446:93|458:161,1,140,8|0,0:0|0:0,0:0:0:0:
445,263,37495,6,0,L|399:272,1,46.6666666666667,0|4,0:0|0:3,0:0:0:0:
335,352,37803,2,0,L|289:361,1,46.6666666666667,4|0,0:3|0:0,0:0:0:0:
135,361,38213,6,0,P|78:324|53:247,1,140,4|4,0:1|0:3,0:0:0:0:
114,117,38828,2,0,L|245:189,1,140,0|4,0:0|0:3,0:0:0:0:
375,253,39444,2,0,P|428:211|446:132,1,140,0|4,0:0|0:3,0:0:0:0:
307,77,40059,1,0,0:0:0:0:
170,5,40367,21,8,0:1:0:0:
102,142,40674,2,0,B|74:212|121:214|93:293,1,140,4|4,0:1|0:3,0:0:0:0:
245,323,41290,2,0,B|273:253|226:251|254:172,1,140,0|4,0:0|0:3,0:0:0:0:
296,38,41905,5,4,0:3:0:0:
441,87,42213,1,4,0:3:0:0:
399,180,42418,2,0,B|367:267|430:269|392:363,1,186.666666666667,4|0,0:3|0:0,0:0:0:0:
245,315,43136,38,0,P|194:351|161:298,1,140,4|4,0:1|0:3,0:0:0:0:
148,144,43751,2,0,P|114:90|64:127,1,140,4|4,0:3|0:3,0:0:0:0:
9,272,44367,1,4,0:3:0:0:
161,298,44674,21,4,0:3:0:0:
315,303,44982,2,0,P|397:266|431:209,1,140,0|4,0:0|0:3,0:0:0:0:
325,108,45598,2,0,B|256:123|256:123|177:106,1,140,4|0,0:3|0:0,0:0:0:0:
87,226,46213,2,0,P|131:279|197:303,1,140,4|4,0:3|0:3,0:0:0:0:
349,277,46828,5,4,0:3:0:0:
431,146,47136,2,0,P|389:125|342:123,1,93.3333333333333,4|8,0:3|0:1,0:0:0:0:
293,138,47444,2,0,P|246:135|204:116,1,93.3333333333333,4|0,0:3|0:0,0:0:0:0:
167,80,47752,1,4,0:3:0:0:
79,206,48059,6,0,L|116:300,1,93.3333333333333,4|0,0:1|0:0,0:0:0:0:
144,333,48367,2,0,P|186:301|238:291,1,93.3333333333333,4|0,0:3|0:0,0:0:0:0:
275,283,48674,1,0,0:0:0:0:
423,324,48982,1,4,0:3:0:0:
451,172,49290,6,0,L|416:85,1,93.3333333333333,4|0,0:1|0:0,0:0:0:0:
386,43,49598,2,0,P|354:76|310:89,1,93.3333333333333,4|0,0:3|0:0,0:0:0:0:
259,92,49905,1,0,0:0:0:0:
111,47,50213,1,4,0:3:0:0:
146,197,50521,22,0,P|144:254|122:299,1,93.3333333333333,4|0,0:1|0:0,0:0:0:0:
105,332,50828,2,0,P|154:332|215:361,1,93.3333333333333,4|0,0:3|0:0,0:0:0:0:
241,368,51136,1,0,0:0:0:0:
364,275,51444,2,0,P|407:290|454:290,1,93.3333333333333,4|0,0:3|0:0,0:0:0:0:
503,277,51751,2,0,B|474:233|490:181|490:181|453:169|453:169|468:116|429:67,1,233.333333333333,4|4,0:3|0:3,0:0:0:0:
399,43,52367,5,4,0:3:0:0:
256,100,52674,1,4,0:3:0:0:
113,43,52982,2,0,P|54:79|37:145,1,140,4|4,0:1|0:3,0:0:0:0:
102,284,53598,2,0,P|160:248|177:182,1,140,0|4,0:0|0:3,0:0:0:0:
336,181,54213,6,0,P|339:226|366:264,1,93.3333333333333,4|0,0:1|0:0,0:0:0:0:
411,288,54521,2,0,L|479:214,1,93.3333333333333,4|0,0:3|0:0,0:0:0:0:
480,168,54828,2,0,P|476:122|449:84,1,93.3333333333333,4|0,0:3|0:0,0:0:0:0:
409,51,55136,1,4,0:3:0:0:
253,71,55444,22,0,B|222:136|222:136|156:163,1,140,4|4,0:1|0:3,0:0:0:0:
61,194,55957,1,0,0:0:0:0:
76,242,56059,2,0,B|147:267|147:267|223:233,1,140,8|4,0:0|0:3,0:0:0:0:
342,168,56674,6,0,B|406:147|406:147|472:177,1,140,8|4,0:0|0:3,0:0:0:0:
479,280,57187,1,0,0:0:0:0:
433,303,57290,2,0,B|368:323|368:323|302:293,1,140,8|4,0:0|0:3,0:0:0:0:
177,203,57905,6,0,P|114:221|38:201,1,140,8|4,0:0|0:3,0:0:0:0:
106,63,58521,2,0,P|173:45|239:63,1,140,8|4,0:0|0:3,0:0:0:0:
377,131,59136,1,8,0:1:0:0:
377,131,60059,37,8,0:1:0:0:
253,38,60367,2,0,B|215:26|178:45|162:70|162:70|95:75,1,140,4|8,0:1|0:3,0:0:0:0:
24,50,60880,2,0,P|19:72|22:95,1,46.6666666666667,8|4,0:3|0:3,0:0:0:0:
103,226,61290,5,0,0:0:0:0:
228,314,61597,2,0,P|298:328|360:300,1,140,0|8,0:0|0:1,0:0:0:0:
415,214,62110,2,0,L|399:170,1,46.6666666666667,0|4,0:0|0:3,0:0:0:0:
338,27,62521,5,8,0:1:0:0:
185,44,62828,2,0,L|152:149,1,93.3333333333333,8|0,0:1|0:0,0:0:0:0:
141,181,63136,1,8,0:1:0:0:
34,292,63444,2,0,P|68:329|142:337,1,93.3333333333333,2|0,0:0|0:0,0:0:0:0:
159,343,63752,5,2,0:0:0:0:
310,315,64059,1,8,0:1:0:0:
358,168,64367,2,0,P|347:102|294:49,1,140,0|4,0:0|0:3,0:0:0:0:
144,31,64982,21,0,0:0:0:0:
48,151,65290,2,0,B|36:189|55:226|80:242|80:242|85:309,1,140,4|8,0:1|0:3,0:0:0:0:
56,378,65803,2,0,P|78:382|101:379,1,46.6666666666667,8|4,0:3|0:3,0:0:0:0:
247,327,66213,5,0,0:0:0:0:
399,347,66521,2,0,P|455:307|477:242,1,140,0|0,0:0|0:0,0:0:0:0:
474,139,67033,2,0,L|461:93,1,46.6666666666667,0|2,0:0|0:0,0:0:0:0:
314,44,67444,5,2,0:0:0:0:
280,194,67751,2,0,P|214:229|151:219,1,140,8|8,0:1|0:1,0:0:0:0:
185,69,68367,2,0,P|250:33|313:43,1,140,4|8,0:3|0:1,0:0:0:0:
442,132,68982,5,8,0:1:0:0:
391,277,69290,2,0,P|348:308|305:316,1,93.3333333333333,4|0,0:3|0:0,0:0:0:0:
258,313,69597,1,4,0:3:0:0:
286,160,69905,1,4,0:3:0:0:
359,24,70213,22,0,P|417:72|440:150,1,140,4|8,0:1|0:1,0:0:0:0:
391,277,70828,1,8,0:1:0:0:
286,160,71136,1,8,0:1:0:0:
171,56,71444,2,0,P|132:121|137:203,1,140,8|8,0:1|0:1,0:0:0:0:
204,255,71956,2,0,P|186:269|164:279,1,46.6666666666667,8|8,0:0|0:0,0:0:0:0:
11,295,72367,5,8,0:1:0:0:
142,374,72674,2,0,P|210:362|263:317,1,140,8|8,0:0|0:1,0:0:0:0:
331,179,73290,1,8,0:0:0:0:
455,268,73597,1,8,0:1:0:0:
488,117,73905,2,0,P|450:58|388:27,1,140,8|0,0:0|0:0,0:0:0:0:
285,28,74418,6,0,L|239:37,1,46.6666666666667,0|4,0:0|0:3,0:0:0:0:
169,112,74726,2,0,L|123:121,1,46.6666666666667,4|0,0:3|0:0,0:0:0:0:
32,245,75136,6,0,P|56:309|114:347,1,140,4|4,0:1|0:3,0:0:0:0:
268,343,75751,2,0,L|420:307,1,140,0|4,0:0|0:3,0:0:0:0:
483,177,76367,2,0,P|458:112|400:74,1,140,0|4,0:0|0:3,0:0:0:0:
250,42,76982,1,0,0:0:0:0:
96,51,77290,21,8,0:1:0:0:
50,198,77598,2,0,B|120:226|122:179|201:207,1,140,4|4,0:1|0:3,0:0:0:0:
289,318,78213,2,0,B|223:294|221:341|151:313,1,140,0|4,0:0|0:3,0:0:0:0:
50,198,78827,5,4,0:3:0:0:
96,51,79135,1,4,0:3:0:0:
186,99,79341,2,0,B|273:131|275:68|369:106,1,186.666666666667,4|4,0:3|0:3,0:0:0:0:
479,211,80059,38,0,P|484:273|422:275,1,140,4|4,0:1|0:3,0:0:0:0:
280,336,80674,2,0,P|220:355|204:295,1,140,4|4,0:3|0:3,0:0:0:0:
290,165,81290,1,4,0:3:0:0:
255,15,81597,21,4,0:3:0:0:
405,48,81905,2,0,L|435:184,1,140,0|4,0:0|0:3,0:0:0:0:
498,322,82521,2,0,P|431:337|364:318,1,140,4|0,0:3|0:0,0:0:0:0:
226,383,83136,2,0,P|210:315|229:248,1,140,4|4,0:3|0:3,0:0:0:0:
311,119,83751,5,4,0:3:0:0:
181,35,84059,2,0,P|134:37|93:58,1,93.3333333333333,4|8,0:3|0:1,0:0:0:0:
59,97,84367,2,0,P|77:139|80:185,1,93.3333333333333,4|0,0:3|0:0,0:0:0:0:
73,236,84675,1,4,0:3:0:0:
189,335,84982,6,0,L|203:242,1,93.3333333333333,4|0,0:1|0:0,0:0:0:0:
222,195,85290,2,0,P|264:163|316:153,1,93.3333333333333,4|0,0:3|0:0,0:0:0:0:
353,146,85597,1,0,0:0:0:0:
478,235,85905,1,4,0:3:0:0:
414,375,86213,6,0,P|380:352|351:297,1,93.3333333333333,4|0,0:1|0:0,0:0:0:0:
303,298,86521,2,0,P|269:325|217:335,1,93.3333333333333,4|0,0:3|0:0,0:0:0:0:
170,334,86828,1,0,0:0:0:0:
45,243,87136,1,4,0:3:0:0:
33,89,87444,22,0,P|67:62|119:52,1,93.3333333333333,4|0,0:1|0:0,0:0:0:0:
164,66,87751,2,0,L|200:165,1,93.3333333333333,4|0,0:3|0:0,0:0:0:0:
211,203,88059,1,0,0:0:0:0:
365,203,88367,2,0,L|393:113,1,93.3333333333333,4|0,0:3|0:0,0:0:0:0:
438,86,88674,2,0,B|475:119|504:124|504:124|484:187|484:187|519:228|494:289,1,233.333333333333,4|4,0:3|0:3,0:0:0:0:
479,319,89290,5,4,0:3:0:0:
325,317,89597,1,4,0:3:0:0:
179,368,89905,2,0,P|119:333|100:268,1,140,4|4,0:1|0:3,0:0:0:0:
164,127,90521,2,0,P|101:154|37:131,1,140,0|4,0:0|0:3,0:0:0:0:
138,14,91136,6,0,P|191:7|237:31,1,93.3333333333333,4|0,0:1|0:0,0:0:0:0:
266,54,91444,2,0,L|313:164,1,93.3333333333333,4|0,0:3|0:0,0:0:0:0:
334,179,91751,2,0,P|379:201|430:191,1,93.3333333333333,4|0,0:3|0:0,0:0:0:0:
463,167,92059,1,4,0:3:0:0:
471,323,92367,38,0,B|433:324|409:350|409:350|371:334|336:344,1,140,4|8,0:1|0:1,0:0:0:0:
186,353,92982,2,0,B|148:352|124:326|124:326|86:342|55:333,1,140,2|8,0:0|0:1,0:0:0:0:
61,178,93598,22,0,P|52:137|66:87,2,93.3333333333333,2|8|8,0:0|0:1|0:1,0:0:0:0:
158,144,94213,1,2,0:0:0:0:
265,254,94521,1,8,0:1:0:0:
393,169,94828,38,0,P|423:114|367:87,1,140,8|2,0:1|0:0,0:0:0:0:
215,80,95444,2,0,P|152:80|157:143,1,140,8|2,0:1|0:0,0:0:0:0:
131,295,96059,22,0,P|162:348|214:313,1,140,8|2,0:1|0:0,0:0:0:0:
353,247,96674,2,0,P|405:271|458:257,1,93.3333333333333,2|8,0:0|0:1,0:0:0:0:
479,234,96982,2,0,B|469:204|469:204|472:141,1,93.3333333333333,2|0,0:0|0:0,0:0:0:0:
473,90,97290,1,4,0:1:0:0:
195,224,97905,6,0,B|182:284|182:284|154:312,2,93.3333333333333,8|8|8,0:1|0:1|0:1,0:0:0:0:
193,120,98521,2,0,P|156:99|129:54,2,93.3333333333333,2|2|2,0:0|0:0|0:0,0:0:0:0:
295,122,99136,1,8,0:1:0:0:
354,264,99444,1,2,0:0:0:0:
213,326,99751,54,0,P|138:314|85:277,1,140,2|8,0:0|0:1,0:0:0:0:
87,123,100367,2,0,P|138:91|154:48,1,93.3333333333333,8|0,0:1|0:0,0:0:0:0:
166,13,100674,2,0,P|189:52|230:73,1,93.3333333333333,2|2,0:0|0:0,0:0:0:0:
280,84,100982,1,4,0:1:0:0:
435,61,101290,2,0,P|436:105|412:154,1,93.3333333333333,4|0,0:3|0:0,0:0:0:0:
387,192,101598,1,4,0:3:0:0:
88,115,102213,22,0,B|122:176|122:176|122:252,1,140,4|4,0:1|0:3,0:0:0:0:
248,333,102828,2,0,B|311:362|311:362|387:326,1,140,8|4,0:0|0:3,0:0:0:0:
502,246,103444,2,0,L|502:152,1,93.3333333333333,8|0,0:0|0:0,0:0:0:0:
466,116,103751,2,0,B|417:116|417:116|363:91,1,93.3333333333333,4|4,0:3|0:3,0:0:0:0:
331,71,104059,2,0,P|260:54|171:91,1,140,8|4,0:0|0:3,0:0:0:0:
76,168,104674,22,0,B|100:240|100:240|84:274|84:274|101:317,1,140,8|4,0:0|0:3,0:0:0:0:
233,364,105290,2,0,B|242:339|242:339|226:305|226:305|250:233,1,140,8|4,0:0|0:3,0:0:0:0:
303,88,105905,1,8,0:0:0:0:
453,56,106213,2,0,P|469:37|502:22,2,46.6666666666667,4|0|4,0:3|0:0|0:3,0:0:0:0:
434,104,106521,2,0,L|390:238,1,140,4|4,0:3|0:3,0:0:0:0:
256,313,107136,38,0,B|197:313|197:313|166:269,1,93.3333333333333,4|0,0:1|0:0,0:0:0:0:
144,245,107444,2,0,P|161:200|155:147,1,93.3333333333333,4|0,0:3|0:0,0:0:0:0:
123,118,107751,2,0,B|64:118|64:118|33:74,1,93.3333333333333,8|0,0:0|0:0,0:0:0:0:
10,51,108059,1,4,0:3:0:0:
160,15,108367,22,0,B|235:15|235:15|292:64,1,140,8|4,0:0|0:3,0:0:0:0:
397,160,108982,2,0,P|343:202|275:211,1,140,8|4,0:0|0:3,0:0:0:0:
130,155,109598,38,0,P|115:203|121:253,2,93.3333333333333,8|0|0,0:0|0:0|0:0,0:0:0:0:
187,70,110213,2,0,B|142:55|142:55|96:58,2,93.3333333333333,8|0|0,0:0|0:0|0:0,0:0:0:0:
276,121,110828,21,4,0:1:0:0:
423,78,111135,2,0,P|434:122|425:167,1,93.3333333333333,2|2,0:1|0:1,0:0:0:0:
445,215,111443,2,0,P|456:259|446:304,1,93.3333333333333,2|2,0:1|0:1,0:0:0:0:
422,350,111751,1,2,0:1:0:0:
331,265,112059,37,4,0:1:0:0:
226,330,112367,2,0,P|169:341|100:321,1,112,2|0,0:0|0:0,0:0:0:0:
62,206,112982,2,0,P|104:200|139:205,1,74.6666666666667,2|0,0:0|0:0,0:0:0:0:
293,118,113598,2,0,P|347:107|401:118,2,112,2|2|2,0:0|0:0|0:0,0:0:0:0:
195,211,114521,53,2,0:0:0:0:
249,333,114828,1,2,0:0:0:0:
348,242,115136,1,2,0:0:0:0:
293,118,115444,2,0,P|257:88|216:79,1,74.6666666666667,2|0,0:0|0:0,0:0:0:0:
186,86,115751,2,0,L|63:111,1,112,2|2,0:0|0:0,0:0:0:0:
48,240,116367,2,0,L|171:215,1,112,2|2,0:0|0:0,0:0:0:0:
290,193,116982,5,2,0:0:0:0:
348,314,117290,2,0,P|405:325|474:305,1,112,2|2,0:0|0:0,0:0:0:0:
512,190,117905,2,0,P|470:184|435:189,1,74.6666666666667,2|0,0:0|0:0,0:0:0:0:
262,151,118521,2,0,P|251:94|271:25,2,112,2|2|2,0:0|0:0|0:0,0:0:0:0:
339,258,119444,53,2,0:0:0:0:
235,343,119751,1,2,0:0:0:0:
104,308,120059,1,2,0:0:0:0:
126,175,120367,2,0,P|120:135|107:104,1,74.6666666666667,2|0,0:0|0:0,0:0:0:0:
81,67,120674,2,0,L|209:27,1,112,2|2,0:0|0:0,0:0:0:0:
279,132,121290,2,0,L|385:98,1,112,2|2,0:0|0:0,0:0:0:0:
473,205,121905,5,4,0:1:0:0:
379,307,122213,2,0,P|318:326|258:309,1,125.999996154785,2|2,0:1|0:1,0:0:0:0:
128,261,122828,2,0,P|96:290|58:303,1,83.9999974365235,2|2,0:0|0:0,0:0:0:0:
52,117,123444,2,0,P|100:63|153:46,2,125.999996154785,2|2|2,0:0|0:0|0:0,0:0:0:0:
43,255,124367,53,2,0:0:0:0:
155,335,124674,1,2,0:0:0:0:
272,260,124982,1,2,0:0:0:0:
368,359,125290,2,0,P|395:327|408:287,1,83.9999974365235,2|0,0:0|0:0,0:0:0:0:
413,241,125598,2,0,L|451:111,1,125.999996154785,2|2,0:0|0:0,0:0:0:0:
346,26,126213,2,0,L|310:146,1,125.999996154785,2|2,0:0|0:0,0:0:0:0:
272,280,126828,5,2,0:0:0:0:
135,307,127136,1,8,0:0:0:0:
46,209,127444,1,2,0:0:0:0:
14,74,127751,2,0,P|62:69|115:101,1,83.9999974365235,8|2,0:0|0:0,0:0:0:0:
126,115,128059,2,0,P|199:130|255:111,1,125.999996154785,2|8,0:0|0:0,0:0:0:0:
363,40,128674,2,0,P|436:25|492:44,1,125.999996154785,2|8,0:0|0:0,0:0:0:0:
428,167,129290,53,2,0:0:0:0:
368,291,129597,1,8,0:0:0:0:
256,373,129905,1,2,0:0:0:0:
144,291,130213,1,8,0:0:0:0:
84,167,130520,1,4,0:0:0:0:
256,34,131136,1,0,0:0:0:0:
176,285,131752,6,0,B|112:306|112:306|46:276,1,140,4|4,0:1|0:3,0:0:0:0:
39,173,132264,1,0,0:0:0:0:
85,150,132367,2,0,B|150:130|150:130|216:160,1,140,8|4,0:0|0:3,0:0:0:0:
353,237,132982,6,0,B|417:258|417:258|483:228,1,140,8|4,0:0|0:3,0:0:0:0:
490,125,133495,1,0,0:0:0:0:
444,102,133598,2,0,B|379:82|379:82|313:112,1,140,8|0,0:0|0:0,0:0:0:0:
229,242,134213,6,0,P|197:303|162:375,1,140,4|4,0:1|0:3,0:0:0:0:
21,316,134828,2,0,L|64:171,1,140,4|4,0:1|0:3,0:0:0:0:
104,53,135444,6,0,P|158:94|227:95,1,140,4|4,0:1|0:3,0:0:0:0:
234,248,136059,2,0,P|264:310|325:341,1,140,4|4,0:1|0:3,0:0:0:0:
379,192,136674,6,0,P|394:131|332:119,1,140,4|4,0:1|0:3,0:0:0:0:
178,120,137290,2,0,P|116:131|131:192,1,140,4|4,0:3|0:3,0:0:0:0:
256,283,137905,1,4,0:3:0:0:
379,192,138212,21,4,0:3:0:0:
401,344,138521,2,0,P|493:298|515:244,1,140,0|0,0:0|0:0,0:0:0:0:
508,115,139136,2,0,P|467:60|401:39,1,140,4|4,0:3|0:3,0:0:0:0:
379,192,139751,2,0,L|222:154,1,140,4|4,0:3|0:3,0:0:0:0:
145,39,140366,5,4,0:3:0:0:
37,149,140674,2,0,P|40:204|65:237,1,93.3333333333333,4|8,0:3|0:1,0:0:0:0:
107,257,140982,2,0,L|194:288,1,93.3333333333333,4|0,0:3|0:0,0:0:0:0:
243,306,141290,1,4,0:3:0:0:
386,361,141597,6,0,P|401:316|392:267,1,93.3333333333333,4|0,0:1|0:0,0:0:0:0:
364,229,141905,2,0,L|396:129,1,93.3333333333333,4|0,0:3|0:0,0:0:0:0:
409,91,142212,1,0,0:0:0:0:
256,67,142520,1,4,0:3:0:0:
119,140,142828,6,0,L|148:229,1,93.3333333333333,4|0,0:1|0:0,0:0:0:0:
174,273,143136,2,0,P|230:268|272:291,1,93.3333333333333,4|0,0:3|0:0,0:0:0:0:
307,307,143443,1,0,0:0:0:0:
440,230,143751,1,4,0:3:0:0:
467,78,144059,22,0,P|421:71|369:92,1,93.3333333333333,4|0,0:1|0:0,0:0:0:0:
334,113,144367,2,0,P|293:90|237:92,1,93.3333333333333,4|0,0:3|0:0,0:0:0:0:
198,105,144674,1,0,0:0:0:0:
121,238,144982,2,0,P|162:257|217:252,1,93.3333333333333,4|0,0:3|0:0,0:0:0:0:
256,235,145290,2,0,B|314:240|337:286|337:286|372:268|372:268|397:301|397:301|420:283|459:285,1,233.333333333333,4|4,0:3|0:3,0:0:0:0:
497,280,145905,5,4,0:3:0:0:
472,128,146212,1,4,0:3:0:0:
342,44,146521,2,0,B|312:32|273:45|273:45|252:17|214:12,1,140,4|4,0:1|0:3,0:0:0:0:
69,63,147136,2,0,B|57:92|70:131|70:131|42:152|37:190,1,140,0|4,0:0|0:3,0:0:0:0:
91,334,147751,6,0,P|152:362|187:364,1,93.3333333333333,4|0,0:1|0:0,0:0:0:0:
228,363,148059,2,0,L|322:339,1,93.3333333333333,4|0,0:3|0:0,0:0:0:0:
300,292,148367,2,0,P|287:247|291:201,1,93.3333333333333,4|0,0:3|0:0,0:0:0:0:
301,151,148674,1,4,0:3:0:0:
443,98,148982,22,0,P|456:143|451:189,1,93.3333333333333,4|0,0:1|0:0,0:0:0:0:
431,236,149290,1,4,0:3:0:0:
301,151,149598,2,0,P|246:141|192:159,1,93.3333333333333,0|0,0:0|0:0,0:0:0:0:
164,170,149905,1,4,0:3:0:0:
118,316,150213,6,0,P|174:325|228:307,1,93.3333333333333,0|0,0:0|0:0,0:0:0:0:
255,293,150521,1,4,0:3:0:0:
164,170,150828,2,0,P|151:125|156:79,1,93.3333333333333
178,32,151136,1,4,0:3:0:0:
334,32,151444,6,0,P|356:103|336:171,1,140,0|4,0:0|0:3,0:0:0:0:
322,326,152059,2,0,B|257:302|257:302|191:326,1,140,0|4,0:0|0:3,0:0:0:0:
164,170,152675,5,0,0:0:0:0:
63,57,152982,2,0,P|113:42|142:12,1,93.3333333333333,4|0,0:3|0:0,0:0:0:0:
193,13,153290,2,0,P|227:44|272:56,1,93.3333333333333,4|0,0:3|0:0,0:0:0:0:
323,56,153598,1,4,0:3:0:0:
465,119,153905,22,0,P|486:184|464:249,1,140,4|4,0:1|0:3,0:0:0:0:
334,334,154521,2,0,P|312:268|333:203,1,140,0|4,0:0|0:3,0:0:0:0:
179,203,155136,2,0,P|200:268|178:333,1,140,0|4,0:0|0:3,0:0:0:0:
49,249,155752,2,0,P|27:184|47:119,1,140,0|4,0:0|0:3,0:0:0:0:
194,69,156367,6,0,L|298:42,1,93.3333333333333,4|4,0:3|0:3,0:0:0:0:
334,28,156675,1,0,0:0:0:0:
400,166,156982,2,0,L|296:193,1,93.3333333333333,4|0,0:3|0:0,0:0:0:0:
260,201,157290,1,4,0:3:0:0:
108,251,157598,6,0,P|119:201|108:152,1,93.3333333333333,4|0,0:3|0:0,0:0:0:0:
103,109,157905,2,0,L|207:82,1,93.3333333333333,4|0,0:3|0:0,0:0:0:0:
243,72,158213,1,4,0:3:0:0:
356,175,158521,21,2,0:0:0:0:
