osu file format v14

[General]
AudioFilename: audio.mp3
AudioLeadIn: 0
PreviewTime: 861
Countdown: 0
SampleSet: Soft
StackLeniency: 0.7
Mode: 0
LetterboxInBreaks: 0
WidescreenStoryboard: 0

[Editor]
DistanceSpacing: 0.1
BeatDivisor: 4
GridSize: 4
TimelineZoom: 1.9

[Metadata]
Title:testo
TitleUnicode:testo
Artist:schoolboy
ArtistUnicode:schoolboy
Creator:schoolboy
Version:testo
Source:
Tags:sherrycherry tatemae anishina kodoku loreley komore rauf faik детство тесто detstvo Frakturehawkens smozit djulus
BeatmapID:2161911
BeatmapSetID:1033999

[Difficulty]
HPDrainRate:5
CircleSize:4
OverallDifficulty:8.3
ApproachRate:9.2
SliderMultiplier:1.7
SliderTickRate:1

[Events]
//Background and Video events
0,0,"ANIME-PICTURES.NET_-_612428-1920x1080-original-aenami-highres-wide+image-sky-cloud+(clouds).jpg",0,0
//Break Periods
//Storyboard Layer 0 (Background)
//Storyboard Layer 1 (Fail)
//Storyboard Layer 2 (Pass)
//Storyboard Layer 3 (Foreground)
//Storyboard Layer 4 (Overlay)
//Storyboard Sound Samples

[TimingPoints]
-2927,332.871012482663,4,2,1,45,1,0
1067,-100,4,2,1,30,0,0
2398,-100,4,2,1,45,0,0
23680,-153.846153846153,4,2,1,45,0,0
33180,-153.846153846153,4,2,1,10,0,0
34346,-133.333333333333,4,2,1,45,0,0
34680,-117.647058823529,4,2,1,45,0,0
35013,-105.263157894737,4,2,1,45,0,0
39650,-153.846153846154,4,2,1,45,0,0
39983,-133.333333333334,4,2,1,45,0,0
40316,-117.64705882353,4,2,1,45,0,0
40983,-153.846153846155,4,2,1,45,0,0
41316,-133.333333333333,4,2,1,45,0,0
41650,-117.647058823529,4,2,1,45,0,0
43674,-117.647058823529,4,2,1,30,0,0
44983,-100,4,2,1,45,0,0
66310,-100,4,2,1,35,0,0
76983,-100,4,2,1,10,0,0

[Colours]
Combo1 : 255,242,202
Combo2 : 202,202,255
Combo3 : 255,206,255
Combo4 : 252,190,200

[HitObjects]
240,333,1067,5,2,0:0:0:0:
215,180,1233,1,2,0:0:0:0:
368,156,1400,1,2,0:0:0:0:
392,308,1566,1,2,0:0:0:0:
289,264,1733,5,2,0:0:0:0:
283,230,1899,1,2,0:0:0:0:
318,224,2066,1,2,0:0:0:0:
324,259,2232,1,2,0:0:0:0:
304,245,2398,6,0,P|262:238|220:231,1,85,6|0,1:2|0:0,0:0:0:0:
68,98,2731,2,0,P|125:107|125:166,1,127.5,2|0,0:0|0:0,0:0:0:0:
43,188,3064,1,10,0:0:0:0:
200,45,3231,1,2,0:0:0:0:
30,198,3397,1,2,3:0:0:0:
213,35,3564,1,2,3:0:0:0:
220,231,3730,6,0,B|207:315,1,85,2|0,1:2|3:0,0:0:0:0:
290,379,4063,2,0,L|324:377,4,21.25,0|0|0|0|0,3:0|3:0|3:0|3:0|3:0,0:0:0:0:
104,263,4396,2,0,L|19:274,1,85,8|0,0:0|3:0,0:0:0:0:
13,279,4645,1,0,3:0:0:0:
6,284,4729,1,2,3:2:0:0:
204,146,4895,1,0,0:0:0:0:
88,27,5061,6,0,B|55:36|55:36|27:76|46:125,1,127.5,2|0,1:2|0:0,0:0:0:0:
106,185,5394,1,2,3:2:0:0:
228,0,5561,1,2,0:0:0:0:
308,78,5727,2,0,L|296:182,1,85,10|2,0:0|0:0,0:0:0:0:
432,342,6060,1,2,3:2:0:0:
440,300,6143,1,0,3:2:0:0:
431,259,6227,1,0,3:2:0:0:
345,301,6393,5,2,0:2:0:0:
434,86,6559,1,8,0:0:0:0:
179,175,6726,2,0,B|209:198|209:198|253:211|295:185,1,127.5,2|0,1:2|0:0,0:0:0:0:
365,134,7059,5,10,0:0:0:0:
143,74,7225,1,2,3:2:0:0:
83,296,7392,1,2,3:2:0:0:
305,355,7558,1,2,0:0:0:0:
249,19,7724,6,0,L|260:118,1,85,6|0,1:2|0:0,0:0:0:0:
444,239,8057,2,0,P|418:185|359:193,1,127.5,2|0,3:2|0:0,0:0:0:0:
368,282,8390,1,10,0:0:0:0:
426,58,8557,1,2,0:0:0:0:
197,155,8723,1,2,3:2:0:0:
175,153,8806,1,0,3:0:0:0:
153,151,8889,1,0,3:0:0:0:
68,105,9056,6,0,L|82:242,1,127.5,2|0,1:2|0:0,0:0:0:0:
93,322,9389,2,0,L|97:358,4,21.25,0|0|0|0|0,3:0|3:0|3:0|3:0|3:0,0:0:0:0:
315,236,9722,1,10,0:0:0:0:
219,119,9888,1,2,3:2:0:0:
219,119,9971,1,0,3:2:0:0:
219,119,10055,2,0,L|206:209,1,85,2|2,3:2|0:0,0:0:0:0:
361,384,10387,6,0,P|385:328|445:327,1,127.5,2|0,1:2|0:0,0:0:0:0:
512,379,10720,1,2,3:2:0:0:
341,230,10887,1,2,0:0:0:0:
425,96,11053,2,0,B|439:112|439:112|449:140|442:174,1,85,10|0,0:0|0:0,0:0:0:0:
247,289,11386,2,0,L|177:278,2,42.5,2|0|2,0:0|3:0|3:2,0:0:0:0:
338,359,11719,5,10,0:0:0:0:
230,51,11885,1,2,0:0:0:0:
314,149,12052,2,0,L|310:183,4,21.25,0|0|0|0|0,3:0|3:0|3:0|3:0|3:0,0:0:0:0:
185,251,12385,2,0,P|144:261|101:252,1,85,10|0,0:0|3:0,0:0:0:0:
338,359,12634,1,0,3:0:0:0:
351,347,12718,2,0,P|391:336|435:346,1,85,0|0,3:0|0:0,0:0:0:0:
304,85,13050,6,0,L|312:183,1,85,6|0,1:2|0:0,0:0:0:0:
143,348,13383,2,0,B|124:299|152:259|152:259|185:250,1,127.5,2|0,0:0|0:0,0:0:0:0:
263,291,13716,1,10,0:0:0:0:
166,110,13883,1,2,0:0:0:0:
91,172,14049,2,0,P|46:174|8:150,1,85,2|2,3:0|3:0,0:0:0:0:
278,25,14382,6,0,L|429:41,1,127.5,2|0,1:2|0:0,0:0:0:0:
494,53,14715,2,0,L|490:26,4,21.25,0|0|0|0|0,3:0|3:0|3:0|3:0|3:0,0:0:0:0:
326,173,15048,1,8,0:0:0:0:
442,278,15214,1,0,3:0:0:0:
442,278,15297,1,0,3:0:0:0:
442,278,15380,2,0,P|445:234|452:192,1,85,2|0,3:2|0:0,0:0:0:0:
311,361,15713,6,0,P|272:317|188:335,1,127.5,2|0,1:2|0:0,0:0:0:0:
133,368,16046,1,2,3:2:0:0:
47,115,16213,1,2,0:0:0:0:
128,167,16379,2,0,B|142:183|142:183|152:211|145:245,1,85,10|0,0:0|0:0,0:0:0:0:
1,365,16712,1,2,3:2:0:0:
0,356,16795,1,0,3:2:0:0:
0,347,16878,1,0,3:2:0:0:
47,115,17045,5,2,0:2:0:0:
204,370,17211,1,8,0:0:0:0:
309,295,17378,2,0,L|336:299,4,21.25,0|0|0|0|0,3:0|3:0|3:0|3:0|3:0,0:0:0:0:
97,192,17711,2,0,L|-10:203,1,85,10|2,0:0|3:2,0:0:0:0:
6,195,17960,1,0,3:0:0:0:
0,188,18043,1,2,3:2:0:0:
251,45,18210,1,2,0:0:0:0:
194,294,18376,6,0,B|177:316|177:316|131:333|79:309,1,127.5,6|0,1:2|0:0,0:0:0:0:
3,269,18709,1,2,3:2:0:0:
256,160,18876,1,0,0:0:0:0:
80,56,19042,5,10,0:0:0:0:
194,294,19208,1,2,0:0:0:0:
74,45,19375,1,2,3:2:0:0:
200,305,19541,1,0,3:0:0:0:
23,201,19708,6,0,B|45:181|45:181|97:162|150:200,1,127.5,2|0,1:2|0:0,0:0:0:0:
197,265,20041,2,0,L|194:293,4,21.25,0|0|0|0|0,3:0|3:0|3:0|3:0|3:0,0:0:0:0:
315,88,20374,1,10,0:0:0:0:
381,180,20540,2,0,L|375:239,1,42.5,2|0,3:2|3:2,0:0:0:0:
210,105,20706,1,2,3:2:0:0:
396,6,20873,1,2,0:0:0:0:
472,245,21039,6,0,P|480:287|476:329,1,85,2|0,1:2|0:0,0:0:0:0:
315,88,21372,2,0,P|307:46|311:4,1,85,2|2,3:2|0:0,0:0:0:0:
394,164,21705,1,10,0:0:0:0:
181,276,21871,1,0,0:0:0:0:
271,368,22038,2,0,L|276:311,2,42.5,2|0|2,0:0|3:0|3:2,0:0:0:0:
35,221,22371,5,10,0:0:0:0:
184,186,22537,1,2,0:0:0:0:
149,37,22704,1,2,1:2:0:0:
0,71,22870,1,0,3:0:0:0:
305,190,23037,6,0,P|366:204|406:158,1,127.5,10|0,0:0|3:0,0:0:0:0:
333,104,23369,1,0,3:0:0:0:
241,355,23536,1,0,3:0:0:0:
7,224,23702,6,2,B|94:200|81:274|166:253,1,165.749992412568,6|2,1:2|0:0,0:0:0:0:
239,190,24368,2,2,P|254:137|239:84,1,110.499994941712,2|2,0:0|3:0,0:0:0:0:
235,77,24784,1,0,3:0:0:0:
228,71,24867,1,0,3:0:0:0:
153,15,25034,5,2,0:0:0:0:
348,117,25200,1,0,3:0:0:0:
151,219,25367,2,0,L|154:195,4,13.812499367714,0|0|0|0|0,1:0|3:0|3:0|3:0|3:0,0:0:0:0:
231,283,25699,2,0,L|301:273,1,55.2499974708558,10|0,0:0|3:0,0:0:0:0:
292,279,25949,1,0,3:0:0:0:
299,283,26032,1,0,3:0:0:0:
383,364,26199,1,0,0:0:0:0:
501,242,26365,6,2,P|488:185|392:181,1,165.749992412568,2|0,1:2|0:0,0:0:0:0:
300,126,27031,2,2,P|282:74|298:19,1,110.499994941712,2|0,0:0|3:0,0:0:0:0:
303,17,27447,1,0,3:0:0:0:
310,13,27530,1,0,3:0:0:0:
204,176,27697,6,2,P|150:172|113:132,1,110.499994941712,2|0,0:0|1:2,0:0:0:0:
277,256,28196,1,0,3:0:0:0:
197,327,28362,2,2,B|119:313|124:372|38:355,1,165.749992412568,10|0,0:2|0:0,0:0:0:0:
0,240,29028,6,0,P|14:214|14:178,1,55.2499974708558,2|2,1:2|0:0,0:0:0:0:
158,107,29361,2,0,L|103:114,1,55.2499974708558,2|2,0:0|0:0,0:0:0:0:
227,222,29694,2,0,L|343:209,1,110.499994941712,10|0,0:0|3:0,0:0:0:0:
342,215,30110,1,0,3:0:0:0:
348,220,30193,1,0,3:0:0:0:
435,156,30360,5,2,0:2:0:0:
382,361,30526,1,0,3:0:0:0:
485,294,30693,2,0,L|501:298,4,13.812499367714,0|0|0|0|0,1:0|3:0|3:0|3:0|3:0,0:0:0:0:
314,210,31025,2,0,L|249:217,1,55.2499974708558,10|0,0:0|3:0,0:0:0:0:
251,211,31275,1,0,3:0:0:0:
243,206,31358,1,0,3:0:0:0:
160,132,31525,1,0,0:0:0:0:
34,234,31691,6,0,L|24:115,1,110.499994941712,2|2,1:2|0:0,0:0:0:0:
152,266,32190,1,2,0:0:0:0:
72,337,32357,2,0,P|44:339|16:341,1,55.2499974708558,10|0,0:0|0:0,0:0:0:0:
243,206,32690,2,0,L|282:211,2,27.6249987354279,0|0|0,3:0|3:0|3:0,0:0:0:0:
146,136,33023,6,0,P|136:110|133:76,1,55.2499974708558,2|0,0:0|0:0,0:0:0:0:
438,209,34354,6,0,L|422:295,1,63.7500024318696,6|0,1:2|3:0,0:0:0:0:
261,142,34687,2,0,L|276:232,1,72.2500013780594,2|0,3:2|3:0,0:0:0:0:
370,32,35020,2,0,L|362:129,1,80.7499978437424,10|0,0:0|3:0,0:0:0:0:
133,352,35353,1,0,3:0:0:0:
124,312,35436,1,0,3:0:0:0:
133,273,35519,1,0,3:0:0:0:
220,314,35686,5,2,0:0:0:0:
161,134,35852,1,0,3:0:0:0:
321,285,36018,5,2,1:2:0:0:
36,157,36185,1,0,3:0:0:0:
355,108,36351,5,10,0:0:0:0:
102,245,36518,1,0,3:0:0:0:
91,250,36601,1,0,3:0:0:0:
80,255,36684,2,0,L|-13:248,1,80.7499978437424,0|0,3:0|0:0,0:0:0:0:
281,374,37017,5,2,1:2:0:0:
200,111,37184,1,0,3:0:0:0:
188,334,37350,5,0,0:0:0:0:
264,26,37516,1,0,0:0:0:0:
411,219,37683,6,0,P|359:229|324:212,1,80.7499978437424,10|0,0:0|3:0,0:0:0:0:
260,157,38016,2,0,L|267:116,2,40.3749989218712,0|0|0,3:0|3:0|3:0,0:0:0:0:
248,270,38349,5,2,0:0:0:0:
366,31,38515,1,8,0:0:0:0:
155,126,38681,2,0,L|124:121,4,20.1874994609356,0|0|0|0|0,1:0|3:0|3:0|3:0|3:0,0:0:0:0:
357,319,39014,2,0,P|370:288|360:240,1,80.7499978437424,10|0,0:0|3:0,0:0:0:0:
355,232,39264,1,0,3:0:0:0:
346,223,39347,1,0,3:0:0:0:
268,157,39514,1,2,0:0:0:0:
347,74,39680,6,0,L|357:-1,1,55.2499974708558,6|0,1:2|3:0,0:0:0:0:
232,145,40013,2,0,L|221:77,1,63.7500024318696,2|0,3:2|3:0,0:0:0:0:
393,244,40346,2,0,L|408:161,1,72.2500013780594,10|0,0:0|0:0,0:0:0:0:
289,384,40679,1,0,3:0:0:0:
282,348,40762,1,0,3:0:0:0:
276,312,40845,1,0,3:0:0:0:
379,340,41012,6,0,L|440:353,1,55.2499974708558,2|0,0:0|3:0,0:0:0:0:
170,262,41344,2,0,L|96:271,1,63.7500024318696,2|0,1:2|3:0,0:0:0:0:
365,135,41677,2,0,L|457:155,1,72.2500013780594,10|0,0:0|3:0,0:0:0:0:
222,2,42010,1,0,3:0:0:0:
229,37,42093,1,0,0:0:0:0:
236,72,42177,1,0,0:0:0:0:
262,182,42343,5,2,1:2:0:0:
336,14,42509,1,0,3:0:0:0:
277,288,42676,5,2,3:2:0:0:
151,36,42842,1,0,0:0:0:0:
405,178,43009,5,10,0:0:0:0:
111,291,43175,1,0,3:0:0:0:
259,373,43342,2,0,L|252:320,2,36.1250006890297,0|0|0,3:0|3:0|3:0,0:0:0:0:
54,196,43675,5,2,0:0:0:0:
58,167,43841,1,2,0:0:0:0:
80,185,44007,1,2,0:0:0:0:
54,196,44174,1,2,0:0:0:0:
1,260,44340,5,2,0:0:0:0:
28,89,44507,1,2,0:0:0:0:
163,198,44673,1,2,0:0:0:0:
1,260,44840,1,2,0:0:0:0:
157,84,45006,6,0,L|250:71,1,85,6|0,1:2|0:0,0:0:0:0:
424,207,45339,2,0,P|363:215|325:164,1,127.5,2|0,0:0|0:0,0:0:0:0:
403,123,45672,1,10,0:0:0:0:
316,317,45838,1,2,0:0:0:0:
122,230,46005,1,2,3:0:0:0:
208,36,46171,1,2,3:0:0:0:
262,181,46337,6,0,L|252:274,1,85,2|0,1:2|3:0,0:0:0:0:
170,318,46670,2,0,L|138:313,4,21.25,0|0|0|0|0,1:0|0:0|0:0|0:0|0:0,0:0:0:0:
385,198,47003,1,8,0:0:0:0:
168,72,47170,1,0,3:0:0:0:
168,72,47253,1,0,3:0:0:0:
168,72,47336,2,0,L|183:172,1,85,2|2,3:2|0:0,0:0:0:0:
339,373,47669,6,0,B|358:326|338:280|338:280|301:269,1,127.5,2|0,1:2|0:0,0:0:0:0:
230,311,48002,1,2,3:2:0:0:
168,72,48168,1,2,0:0:0:0:
367,177,48335,2,0,L|459:168,1,85,10|2,0:0|0:0,0:0:0:0:
504,251,48668,2,0,L|494:302,2,42.5,2|0|0,3:2|3:2|3:2,0:0:0:0:
283,52,49000,5,2,0:2:0:0:
366,322,49167,1,8,0:0:0:0:
105,222,49333,2,0,L|231:205,1,127.5,2|0,1:2|0:0,0:0:0:0:
321,191,49666,5,10,0:0:0:0:
86,103,49833,1,2,3:2:0:0:
227,340,49999,1,2,3:2:0:0:
301,39,50165,1,2,0:0:0:0:
105,221,50332,6,0,P|63:227|24:212,1,85,6|0,1:2|0:0,0:0:0:0:
246,361,50665,2,0,P|305:318|364:338,1,127.5,2|0,3:2|0:0,0:0:0:0:
425,380,50998,1,10,0:0:0:0:
246,223,51164,1,2,0:0:0:0:
423,89,51331,1,2,3:2:0:0:
433,130,51414,1,0,3:0:0:0:
427,171,51497,1,0,3:0:0:0:
339,135,51663,6,0,B|245:124,1,85,2|0,1:2|0:0,0:0:0:0:
173,61,51996,2,0,L|169:28,4,21.25,0|0|0|0|0,1:0|0:0|0:0|0:0|0:0,0:0:0:0:
0,184,52329,1,10,0:0:0:0:
125,299,52496,1,2,3:2:0:0:
125,299,52579,1,0,3:2:0:0:
125,299,52662,2,0,P|118:250|111:203,1,85,2|2,3:2|0:0,0:0:0:0:
299,108,52995,6,0,L|437:88,1,127.5,2|0,1:2|0:0,0:0:0:0:
501,139,53328,1,2,3:2:0:0:
258,0,53494,1,2,0:0:0:0:
354,276,53661,6,0,B|373:259|373:259|391:207|361:123,1,127.5,10|0,0:0|0:0,0:0:0:0:
299,108,53994,1,2,0:0:0:0:
217,354,54160,1,2,3:2:0:0:
20,248,54326,5,10,0:0:0:0:
253,219,54493,1,2,0:0:0:0:
0,83,54659,1,2,1:2:0:0:
233,54,54826,1,0,3:0:0:0:
141,310,54992,2,0,L|129:202,1,85,10|0,0:0|3:0,0:0:0:0:
136,218,55242,1,0,3:0:0:0:
141,211,55325,1,0,3:0:0:0:
58,378,55491,1,0,3:0:0:0:
341,305,55658,6,0,P|305:282|263:279,1,85,6|0,1:2|0:0,0:0:0:0:
155,159,55991,2,0,L|170:17,1,127.5,2|0,0:0|0:0,0:0:0:0:
187,25,56324,1,10,0:0:0:0:
3,140,56490,1,2,0:0:0:0:
73,225,56656,2,0,L|79:285,2,42.5,2|0|2,3:0|3:0|3:0,0:0:0:0:
255,95,56989,6,0,P|329:92|368:131,1,127.5,2|0,1:2|0:0,0:0:0:0:
447,79,57322,2,0,L|451:52,4,21.25,0|0|0|0|0,1:0|0:0|0:0|0:0|0:0,0:0:0:0:
306,278,57655,2,0,L|297:179,1,85,8|0,0:0|3:0,0:0:0:0:
297,184,57905,1,0,3:0:0:0:
296,175,57988,1,2,3:2:0:0:
442,274,58154,1,0,0:0:0:0:
229,359,58321,6,0,B|209:368|209:368|151:378|112:332,1,127.5,2|0,1:2|0:0,0:0:0:0:
49,268,58654,2,0,L|141:248,1,85,2|2,3:2|0:0,0:0:0:0:
0,159,58987,1,10,0:0:0:0:
203,77,59153,1,2,0:0:0:0:
86,0,59319,1,2,3:2:0:0:
92,42,59403,1,0,3:2:0:0:
98,84,59486,1,0,3:2:0:0:
132,249,59652,5,2,0:2:0:0:
296,0,59819,1,8,0:0:0:0:
378,78,59985,2,0,L|406:75,4,21.25,0|0|0|0|0,1:0|0:0|0:0|0:0|0:0,0:0:0:0:
256,192,60318,1,10,0:0:0:0:
340,311,60484,2,0,L|344:268,1,42.5,2|0,3:2|3:0,0:0:0:0:
153,50,60651,2,0,L|162:134,1,85,2|2,3:2|0:0,0:0:0:0:
12,267,60984,6,0,P|53:249|86:336,1,127.5,6|0,1:2|0:0,0:0:0:0:
171,359,61317,2,0,L|285:344,1,85,2|0,3:2|0:0,0:0:0:0:
460,257,61650,1,10,0:0:0:0:
281,154,61816,1,2,0:0:0:0:
345,281,61982,2,0,L|353:233,2,42.5,2|0|0,3:2|3:0|3:0,0:0:0:0:
180,66,62315,6,0,B|152:82|152:82|135:122|159:185,1,127.5,2|0,1:2|0:0,0:0:0:0:
87,233,62648,2,0,L|51:227,4,21.25,0|0|0|0|0,1:0|0:0|0:0|0:0|0:0,0:0:0:0:
196,353,62981,2,0,P|251:333|303:339,1,85,10|2,0:0|3:2,0:0:0:0:
284,336,63231,1,0,3:2:0:0:
290,340,63314,1,2,3:2:0:0:
426,137,63480,1,2,0:0:0:0:
499,252,63647,6,0,B|481:271|481:271|431:285|367:252,1,127.5,2|0,1:2|0:0,0:0:0:0:
303,210,63980,1,2,3:2:0:0:
499,49,64146,1,2,0:0:0:0:
218,128,64313,6,0,L|82:114,1,127.5,10|0,0:0|0:0,0:0:0:0:
0,86,64645,2,0,L|4:128,2,42.5,2|0|2,0:0|3:0|3:2,0:0:0:0:
29,310,64978,5,10,0:0:0:0:
134,27,65145,1,2,0:0:0:0:
221,262,65311,1,2,1:2:0:0:
301,157,65478,1,0,3:0:0:0:
394,214,65644,2,0,L|492:202,1,85,10|0,0:0|3:0,0:0:0:0:
485,208,65894,1,0,3:0:0:0:
492,212,65977,1,0,3:0:0:0:
215,103,66143,1,0,3:0:0:0:
341,384,66310,5,2,1:2:0:0:
345,367,66643,1,2,0:0:0:0:
349,350,66975,1,2,0:2:0:0:
353,333,67308,1,2,0:0:0:0:
66,236,67641,5,2,1:2:0:0:
36,156,67974,1,2,0:0:0:0:
116,127,68307,1,2,0:0:0:0:
145,206,68640,1,2,0:0:0:0:
366,49,68973,5,2,1:2:0:0:
366,49,69306,1,2,0:0:0:0:
366,49,69638,1,2,0:0:0:0:
366,49,69971,1,2,0:0:0:0:
62,285,71636,5,2,1:2:0:0:
1,226,71969,1,2,0:2:0:0:
38,150,72301,1,2,0:2:0:0:
122,161,72634,1,2,0:2:0:0:
137,245,72967,5,2,1:2:0:0:
153,242,73300,1,2,0:0:0:0:
169,239,73633,1,2,0:0:0:0:
185,236,73966,1,2,0:0:0:0:
481,31,74299,5,2,1:2:0:0:
433,98,74632,1,2,0:0:0:0:
480,15,74964,5,2,0:0:0:0:
503,172,75297,1,2,0:0:0:0:
256,192,76962,12,0,80956,0:0:0:0:
