osu file format v14

[General]
AudioFilename: audio.mp3
AudioLeadIn: 0
PreviewTime: 861
Countdown: 0
SampleSet: Soft
StackLeniency: 0.7
Mode: 0
LetterboxInBreaks: 0
WidescreenStoryboard: 0

[Editor]
DistanceSpacing: 0.1
BeatDivisor: 8
GridSize: 4
TimelineZoom: 1.8

[Metadata]
Title:testo
TitleUnicode:testo
Artist:schoolboy
ArtistUnicode:schoolboy
Creator:schoolboy
Version:smozit's insane
Source:
Tags:sherrycherry tatemae anishina kodoku loreley komore rauf faik детство тесто detstvo Frakturehawkens smozit djulus
BeatmapID:2163253
BeatmapSetID:1033999

[Difficulty]
HPDrainRate:5
CircleSize:4
OverallDifficulty:8
ApproachRate:9
SliderMultiplier:1.6
SliderTickRate:1

[Events]
//Background and Video events
0,0,"ANIME-PICTURES.NET_-_612428-1920x1080-original-aenami-highres-wide+image-sky-cloud+(clouds).jpg",0,0
//Break Periods
//Storyboard Layer 0 (Background)
//Storyboard Layer 1 (Fail)
//Storyboard Layer 2 (Pass)
//Storyboard Layer 3 (Foreground)
//Storyboard Layer 4 (Overlay)
//Storyboard Sound Samples

[TimingPoints]
-2927,332.871012482663,4,2,1,45,1,0
1067,-100,4,2,1,30,0,0
2397,-133.333333333333,4,2,1,45,0,0
2650,-100,4,2,1,45,0,0
3650,-133.333333333333,4,2,1,45,0,0
3983,-100,4,2,1,45,0,0
4983,-133.333333333333,4,2,1,45,0,0
5316,-100,4,2,1,45,0,0
7650,-133.333333333333,4,2,1,45,0,0
7983,-100,4,2,1,45,0,0
9316,-133.333333333333,4,2,1,45,0,0
9650,-100,4,2,1,45,0,0
12983,-133.333333333333,4,2,1,45,0,0
13316,-100,4,2,1,45,0,0
15650,-133.333333333333,4,2,1,45,0,0
15983,-100,4,2,1,45,0,0
18316,-133.333333333333,4,2,1,45,0,0
18650,-100,4,2,1,45,0,0
20983,-133.333333333333,4,2,1,45,0,0
23702,-133.333333333333,4,2,1,45,0,1
24316,-100,4,2,1,45,0,1
33023,-100,4,2,1,45,0,0
34354,-100,4,2,1,45,0,1
43674,-100,4,2,1,30,0,0
45006,-100,4,2,1,45,0,1
54992,-100,4,2,1,45,0,0
55658,-100,4,2,1,45,0,1
66310,-100,4,2,1,35,0,0
76983,-100,4,2,1,10,0,0

[Colours]
Combo1 : 255,242,202
Combo2 : 203,214,254
Combo3 : 255,206,255
Combo4 : 252,190,200

[HitObjects]
129,162,1067,5,2,0:0:0:0:
60,139,1233,1,2,0:0:0:0:
60,67,1399,1,2,0:0:0:0:
129,45,1565,1,2,0:0:0:0:
171,103,1733,1,2,0:0:0:0:
129,162,1899,1,2,0:0:0:0:
87,221,2066,1,2,0:0:0:0:
129,279,2232,1,2,0:0:0:0:
198,257,2399,6,0,P|229:263|256:272,1,60.0000022888184,6|0,1:2|0:0,0:0:0:0:
299,352,2731,2,0,P|334:325|329:226,1,120,2|0,0:0|0:0,0:0:0:0:
331,230,3064,1,10,0:0:0:0:
420,169,3231,1,2,0:0:0:0:
320,111,3397,1,2,3:0:0:0:
321,124,3480,1,0,0:0:0:0:
322,138,3564,1,2,3:0:0:0:
435,34,3730,6,0,L|354:48,1,60.0000022888184,2|0,1:2|3:0,0:0:0:0:
229,141,4063,2,0,L|237:21,1,120,0|0,3:0|0:0,0:0:0:0:
216,14,4396,1,8,0:0:0:0:
101,127,4562,1,0,3:0:0:0:
102,140,4645,1,0,3:0:0:0:
104,154,4729,1,2,3:2:0:0:
156,73,4895,1,0,0:0:0:0:
27,37,5061,6,0,P|22:66|15:95,1,60.0000022888184,2|0,1:2|0:0,0:0:0:0:
40,203,5394,2,0,P|49:262|62:320,1,120,2|0,3:2|0:0,0:0:0:0:
80,342,5727,1,10,0:0:0:0:
164,368,5894,1,2,0:0:0:0:
235,316,6060,1,2,3:2:0:0:
235,316,6143,1,0,3:2:0:0:
235,316,6227,1,0,3:2:0:0:
148,282,6393,1,2,0:2:0:0:
164,368,6559,1,8,0:0:0:0:
322,361,6726,6,0,L|357:366,4,20,2|0|0|0|0,1:2|0:0|0:0|0:0|0:0,0:0:0:0:
427,311,7059,1,10,0:0:0:0:
328,207,7225,1,2,3:2:0:0:
329,226,7308,1,0,0:0:0:0:
331,245,7392,1,2,3:2:0:0:
436,195,7558,1,2,0:0:0:0:
362,45,7724,6,0,B|331:42|331:42|299:58,1,60.0000022888184,6|0,1:2|0:0,0:0:0:0:
200,159,8057,2,0,B|220:120|220:120|207:32,1,120,2|0,3:2|0:0,0:0:0:0:
181,29,8390,1,10,0:0:0:0:
81,7,8557,1,2,0:0:0:0:
20,157,8723,1,2,3:2:0:0:
18,140,8806,1,0,3:0:0:0:
16,124,8889,1,0,3:0:0:0:
123,248,9056,1,2,1:2:0:0:
5,335,9222,1,0,0:0:0:0:
176,328,9389,6,0,P|145:329|116:336,1,60,0|0,3:0|3:0,0:0:0:0:
258,281,9722,1,10,0:0:0:0:
334,369,9888,1,2,3:2:0:0:
339,356,9971,1,0,3:2:0:0:
345,344,10055,1,2,3:2:0:0:
254,382,10221,1,2,0:0:0:0:
439,300,10387,5,2,1:2:0:0:
370,231,10554,1,0,0:0:0:0:
407,143,10720,1,2,3:2:0:0:
476,212,10887,1,2,0:0:0:0:
317,155,11053,2,0,P|317:122|320:75,1,80,10|0,0:0|0:0,0:0:0:0:
463,10,11386,1,2,0:0:0:0:
464,26,11469,1,0,3:0:0:0:
465,43,11552,1,2,3:2:0:0:
378,0,11719,1,10,0:0:0:0:
320,75,11885,1,2,0:0:0:0:
166,24,12052,6,0,L|116:27,2,40,0|0|0,3:0|3:0|3:0,0:0:0:0:
230,87,12385,1,10,0:0:0:0:
101,168,12551,1,0,3:0:0:0:
102,148,12634,1,0,3:0:0:0:
103,129,12718,1,0,3:0:0:0:
208,220,12884,1,0,0:0:0:0:
42,348,13050,6,0,B|57:355|57:355|100:351,1,60.0000022888184,6|0,1:2|0:0,0:0:0:0:
233,330,13383,2,0,B|201:315|201:315|110:322,1,120,2|0,0:0|0:0,0:0:0:0:
100,351,13716,1,10,0:0:0:0:
39,252,13883,1,2,0:0:0:0:
103,129,14049,1,2,3:0:0:0:
104,145,14132,1,0,0:0:0:0:
105,162,14215,1,2,3:0:0:0:
1,83,14382,1,2,1:2:0:0:
136,18,14548,1,0,0:0:0:0:
262,119,14715,6,0,L|281:121,4,20,0|0|0|0|0,3:0|3:0|3:0|3:0|3:0,0:0:0:0:
184,89,15048,1,8,0:0:0:0:
326,54,15214,1,0,3:0:0:0:
345,56,15297,1,0,3:0:0:0:
364,58,15380,1,2,3:2:0:0:
242,31,15547,1,0,0:0:0:0:
386,184,15713,6,0,L|450:181,1,60.0000022888184,2|0,1:2|0:0,0:0:0:0:
385,339,16046,2,0,L|295:334,1,80,2|2,3:2|0:0,0:0:0:0:
431,268,16379,1,10,0:0:0:0:
470,344,16546,1,2,0:0:0:0:
322,260,16712,1,2,3:2:0:0:
321,246,16795,1,0,3:2:0:0:
320,232,16878,1,0,3:2:0:0:
470,344,17045,1,2,0:2:0:0:
219,383,17211,1,8,0:0:0:0:
226,220,17378,6,0,L|228:239,4,20,0|0|0|0|0,3:0|3:0|3:0|3:0|3:0,0:0:0:0:
200,135,17711,1,10,0:0:0:0:
289,114,17877,1,2,3:2:0:0:
289,114,17960,1,0,3:0:0:0:
289,114,18043,1,2,3:2:0:0:
310,202,18210,1,2,0:0:0:0:
28,275,18376,6,0,P|33:304|36:334,1,60,6|0,1:2|0:0,0:0:0:0:
139,384,18709,2,0,P|145:322|155:262,1,120,2|0,3:2|0:0,0:0:0:0:
148,243,19042,1,10,0:0:0:0:
241,277,19208,1,2,0:0:0:0:
311,197,19375,1,2,3:2:0:0:
308,180,19458,1,0,0:0:0:0:
305,163,19541,1,0,3:0:0:0:
393,111,19708,1,2,1:2:0:0:
486,145,19874,1,0,0:0:0:0:
378,329,20041,6,0,L|375:306,4,20,0|0|0|0|0,3:0|3:0|3:0|3:0|3:0,0:0:0:0:
471,375,20374,1,10,0:0:0:0:
437,218,20540,1,2,3:2:0:0:
435,231,20623,1,0,3:2:0:0:
433,245,20706,1,2,3:2:0:0:
393,111,20873,1,2,0:0:0:0:
191,40,21039,6,0,L|251:38,1,60.0000022888184,2|0,1:2|0:0,0:0:0:0:
139,144,21372,1,2,3:2:0:0:
29,94,21539,1,2,0:0:0:0:
132,121,21705,1,10,0:0:0:0:
149,236,21871,1,0,0:0:0:0:
57,289,22038,1,2,0:0:0:0:
57,289,22121,1,0,3:0:0:0:
57,289,22204,1,2,3:2:0:0:
144,348,22371,1,10,0:0:0:0:
236,295,22537,1,2,0:0:0:0:
410,383,22704,6,0,L|438:386,4,15.0000005722046,2|0|0|0|0,1:2|0:0|0:0|0:0|3:0,0:0:0:0:
488,312,23037,1,10,0:0:0:0:
361,223,23203,1,0,0:0:0:0:
363,206,23286,1,0,3:0:0:0:
365,190,23369,1,0,3:0:0:0:
500,76,23536,1,0,3:0:0:0:
339,27,23702,6,0,B|242:20|288:108|183:108,1,180.000006866455,6|2,1:2|0:0,0:0:0:0:
62,79,24368,2,0,B|95:37|95:37|112:158,1,160,2|2,0:0|3:0,0:0:0:0:
113,168,24784,1,0,3:0:0:0:
98,152,24867,1,0,3:0:0:0:
191,203,25034,1,2,0:0:0:0:
89,292,25200,1,0,3:0:0:0:
175,353,25367,6,0,L|203:350,4,20,0|0|0|0|0,1:0|3:0|3:0|3:0|3:0,0:0:0:0:
283,314,25699,1,10,0:0:0:0:
376,365,25866,1,0,3:0:0:0:
376,365,25949,1,0,3:0:0:0:
376,365,26032,1,0,3:0:0:0:
455,306,26199,1,0,0:0:0:0:
364,139,26365,6,0,B|335:175|335:175|377:371,1,240,2|0,1:2|0:0,0:0:0:0:
437,119,27031,2,0,P|413:81|297:99,1,160,2|0,0:0|3:0,0:0:0:0:
283,95,27447,1,0,3:0:0:0:
295,76,27530,1,0,3:0:0:0:
175,35,27697,1,2,0:0:0:0:
93,128,27863,1,0,0:0:0:0:
36,25,28030,6,0,L|33:56,4,20,0|0|0|0|0,1:2|0:0|0:0|0:0|3:0,0:0:0:0:
93,128,28362,1,10,0:2:0:0:
14,218,28529,1,0,0:0:0:0:
15,231,28612,1,0,0:0:0:0:
16,245,28695,1,0,0:0:0:0:
98,318,28862,1,0,0:0:0:0:
267,295,29028,6,0,B|173:254|190:355|99:318|99:318|124:282|160:290,1,240,2|2,1:2|0:0,0:0:0:0:
339,264,29694,2,0,P|348:312|270:376,1,160,10|0,0:0|3:0,0:0:0:0:
243,382,30110,1,0,3:0:0:0:
261,369,30193,1,0,3:0:0:0:
402,384,30360,1,2,0:2:0:0:
489,280,30526,1,0,3:0:0:0:
419,182,30693,6,0,L|423:216,4,20,0|0|0|0|0,1:0|3:0|3:0|3:0|3:0,0:0:0:0:
483,98,31025,1,10,0:0:0:0:
352,45,31192,1,0,3:0:0:0:
354,61,31275,1,0,3:0:0:0:
356,78,31358,1,0,3:0:0:0:
457,0,31525,1,0,0:0:0:0:
259,154,31691,6,0,B|124:138|193:60|43:55,1,240,2|2,1:2|0:0,0:0:0:0:
0,165,32357,2,0,B|-1:195|36:231|100:209|107:163|83:131,1,160,10|0,0:0|3:0,0:0:0:0:
73,132,32773,1,0,3:0:0:0:
75,148,32856,1,0,3:0:0:0:
154,274,33023,1,2,0:0:0:0:
500,361,34354,5,6,1:2:0:0:
375,378,34521,1,0,3:0:0:0:
304,293,34687,1,2,3:2:0:0:
429,310,34853,1,0,3:0:0:0:
498,225,35020,1,10,0:0:0:0:
373,242,35186,1,0,3:0:0:0:
295,152,35353,1,0,3:0:0:0:
308,154,35436,1,0,3:0:0:0:
322,157,35519,1,0,3:0:0:0:
220,65,35686,5,2,0:0:0:0:
171,224,35852,1,0,3:0:0:0:
151,131,36018,2,0,P|147:123|143:112,4,20,2|0|0|0|0,1:2|0:0|0:0|0:0|3:0,0:0:0:0:
54,91,36351,1,10,0:0:0:0:
28,221,36518,1,0,3:0:0:0:
26,204,36601,1,0,3:0:0:0:
24,188,36684,1,0,3:0:0:0:
89,344,36851,1,0,0:0:0:0:
269,319,37017,5,2,1:2:0:0:
175,299,37184,1,0,3:0:0:0:
349,384,37350,1,0,0:0:0:0:
443,364,37516,1,0,0:0:0:0:
332,206,37683,1,10,0:0:0:0:
238,226,37849,1,0,3:0:0:0:
454,268,38016,1,0,3:0:0:0:
449,251,38099,1,0,3:0:0:0:
444,235,38182,1,0,3:0:0:0:
443,364,38349,1,2,0:0:0:0:
477,156,38515,1,8,0:0:0:0:
395,101,38681,6,0,L|357:96,4,20,0|0|0|0|0,1:0|3:0|3:0|3:0|3:0,0:0:0:0:
480,61,39014,1,10,0:0:0:0:
325,0,39181,1,0,3:0:0:0:
327,19,39264,1,0,3:0:0:0:
329,38,39347,1,0,3:0:0:0:
232,131,39514,1,2,0:0:0:0:
86,52,39680,5,6,1:2:0:0:
173,21,39846,1,0,3:0:0:0:
106,149,40013,1,2,3:2:0:0:
19,118,40179,1,0,3:0:0:0:
91,240,40346,1,10,0:0:0:0:
178,209,40512,1,0,0:0:0:0:
127,325,40679,1,0,3:0:0:0:
110,328,40762,1,0,3:0:0:0:
94,332,40845,1,0,3:0:0:0:
282,361,41012,5,2,0:0:0:0:
212,304,41178,1,0,3:0:0:0:
374,351,41344,2,0,L|405:349,4,20,2|0|0|0|0,1:2|0:0|0:0|0:0|3:0,0:0:0:0:
435,280,41677,1,10,0:0:0:0:
316,236,41844,1,0,3:0:0:0:
317,255,41927,1,0,0:0:0:0:
318,274,42010,1,0,3:0:0:0:
404,167,42177,1,0,0:0:0:0:
290,54,42343,5,2,1:2:0:0:
324,150,42509,1,0,3:0:0:0:
191,98,42676,1,2,3:2:0:0:
225,2,42842,1,0,0:0:0:0:
104,77,43009,1,10,0:0:0:0:
142,170,43175,1,0,3:0:0:0:
33,233,43342,1,0,3:0:0:0:
34,216,43425,1,0,3:0:0:0:
36,199,43508,1,0,3:0:0:0:
199,350,43675,5,2,0:0:0:0:
291,380,43841,1,2,0:0:0:0:
347,302,44007,1,2,0:0:0:0:
291,224,44174,1,2,0:0:0:0:
199,254,44340,1,2,0:0:0:0:
142,170,44507,1,2,0:0:0:0:
202,96,44673,1,2,0:0:0:0:
294,128,44840,1,2,0:0:0:0:
291,224,45006,6,0,P|267:203|218:172,1,80,6|0,1:2|0:0,0:0:0:0:
347,302,45339,2,0,P|380:280|459:248,1,120,2|0,0:0|0:0,0:0:0:0:
480,274,45672,1,10,0:0:0:0:
418,171,45838,1,2,0:0:0:0:
491,67,46005,1,2,3:0:0:0:
492,80,46088,1,0,0:0:0:0:
493,94,46171,1,2,3:0:0:0:
382,26,46337,6,0,P|342:20|302:6,1,80,2|0,1:2|3:0,0:0:0:0:
173,119,46670,2,0,P|218:102|293:104,1,120,0|0,1:0|0:0,0:0:0:0:
306,128,47003,1,8,0:0:0:0:
177,38,47170,1,0,3:0:0:0:
178,21,47253,1,0,3:0:0:0:
180,4,47336,1,2,3:2:0:0:
43,81,47503,1,2,0:0:0:0:
139,259,47669,6,0,P|126:218|111:183,1,80,2|0,1:2|0:0,0:0:0:0:
61,346,48002,2,0,P|89:332|168:365,1,120,2|0,3:2|0:0,0:0:0:0:
177,384,48335,1,10,0:0:0:0:
268,324,48501,1,2,0:0:0:0:
379,375,48668,1,2,3:2:0:0:
362,376,48751,1,0,3:2:0:0:
345,377,48834,1,0,3:2:0:0:
411,238,49000,1,2,0:2:0:0:
509,384,49167,1,8,0:0:0:0:
436,145,49333,6,0,L|430:180,4,20,2|0|0|0|0,1:2|0:0|0:0|0:0|0:0,0:0:0:0:
457,39,49666,1,10,0:0:0:0:
321,6,49833,1,2,3:2:0:0:
323,19,49916,1,0,0:0:0:0:
326,33,49999,1,2,3:2:0:0:
266,216,50165,1,2,0:0:0:0:
138,77,50332,6,0,P|177:85|219:98,1,80,6|0,1:2|0:0,0:0:0:0:
38,140,50665,2,0,P|47:99|18:15,1,120,2|0,3:2|0:0,0:0:0:0:
13,41,50998,1,10,0:0:0:0:
122,164,51164,1,2,0:0:0:0:
17,269,51331,1,2,3:2:0:0:
15,255,51414,1,0,3:0:0:0:
14,241,51497,1,0,3:0:0:0:
98,344,51663,1,2,1:2:0:0:
213,299,51830,1,0,0:0:0:0:
322,363,51996,6,0,P|313:365|302:368,4,20,0|0|0|0|0,1:0|0:0|0:0|0:0|0:0,0:0:0:0:
459,384,52329,1,10,0:0:0:0:
380,247,52496,1,2,3:2:0:0:
381,266,52579,1,0,3:2:0:0:
383,285,52662,1,2,3:2:0:0:
508,194,52828,1,2,0:0:0:0:
339,92,52995,5,2,1:2:0:0:
393,171,53161,1,0,0:0:0:0:
377,9,53328,1,2,3:2:0:0:
241,97,53494,1,2,0:0:0:0:
431,83,53661,2,0,P|465:79|510:75,1,80,10|0,0:0|0:0,0:0:0:0:
283,21,53994,1,2,0:0:0:0:
264,16,54077,1,0,0:0:0:0:
245,15,54160,1,2,3:2:0:0:
339,92,54326,1,10,0:0:0:0:
282,177,54493,1,2,0:0:0:0:
146,98,54659,6,0,L|110:102,4,20,2|0|0|0|0,1:2|0:0|0:0|0:0|3:0,0:0:0:0:
79,269,54992,1,10,0:0:0:0:
39,162,55159,1,0,3:0:0:0:
52,164,55242,1,0,3:0:0:0:
66,167,55325,1,0,3:0:0:0:
0,341,55491,1,0,3:0:0:0:
222,347,55658,6,0,P|183:345|132:352,1,80,6|0,1:2|0:0,0:0:0:0:
350,270,55991,2,0,P|331:323|315:395,1,120,2|0,0:0|0:0,0:0:0:0:
297,374,56324,1,10,0:0:0:0:
416,310,56490,1,2,0:0:0:0:
258,211,56656,1,2,3:0:0:0:
261,227,56740,1,0,3:0:0:0:
264,243,56823,1,2,3:0:0:0:
401,163,56989,1,2,1:2:0:0:
316,118,57156,1,0,0:0:0:0:
470,33,57322,6,0,L|474:62,4,20,0|0|0|0|0,1:0|0:0|0:0|0:0|0:0,0:0:0:0:
392,0,57655,1,8,0:0:0:0:
486,146,57822,1,0,3:0:0:0:
487,162,57905,1,0,3:0:0:0:
488,179,57988,1,2,3:2:0:0:
416,310,58154,1,0,0:0:0:0:
321,152,58321,6,0,L|407:163,1,80,2|0,1:2|0:0,0:0:0:0:
283,364,58654,2,0,L|234:300,1,80,2|2,3:2|0:0,0:0:0:0:
416,310,58987,1,10,0:0:0:0:
330,250,59153,1,2,0:0:0:0:
167,355,59319,1,2,3:2:0:0:
150,355,59403,1,0,3:2:0:0:
133,356,59486,1,0,3:2:0:0:
283,364,59652,1,2,0:2:0:0:
148,265,59819,1,8,0:0:0:0:
194,79,59985,6,0,L|196:113,4,20,0|0|0|0|0,1:0|0:0|0:0|0:0|0:0,0:0:0:0:
94,19,60318,1,10,0:0:0:0:
190,176,60484,1,2,3:2:0:0:
208,172,60568,1,0,3:0:0:0:
227,169,60651,1,2,3:2:0:0:
0,91,60817,1,2,0:0:0:0:
69,271,60984,6,0,P|101:263|153:265,1,80,6|0,1:2|0:0,0:0:0:0:
323,363,61317,2,0,P|283:339|233:285,1,120,2|0,3:2|0:0,0:0:0:0:
239,259,61650,1,10,0:0:0:0:
347,201,61816,1,2,0:0:0:0:
429,294,61982,1,2,3:2:0:0:
426,307,62066,1,0,3:0:0:0:
424,321,62149,1,0,3:0:0:0:
267,179,62315,1,2,1:2:0:0:
469,147,62482,1,0,0:0:0:0:
351,72,62648,6,0,L|342:52,4,20,0|0|0|0|0,1:0|0:0|0:0|0:0|0:0,0:0:0:0:
439,22,62981,1,10,0:0:0:0:
256,8,63147,1,2,3:2:0:0:
236,6,63231,1,0,3:2:0:0:
217,5,63314,1,2,3:2:0:0:
99,127,63480,1,2,0:0:0:0:
0,0,63647,6,0,L|82:10,1,80,2|0,1:2|0:0,0:0:0:0:
186,95,63980,1,2,3:2:0:0:
99,127,64146,1,2,0:0:0:0:
10,91,64313,1,10,0:0:0:0:
186,95,64479,1,0,0:0:0:0:
26,183,64645,1,2,0:0:0:0:
28,202,64729,1,0,3:0:0:0:
30,221,64812,1,2,3:2:0:0:
112,340,64978,1,10,0:0:0:0:
270,260,65145,1,2,0:0:0:0:
142,219,65311,6,0,L|159:248,4,20,2|0|0|0|0,1:2|0:0|0:0|0:0|3:0,0:0:0:0:
234,375,65644,1,10,0:0:0:0:
409,291,65810,1,0,3:0:0:0:
392,289,65894,1,0,3:0:0:0:
375,288,65977,1,0,3:0:0:0:
512,384,66143,1,0,3:0:0:0:
322,222,66310,5,2,1:2:0:0:
273,155,66643,1,2,0:0:0:0:
322,89,66975,1,2,0:2:0:0:
399,114,67308,1,2,0:0:0:0:
65,78,67641,5,2,1:2:0:0:
143,23,67974,1,2,0:0:0:0:
217,82,68307,1,2,0:0:0:0:
185,170,68640,1,2,0:0:0:0:
394,305,68973,5,2,1:2:0:0:
325,383,69306,1,2,0:0:0:0:
231,342,69638,1,2,0:0:0:0:
240,240,69971,1,2,0:0:0:0:
240,240,71636,5,2,1:2:0:0:
249,138,71969,1,2,0:2:0:0:
155,97,72301,1,2,0:2:0:0:
86,175,72634,1,2,0:2:0:0:
318,221,72967,5,2,1:2:0:0:
392,172,73300,1,2,0:0:0:0:
372,87,73633,1,2,0:0:0:0:
282,79,73966,1,2,0:0:0:0:
159,213,74299,5,2,1:2:0:0:
185,306,74632,1,2,0:0:0:0:
281,313,74964,1,2,0:0:0:0:
318,221,75297,1,2,0:0:0:0:
164,98,76962,5,0,0:0:0:0:
