osu file format v14

[General]
AudioFilename: audio.mp3
AudioLeadIn: 0
PreviewTime: 861
Countdown: 0
SampleSet: Soft
StackLeniency: 0.7
Mode: 0
LetterboxInBreaks: 0
WidescreenStoryboard: 0

[Editor]
Bookmarks: 12899,44899,55566
DistanceSpacing: 0.1
BeatDivisor: 4
GridSize: 32
TimelineZoom: 1.599999

[Metadata]
Title:testo
TitleUnicode:testo
Artist:schoolboy
ArtistUnicode:schoolboy
Creator:schoolboy
Version:sherrycherry's tragic love expert
Source:
Tags:sherrycherry tatemae anishina kodoku loreley komore rauf faik детство тесто detstvo Frakturehawkens smozit djulus
BeatmapID:2161910
BeatmapSetID:1033999

[Difficulty]
HPDrainRate:5
CircleSize:4
OverallDifficulty:8
ApproachRate:9
SliderMultiplier:1.7
SliderTickRate:1

[Events]
//Background and Video events
0,0,"ANIME-PICTURES.NET_-_612428-1920x1080-original-aenami-highres-wide+image-sky-cloud+(clouds).jpg",0,0
//Break Periods
//Storyboard Layer 0 (Background)
//Storyboard Layer 1 (Fail)
//Storyboard Layer 2 (Pass)
//Storyboard Layer 3 (Foreground)
//Storyboard Layer 4 (Overlay)
//Storyboard Sound Samples

[TimingPoints]
-2927,332.871012482663,4,2,1,45,1,0
1067,-100,4,2,1,30,0,0
2398,-100,4,2,1,45,0,1
23702,-1000,4,2,1,45,0,0
27650,-71.4285714285714,4,2,1,45,0,0
28316,-125,4,2,1,45,0,0
28983,-100,4,2,1,45,0,0
34316,-100,4,2,1,45,0,0
43674,-100,4,2,1,30,0,0
45006,-100,4,2,1,45,0,1
55650,-100,4,2,1,45,0,1
66310,-100,4,2,1,45,0,0

[Colours]
Combo1 : 255,242,202
Combo2 : 202,202,255
Combo3 : 255,206,255
Combo4 : 252,190,200

[HitObjects]
254,352,1067,5,2,0:0:0:0:
254,352,1233,1,2,0:0:0:0:
254,352,1400,1,2,0:0:0:0:
254,352,1566,1,2,0:0:0:0:
324,304,1733,5,2,0:0:0:0:
179,296,1899,1,2,0:0:0:0:
324,304,2065,1,2,0:0:0:0:
179,296,2232,1,2,0:0:0:0:
59,194,2398,6,0,P|38:157|40:115,1,85,6|0,1:2|0:0,0:0:0:0:
208,54,2731,2,0,P|172:31|130:31,1,85,2|0,0:0|0:0,0:0:0:0:
58,40,3064,5,10,0:0:0:0:
117,246,3231,1,2,0:0:0:0:
208,54,3397,1,2,3:0:0:0:
115,258,3564,1,2,3:0:0:0:
403,33,3730,6,0,P|445:52|474:96,1,85,2|0,1:2|3:0,0:0:0:0:
470,190,4063,2,0,L|455:226,2,21.25,0|0|0,3:0|3:0|3:0,0:0:0:0:
470,190,4229,1,0,3:0:0:0:
395,253,4396,6,0,P|355:272|323:304,1,85,8|0,0:0|3:0,0:0:0:0:
326,301,4645,1,0,3:0:0:0:
326,301,4729,1,2,3:2:0:0:
262,101,4895,1,0,0:0:0:0:
341,43,5061,6,0,P|423:32|485:87,1,170,2|2,1:2|3:2,0:0:0:0:
261,344,5561,1,2,0:0:0:0:
192,311,5727,2,0,P|153:290|122:262,1,85,10|2,0:0|0:0,0:0:0:0:
395,258,6060,1,2,3:2:0:0:
395,258,6143,1,0,3:2:0:0:
395,258,6227,1,0,3:2:0:0:
336,310,6393,5,2,0:2:0:0:
456,209,6559,1,8,0:0:0:0:
72,195,6726,2,0,P|49:112|101:45,1,170,2|10,1:2|0:0,0:0:0:0:
197,29,7225,1,2,3:2:0:0:
197,29,7308,1,0,0:0:0:0:
197,29,7392,1,2,3:2:0:0:
262,107,7558,1,2,0:0:0:0:
462,60,7724,6,0,P|424:40|382:38,1,85,6|0,1:2|0:0,0:0:0:0:
335,304,8057,2,0,P|377:233|454:200,1,170,2|10,3:2|0:0,0:0:0:0:
499,129,8557,1,2,0:0:0:0:
313,59,8723,1,2,3:2:0:0:
313,59,8806,1,0,3:0:0:0:
313,59,8889,1,0,3:0:0:0:
144,268,9056,6,0,P|95:227|83:201,1,85,2|0,1:2|0:0,0:0:0:0:
61,57,9389,2,0,L|80:46,2,21.25,0|0|0,3:0|3:0|3:0,0:0:0:0:
61,57,9555,1,0,3:0:0:0:
30,140,9722,1,10,0:0:0:0:
174,35,9888,1,2,3:2:0:0:
174,35,9971,1,0,3:2:0:0:
174,35,10055,2,0,P|216:44|252:72,1,85,2|2,3:2|0:0,0:0:0:0:
318,319,10387,6,0,P|364:297|448:207,1,170,2|2,1:2|3:2,0:0:0:0:
488,141,10887,1,2,0:0:0:0:
397,24,11053,2,0,P|355:33|319:61,1,85,10|0,0:0|0:0,0:0:0:0:
204,314,11386,1,2,0:0:0:0:
204,314,11469,1,0,3:0:0:0:
204,314,11552,1,2,3:2:0:0:
134,259,11719,5,10,0:0:0:0:
266,360,11885,1,2,0:0:0:0:
402,243,12052,2,0,L|386:257,2,21.25,0|0|0,3:0|3:0|3:0,0:0:0:0:
402,243,12218,1,0,3:0:0:0:
74,203,12385,2,0,P|50:167|44:124,1,85,10|0,0:0|3:0,0:0:0:0:
89,61,12634,1,0,3:0:0:0:
89,61,12718,2,0,P|124:37|167:31,1,85,0|0,3:0|0:0,0:0:0:0:
477,115,13050,6,0,P|478:156|458:193,1,85,6|0,1:2|0:0,0:0:0:0:
286,55,13383,2,0,P|321:32|363:32,1,85,2|0,0:0|0:0,0:0:0:0:
438,49,13716,5,10,0:0:0:0:
401,253,13883,1,2,0:0:0:0:
286,55,14049,1,2,3:0:0:0:
399,262,14215,1,2,3:0:0:0:
115,33,14382,6,0,P|73:52|44:96,1,85,2|0,1:2|0:0,0:0:0:0:
48,190,14715,2,0,L|63:226,2,21.25,0|0|0,3:0|3:0|3:0,0:0:0:0:
48,190,14881,1,0,3:0:0:0:
126,248,15048,6,0,P|158:282|197:302,1,85,8|0,0:0|3:0,0:0:0:0:
191,300,15297,1,0,3:0:0:0:
191,300,15380,1,2,3:2:0:0:
256,101,15547,1,0,0:0:0:0:
142,35,15713,6,0,B|105:39|71:0|71:0|78:51|56:87,1,170,2|2,1:2|3:2,0:0:0:0:
123,252,16213,1,2,0:0:0:0:
199,308,16379,2,0,P|240:333|293:330,1,85,10|2,0:0|0:0,0:0:0:0:
351,299,16712,1,2,3:2:0:0:
351,299,16795,1,0,3:2:0:0:
351,299,16878,1,0,3:2:0:0:
406,247,17045,5,2,0:2:0:0:
199,308,17211,1,8,0:0:0:0:
460,186,17378,2,0,P|482:103|427:40,1,170,0|10,3:0|0:0,0:0:0:0:
321,29,17877,1,2,3:2:0:0:
321,29,17960,1,0,3:0:0:0:
321,29,18043,1,2,3:2:0:0:
256,107,18210,1,2,0:0:0:0:
56,60,18376,6,0,P|93:40|135:38,1,85,6|0,1:2|0:0,0:0:0:0:
182,304,18709,2,0,B|144:271|146:229|146:229|116:193|63:200,1,170,2|10,3:2|0:0,0:0:0:0:
19,129,19208,1,2,0:0:0:0:
205,59,19375,1,2,3:2:0:0:
205,59,19458,1,0,0:0:0:0:
205,59,19541,1,0,3:0:0:0:
374,268,19708,6,0,P|422:227|435:201,1,85,2|0,1:2|0:0,0:0:0:0:
456,57,20041,2,0,L|438:46,2,21.25,0|0|0,3:0|3:0|3:0,0:0:0:0:
456,57,20207,1,0,3:0:0:0:
488,140,20374,1,10,0:0:0:0:
344,35,20540,1,2,3:2:0:0:
344,35,20623,1,0,3:2:0:0:
344,35,20706,2,0,P|302:44|266:72,1,85,2|2,3:2|0:0,0:0:0:0:
200,319,21039,6,0,B|113:295|171:246|70:207,1,170,2|2,1:2|3:2,0:0:0:0:
33,94,21539,1,2,0:0:0:0:
121,24,21705,2,0,P|163:33|199:61,1,85,10|0,0:0|0:0,0:0:0:0:
314,314,22038,1,2,0:0:0:0:
314,314,22121,1,0,3:0:0:0:
314,314,22204,1,2,3:2:0:0:
384,259,22371,5,10,0:0:0:0:
252,360,22537,1,2,0:0:0:0:
116,243,22704,2,0,L|131:257,2,21.25,2|0|0,1:2|0:0|0:0,0:0:0:0:
116,243,22870,1,0,3:0:0:0:
444,203,23037,2,0,P|467:167|473:124,1,85,10|0,0:0|0:0,0:0:0:0:
429,61,23286,1,0,3:0:0:0:
429,61,23369,2,0,P|393:37|350:31,1,85,0|0,3:0|3:0,0:0:0:0:
176,39,23702,6,2,P|190:41|203:49,1,29.75,6|0,1:2|0:0,0:0:0:0:
73,52,24368,2,2,P|87:49|100:41,1,29.75,2|0,0:0|0:0,0:0:0:0:
34,119,25034,2,2,L|34:135,3,17,2|0|10|0,0:0|1:0|0:0|3:0,0:0:0:0:
428,45,26365,6,2,P|447:51|453:59,1,29.75,2|0,1:2|0:0,0:0:0:0:
486,132,27031,2,2,P|479:151|471:157,1,29.75,2|0,0:0|0:0,0:0:0:0:
383,243,27697,6,2,B|398:259|421:274|421:274|275:258|275:258|258:248|258:248|119:227|119:227|158:248|171:274,1,416.499987289429,2|0,0:0|0:0,0:0:0:0:
174,282,28362,6,2,P|177:163|176:44,1,238,10|0,0:2|0:0,0:0:0:0:
176,44,29028,5,2,1:2:0:0:
377,264,29361,1,2,0:0:0:0:
97,216,29694,1,10,0:0:0:0:
97,216,30027,1,0,3:0:0:0:
97,216,30110,1,0,3:0:0:0:
97,216,30193,1,0,3:0:0:0:
157,271,30360,5,2,0:2:0:0:
377,33,30693,2,0,L|399:33,2,21.25,0|0|0,1:0|3:0|3:0,0:0:0:0:
377,33,30859,1,0,3:0:0:0:
475,70,31025,1,10,0:0:0:0:
480,160,31192,1,0,3:0:0:0:
480,160,31275,1,0,3:0:0:0:
480,160,31358,1,0,3:0:0:0:
260,85,31691,5,2,1:2:0:0:
260,85,31858,1,0,0:0:0:0:
178,36,32024,1,2,0:0:0:0:
178,36,32190,1,2,0:0:0:0:
83,44,32357,1,10,0:0:0:0:
83,44,32523,1,0,0:0:0:0:
34,118,32690,1,0,3:0:0:0:
34,118,32773,1,0,3:0:0:0:
34,118,32856,1,0,3:0:0:0:
458,194,34354,6,0,P|385:246|316:309,2,170,6|2|10,1:2|3:2|0:0,0:0:0:0:
495,124,35186,1,0,3:0:0:0:
303,51,35353,1,0,3:0:0:0:
303,51,35436,1,0,3:0:0:0:
303,51,35519,1,0,3:0:0:0:
386,24,35686,5,2,0:0:0:0:
205,41,35852,1,0,3:0:0:0:
121,29,36018,2,0,L|89:35,2,21.25,2|0|0,1:2|0:0|0:0,0:0:0:0:
121,29,36185,1,0,3:0:0:0:
42,88,36351,2,0,B|48:131|48:131|45:140|45:140|54:181,1,85,10|0,0:0|3:0,0:0:0:0:
188,273,36684,2,0,B|147:256|147:256|141:249|141:249|101:236,1,85,0|0,3:0|0:0,0:0:0:0:
325,299,37017,6,0,B|383:248|383:248|397:248|397:248|458:194,2,170,2|0|10,1:2|0:0|0:0,0:0:0:0:
257,346,37849,1,0,3:0:0:0:
110,239,38016,1,0,3:0:0:0:
110,239,38099,1,0,3:0:0:0:
110,239,38182,1,0,3:0:0:0:
37,160,38349,5,2,0:0:0:0:
181,303,38515,1,8,0:0:0:0:
393,242,38681,2,0,L|422:223,2,21.25,0|0|0,1:0|3:0|3:0,0:0:0:0:
393,242,38848,1,0,3:0:0:0:
477,157,39014,2,0,P|483:113|455:66,1,85,10|0,0:0|3:0,0:0:0:0:
396,33,39264,1,0,3:0:0:0:
396,33,39347,2,0,L|303:48,1,85,0|2,3:0|0:0,0:0:0:0:
85,213,39680,6,0,P|79:128|83:44,2,170,6|2|10,1:2|3:2|0:0,0:0:0:0:
148,264,40512,1,0,0:0:0:0:
391,254,40679,1,0,3:0:0:0:
391,254,40762,1,0,3:0:0:0:
391,254,40845,1,0,3:0:0:0:
321,304,41012,5,2,0:0:0:0:
457,197,41178,1,0,3:0:0:0:
391,29,41344,2,0,L|423:35,2,21.25,2|0|0,1:2|0:0|0:0,0:0:0:0:
391,29,41511,1,0,3:0:0:0:
301,53,41677,2,0,B|262:35|262:35|217:62,1,85,10|0,0:0|3:0,0:0:0:0:
220,315,42010,2,0,B|259:333|259:333|304:306,1,85,0|0,3:0|0:0,0:0:0:0:
80,45,42343,6,0,B|110:125|110:125|80:203,2,170,2|2|10,1:2|3:2|0:0,0:0:0:0:
157,32,43175,1,0,3:0:0:0:
154,274,43342,1,0,3:0:0:0:
154,274,43425,1,0,3:0:0:0:
154,274,43508,1,0,3:0:0:0:
258,83,43675,5,2,0:0:0:0:
258,83,43841,1,2,0:0:0:0:
258,83,44007,1,2,0:0:0:0:
258,83,44174,1,2,0:0:0:0:
337,43,44340,5,2,0:0:0:0:
175,40,44507,1,2,0:0:0:0:
337,43,44673,1,2,0:0:0:0:
175,40,44840,1,2,0:0:0:0:
453,194,45006,6,0,P|474:157|472:115,1,85,6|0,1:2|0:0,0:0:0:0:
316,283,45339,2,0,P|352:260|394:260,1,85,2|0,0:0|0:0,0:0:0:0:
245,338,45672,5,10,0:0:0:0:
393,259,45838,1,2,0:0:0:0:
176,285,46005,1,2,3:0:0:0:
393,259,46171,1,2,3:0:0:0:
361,26,46337,6,0,P|311:32|281:66,1,85,2|0,1:2|3:0,0:0:0:0:
184,36,46670,2,0,L|148:35,2,21.25,0|0|0,1:0|0:0|0:0,0:0:0:0:
184,36,46837,1,0,0:0:0:0:
474,70,47003,6,0,P|468:115|465:160,1,85,8|0,0:0|3:0,0:0:0:0:
465,154,47253,1,0,3:0:0:0:
465,154,47336,1,2,3:2:0:0:
263,336,47503,1,2,0:0:0:0:
99,224,47669,6,0,P|44:162|55:80,1,170,2|2,1:2|3:2,0:0:0:0:
189,36,48168,1,2,0:0:0:0:
353,63,48335,2,0,P|310:62|268:64,1,85,10|2,0:0|0:0,0:0:0:0:
111,27,48668,1,2,3:2:0:0:
111,27,48751,1,0,3:2:0:0:
111,27,48834,1,0,3:2:0:0:
99,224,49000,5,2,0:2:0:0:
189,36,49167,1,8,0:0:0:0:
189,300,49333,2,0,P|272:284|356:272,1,170,2|10,1:2|0:0,0:0:0:0:
434,227,49833,1,2,3:2:0:0:
434,227,49916,1,0,0:0:0:0:
434,227,49999,1,2,3:2:0:0:
478,69,50165,1,2,0:0:0:0:
408,35,50332,6,0,P|366:45|326:57,1,85,6|0,1:2|0:0,0:0:0:0:
141,246,50665,2,0,P|210:280|296:326,1,170,2|10,3:2|0:0,0:0:0:0:
362,281,51164,1,2,0:0:0:0:
205,43,51331,1,2,3:2:0:0:
205,43,51414,1,0,3:0:0:0:
205,43,51497,1,0,3:0:0:0:
49,86,51663,6,0,P|64:148|70:181,1,85,2|0,1:2|0:0,0:0:0:0:
133,260,51996,2,0,L|114:249,2,21.25,0|0|0,1:0|0:0|0:0,0:0:0:0:
133,260,52163,1,0,0:0:0:0:
291,325,52329,1,10,0:0:0:0:
480,141,52496,1,2,3:2:0:0:
480,141,52579,1,0,3:2:0:0:
480,141,52662,2,0,P|474:96|467:55,1,85,2|2,3:2|0:0,0:0:0:0:
182,41,52995,6,0,P|267:39|352:37,1,170,2|2,1:2|3:2,0:0:0:0:
100,224,53494,1,2,0:0:0:0:
57,143,53661,2,0,P|47:101|58:60,1,85,10|0,0:0|0:0,0:0:0:0:
179,292,53994,1,2,0:0:0:0:
179,292,54077,1,0,0:0:0:0:
179,292,54160,1,2,3:2:0:0:
379,258,54326,5,10,0:0:0:0:
258,343,54493,1,2,0:0:0:0:
438,203,54659,2,0,L|454:217,2,21.25,2|0|0,1:2|0:0|0:0,0:0:0:0:
438,203,54826,1,0,3:0:0:0:
352,37,54992,2,0,P|309:45|273:65,1,85,10|0,0:0|3:0,0:0:0:0:
191,55,55242,1,0,3:0:0:0:
191,55,55325,2,0,P|150:42|98:48,1,85,0|0,3:0|3:0,0:0:0:0:
59,194,55658,6,0,P|38:157|40:115,1,85,6|0,1:2|0:0,0:0:0:0:
196,283,55991,2,0,P|160:260|118:260,1,85,2|0,0:0|0:0,0:0:0:0:
267,338,56324,5,10,0:0:0:0:
119,259,56490,1,2,0:0:0:0:
336,285,56656,1,2,3:0:0:0:
119,259,56823,1,2,3:0:0:0:
151,26,56989,6,0,P|201:32|231:66,1,85,2|0,1:2|0:0,0:0:0:0:
328,36,57322,2,0,L|364:35,2,21.25,0|0|0,1:0|0:0|0:0,0:0:0:0:
328,36,57489,1,0,0:0:0:0:
38,70,57655,6,0,P|43:115|46:160,1,85,8|0,0:0|3:0,0:0:0:0:
47,154,57905,1,0,3:0:0:0:
47,154,57988,1,2,3:2:0:0:
249,336,58154,1,0,0:0:0:0:
413,224,58321,6,0,P|467:162|456:80,1,170,2|2,1:2|3:2,0:0:0:0:
323,36,58820,1,2,0:0:0:0:
159,63,58987,2,0,P|201:62|243:64,1,85,10|2,0:0|0:0,0:0:0:0:
401,27,59319,1,2,3:2:0:0:
401,27,59403,1,0,3:2:0:0:
401,27,59486,1,0,3:2:0:0:
413,224,59652,5,2,0:2:0:0:
323,36,59819,1,8,0:0:0:0:
323,300,59985,2,0,P|240:284|156:272,1,170,0|10,1:0|0:0,0:0:0:0:
78,227,60484,1,2,3:2:0:0:
78,227,60568,1,0,3:0:0:0:
78,227,60651,1,2,3:2:0:0:
34,69,60817,1,2,0:0:0:0:
103,35,60984,6,0,P|145:45|186:57,1,85,6|0,1:2|0:0,0:0:0:0:
371,246,61317,2,0,P|301:280|215:326,1,170,2|10,3:2|0:0,0:0:0:0:
150,281,61816,1,2,0:0:0:0:
307,43,61982,1,2,3:2:0:0:
307,43,62066,1,0,3:0:0:0:
307,43,62149,1,0,3:0:0:0:
463,86,62315,6,0,P|447:148|441:181,1,85,2|0,1:2|0:0,0:0:0:0:
379,260,62648,2,0,L|398:249,2,21.25,0|0|0,1:0|0:0|0:0,0:0:0:0:
379,260,62815,1,0,0:0:0:0:
221,325,62981,1,10,0:0:0:0:
32,141,63147,1,2,3:2:0:0:
32,141,63231,1,0,3:2:0:0:
32,141,63314,2,0,P|37:96|44:55,1,85,2|2,3:2|0:0,0:0:0:0:
329,41,63647,6,0,P|244:39|159:37,1,170,2|2,1:2|3:2,0:0:0:0:
412,224,64146,1,2,0:0:0:0:
454,143,64313,2,0,P|464:101|453:60,1,85,10|0,0:0|0:0,0:0:0:0:
333,292,64645,1,2,0:0:0:0:
333,292,64729,1,0,3:0:0:0:
333,292,64812,1,2,3:2:0:0:
133,258,64978,5,10,0:0:0:0:
254,343,65145,1,2,0:0:0:0:
74,203,65311,2,0,L|58:217,2,21.25,2|0|0,1:2|0:0|0:0,0:0:0:0:
74,203,65478,1,0,3:0:0:0:
160,37,65644,2,0,P|203:45|238:65,1,85,10|0,0:0|3:0,0:0:0:0:
321,55,65894,1,0,3:0:0:0:
321,55,65977,2,0,P|362:42|414:48,1,85,0|0,3:0|3:0,0:0:0:0:
484,78,66310,5,2,1:2:0:0:
256,192,66393,12,2,69971,0:0:0:0:
