osu file format v14

[General]
AudioFilename: audio.mp3
AudioLeadIn: 0
PreviewTime: 861
Countdown: 0
SampleSet: Soft
StackLeniency: 0.5
Mode: 0
LetterboxInBreaks: 0
WidescreenStoryboard: 0

[Editor]
DistanceSpacing: 0.8
BeatDivisor: 4
GridSize: 4
TimelineZoom: 1.8

[Metadata]
Title:testo
TitleUnicode:testo
Artist:schoolboy
ArtistUnicode:schoolboy
Creator:schoolboy
Version:normal
Source:
Tags:sherrycherry tatemae anishina kodoku loreley komore rauf faik детство тесто detstvo Frakturehawkens smozit djulus
BeatmapID:2163252
BeatmapSetID:1033999

[Difficulty]
HPDrainRate:3
CircleSize:3
OverallDifficulty:4
ApproachRate:5
SliderMultiplier:1.2
SliderTickRate:1

[Events]
//Background and Video events
0,0,"ANIME-PICTURES.NET_-_612428-1920x1080-original-aenami-highres-wide+image-sky-cloud+(clouds).jpg",0,0
//Break Periods
//Storyboard Layer 0 (Background)
//Storyboard Layer 1 (Fail)
//Storyboard Layer 2 (Pass)
//Storyboard Layer 3 (Foreground)
//Storyboard Layer 4 (Overlay)
//Storyboard Sound Samples

[TimingPoints]
-2927,332.871012482663,4,2,1,45,1,0
23650,-100,4,2,1,45,0,0
33150,-100,4,2,1,10,0,0
34316,-100,4,2,1,45,0,0
34650,-100,4,2,1,45,0,0
34983,-100,4,2,1,45,0,0
39650,-100,4,2,1,45,0,0
39983,-100,4,2,1,45,0,0
40316,-100,4,2,1,45,0,0
40983,-100,4,2,1,45,0,0
41316,-100,4,2,1,45,0,0
41650,-100,4,2,1,45,0,0
44983,-100,4,2,1,45,0,0
66391,-100,4,2,1,30,0,0

[Colours]
Combo1 : 255,242,202
Combo2 : 202,202,255
Combo3 : 255,206,255
Combo4 : 252,190,200

[HitObjects]
279,42,2398,6,0,P|327:75|341:132,1,120,6|2,1:2|0:0,0:0:0:0:
275,202,3064,2,0,L|215:206,2,60,10|2|2,0:0|0:0|3:0,0:0:0:0:
348,264,3730,2,0,P|406:275|456:308,2,120,2|0|8,1:2|3:0|0:0,0:0:0:0:
272,321,4729,2,0,P|243:328|213:324,1,60,2|0,3:2|0:0,0:0:0:0:
172,298,5061,6,0,L|186:178,1,120,2|2,1:2|3:2,0:0:0:0:
116,109,5727,2,0,P|87:112|59:123,2,60,10|2|2,0:0|0:0|3:2,0:0:0:0:
153,78,6227,1,0,3:2:0:0:
153,78,6393,2,0,P|205:105|261:90,1,120,2|2,0:2|1:2,0:0:0:0:
335,28,7059,2,0,P|358:77|354:112,1,60,10|2,0:0|3:2,0:0:0:0:
389,116,7392,2,0,P|388:146|375:173,1,60,2|2,3:2|0:0,0:0:0:0:
338,203,7724,6,0,L|352:333,1,120,6|2,1:2|3:2,0:0:0:0:
265,366,8390,2,0,P|211:351|183:356,1,60,10|2,0:0|0:0,0:0:0:0:
163,369,8723,1,2,3:2:0:0:
110,287,9056,2,0,P|135:235|192:225,1,120,2|0,1:2|3:0,0:0:0:0:
263,160,9722,2,0,L|347:173,2,60,10|2|2,0:0|3:2|3:2,0:0:0:0:
186,101,10387,6,0,L|66:112,1,120,2|2,1:2|3:2,0:0:0:0:
22,92,10887,1,2,0:0:0:0:
22,92,11053,2,0,P|29:151|35:218,1,120,10|2,0:0|0:0,0:0:0:0:
15,305,11719,2,0,P|44:307|72:318,1,60,10|2,0:0|0:0,0:0:0:0:
110,347,12052,2,0,L|189:336,1,60,0|0,3:0|3:0,0:0:0:0:
209,312,12385,2,0,P|268:322|327:330,1,120,10|0,0:0|3:0,0:0:0:0:
417,297,13050,6,0,P|441:241|414:176,1,120,6|2,1:2|0:0,0:0:0:0:
364,111,13716,2,0,L|366:35,2,60,10|2|2,0:0|0:0|3:0,0:0:0:0:
293,176,14382,2,0,L|173:161,1,120,2|0,1:2|3:0,0:0:0:0:
112,87,15048,1,8,0:0:0:0:
63,168,15380,2,0,L|70:236,1,60,2|0,3:2|0:0,0:0:0:0:
51,272,15713,6,0,P|106:243|181:255,1,120,2|2,1:2|3:2,0:0:0:0:
244,198,16379,2,0,P|256:170|259:140,1,60,10|2,0:0|0:0,0:0:0:0:
231,101,16712,2,0,L|222:21,1,60,2|0,3:2|3:2,0:0:0:0:
258,7,17045,1,2,0:2:0:0:
338,58,17378,1,0,3:0:0:0:
425,17,17711,2,0,P|480:12|514:20,2,60,10|2|2,0:0|3:2|3:2,0:0:0:0:
390,50,18210,1,2,0:0:0:0:
390,50,18376,6,0,L|405:198,1,120,6|2,1:2|3:2,0:0:0:0:
350,250,19042,2,0,P|294:238|259:243,1,60,10|2,0:0|0:0,0:0:0:0:
259,202,19375,2,0,L|181:209,1,60,2|0,3:2|3:0,0:0:0:0:
166,243,19708,2,0,P|96:216|37:246,1,120,2|0,1:2|3:0,0:0:0:0:
2,150,20374,2,0,P|6:105|28:70,2,60,10|2|2,0:0|3:2|3:2,0:0:0:0:
56,229,21039,6,0,L|192:212,1,120,2|2,1:2|3:2,0:0:0:0:
215,187,21539,1,2,0:0:0:0:
215,187,21705,2,0,P|303:194|334:224,1,120,10|2,0:0|0:0,0:0:0:0:
412,173,22371,2,0,P|423:137|409:92,2,60,10|2|2,0:0|0:0|1:2,0:0:0:0:
388,214,22870,1,0,3:0:0:0:
388,214,23037,2,0,L|403:362,1,120,10|0,0:0|3:0,0:0:0:0:
309,366,23702,6,0,P|212:331|232:196,2,240,6|2|2,1:2|0:0|0:0,0:0:0:0:
388,312,25367,1,0,1:0:0:0:
349,223,25699,2,0,L|364:92,1,120,10|0,0:0|3:0,0:0:0:0:
293,36,26365,6,0,B|181:11|180:106|64:82,2,240,2|2|2,1:2|0:0|0:0,0:0:0:0:
368,95,28030,1,0,1:2:0:0:
326,181,28362,2,0,L|315:300,1,120,10|0,0:2|0:0,0:0:0:0:
233,350,29028,6,0,P|151:318|98:333,1,120,2|2,1:2|0:0,0:0:0:0:
31,355,29694,2,0,B|2:253|2:253|60:209|57:136,1,240,10|2,0:0|0:2,0:0:0:0:
121,64,30693,1,0,1:0:0:0:
198,120,31025,2,0,P|295:130|348:97,1,120,10|0,0:0|3:0,0:0:0:0:
390,65,31691,6,0,P|473:78|457:217,2,240,2|10|2,1:2|0:0|0:0,0:0:0:0:
24,183,34354,6,0,P|11:276|40:343,2,120,6|2|10,1:2|3:2|0:0,0:0:0:0:
88,111,35353,1,0,3:0:0:0:
158,176,35686,2,0,L|262:164,1,60,2|0,0:0|3:0,0:0:0:0:
254,138,36018,2,0,L|358:150,1,60,2|0,1:2|3:0,0:0:0:0:
348,177,36351,1,10,0:0:0:0:
425,119,36684,1,0,3:0:0:0:
480,197,37017,6,0,P|499:259|479:320,1,120,2|0,1:2|0:0,0:0:0:0:
405,364,37683,2,0,P|359:350|311:354,1,60,10|0,0:0|3:0,0:0:0:0:
305,372,38016,1,0,3:0:0:0:
124,305,38681,1,0,1:0:0:0:
78,220,39014,2,0,L|91:100,1,120,10|0,0:0|3:0,0:0:0:0:
166,40,39680,6,0,P|223:48|249:99,2,120,6|2|10,1:2|3:2|0:0,0:0:0:0:
91,100,40679,1,0,3:0:0:0:
147,177,41012,2,0,L|138:244,1,60,2|0,0:0|3:0,0:0:0:0:
99,264,41344,2,0,L|107:338,1,60,2|0,1:2|3:0,0:0:0:0:
138,359,41677,1,10,0:0:0:0:
218,307,42010,1,0,3:0:0:0:
297,360,42343,6,0,P|391:349|444:356,1,120,2|2,1:2|3:2,0:0:0:0:
503,312,43009,2,0,P|515:261|507:224,1,60,10|0,0:0|3:0,0:0:0:0:
487,214,43342,1,0,3:0:0:0:
30,64,45006,6,0,L|46:204,1,120,6|2,1:2|0:0,0:0:0:0:
121,239,45672,2,0,L|113:315,2,60,10|2|2,0:0|0:0|3:0,0:0:0:0:
198,181,46337,2,0,P|257:185|315:201,2,120,2|0|8,1:2|1:0|0:0,0:0:0:0:
142,102,47336,2,0,P|131:80|133:31,1,60,2|2,3:2|0:0,0:0:0:0:
166,14,47669,6,0,P|274:31|301:57,1,120,2|2,1:2|3:2,0:0:0:0:
359,87,48335,2,0,P|422:70|446:47,2,60,10|2|2,0:0|0:0|3:2,0:0:0:0:
329,125,48834,1,0,3:2:0:0:
329,125,49000,2,0,L|319:254,1,120,2|2,0:2|1:2,0:0:0:0:
256,317,49666,2,0,L|181:307,1,60,10|2,0:0|3:2,0:0:0:0:
158,280,49999,2,0,L|79:290,1,60,2|2,3:2|0:0,0:0:0:0:
59,315,50332,6,0,P|31:248|60:188,1,120,6|2,1:2|3:2,0:0:0:0:
99,126,50998,2,0,L|88:50,1,60,10|2,0:0|0:0,0:0:0:0:
87,18,51331,1,2,3:2:0:0:
179,43,51663,2,0,L|321:27,1,120,2|0,1:2|1:0,0:0:0:0:
382,76,52329,2,0,L|475:91,2,60,10|2|2,0:0|3:2|3:2,0:0:0:0:
305,133,52995,6,0,P|214:147|196:189,1,120,2|2,1:2|3:2,0:0:0:0:
164,193,53494,1,2,0:0:0:0:
164,193,53661,2,0,P|76:200|26:153,1,120,10|2,0:0|0:0,0:0:0:0:
4,269,54326,2,0,L|15:337,1,60,10|2,0:0|0:0,0:0:0:0:
54,353,54659,2,0,L|148:341,1,60,2|0,1:2|3:0,0:0:0:0:
152,317,54992,2,0,P|236:332|293:365,1,120,10|0,0:0|3:0,0:0:0:0:
344,289,55658,5,6,1:2:0:0:
422,344,55991,2,0,P|478:337|503:276,1,120,2|10,0:0|0:0,0:0:0:0:
448,206,56656,2,0,L|356:192,1,60,2|2,3:0|3:0,0:0:0:0:
354,163,56989,2,0,P|229:183|206:187,1,120,2|0,1:2|1:0,0:0:0:0:
151,135,57655,1,8,0:0:0:0:
79,198,57988,2,0,L|17:193,1,60,2|0,3:2|0:0,0:0:0:0:
3,147,58321,6,0,P|17:52|38:8,1,120,2|2,1:2|3:2,0:0:0:0:
114,67,58987,2,0,P|170:55|204:31,1,60,10|2,0:0|0:0,0:0:0:0:
210,24,59319,2,0,P|270:29|287:37,1,60,2|0,3:2|3:2,0:0:0:0:
304,61,59652,1,2,0:2:0:0:
386,12,59985,1,0,1:0:0:0:
462,70,60318,2,0,P|505:50|526:45,2,60,10|2|2,0:0|3:2|3:2,0:0:0:0:
431,107,60817,1,2,0:0:0:0:
431,107,60984,6,0,L|284:89,1,120,6|2,1:2|3:2,0:0:0:0:
246,22,61650,2,0,P|186:36|142:27,1,60,10|2,0:0|0:0,0:0:0:0:
147,62,61982,2,0,L|66:57,1,60,2|0,3:2|3:0,0:0:0:0:
45,34,62315,2,0,P|75:87|64:148,1,120,2|0,1:2|1:0,0:0:0:0:
11,222,62981,2,0,P|9:274|13:306,2,60,10|2|2,0:0|3:2|3:2,0:0:0:0:
66,143,63647,6,0,L|200:174,1,120,2|2,1:2|3:2,0:0:0:0:
204,213,64146,1,2,0:0:0:0:
204,213,64313,2,0,P|266:195|345:190,1,120,10|2,0:0|0:0,0:0:0:0:
414,168,64978,2,0,L|406:264,1,60,10|2,0:0|0:0,0:0:0:0:
375,261,65311,2,0,L|381:334,1,60,2|0,1:2|3:0,0:0:0:0:
350,359,65644,2,0,P|299:329|241:338,2,120,10|0|2,0:0|3:0|1:2,0:0:0:0:
256,192,66393,12,2,69971,0:0:0:0:
