osu file format v14

[General]
AudioFilename: audio.mp3
AudioLeadIn: 0
PreviewTime: 861
Countdown: 0
SampleSet: Soft
StackLeniency: 0.5
Mode: 0
LetterboxInBreaks: 0
WidescreenStoryboard: 0

[Editor]
DistanceSpacing: 1.4
BeatDivisor: 4
GridSize: 4
TimelineZoom: 1.8

[Metadata]
Title:testo
TitleUnicode:testo
Artist:schoolboy
ArtistUnicode:schoolboy
Creator:schoolboy
Version:insane
Source:
Tags:sherrycherry tatemae anishina kodoku loreley komore rauf faik детство тесто detstvo Frakturehawkens smozit djulus
BeatmapID:2163251
BeatmapSetID:1033999

[Difficulty]
HPDrainRate:5
CircleSize:3.8
OverallDifficulty:7
ApproachRate:8
SliderMultiplier:1.5
SliderTickRate:1

[Events]
//Background and Video events
0,0,"ANIME-PICTURES.NET_-_612428-1920x1080-original-aenami-highres-wide+image-sky-cloud+(clouds).jpg",0,0
//Break Periods
//Storyboard Layer 0 (Background)
//Storyboard Layer 1 (Fail)
//Storyboard Layer 2 (Pass)
//Storyboard Layer 3 (Foreground)
//Storyboard Layer 4 (Overlay)
//Storyboard Sound Samples

[TimingPoints]
-2927,332.871012482663,4,2,1,45,1,0
1067,-100,4,2,1,30,0,0
2398,-100,4,2,1,45,0,0
23650,-153.846153846153,4,2,1,45,0,0
33150,-153.846153846153,4,2,1,10,0,0
34316,-100,4,2,1,45,0,0
34650,-100,4,2,1,45,0,0
34983,-100,4,2,1,45,0,0
39650,-100,4,2,1,45,0,0
39983,-100,4,2,1,45,0,0
40316,-100,4,2,1,45,0,0
40983,-100,4,2,1,45,0,0
41316,-100,4,2,1,45,0,0
41650,-100,4,2,1,45,0,0
43674,-100,4,2,1,30,0,0
44983,-100,4,2,1,45,0,0
66393,-100,4,2,1,30,0,0
76983,-100,4,2,1,10,0,0

[Colours]
Combo1 : 255,242,202
Combo2 : 202,202,255
Combo3 : 255,206,255
Combo4 : 252,190,200

[HitObjects]
114,343,1067,6,0,P|107:306|99:269,1,75,2|2,0:0|0:0,0:0:0:0:
137,193,1399,2,0,L|130:267,1,75,2|2,0:0|0:0,0:0:0:0:
28,46,1732,1,2,0:0:0:0:
28,46,1899,1,2,0:0:0:0:
104,99,2065,1,2,0:0:0:0:
104,99,2232,1,2,0:0:0:0:
187,19,2398,5,6,1:2:0:0:
264,353,2731,1,2,0:0:0:0:
264,353,3064,2,0,P|226:357|189:363,1,75,10|2,0:0|0:0,0:0:0:0:
458,372,3397,1,2,3:0:0:0:
458,372,3564,1,2,3:0:0:0:
458,372,3730,6,0,P|472:298|492:225,2,150,2|0|8,1:2|3:0|0:0,0:0:0:0:
275,151,4729,2,0,P|262:115|256:78,1,75,2|0,3:2|0:0,0:0:0:0:
329,12,5061,2,0,B|362:27|362:27|365:25|365:25|412:48|471:52,1,150,2|2,1:2|3:2,0:0:0:0:
385,164,5561,1,2,0:0:0:0:
488,172,5727,2,0,L|470:244,1,75,10|2,0:0|0:0,0:0:0:0:
412,376,6060,2,0,P|401:341|395:304,1,75,2|0,3:2|3:2,0:0:0:0:
267,150,6393,5,2,0:2:0:0:
267,150,6559,1,8,0:0:0:0:
151,293,6726,2,0,B|178:280|200:254|200:254|240:229|283:245,1,150,2|10,1:2|0:0,0:0:0:0:
148,151,7225,1,2,3:2:0:0:
303,39,7392,2,0,P|297:76|293:113,1,75,2|2,3:2|0:0,0:0:0:0:
284,246,7724,5,6,1:2:0:0:
491,370,8057,1,2,3:2:0:0:
491,370,8390,2,0,P|459:349|424:337,1,75,10|2,0:0|0:0,0:0:0:0:
503,262,8723,2,0,P|498:225|487:190,1,75,2|0,3:2|3:0,0:0:0:0:
422,48,9056,6,0,L|411:122,1,75,2|0,1:2|0:0,0:0:0:0:
318,208,9389,2,0,B|292:200|292:200|267:201|267:201|220:169|171:195,1,150,0|10,3:0|0:0,0:0:0:0:
9,122,9888,1,2,3:2:0:0:
89,62,10055,2,0,P|122:45|157:32,1,75,2|2,3:2|0:0,0:0:0:0:
155,333,10387,6,0,B|136:346|136:346|115:352|47:343|34:281,1,150,2|2,1:2|3:2,0:0:0:0:
310,255,10887,1,2,0:0:0:0:
155,332,11053,2,0,B|135:321|135:321|93:280|106:201,1,150,10|2,0:0|0:0,0:0:0:0:
310,255,11552,1,2,3:2:0:0:
154,332,11719,6,0,P|118:338|82:348,1,75,10|2,0:0|0:0,0:0:0:0:
310,255,12052,1,0,3:0:0:0:
214,212,12218,1,0,3:0:0:0:
295,148,12385,2,0,P|308:74|314:0,1,150,10|0,0:0|3:0,0:0:0:0:
501,341,13050,6,0,B|457:336|426:367|426:367|392:378|360:357,1,150,6|2,1:2|0:0,0:0:0:0:
44,193,13716,2,0,P|34:228|30:266,1,75,10|2,0:0|0:0,0:0:0:0:
110,330,14049,1,2,3:0:0:0:
204,284,14215,1,2,3:0:0:0:
203,284,14382,2,0,P|201:209|163:146,2,150,2|0|8,1:2|3:0|0:0,0:0:0:0:
500,126,15380,2,0,P|465:140|428:147,1,75,2|0,3:2|0:0,0:0:0:0:
321,102,15713,6,0,B|305:81|305:81|309:72|309:72|281:14|221:-7,1,150,2|2,1:2|3:2,0:0:0:0:
343,193,16213,1,2,0:0:0:0:
239,163,16379,2,0,P|202:158|169:142,1,75,10|2,0:0|0:0,0:0:0:0:
405,268,16712,1,2,3:2:0:0:
284,308,16878,1,0,3:2:0:0:
493,334,17045,5,2,0:2:0:0:
493,334,17211,1,8,0:0:0:0:
492,226,17378,2,0,P|497:151|507:76,1,150,0|10,3:0|0:0,0:0:0:0:
400,170,17877,1,2,3:2:0:0:
398,281,18043,2,0,P|399:318|408:354,1,75,2|2,3:2|0:0,0:0:0:0:
366,68,18376,5,6,1:2:0:0:
366,68,18709,2,0,P|321:121|228:133,1,150,2|10,3:2|0:0,0:0:0:0:
155,87,19208,1,2,0:0:0:0:
58,137,19375,2,0,P|19:126|-23:109,1,75,2|0,3:2|3:0,0:0:0:0:
172,250,19708,5,2,1:2:0:0:
347,11,20041,1,0,3:0:0:0:
347,11,20374,2,0,P|359:86|361:93,1,75,10|2,0:0|3:2,0:0:0:0:
446,133,20706,1,2,3:2:0:0:
446,133,20873,1,2,0:0:0:0:
376,218,21039,6,0,B|348:207|348:207|321:213|321:213|261:201|225:246,1,150,2|2,1:2|3:2,0:0:0:0:
168,138,21539,1,2,0:0:0:0:
376,217,21705,2,0,B|386:153|367:133|367:133|368:107|368:107|352:65,1,150,10|2,0:0|0:0,0:0:0:0:
168,138,22204,1,2,3:2:0:0:
376,217,22371,6,0,P|419:222|471:224,1,75,10|2,0:0|0:0,0:0:0:0:
168,138,22704,1,2,1:2:0:0:
257,93,22870,1,0,3:0:0:0:
198,245,23037,2,0,P|155:305|67:356,1,150,10|0,0:0|3:0,0:0:0:0:
92,347,23702,6,0,B|66:317|71:248|71:248|64:204,1,146.249993305207,6|2,1:2|0:0,0:0:0:0:
119,91,24368,2,0,B|135:82|149:65|149:65|191:73|210:124|186:160,1,146.249993305207,2|0,0:0|3:0,0:0:0:0:
289,196,25034,2,0,B|344:184|351:141|351:141|380:116|421:125,1,146.249993305207,2|0,0:0|3:0,0:0:0:0:
512,213,25699,2,0,P|509:238|493:193,1,146.249993305207,10|0,0:0|0:0,0:0:0:0:
373,319,26365,6,0,B|316:316|279:332|279:332|277:367|247:381,1,146.249993305207,2|0,1:2|0:0,0:0:0:0:
134,327,27031,2,0,P|113:290|123:226,1,97.4999955368044,2|0,0:0|3:0,0:0:0:0:
117,236,27697,6,0,B|108:202|87:185|87:185|82:137|138:111,1,146.249993305207,2|0,0:0|3:0,0:0:0:0:
134,7,28362,2,0,P|191:30|290:45,1,146.249993305207,10|0,0:2|0:0,0:0:0:0:
367,109,29028,2,0,P|397:69|461:66,1,97.4999955368044,2|2,1:2|0:0,0:0:0:0:
352,304,29694,2,0,B|310:309|287:286|287:286|228:288|207:313,1,146.249993305207,10|0,0:0|3:0,0:0:0:0:
97,250,30360,6,0,P|80:197|91:98,1,146.249993305207,2|0,0:2|3:0,0:0:0:0:
218,10,31025,2,0,B|236:44|236:44|237:71|213:103,1,97.4999955368044,10|0,0:0|3:0,0:0:0:0:
216,98,31691,2,0,B|285:93|293:44|293:44|320:23|345:19,1,146.249993305207,2|2,1:2|0:0,0:0:0:0:
418,62,32357,2,0,P|433:87|446:109,1,48.7499977684022,10|0,0:0|0:0,0:0:0:0:
461,192,32690,2,0,L|470:131,1,48.7499977684022,0|0,3:0|3:0,0:0:0:0:
496,34,33023,5,2,0:0:0:0:
131,206,34354,6,0,L|149:284,1,75,6|0,1:2|3:0,0:0:0:0:
48,383,34687,2,0,L|64:301,1,75,2|0,3:2|3:0,0:0:0:0:
241,228,35020,1,10,0:0:0:0:
226,358,35186,1,0,3:0:0:0:
221,215,35353,1,0,3:0:0:0:
239,376,35519,1,0,3:0:0:0:
244,200,35686,6,0,P|248:161|248:115,1,75,2|0,0:0|3:0,0:0:0:0:
97,4,36018,2,0,L|109:78,1,75,2|0,1:2|3:0,0:0:0:0:
132,187,36351,1,10,0:0:0:0:
192,31,36518,1,0,3:0:0:0:
35,130,36684,2,0,P|18:179|10:215,1,75,0|0,3:0|0:0,0:0:0:0:
196,278,37017,5,2,1:2:0:0:
196,278,37350,2,0,L|184:366,1,75,0|0,0:0|0:0,0:0:0:0:
276,198,37683,1,10,0:0:0:0:
295,292,37849,1,0,3:0:0:0:
180,177,38016,2,0,P|161:133|156:103,1,75,0|0,3:0|3:0,0:0:0:0:
221,25,38349,5,2,0:0:0:0:
221,25,38515,1,8,0:0:0:0:
57,127,38681,1,0,1:0:0:0:
57,127,39014,2,0,B|29:167|45:221|45:221|28:256|6:265,1,150,10|0,0:0|3:0,0:0:0:0:
397,366,39680,6,0,P|342:354|311:337,1,75,6|0,1:2|3:0,0:0:0:0:
180,234,40013,2,0,L|190:314,1,75,2|0,3:2|3:0,0:0:0:0:
294,191,40346,1,10,0:0:0:0:
239,105,40512,1,0,0:0:0:0:
385,161,40679,1,0,3:0:0:0:
271,274,40845,1,0,3:0:0:0:
328,83,41012,6,0,P|326:37|318:0,1,75,2|0,0:0|3:0,0:0:0:0:
239,105,41344,1,2,1:2:0:0:
385,161,41511,1,0,3:0:0:0:
271,274,41677,2,0,P|277:222|284:192,1,75,10|0,0:0|3:0,0:0:0:0:
373,260,42010,2,0,P|431:273|476:286,1,75,0|0,3:0|0:0,0:0:0:0:
165,225,42343,5,2,1:2:0:0:
385,161,42509,1,0,3:0:0:0:
191,117,42676,1,2,3:2:0:0:
281,199,42842,1,0,0:0:0:0:
258,0,43009,6,0,L|268:80,1,75,10|0,0:0|3:0,0:0:0:0:
245,281,43342,5,0,3:0:0:0:
276,111,43508,1,0,3:0:0:0:
424,191,43675,6,0,L|506:170,1,75,2|2,0:0|0:0,0:0:0:0:
328,204,44007,2,0,L|410:225,1,75,2|2,0:0|0:0,0:0:0:0:
283,122,44340,1,2,0:0:0:0:
283,122,44507,1,2,0:0:0:0:
363,77,44673,1,2,0:0:0:0:
363,77,44840,1,2,0:0:0:0:
183,93,45006,5,6,1:2:0:0:
183,93,45339,2,0,B|125:100|79:69|79:69|4:80,1,150,2|10,0:0|0:0,0:0:0:0:
60,175,45838,1,2,0:0:0:0:
132,234,46005,2,0,P|174:218|203:197,1,75,2|2,3:0|3:0,0:0:0:0:
318,26,46337,5,2,1:2:0:0:
375,317,46670,1,0,1:0:0:0:
375,317,47003,2,0,P|407:335|430:364,1,75,8|0,0:0|3:0,0:0:0:0:
275,254,47336,1,2,3:2:0:0:
275,254,47503,1,2,0:0:0:0:
396,199,47669,6,0,P|436:135|442:61,1,150,2|2,1:2|3:2,0:0:0:0:
263,108,48168,1,2,0:0:0:0:
336,0,48335,2,0,P|346:36|350:73,1,75,10|2,0:0|0:0,0:0:0:0:
242,147,48668,1,2,3:2:0:0:
242,147,48834,1,0,3:2:0:0:
323,204,49000,5,2,0:2:0:0:
254,51,49167,1,8,0:0:0:0:
152,84,49333,2,0,B|106:73|106:73|48:87|33:152,1,150,2|10,1:2|0:0,0:0:0:0:
168,213,49833,1,2,3:2:0:0:
83,322,49999,2,0,P|73:272|77:242,1,75,2|2,3:2|0:0,0:0:0:0:
269,133,50332,6,0,B|307:135|307:135|328:150|328:150|367:146|437:175,2,150,6|2|10,1:2|3:2|0:0,0:0:0:0:
167,72,51164,1,2,0:0:0:0:
291,34,51331,2,0,P|342:24|369:13,1,75,2|0,3:2|3:0,0:0:0:0:
153,198,51663,6,0,B|93:169|45:173|45:173|76:189|63:207,1,150,2|0,1:2|1:0,0:0:0:0:
264,360,52329,2,0,P|245:305|214:287,1,75,10|2,0:0|3:2,0:0:0:0:
142,278,52662,1,2,3:2:0:0:
159,384,52828,1,2,0:0:0:0:
315,222,52995,6,0,P|383:272|479:267,1,150,2|2,1:2|3:2,0:0:0:0:
237,100,53494,1,2,0:0:0:0:
315,222,53661,2,0,P|352:190|383:80,1,150,10|2,0:0|0:0,0:0:0:0:
237,100,54160,1,2,3:2:0:0:
315,222,54326,6,0,P|331:279|334:305,1,75,10|2,0:0|0:0,0:0:0:0:
171,158,54659,1,2,1:2:0:0:
258,15,54826,1,0,3:0:0:0:
171,158,54992,2,0,B|126:177|77:159|77:159|46:185|50:211,1,150,10|0,0:0|3:0,0:0:0:0:
49,203,55658,5,6,1:2:0:0:
372,123,55991,1,2,0:0:0:0:
372,123,56324,1,10,0:0:0:0:
452,43,56490,1,2,0:0:0:0:
454,226,56656,2,0,P|469:191|471:154,1,75,2|2,3:0|3:0,0:0:0:0:
312,27,56989,6,0,B|281:31|281:31|257:82|267:150,1,150,2|0,1:2|1:0,0:0:0:0:
351,378,57655,2,0,P|371:323|372:288,1,75,8|0,0:0|3:0,0:0:0:0:
176,216,57988,1,2,3:2:0:0:
230,326,58154,1,0,0:0:0:0:
176,216,58321,6,0,B|181:149|150:103|150:103|165:58,1,150,2|2,1:2|3:2,0:0:0:0:
249,114,58820,1,2,0:0:0:0:
77,167,58987,2,0,P|19:175|-17:180,1,75,10|2,0:0|0:0,0:0:0:0:
297,242,59319,1,2,3:2:0:0:
181,210,59486,1,0,3:2:0:0:
336,141,59652,5,2,0:2:0:0:
181,210,59819,1,8,0:0:0:0:
323,339,59985,2,0,B|354:312|376:247|376:247|311:266,1,150,0|10,1:0|0:0,0:0:0:0:
274,114,60484,1,2,3:2:0:0:
385,152,60651,2,0,P|434:145|458:122,1,75,2|2,3:2|0:0,0:0:0:0:
250,8,60984,6,0,L|270:96,1,75,6|0,1:2|0:0,0:0:0:0:
154,212,61317,2,0,B|140:200|140:200|120:206|120:206|81:186|4:203,1,150,2|10,3:2|0:0,0:0:0:0:
161,116,61816,1,2,0:0:0:0:
111,308,61982,2,0,P|78:334|23:343,1,75,2|0,3:2|3:0,0:0:0:0:
252,211,62315,6,0,P|305:264|331:334,1,150,2|0,1:2|1:0,0:0:0:0:
459,51,62981,1,10,0:0:0:0:
426,146,63147,1,2,3:2:0:0:
439,31,63314,1,2,3:2:0:0:
452,163,63480,1,2,0:0:0:0:
342,74,63647,6,0,B|302:59|286:29|286:29|247:39|197:25,1,150,2|2,1:2|3:2,0:0:0:0:
322,207,64146,1,2,0:0:0:0:
342,74,64313,2,0,B|381:68|407:35|407:35|441:10|487:40,1,150,10|2,0:0|0:0,0:0:0:0:
322,207,64812,1,2,3:2:0:0:
342,74,64978,6,0,P|335:36|324:-6,1,75,10|2,0:0|0:0,0:0:0:0:
220,240,65311,1,2,1:2:0:0:
246,90,65478,1,0,3:0:0:0:
314,335,65644,2,0,P|198:346|140:365,1,150,10|0,0:0|3:0,0:0:0:0:
489,166,66310,5,2,1:2:0:0:
256,192,66393,12,2,69971,0:0:0:0:
