osu file format v14

[General]
AudioFilename: audio.mp3
AudioLeadIn: 0
PreviewTime: 861
Countdown: 0
SampleSet: Soft
StackLeniency: 0.5
Mode: 0
LetterboxInBreaks: 0
WidescreenStoryboard: 0

[Editor]
DistanceSpacing: 1.3
BeatDivisor: 4
GridSize: 4
TimelineZoom: 1.8

[Metadata]
Title:testo
TitleUnicode:testo
Artist:schoolboy
ArtistUnicode:schoolboy
Creator:schoolboy
Version:hard
Source:
Tags:sherrycherry tatemae anishina kodoku loreley komore rauf faik детство тесто detstvo Frakturehawkens smozit djulus
BeatmapID:2163250
BeatmapSetID:1033999

[Difficulty]
HPDrainRate:4
CircleSize:3.8
OverallDifficulty:6
ApproachRate:7.5
SliderMultiplier:1.4
SliderTickRate:1

[Events]
//Background and Video events
0,0,"ANIME-PICTURES.NET_-_612428-1920x1080-original-aenami-highres-wide+image-sky-cloud+(clouds).jpg",0,0
//Break Periods
//Storyboard Layer 0 (Background)
//Storyboard Layer 1 (Fail)
//Storyboard Layer 2 (Pass)
//Storyboard Layer 3 (Foreground)
//Storyboard Layer 4 (Overlay)
//Storyboard Sound Samples

[TimingPoints]
-2927,332.871012482663,4,2,1,45,1,0
23650,-153.846153846153,4,2,1,45,0,0
33150,-153.846153846153,4,2,1,10,0,0
34316,-100,4,2,1,45,0,0
34650,-100,4,2,1,45,0,0
34983,-100,4,2,1,45,0,0
39650,-100,4,2,1,45,0,0
39983,-100,4,2,1,45,0,0
40316,-100,4,2,1,45,0,0
40983,-100,4,2,1,45,0,0
41316,-100,4,2,1,45,0,0
41650,-100,4,2,1,45,0,0
44983,-100,4,2,1,45,0,0
66391,-100,4,2,1,30,0,0

[Colours]
Combo1 : 255,242,202
Combo2 : 202,202,255
Combo3 : 255,206,255
Combo4 : 252,190,200

[HitObjects]
32,277,2398,6,0,B|59:279|81:267|81:267|129:282|134:332,1,140,6|2,1:2|0:0,0:0:0:0:
212,377,2898,1,0,0:0:0:0:
284,321,3064,2,0,P|372:331|404:392,1,140,10|2,0:0|3:0,0:0:0:0:
490,210,3730,6,0,L|463:67,1,140,2|0,1:2|3:0,0:0:0:0:
381,34,4229,1,0,3:0:0:0:
313,94,4396,2,0,B|287:72|287:72|224:57|167:84,1,140,8|2,0:0|3:2,0:0:0:0:
105,125,4895,1,0,0:0:0:0:
22,85,5061,6,0,P|16:50|28:1,1,70,2|0,1:2|0:0,0:0:0:0:
105,125,5394,2,0,B|81:172|95:230|95:230|80:249|47:246,1,140,2|10,3:2|0:0,0:0:0:0:
15,320,5894,1,2,0:0:0:0:
87,375,6060,2,0,P|147:358|173:360,1,70,2|0,3:2|3:2,0:0:0:0:
223,299,6393,2,0,L|298:311,1,70,2|8,0:2|0:0,0:0:0:0:
447,373,6726,6,0,P|477:329|447:247,1,140,2|10,1:2|0:0,0:0:0:0:
381,193,7225,1,2,3:2:0:0:
443,127,7392,2,0,P|453:87|447:39,1,70,2|2,3:2|0:0,0:0:0:0:
381,193,7724,6,0,B|333:181|333:181|295:210|242:199,1,140,6|2,1:2|3:2,0:0:0:0:
163,164,8224,1,0,0:0:0:0:
103,232,8390,2,0,B|83:265|86:286|86:286|124:323|108:378,1,140,10|2,0:0|3:2,0:0:0:0:
163,164,9056,6,0,L|150:12,1,140,2|0,1:2|3:0,0:0:0:0:
73,72,9555,1,0,3:0:0:0:
251,123,9722,2,0,B|291:128|316:104|316:104|356:93|388:132,1,140,10|2,0:0|3:2,0:0:0:0:
463,87,10221,1,2,0:0:0:0:
500,169,10387,6,0,P|486:213|457:235,1,70,2|0,1:2|0:0,0:0:0:0:
355,369,10720,2,0,P|389:329|479:333,1,140,2|10,3:2|0:0,0:0:0:0:
336,248,11220,1,0,0:0:0:0:
262,301,11386,2,0,P|218:305|166:285,1,70,2|2,0:0|3:2,0:0:0:0:
104,276,11719,2,0,L|111:348,1,70,10|2,0:0|0:0,0:0:0:0:
7,212,12052,6,0,B|-1:157|25:107|25:107|70:92,1,140,0|10,3:0|0:0,0:0:0:0:
125,39,12551,1,0,3:0:0:0:
199,91,12718,2,0,P|262:98|287:84,1,70,0|0,3:0|0:0,0:0:0:0:
497,28,13050,6,0,B|444:41|402:17|402:17|373:27|373:73,1,140,6|2,1:2|0:0,0:0:0:0:
471,246,13716,2,0,P|486:194|480:164,1,70,10|2,0:0|0:0,0:0:0:0:
398,148,14049,2,0,L|306:154,1,70,2|2,3:0|3:0,0:0:0:0:
256,208,14382,2,0,L|177:197,1,70,2|0,1:2|0:0,0:0:0:0:
18,136,14715,6,0,B|55:123|69:91|69:91|101:118|156:107,1,140,0|8,3:0|0:0,0:0:0:0:
208,56,15214,1,0,3:0:0:0:
284,105,15380,2,0,L|277:191,1,70,2|0,3:2|0:0,0:0:0:0:
350,231,15713,6,0,B|408:246|443:214|443:214|467:212|490:234,1,140,2|2,1:2|3:2,0:0:0:0:
495,316,16213,1,2,0:0:0:0:
426,375,16379,2,0,L|260:353,1,140,10|2,0:0|3:2,0:0:0:0:
218,296,16878,1,0,3:2:0:0:
138,340,17045,2,0,P|88:352|52:341,1,70,2|8,0:2|0:0,0:0:0:0:
12,178,17378,6,0,L|34:30,1,140,0|10,3:0|0:0,0:0:0:0:
117,5,17877,1,2,3:2:0:0:
185,64,18043,2,0,P|219:68|260:50,1,70,2|2,3:2|0:0,0:0:0:0:
410,3,18376,6,0,B|430:7|435:33|435:33|404:70|412:135,1,140,6|2,1:2|3:2,0:0:0:0:
507,280,19042,2,0,P|467:309|433:309,1,70,10|2,0:0|0:0,0:0:0:0:
370,359,19375,2,0,L|300:349,1,70,2|0,3:2|3:0,0:0:0:0:
230,199,19708,2,0,L|239:268,1,70,2|0,1:2|0:0,0:0:0:0:
154,356,20041,6,0,B|132:368|132:368|58:374|28:316,1,140,0|10,3:0|0:0,0:0:0:0:
4,237,20540,1,2,3:2:0:0:
62,167,20706,2,0,L|133:175,1,70,2|2,3:2|0:0,0:0:0:0:
243,129,21039,6,0,B|263:109|263:109|233:58|238:-18,1,140,2|2,1:2|3:2,0:0:0:0:
325,24,21539,1,2,0:0:0:0:
160,91,21705,2,0,L|13:75,1,140,10|2,0:0|0:0,0:0:0:0:
32,166,22204,1,2,3:2:0:0:
43,255,22371,2,0,L|50:341,1,70,10|2,0:0|0:0,0:0:0:0:
249,381,22704,6,0,P|209:317|127:335,1,140,2|10,1:2|0:0,0:0:0:0:
73,268,23203,2,0,L|-6:278,2,70,0|0|0,0:0|3:0|3:0,0:0:0:0:
161,192,23702,6,0,B|177:167|177:167|180:111|154:52,1,136.499993751526,6|2,1:2|0:0,0:0:0:0:
220,9,24368,2,0,P|278:11|295:82,1,136.499993751526,2|0,0:0|3:0,0:0:0:0:
348,142,25034,2,0,P|398:152|449:88,1,136.499993751526,2|0,0:0|3:0,0:0:0:0:
503,30,25699,2,0,L|409:21,1,90.9999958343508,10|0,0:0|3:0,0:0:0:0:
289,129,26365,6,0,B|264:182|300:229|300:229|329:217|324:192,1,136.499993751526,2|0,1:2|0:0,0:0:0:0:
397,177,27031,2,0,P|439:194|429:280,1,136.499993751526,2|0,0:0|3:0,0:0:0:0:
490,333,27697,2,0,B|433:314|420:362|359:344,1,136.499993751526,2|0,0:0|3:0,0:0:0:0:
287,302,28362,2,0,P|235:323|218:359,1,90.9999958343508,10|0,0:2|0:0,0:0:0:0:
75,272,29028,6,0,P|57:222|63:180,1,90.9999958343508,2|2,1:2|0:0,0:0:0:0:
141,42,29694,2,0,B|183:38|232:61|232:61|258:55|281:42,1,136.499993751526,10|0,0:0|3:0,0:0:0:0:
346,12,30360,2,0,P|353:80|362:148,1,136.499993751526,2|0,0:2|3:0,0:0:0:0:
430,194,31025,2,0,P|463:192|491:139,1,90.9999958343508,10|0,0:0|3:0,0:0:0:0:
416,292,31691,6,0,P|380:276|307:332,1,136.499993751526,2|2,1:2|0:0,0:0:0:0:
232,357,32357,2,0,L|140:344,1,90.9999958343508,10|0,0:0|3:0,0:0:0:0:
73,298,32856,1,0,3:0:0:0:
136,245,33023,1,2,0:0:0:0:
12,25,34354,6,0,L|26:93,1,70,6|0,1:2|3:0,0:0:0:0:
106,137,34687,2,0,P|141:132|174:120,1,70,2|0,3:2|3:0,0:0:0:0:
245,62,35020,2,0,P|297:63|345:82,1,105,10|0,0:0|0:0,0:0:0:0:
384,106,35353,2,0,L|453:96,1,70,0|0,3:0|3:0,0:0:0:0:
503,234,35686,6,0,P|472:219|435:218,1,70,2|0,0:0|3:0,0:0:0:0:
358,263,36018,2,0,P|324:273|290:268,1,70,2|0,1:2|3:0,0:0:0:0:
222,207,36351,2,0,L|235:88,1,105,10|0,0:0|3:0,0:0:0:0:
269,74,36684,2,0,L|359:86,1,70,0|0,3:0|0:0,0:0:0:0:
164,19,37017,6,0,L|94:28,1,70,2|0,1:2|3:0,0:0:0:0:
19,80,37350,2,0,P|11:115|16:151,1,70,0|0,0:0|0:0,0:0:0:0:
74,218,37683,2,0,P|113:197|184:207,1,105,10|0,0:0|0:0,0:0:0:0:
201,235,38016,2,0,L|191:309,1,70,0|0,3:0|3:0,0:0:0:0:
263,376,38349,5,2,0:0:0:0:
263,376,38515,1,8,0:0:0:0:
338,326,38681,2,0,P|375:327|416:342,1,70,0|0,1:0|3:0,0:0:0:0:
482,288,39014,2,0,L|463:136,1,140,10|0,0:0|3:0,0:0:0:0:
338,17,39680,6,0,P|284:40|251:39,1,70,6|0,1:2|3:0,0:0:0:0:
206,102,40013,2,0,L|132:85,1,70,2|0,3:2|3:0,0:0:0:0:
55,48,40346,2,0,L|67:166,1,105,10|0,0:0|0:0,0:0:0:0:
92,189,40679,2,0,L|82:265,1,70,0|0,3:0|3:0,0:0:0:0:
169,373,41012,6,0,P|209:354|258:354,1,70,2|0,0:0|3:0,0:0:0:0:
305,294,41344,2,0,L|398:308,1,70,2|0,1:2|3:0,0:0:0:0:
446,361,41677,2,0,P|465:296|443:241,1,105,10|0,0:0|0:0,0:0:0:0:
436,220,42010,2,0,L|443:135,1,70,0|0,3:0|0:0,0:0:0:0:
492,28,42343,6,0,L|417:16,1,70,2|0,1:2|3:0,0:0:0:0:
358,80,42676,2,0,P|325:92|290:92,1,70,2|0,3:2|0:0,0:0:0:0:
218,35,43009,2,0,P|156:26|117:57,1,105,10|0,0:0|0:0,0:0:0:0:
92,82,43342,2,0,L|104:157,1,70,0|0,3:0|3:0,0:0:0:0:
19,363,45006,6,0,B|42:343|42:343|100:335|149:378,1,140,6|2,1:2|0:0,0:0:0:0:
218,321,45505,1,0,0:0:0:0:
295,369,45672,2,0,B|366:375|361:343|432:349,1,140,10|2,0:0|3:0,0:0:0:0:
498,180,46337,6,0,P|466:154|384:212,1,140,2|0,1:2|1:0,0:0:0:0:
304,154,46837,1,0,0:0:0:0:
220,189,47003,2,0,P|188:215|106:157,1,140,8|2,0:0|3:2,0:0:0:0:
44,112,47503,1,2,0:0:0:0:
112,52,47669,6,0,L|207:29,1,70,2|0,1:2|0:0,0:0:0:0:
44,112,48002,2,0,B|12:119|2:117|2:117|21:235,1,140,2|10,3:2|0:0,0:0:0:0:
96,258,48501,1,2,0:0:0:0:
57,340,48668,2,0,P|39:330|-10:327,1,70,2|0,3:2|3:2,0:0:0:0:
179,288,49000,2,0,L|248:280,1,70,2|8,0:2|0:0,0:0:0:0:
456,375,49333,6,0,B|446:347|452:323|452:323|476:288|469:232,1,140,2|10,1:2|0:0,0:0:0:0:
424,159,49833,1,2,3:2:0:0:
485,92,49999,2,0,L|495:15,1,70,2|2,3:2|0:0,0:0:0:0:
424,159,50332,6,0,B|386:164|354:137|354:137|315:136|287:173,1,140,6|2,1:2|3:2,0:0:0:0:
217,206,50831,1,0,0:0:0:0:
148,145,50998,2,0,P|136:110|145:68,2,70,10|2|2,0:0|0:0|3:2,0:0:0:0:
17,272,51663,6,0,B|51:296|85:288|85:288|106:366,1,140,2|0,1:2|1:0,0:0:0:0:
189,380,52163,1,0,0:0:0:0:
258,321,52329,2,0,P|296:298|394:327,1,140,10|2,0:0|3:2,0:0:0:0:
459,369,52828,1,2,0:0:0:0:
497,286,52995,6,0,P|493:232|472:201,1,70,2|0,1:2|0:0,0:0:0:0:
400,49,53328,2,0,L|391:201,1,140,2|10,3:2|0:0,0:0:0:0:
314,236,53827,1,0,0:0:0:0:
240,181,53994,2,0,P|221:152|215:101,1,70,2|2,0:0|3:2,0:0:0:0:
179,252,54326,2,0,P|145:263|102:255,1,70,10|2,0:0|0:0,0:0:0:0:
0,144,54659,6,0,B|-6:107|22:83|22:83|63:81|85:125,1,140,2|10,1:2|0:0,0:0:0:0:
165,150,55159,1,0,3:0:0:0:
243,105,55325,2,0,P|254:67|245:25,1,70,0|0,3:0|3:0,0:0:0:0:
325,203,55658,6,0,B|368:206|392:182|392:182|428:176|468:216,1,140,6|2,1:2|0:0,0:0:0:0:
361,359,56324,2,0,P|312:347|272:351,1,70,10|2,0:0|0:0,0:0:0:0:
226,283,56656,2,0,L|149:293,1,70,2|2,3:0|3:0,0:0:0:0:
83,346,56989,2,0,P|70:313|77:257,1,70,2|0,1:2|0:0,0:0:0:0:
0,153,57322,6,0,P|23:105|123:101,1,140,0|8,1:0|0:0,0:0:0:0:
178,139,57822,1,0,3:0:0:0:
258,95,57988,2,0,P|274:56|271:11,1,70,2|0,3:2|0:0,0:0:0:0:
337,167,58321,6,0,B|368:152|400:161|400:161|433:189|482:174,1,140,2|2,1:2|3:2,0:0:0:0:
504,261,58820,1,2,0:0:0:0:
450,334,58987,2,0,P|393:322|361:334,1,70,10|2,0:0|0:0,0:0:0:0:
305,276,59319,2,0,L|213:285,1,70,2|0,3:2|3:2,0:0:0:0:
164,340,59652,2,0,L|88:332,1,70,2|8,0:2|0:0,0:0:0:0:
4,217,59985,6,0,B|-17:162|26:120|26:120|66:135,1,140,0|10,1:0|0:0,0:0:0:0:
138,89,60484,1,2,3:2:0:0:
201,154,60651,2,0,L|195:231,1,70,2|2,3:2|0:0,0:0:0:0:
291,358,60984,6,0,B|364:366|361:323|425:329,1,140,6|2,1:2|3:2,0:0:0:0:
489,158,61650,2,0,P|466:111|430:88,1,70,10|2,0:0|0:0,0:0:0:0:
475,11,61982,2,0,P|424:11|380:34,1,70,2|0,3:2|3:0,0:0:0:0:
332,70,62315,2,0,P|269:66|239:49,1,70,2|0,1:2|0:0,0:0:0:0:
136,10,62648,6,0,B|158:30|158:30|176:78|159:146,1,140,0|10,1:0|0:0,0:0:0:0:
91,198,63147,1,2,3:2:0:0:
154,263,63314,2,0,L|239:258,1,70,2|2,3:2|0:0,0:0:0:0:
349,169,63647,6,0,P|407:165|452:245,1,140,2|2,1:2|3:2,0:0:0:0:
492,307,64146,1,2,0:0:0:0:
418,359,64313,2,0,B|385:363|361:342|361:342|321:342|290:378,1,140,10|2,0:0|0:0,0:0:0:0:
214,328,64812,1,2,3:2:0:0:
133,371,64978,2,0,P|77:362|46:371,1,70,10|2,0:0|0:0,0:0:0:0:
6,227,65311,6,0,B|-1:202|-1:202|46:166|129:215,1,140,2|10,1:2|0:0,0:0:0:0:
178,146,65810,1,0,3:0:0:0:
116,78,65977,2,0,L|36:87,2,70,0|0|2,3:0|3:0|1:2,0:0:0:0:
256,192,66393,12,2,69971,0:0:0:0:
