osu file format v14

[General]
AudioFilename: audio.mp3
AudioLeadIn: 0
PreviewTime: 861
Countdown: 0
SampleSet: Soft
StackLeniency: 0.2
Mode: 0
LetterboxInBreaks: 0
WidescreenStoryboard: 0

[Editor]
Bookmarks: 2377,23680,44984,66288
DistanceSpacing: 0.2
BeatDivisor: 4
GridSize: 4
TimelineZoom: 1.8

[Metadata]
Title:testo
TitleUnicode:testo
Artist:schoolboy
ArtistUnicode:schoolboy
Creator:schoolboy
Version:frakturehawkens' insane
Source:
Tags:sherrycherry tatemae anishina kodoku loreley komore rauf faik детство тесто detstvo Frakturehawkens smozit djulus
BeatmapID:2167377
BeatmapSetID:1033999

[Difficulty]
HPDrainRate:3.9
CircleSize:3.9
OverallDifficulty:7.9
ApproachRate:8.9
SliderMultiplier:2
SliderTickRate:1

[Events]
//Background and Video events
0,0,"ANIME-PICTURES.NET_-_612428-1920x1080-original-aenami-highres-wide+image-sky-cloud+(clouds).jpg",0,0
//Break Periods
//Storyboard Layer 0 (Background)
//Storyboard Layer 1 (Fail)
//Storyboard Layer 2 (Pass)
//Storyboard Layer 3 (Foreground)
//Storyboard Layer 4 (Overlay)
//Storyboard Sound Samples

[TimingPoints]
-2927,332.871012482663,4,2,1,30,1,0
2313,-100,4,2,0,5,0,0
2397,-111.111111111111,4,2,1,45,0,0
3728,-142.857142857143,4,2,1,45,0,0
5059,-111.111111111111,4,2,1,45,0,0
5725,-90.9090909090908,4,2,1,45,0,0
6724,-181.818181818181,4,2,1,45,0,0
6973,-181.818181818181,4,2,0,5,0,0
7057,-79.9999999999999,4,2,1,45,0,0
7722,-111.111111111111,4,2,1,45,0,0
7972,-111.111111111111,4,2,0,5,0,0
8055,-111.111111111111,4,2,1,45,0,0
9054,-142.857142857143,4,2,1,45,0,0
10385,-200,4,2,1,45,0,0
11717,-125,4,2,1,45,0,0
12050,-166.666666666667,4,2,1,45,0,0
12383,-250,4,2,1,45,0,0
12965,-250,4,2,0,5,0,0
13048,-111.111111111111,4,2,1,45,0,0
13298,-111.111111111111,4,2,0,5,0,0
13381,-111.111111111111,4,2,1,45,0,0
14380,-142.857142857143,4,2,1,45,0,0
15711,-111.111111111111,4,2,1,45,0,0
15961,-111.111111111111,4,2,0,5,0,0
16044,-111.111111111111,4,2,1,45,0,0
17376,-200,4,2,1,45,0,0
17709,-83.3333333333333,4,2,1,45,0,0
18374,-111.111111111111,4,2,1,45,0,0
18624,-111.111111111111,4,2,0,5,0,0
18707,-111.111111111111,4,2,1,45,0,0
19706,-142.857142857143,4,2,1,45,0,0
21037,-200,4,2,1,45,0,0
22369,-125,4,2,1,45,0,0
22702,-166.666666666667,4,2,1,45,0,0
23035,-250,4,2,1,45,0,0
23617,-250,4,2,0,5,0,0
23700,-76.9230769230769,4,2,1,45,0,0
25032,-100,4,2,1,45,0,0
25697,-142.857142857143,4,2,1,45,0,0
26363,-76.9230769230769,4,2,1,45,0,0
27695,-66.6666666666667,4,2,1,45,0,0
29026,-76.9230769230769,4,2,1,45,0,0
29276,-76.9230769230769,4,2,0,5,0,0
29359,-76.9230769230769,4,2,1,45,0,0
30358,-100,4,2,1,45,0,0
31023,-142.857142857143,4,2,1,45,0,0
31689,-100,4,2,1,45,0,0
31939,-100,4,2,0,5,0,0
32022,-100,4,2,1,45,0,0
32355,-76.9230769230769,4,2,1,45,0,0
33021,-222.222222222221,4,2,1,45,0,0
33180,-222.222222222221,4,2,1,10,0,0
34269,-222.222222222221,4,2,0,5,0,0
34346,-222.222222222221,4,2,1,45,0,0
34352,-83.3333333333333,4,2,1,45,0,0
39012,-222.222222222221,4,2,1,45,0,0
39678,-83.3333333333333,4,2,1,45,0,0
43674,-83.3333333333333,4,2,1,30,0,0
44921,-83.3333333333333,4,2,0,5,0,0
45004,-111.111111111111,4,2,1,45,0,0
45254,-111.111111111111,4,2,0,5,0,0
45337,-111.111111111111,4,2,1,45,0,0
46335,-142.857142857143,4,2,1,45,0,0
47667,-111.111111111111,4,2,1,45,0,0
48582,-90.9090909090908,4,2,1,45,0,0
49331,-181.818181818181,4,2,1,45,0,0
49581,-181.818181818181,4,2,0,5,0,0
49664,-79.9999999999999,4,2,1,45,0,0
50330,-111.111111111111,4,2,1,45,0,0
50580,-111.111111111111,4,2,0,5,0,0
50663,-111.111111111111,4,2,1,45,0,0
51661,-142.857142857143,4,2,1,45,0,0
52993,-200,4,2,1,45,0,0
54324,-125,4,2,1,45,0,0
54657,-166.666666666667,4,2,1,45,0,0
54990,-250,4,2,1,45,0,0
55573,-250,4,2,0,5,0,0
55656,-111.111111111111,4,2,1,45,0,0
55906,-111.111111111111,4,2,0,5,0,0
55989,-111.111111111111,4,2,1,45,0,0
56987,-142.857142857143,4,2,1,45,0,0
58319,-111.111111111111,4,2,1,45,0,0
58568,-111.111111111111,4,2,0,5,0,0
58652,-111.111111111111,4,2,1,45,0,0
59983,-200,4,2,1,45,0,0
60316,-83.3333333333333,4,2,1,45,0,0
60982,-111.111111111111,4,2,1,45,0,0
61231,-111.111111111111,4,2,0,5,0,0
61315,-111.111111111111,4,2,1,45,0,0
62313,-142.857142857143,4,2,1,45,0,0
63645,-200,4,2,1,45,0,0
64976,-125,4,2,1,45,0,0
65309,-166.666666666667,4,2,1,45,0,0
65642,-250,4,2,1,45,0,0
66225,-250,4,2,0,5,0,0
66308,-250,4,2,1,45,0,0
66310,-250,4,2,1,30,0,0
71467,-250,4,2,0,5,0,0
71634,-250,4,2,1,30,0,0
76960,-250,4,2,1,10,0,0
80954,-250,4,2,0,5,0,0

[Colours]
Combo1 : 255,242,202
Combo2 : 202,202,255
Combo3 : 255,206,255
Combo4 : 252,190,200

[HitObjects]
258,21,734,5,0,0:0:0:0:
256,24,817,1,0,0:0:0:0:
255,28,901,1,0,0:0:0:0:
38,75,1067,5,2,0:0:0:0:
117,93,1233,2,0,P|129:31|137:-22,1,100,2|2,0:0|0:0,0:0:0:0:
28,85,1566,5,2,0:0:0:0:
133,112,1733,5,2,0:0:0:0:
257,174,1899,5,2,0:0:0:0:
416,298,2066,6,0,B|379:310|360:345|360:345|371:307|356:271,1,150,2|0,0:0|0:0,0:0:0:0:
416,298,2399,6,0,P|324:314|252:337,1,134.999995880127,6|0,1:2|0:0,0:0:0:0:
222,276,2731,2,0,P|172:279|147:220,1,89.9999972534181,2|0,0:0|0:0,0:0:0:0:
375,95,3064,2,0,L|359:164,1,44.999998626709,10|0,0:0|0:0,0:0:0:0:
403,169,3231,1,2,0:0:0:0:
341,218,3397,1,2,3:0:0:0:
341,218,3480,1,0,0:0:0:0:
341,218,3564,1,2,3:0:0:0:
147,251,3730,6,0,L|67:226,1,69.9999978637696,2|0,1:2|3:0,0:0:0:0:
9,0,4063,2,0,B|27:11|27:11|7:76,1,69.9999978637696,0|0,3:0|3:0,0:0:0:0:
6,82,4396,2,0,L|86:66,1,69.9999978637696,8|0,0:0|3:0,0:0:0:0:
81,67,4645,1,0,3:0:0:0:
88,66,4729,1,2,3:2:0:0:
99,143,4895,1,0,0:0:0:0:
320,0,5061,6,0,P|300:47|288:105,1,89.9999972534181,2|0,1:2|0:0,0:0:0:0:
346,144,5394,1,2,3:2:0:0:
346,144,5561,1,2,0:0:0:0:
99,143,5727,2,0,P|107:199|168:206,1,110.000003356934,10|2,0:0|0:0,0:0:0:0:
463,113,6060,2,0,P|438:102|385:84,1,55.0000016784668,2|0,3:2|3:2,0:0:0:0:
488,191,6227,2,0,P|461:194|405:204,1,55.0000016784668,0|0,3:2|0:0,0:0:0:0:
355,215,6393,1,2,0:2:0:0:
355,215,6559,1,8,0:0:0:0:
355,215,6726,2,0,P|346:255|337:313,1,82.5000025177003,2|0,1:2|0:0,0:0:0:0:
382,366,7059,6,0,P|439:348|456:290,1,125,10|2,0:0|3:2,0:0:0:0:
314,143,7392,2,0,P|308:69|300:0,1,125,2|2,3:2|0:0,0:0:0:0:
21,266,7724,6,0,B|57:262|64:233|57:233|79:194|142:199,1,134.999995880127,6|0,1:2|0:0,0:0:0:0:
178,272,8057,2,0,P|209:265|178:265,1,89.9999972534181,2|0,3:2|0:0,0:0:0:0:
33,143,8390,2,0,L|52:83,1,44.999998626709,10|0,0:0|0:0,0:0:0:0:
9,69,8557,1,2,0:0:0:0:
33,143,8723,1,2,3:2:0:0:
33,143,8806,1,0,3:0:0:0:
33,143,8889,1,0,3:0:0:0:
245,155,9056,6,0,L|314:142,1,69.9999978637696,2|0,1:2|0:0,0:0:0:0:
141,0,9389,2,0,B|113:26|113:26|117:57,1,69.9999978637696,0|0,3:0|3:0,0:0:0:0:
122,76,9722,2,0,L|193:87,1,69.9999978637696,10|2,0:0|3:2,0:0:0:0:
197,85,9971,1,0,3:2:0:0:
197,77,10055,1,2,3:2:0:0:
275,62,10221,1,2,0:0:0:0:
327,125,10387,6,0,P|320:181|316:226,1,100,2|2,1:2|3:2,0:0:0:0:
402,98,10887,1,2,0:0:0:0:
402,98,11053,6,0,P|405:154|410:199,1,100,10|2,0:0|0:0,0:0:0:0:
410,197,11552,1,2,3:2:0:0:
243,273,11719,6,0,P|234:302|249:275,1,80,10|2,0:0|0:0,0:0:0:0:
137,301,12052,6,0,P|136:321|141:301,1,59.9999981689454,0|0,3:0|3:0,0:0:0:0:
55,364,12385,6,0,P|58:378|57:363,1,40,10|0,0:0|3:0,0:0:0:0:
58,363,12718,6,0,L|66:299,1,60,0|0,3:0|0:0,0:0:0:0:
45,357,13050,6,0,P|37:293|27:217,1,134.999995880127,6|0,1:2|0:0,0:0:0:0:
76,158,13383,2,0,P|133:149|176:147,1,89.9999972534181,2|0,0:0|0:0,0:0:0:0:
364,345,13716,2,0,P|345:341|342:301,1,44.999998626709,10|0,0:0|0:0,0:0:0:0:
287,330,13883,1,2,0:0:0:0:
324,240,14049,2,0,P|323:188|350:128,1,89.9999972534181,2|2,3:0|3:0,0:0:0:0:
146,275,14382,6,0,B|124:186|98:240|74:152,2,139.999995727539,2|0|8,1:2|3:0|0:0,0:0:0:0:
168,354,15214,1,0,3:0:0:0:
168,354,15297,1,0,3:0:0:0:
168,354,15380,1,2,3:2:0:0:
245,335,15547,1,0,0:0:0:0:
334,152,15713,6,0,P|407:168|465:186,1,134.999995880127,2|0,1:2|0:0,0:0:0:0:
503,257,16046,2,0,P|469:283|408:259,1,89.9999972534181,2|2,3:2|0:0,0:0:0:0:
334,152,16379,1,10,0:0:0:0:
444,137,16546,1,2,0:0:0:0:
276,96,16712,5,2,3:2:0:0:
277,91,16795,1,0,3:2:0:0:
278,86,16878,2,0,P|295:36|313:-9,1,89.9999972534181,0|2,3:2|0:2,0:0:0:0:
205,52,17211,5,8,0:0:0:0:
205,52,17378,2,0,P|215:21|223:-5,1,50,0|0,3:0|3:0,0:0:0:0:
444,137,17711,6,0,P|389:117|375:61,1,119.999996337891,10|2,0:0|3:2,0:0:0:0:
117,242,18043,2,0,P|58:227|0:217,1,119.999996337891,2|2,3:2|0:0,0:0:0:0:
304,384,18376,6,0,P|293:223|293:210,1,134.999995880127,6|0,1:2|0:0,0:0:0:0:
373,265,18709,2,0,P|417:258|462:254,1,89.9999972534181,2|0,3:2|0:0,0:0:0:0:
205,52,19042,2,0,B|203:29|203:29|219:15,1,44.999998626709,10|0,0:0|0:0,0:0:0:0:
126,41,19208,1,2,0:0:0:0:
75,102,19375,1,2,3:2:0:0:
75,102,19458,1,0,0:0:0:0:
75,102,19541,1,0,3:0:0:0:
94,325,19708,6,0,P|147:317|185:313,1,69.9999978637696,2|0,1:2|0:0,0:0:0:0:
459,164,20041,2,0,P|406:172|368:176,1,69.9999978637696,0|0,3:0|3:0,0:0:0:0:
369,179,20374,2,0,B|355:212|355:212|376:246,1,69.9999978637696,10|2,0:0|3:2,0:0:0:0:
379,243,20623,1,0,3:2:0:0:
384,246,20706,1,2,3:2:0:0:
390,322,20873,1,2,0:0:0:0:
336,384,21039,6,0,B|293:371|316:338|259:326,1,100,2|2,1:2|3:2,0:0:0:0:
390,322,21539,1,2,0:0:0:0:
390,322,21705,2,0,B|357:291|392:271|346:236,1,100,10|2,0:0|0:0,0:0:0:0:
346,236,22204,1,2,3:2:0:0:
414,191,22371,6,0,B|454:196|454:196|457:201|457:201|493:205,1,80,10|2,0:0|0:0,0:0:0:0:
234,167,22704,6,0,B|274:172|274:172|276:175|276:175|291:176,1,59.9999981689454,2|0,1:2|3:0,0:0:0:0:
69,145,23037,6,0,B|95:148|95:148|95:148|95:148|108:150,1,40,10|0,0:0|0:0,0:0:0:0:
121,144,23369,6,0,B|129:111|129:111|104:84,1,60,0|0,3:0|0:0,0:0:0:0:
12,39,23702,6,2,P|27:147|47:273,1,194.999991073609,6|0,1:2|0:0,0:0:0:0:
40,231,24035,1,0,0:0:0:0:
5,306,24202,1,2,0:0:0:0:
104,384,24368,2,2,P|128:258|165:105,1,259.999988098145,2|2,0:0|3:0,0:0:0:0:
171,129,24784,1,0,3:0:0:0:
183,128,24867,1,0,3:0:0:0:
140,53,25034,6,0,P|91:54|64:94,1,100,2|0,0:0|3:0,0:0:0:0:
235,263,25367,2,0,L|199:268,2,25,0|0|0,1:0|3:0|3:0,0:0:0:0:
235,263,25533,1,0,3:0:0:0:
282,201,25699,6,0,B|377:186|313:146|424:137,1,139.999995727539,10|0,0:0|3:0,0:0:0:0:
402,139,26199,1,0,0:0:0:0:
211,384,26365,6,2,P|203:275|198:170,1,194.999991073609,2|0,1:2|0:0,0:0:0:0:
208,180,26698,2,0,P|208:80|209:40,1,129.999994049073,0|0,0:0|0:0,0:0:0:0:
127,111,27031,1,2,0:0:0:0:
127,111,27197,1,0,0:0:0:0:
290,119,27364,1,0,3:0:0:0:
290,119,27447,1,0,3:0:0:0:
290,119,27530,1,0,3:0:0:0:
456,12,27697,6,2,P|463:52|475:108,1,75.0000028610231,2|0,0:0|0:0,0:0:0:0:
469,85,27863,1,0,0:0:0:0:
456,12,28030,2,0,P|430:142|404:319,1,300.000011444092,0|10,1:2|0:2,0:0:0:0:
374,202,28529,1,0,0:0:0:0:
388,200,28612,1,0,0:0:0:0:
402,198,28695,1,0,0:0:0:0:
405,307,28862,1,0,0:0:0:0:
187,347,29028,6,0,B|144:335|128:286|178:262|144:186|62:189,1,194.999991073609,2|0,1:2|0:0,0:0:0:0:
96,193,29361,1,2,0:0:0:0:
68,269,29527,1,2,0:0:0:0:
257,304,29694,2,0,P|229:219|177:40,1,259.999988098145,10|0,0:0|3:0,0:0:0:0:
190,46,30110,1,0,3:0:0:0:
199,37,30193,1,0,3:0:0:0:
312,149,30360,6,0,B|342:145|356:124|356:124|353:147|365:171,1,100,2|0,0:2|3:0,0:0:0:0:
96,193,30693,2,0,L|60:188,2,25,0|0|0,1:0|3:0|3:0,0:0:0:0:
96,193,30859,1,0,3:0:0:0:
145,130,31025,6,0,P|203:165|210:240,1,139.999995727539,10|0,0:0|3:0,0:0:0:0:
212,232,31525,1,0,0:0:0:0:
401,355,31691,6,0,B|371:302|401:215|441:255|400:295,1,150,2|0,1:2|0:0,0:0:0:0:
403,291,32024,2,0,P|360:279|302:272,1,100,2|2,0:0|0:0,0:0:0:0:
333,23,32357,2,0,P|395:39|459:47,1,129.999994049073,10|0,0:0|0:0,0:0:0:0:
377,272,32690,1,0,3:0:0:0:
375,259,32773,1,0,3:0:0:0:
373,246,32856,1,0,3:0:0:0:
349,169,33023,6,0,B|306:286|387:258|352:347|352:347|332:360|295:384|295:384|330:357|356:309,1,337.499989700318,2|0,0:0|0:0,0:0:0:0:
349,320,34354,6,0,P|310:308|183:297,1,119.999996337891,6|0,1:2|3:0,0:0:0:0:
399,254,34687,2,0,P|363:234|240:199,1,119.999996337891,2|0,3:2|3:0,0:0:0:0:
42,157,35020,1,10,0:0:0:0:
42,157,35186,1,0,3:0:0:0:
11,84,35353,2,0,P|21:62|30:27,2,59.9999981689454,0|0|0,3:0|3:0|3:0,0:0:0:0:
66,377,35686,6,0,P|129:332|115:263,1,119.999996337891,2|0,0:0|3:0,0:0:0:0:
0,310,36018,2,0,L|37:302,2,29.9999990844727,2|0|0,1:2|0:0|0:0,0:0:0:0:
0,310,36185,1,0,3:0:0:0:
192,243,36351,2,0,P|143:178|92:181,1,119.999996337891,10|0,0:0|3:0,0:0:0:0:
100,182,36601,1,0,3:0:0:0:
100,193,36684,1,0,3:0:0:0:
131,294,36851,1,0,0:0:0:0:
261,384,37017,6,0,B|319:283|158:282|230:170,1,239.999992675781,2|0,1:2|0:0,0:0:0:0:
230,169,37516,1,0,0:0:0:0:
353,348,37683,2,0,P|407:311|466:284,1,119.999996337891,10|0,0:0|3:0,0:0:0:0:
131,294,38016,1,0,3:0:0:0:
142,300,38099,1,0,3:0:0:0:
143,312,38182,1,0,3:0:0:0:
52,289,38349,5,2,0:0:0:0:
230,169,38515,1,8,0:0:0:0:
151,164,38681,5,0,1:0:0:0:
151,164,38765,1,0,3:0:0:0:
151,164,38848,1,0,3:0:0:0:
419,61,39014,6,0,L|508:69,1,89.9999972534181,10|0,0:0|3:0,0:0:0:0:
507,78,39514,2,0,L|469:74,1,22.4999993133545,2|0,0:0|0:0,0:0:0:0:
320,51,39680,6,0,P|308:90|297:217,1,119.999996337891,6|0,1:2|3:0,0:0:0:0:
254,1,40013,2,0,P|234:37|199:160,1,119.999996337891,2|0,3:2|3:0,0:0:0:0:
340,319,40346,1,10,0:0:0:0:
340,319,40512,1,0,0:0:0:0:
402,269,40679,2,0,P|395:237|387:208,2,59.9999981689454,0|0|0,3:0|3:0|3:0,0:0:0:0:
142,193,41012,6,0,P|205:148|191:79,1,119.999996337891,2|0,0:0|3:0,0:0:0:0:
65,126,41344,2,0,L|73:163,2,29.9999990844727,2|0|0,1:2|0:0|0:0,0:0:0:0:
65,126,41511,1,0,3:0:0:0:
119,275,41677,2,0,P|66:258|-31:240,1,119.999996337891,10|0,0:0|3:0,0:0:0:0:
0,256,41927,1,0,0:0:0:0:
7,265,42010,1,0,3:0:0:0:
119,275,42177,1,0,0:0:0:0:
190,82,42343,6,0,B|205:44|174:16|174:16|-11:52,1,239.999992675781,2|2,1:2|3:2,0:0:0:0:
10,47,42842,1,0,0:0:0:0:
270,106,43009,2,0,P|314:57|384:45,1,119.999996337891,10|0,0:0|3:0,0:0:0:0:
488,335,43342,1,0,3:0:0:0:
480,343,43425,1,0,3:0:0:0:
490,349,43508,1,0,3:0:0:0:
427,274,43675,5,2,0:0:0:0:
427,274,43841,1,2,0:0:0:0:
427,274,44007,1,2,0:0:0:0:
427,274,44174,1,2,0:0:0:0:
427,274,44340,1,2,0:0:0:0:
427,274,44507,1,2,0:0:0:0:
427,274,44673,2,0,B|395:311|396:357|396:357|369:319|304:283,1,179.999994506836,2|0,0:0|0:0,0:0:0:0:
329,298,45006,6,0,P|395:308|460:325,1,134.999995880127,6|0,1:2|0:0,0:0:0:0:
454,245,45338,2,0,P|497:224|511:178,1,89.9999972534181,2|0,0:0|0:0,0:0:0:0:
257,351,45671,2,0,L|246:307,1,44.999998626709,10|0,0:0|0:0,0:0:0:0:
195,298,45838,1,2,0:0:0:0:
118,283,46004,1,2,3:0:0:0:
118,283,46087,1,0,0:0:0:0:
118,283,46171,1,2,3:0:0:0:
24,109,46337,6,0,P|37:142|44:187,1,69.9999978637696,2|0,1:2|3:0,0:0:0:0:
261,8,46670,2,0,B|232:33|232:33|232:83,1,69.9999978637696,0|0,1:0|0:0,0:0:0:0:
245,91,47003,2,0,P|209:80|165:75,1,69.9999978637696,8|0,0:0|3:0,0:0:0:0:
170,72,47252,1,0,3:0:0:0:
163,71,47336,1,2,3:2:0:0:
84,54,47502,1,2,0:0:0:0:
1,250,47669,6,0,P|21:297|33:355,1,89.9999972534181,2|0,1:2|0:0,0:0:0:0:
101,372,48001,1,2,3:2:0:0:
101,372,48168,1,2,0:0:0:0:
322,185,48335,2,0,P|277:203|281:268,1,89.9999972534181,10|2,0:0|0:0,0:0:0:0:
402,360,48668,2,0,L|471:388,1,55.0000016784668,2|0,3:2|3:2,0:0:0:0:
435,249,48834,2,0,L|391:281,1,55.0000016784668,0|0,3:2|0:0,0:0:0:0:
327,329,49000,1,2,0:2:0:0:
327,329,49167,1,8,0:0:0:0:
327,329,49333,2,0,L|223:347,1,82.5000025177003,2|0,1:2|0:0,0:0:0:0:
177,384,49666,6,0,P|120:366|103:308,1,125,10|2,0:0|3:2,0:0:0:0:
357,124,49999,2,0,P|293:169|260:212,1,125,2|2,3:2|0:0,0:0:0:0:
31,274,50332,6,0,B|35:238|64:231|64:238|103:216|98:153,1,134.999995880127,6|0,1:2|0:0,0:0:0:0:
17,68,50664,2,0,B|-2:80|-2:80|63:92,1,89.9999972534181,2|0,3:2|0:0,0:0:0:0:
255,250,50997,2,0,P|261:219|276:181,1,44.999998626709,10|0,0:0|0:0,0:0:0:0:
190,297,51164,1,2,0:0:0:0:
262,329,51330,1,2,3:2:0:0:
262,329,51413,1,0,3:0:0:0:
262,329,51496,1,0,3:0:0:0:
252,123,51663,6,0,L|173:142,1,69.9999978637696,2|0,1:2|0:0,0:0:0:0:
190,297,51996,2,0,B|194:266|194:266|166:240,1,69.9999978637696,0|0,1:0|0:0,0:0:0:0:
195,224,52329,2,0,L|288:240,1,69.9999978637696,10|2,0:0|3:2,0:0:0:0:
270,234,52578,1,0,3:2:0:0:
270,226,52662,1,2,3:2:0:0:
347,245,52828,1,2,0:0:0:0:
394,89,52995,6,0,P|400:139|405:189,1,100,2|2,1:2|3:2,0:0:0:0:
488,18,53494,1,2,0:0:0:0:
488,18,53661,6,0,P|483:70|480:119,1,100,10|2,0:0|0:0,0:0:0:0:
332,39,54159,1,2,3:2:0:0:
41,166,54326,6,0,P|50:195|35:168,1,80,10|2,0:0|0:0,0:0:0:0:
151,173,54659,6,0,P|152:193|147:173,1,59.9999981689454,2|0,1:2|3:0,0:0:0:0:
235,229,54992,6,0,P|232:243|233:228,1,40,10|0,0:0|3:0,0:0:0:0:
110,373,55325,6,0,P|103:345|102:309,1,60,0|0,3:0|0:0,0:0:0:0:
119,381,55658,6,0,P|127:317|137:241,1,134.999995880127,6|0,1:2|0:0,0:0:0:0:
96,176,55990,2,0,B|43:177|70:213|5:218,1,89.9999972534181,2|0,0:0|0:0,0:0:0:0:
200,363,56323,2,0,P|219:359|222:319,2,44.999998626709,10|0|2,0:0|0:0|0:0,0:0:0:0:
11,384,56656,2,0,P|12:332|22:268,1,89.9999972534181,2|2,3:0|3:0,0:0:0:0:
179,174,56989,6,0,P|181:95|191:14,2,139.999995727539,2|0|8,1:2|1:0|0:0,0:0:0:0:
248,216,57821,1,0,3:0:0:0:
248,216,57904,1,0,3:0:0:0:
248,216,57987,1,2,3:2:0:0:
319,174,58154,1,0,0:0:0:0:
512,253,58321,6,0,P|439:269|381:287,1,134.999995880127,2|0,1:2|0:0,0:0:0:0:
325,345,58653,2,0,P|359:371|420:347,1,89.9999972534181,2|2,3:2|0:0,0:0:0:0:
319,174,58986,1,10,0:0:0:0:
334,64,59153,1,2,0:0:0:0:
185,96,59319,5,2,3:2:0:0:
184,91,59402,1,0,3:2:0:0:
183,86,59485,2,0,P|166:36|148:-9,1,89.9999972534181,0|2,3:2|0:2,0:0:0:0:
256,52,59818,5,8,0:0:0:0:
256,52,59985,2,0,P|246:21|238:-5,1,50,0|0,1:0|0:0,0:0:0:0:
427,121,60318,6,0,P|482:101|496:45,1,119.999996337891,10|2,0:0|3:2,0:0:0:0:
319,174,60650,2,0,P|361:217|399:262,1,119.999996337891,2|2,3:2|0:0,0:0:0:0:
57,365,60984,6,0,P|72:302|59:199,1,134.999995880127,6|0,1:2|0:0,0:0:0:0:
73,152,61316,2,0,B|26:151|26:151|-8:194,1,89.9999972534181,2|0,3:2|0:0,0:0:0:0:
204,26,61649,2,0,B|253:9,1,44.999998626709,10|0,0:0|0:0,0:0:0:0:
215,105,61815,1,2,0:0:0:0:
154,156,61982,1,2,3:2:0:0:
154,156,62065,1,0,3:0:0:0:
154,156,62148,1,0,3:0:0:0:
292,372,62315,6,0,P|300:319|304:281,1,69.9999978637696,2|0,1:2|0:0,0:0:0:0:
453,7,62648,2,0,P|445:60|441:98,1,69.9999978637696,0|0,1:0|0:0,0:0:0:0:
438,97,62981,2,0,B|405:111|405:111|371:90,1,69.9999978637696,10|2,0:0|3:2,0:0:0:0:
374,87,63230,1,0,3:2:0:0:
371,82,63313,1,2,3:2:0:0:
295,76,63480,1,2,0:0:0:0:
86,166,63647,6,0,P|142:124|178:103,1,100,2|2,1:2|3:2,0:0:0:0:
13,133,64146,1,2,0:0:0:0:
13,133,64313,2,0,P|20:63|21:21,1,100,10|2,0:0|0:0,0:0:0:0:
111,39,64812,1,2,3:2:0:0:
115,240,64978,6,0,P|98:192|76:147,1,80,10|2,0:0|0:0,0:0:0:0:
181,288,65311,6,0,P|205:245|195:213,1,59.9999981689454,2|0,1:2|3:0,0:0:0:0:
229,353,65644,6,0,P|252:360|254:334,1,40,10|0,0:0|3:0,0:0:0:0:
56,315,65977,6,0,P|42:299|58:313,1,60,0|0,3:0|0:0,0:0:0:0:
58,310,66310,5,2,1:2:0:0:
259,349,66643,1,2,0:0:0:0:
364,0,67308,5,2,0:0:0:0:
58,310,67641,5,2,1:2:0:0:
207,286,67974,1,2,0:0:0:0:
233,211,68307,1,2,0:0:0:0:
233,211,68640,1,2,0:0:0:0:
58,310,68973,5,2,1:2:0:0:
123,358,69306,1,2,0:0:0:0:
141,195,69638,5,2,0:0:0:0:
66,227,69971,1,2,0:0:0:0:
256,192,70304,12,0,71469,0:0:0:0:
454,74,71636,5,2,1:2:0:0:
253,35,71969,1,2,0:2:0:0:
148,384,72634,5,2,0:2:0:0:
454,74,72967,5,2,1:2:0:0:
305,98,73300,1,2,0:0:0:0:
279,173,73633,1,2,0:0:0:0:
279,173,73966,1,2,0:0:0:0:
454,74,74299,5,2,1:2:0:0:
389,26,74632,1,2,0:0:0:0:
371,189,74964,5,2,0:0:0:0:
446,157,75297,1,2,0:0:0:0:
256,192,76962,12,0,80956,0:0:0:0:
