osu file format v14

[General]
AudioFilename: audio.mp3
AudioLeadIn: 0
PreviewTime: 861
Countdown: 0
SampleSet: Soft
StackLeniency: 0.2
Mode: 0
LetterboxInBreaks: 0
WidescreenStoryboard: 1

[Editor]
Bookmarks: 32357
DistanceSpacing: 1.7
BeatDivisor: 4
GridSize: 4
TimelineZoom: 1.8

[Metadata]
Title:testo
TitleUnicode:testo
Artist:schoolboy
ArtistUnicode:schoolboy
Creator:schoolboy
Version:extra
Source:
Tags:sherrycherry tatemae anishina kodoku loreley komore rauf faik детство тесто detstvo Frakturehawkens smozit djulus
BeatmapID:2191923
BeatmapSetID:1033999

[Difficulty]
HPDrainRate:5
CircleSize:3.5
OverallDifficulty:8
ApproachRate:8.3
SliderMultiplier:1.5
SliderTickRate:1

[Events]
//Background and Video events
0,0,"ANIME-PICTURES.NET_-_612428-1920x1080-original-aenami-highres-wide+image-sky-cloud+(clouds).jpg",0,0
//Break Periods
//Storyboard Layer 0 (Background)
//Storyboard Layer 1 (Fail)
//Storyboard Layer 2 (Pass)
//Storyboard Layer 3 (Foreground)
//Storyboard Layer 4 (Overlay)
//Storyboard Sound Samples

[TimingPoints]
-2927,332.871012482663,4,2,1,45,1,0
1067,-100,4,2,1,30,0,0
2398,-100,4,2,1,45,0,0
23650,-153.846153846153,4,2,1,45,0,0
33150,-153.846153846153,4,2,1,10,0,0
34316,-100,4,2,1,45,0,0
34650,-100,4,2,1,45,0,0
34983,-100,4,2,1,45,0,0
39650,-100,4,2,1,45,0,0
39983,-100,4,2,1,45,0,0
40316,-100,4,2,1,45,0,0
40983,-100,4,2,1,45,0,0
41316,-100,4,2,1,45,0,0
41650,-100,4,2,1,45,0,0
43674,-100,4,2,1,30,0,0
44983,-100,4,2,1,45,0,0
66393,-100,4,2,1,30,0,0

[Colours]
Combo1 : 255,242,202
Combo2 : 202,202,255
Combo3 : 255,206,255
Combo4 : 252,190,200

[HitObjects]
103,170,1067,6,0,L|-3:158,1,75,2|2,0:0|0:0,0:0:0:0:
268,113,1400,1,2,0:0:0:0:
236,207,1566,1,2,0:0:0:0:
220,47,1733,1,2,0:0:0:0:
288,267,1899,1,2,0:0:0:0:
234,39,2066,1,2,0:0:0:0:
205,313,2232,1,2,0:0:0:0:
92,95,2398,6,0,L|117:248,1,150,6|2,1:2|0:0,0:0:0:0:
421,384,3064,2,0,L|405:296,1,75,10|2,0:0|0:0,0:0:0:0:
490,157,3397,2,0,L|503:230,1,75,2|2,3:0|3:0,0:0:0:0:
291,384,3730,6,0,L|275:296,1,75,2|0,1:2|3:0,0:0:0:0:
347,9,4063,2,0,L|372:162,1,150,0|8,3:0|0:0,0:0:0:0:
132,371,4729,1,2,3:2:0:0:
191,103,4895,1,0,0:0:0:0:
132,371,5061,6,0,L|107:222,1,150,2|2,1:2|3:2,0:0:0:0:
264,197,5561,1,2,0:0:0:0:
177,29,5727,2,0,L|193:117,1,75,10|2,0:0|0:0,0:0:0:0:
384,230,6060,2,0,L|370:156,1,75,2|0,3:2|3:2,0:0:0:0:
115,278,6393,1,2,0:2:0:0:
278,370,6559,1,8,0:0:0:0:
115,278,6726,6,0,L|101:204,1,75,2|0,1:2|0:0,0:0:0:0:
269,68,7059,1,10,0:0:0:0:
202,314,7225,1,2,3:2:0:0:
207,14,7392,1,2,3:2:0:0:
278,370,7558,1,2,0:0:0:0:
301,0,7724,6,0,L|325:147,1,150,6|2,1:2|3:2,0:0:0:0:
117,384,8390,2,0,L|103:310,1,75,10|2,0:0|0:0,0:0:0:0:
198,153,8723,2,0,L|214:241,1,75,2|0,3:2|3:0,0:0:0:0:
17,120,9056,6,0,L|1:32,1,75,2|0,1:2|0:0,0:0:0:0:
234,353,9389,1,0,3:0:0:0:
234,353,9722,1,10,0:0:0:0:
430,238,9888,1,2,3:2:0:0:
255,161,10054,1,2,3:2:0:0:
364,361,10221,1,2,0:0:0:0:
255,161,10387,6,0,L|231:14,1,150,2|2,1:2|3:2,0:0:0:0:
407,120,10887,1,2,0:0:0:0:
130,175,11053,2,0,L|105:27,1,150,10|2,0:0|0:0,0:0:0:0:
407,120,11552,1,2,3:2:0:0:
245,384,11719,6,0,L|231:310,1,75,10|2,0:0|0:0,0:0:0:0:
304,8,12052,2,0,L|320:96,1,75,0|0,3:0|3:0,0:0:0:0:
134,350,12385,1,10,0:0:0:0:
190,18,12717,1,0,3:0:0:0:
496,337,13050,6,0,L|337:360,1,150,6|2,1:2|0:0,0:0:0:0:
0,263,13716,2,0,L|74:253,1,75,10|2,0:0|0:0,0:0:0:0:
252,149,14049,2,0,L|177:159,1,75,2|2,3:0|3:0,0:0:0:0:
112,373,14382,6,0,L|186:362,1,75,2|0,1:2|0:0,0:0:0:0:
465,232,14715,2,0,L|306:255,1,150,0|8,3:0|0:0,0:0:0:0:
0,45,15380,2,0,L|74:34,1,75,2|0,3:2|0:0,0:0:0:0:
150,173,15713,6,0,L|-9:196,1,150,2|2,1:2|3:2,0:0:0:0:
240,70,16213,1,2,0:0:0:0:
194,289,16379,2,0,L|120:300,1,75,10|0,0:0|0:0,0:0:0:0:
353,155,16712,1,2,3:2:0:0:
270,366,16878,1,0,3:2:0:0:
353,155,17045,6,0,L|427:144,1,75,2|8,0:2|0:0,0:0:0:0:
151,35,17378,2,0,L|-8:58,1,150,0|10,3:0|0:0,0:0:0:0:
255,187,17877,1,2,3:2:0:0:
111,142,18043,1,2,3:2:0:0:
331,90,18210,1,2,0:0:0:0:
27,234,18376,6,0,L|175:212,1,150,6|2,1:2|3:2,0:0:0:0:
175,212,19042,1,10,0:0:0:0:
241,355,19208,1,2,0:0:0:0:
326,171,19375,1,2,3:2:0:0:
240,372,19541,1,0,3:0:0:0:
326,171,19708,6,0,L|400:160,1,75,2|0,1:2|0:0,0:0:0:0:
148,325,20041,2,0,L|0:346,1,150,0|10,3:0|0:0,0:0:0:0:
185,214,20540,1,2,3:2:0:0:
87,155,20706,2,0,L|12:165,1,75,2|2,3:2|0:0,0:0:0:0:
339,18,21039,6,0,L|190:39,1,150,2|2,1:2|3:2,0:0:0:0:
450,106,21539,1,2,0:0:0:0:
202,249,21705,2,0,L|350:227,1,150,10|2,0:0|0:0,0:0:0:0:
450,106,22204,1,2,3:2:0:0:
357,347,22371,6,0,L|282:357,1,75,10|2,0:0|0:0,0:0:0:0:
112,169,22704,1,2,1:2:0:0:
350,226,22870,1,0,3:0:0:0:
162,384,23036,1,10,0:0:0:0:
0,14,23369,1,0,3:0:0:0:
0,14,23702,6,0,L|149:94,1,146.249993305207,6|2,1:2|0:0,0:0:0:0:
197,36,24368,2,0,L|117:185,1,146.249993305207,2|0,0:0|3:0,0:0:0:0:
44,166,25034,2,0,L|193:246,1,146.249993305207,2|0,0:0|3:0,0:0:0:0:
241,188,25700,2,0,L|161:337,1,146.249993305207,10|0,0:0|0:0,0:0:0:0:
512,14,26365,6,0,L|363:94,1,146.249993305207,2|0,1:2|0:0,0:0:0:0:
315,36,27031,2,0,L|395:185,1,146.249993305207,2|0,0:0|3:0,0:0:0:0:
0,370,27697,6,0,L|149:290,1,146.249993305207,2|0,0:0|3:0,0:0:0:0:
197,348,28363,2,0,L|117:199,1,146.249993305207,10|0,0:2|0:0,0:0:0:0:
95,142,29028,6,0,L|111:75,1,48.7499977684022,2|2,1:2|0:0,0:0:0:0:
83,14,29361,2,0,L|71:61,1,48.7499977684022,2|2,0:0|0:0,0:0:0:0:
184,145,29694,2,0,L|207:50,1,97.4999955368044,10|0,0:0|3:0,0:0:0:0:
336,275,30360,6,0,L|313:370,1,97.4999955368044,2|0,0:2|1:0,0:0:0:0:
415,362,30859,1,0,3:0:0:0:
415,362,31025,2,0,L|431:295,2,48.7499977684022,10|0|0,0:0|3:0|3:0,0:0:0:0:
313,14,31691,6,0,L|336:108,1,97.4999955368044,2|2,1:2|0:0,0:0:0:0:
218,384,32357,2,0,L|194:289,1,97.4999955368044,10|0,0:0|3:0,0:0:0:0:
166,185,32856,1,0,3:0:0:0:
73,378,33023,5,2,0:0:0:0:
332,330,34354,5,6,1:2:0:0:
332,330,34687,2,0,L|344:234,1,75,2|0,3:2|3:0,0:0:0:0:
180,54,35020,2,0,L|168:150,1,75,10|0,0:0|3:0,0:0:0:0:
255,194,35353,2,0,L|267:98,1,75,0|0,3:0|3:0,0:0:0:0:
148,267,35686,6,0,L|136:363,1,75,2|0,0:0|3:0,0:0:0:0:
104,73,36018,1,2,1:2:0:0:
138,341,36185,1,0,3:0:0:0:
99,53,36351,1,10,0:0:0:0:
99,53,36684,2,0,L|87:149,1,75,0|0,3:0|0:0,0:0:0:0:
306,382,37017,6,0,L|318:286,1,75,2|0,1:2|3:0,0:0:0:0:
453,197,37350,2,0,L|465:101,1,75,0|0,0:0|0:0,0:0:0:0:
501,384,37683,1,10,0:0:0:0:
332,154,37849,1,0,3:0:0:0:
183,384,38016,1,0,3:0:0:0:
94,327,38182,2,0,L|106:231,2,75,0|2|8,3:0|0:0|0:0,0:0:0:0:
183,384,38681,5,0,1:0:0:0:
183,384,39014,2,0,L|205:206,1,150,10|0,0:0|3:0,0:0:0:0:
16,149,39680,6,0,L|105:125,1,75,6|0,1:2|3:0,0:0:0:0:
331,82,40013,1,2,3:2:0:0:
281,365,40179,1,0,3:0:0:0:
251,42,40346,1,10,0:0:0:0:
282,380,40512,1,0,0:0:0:0:
404,217,40679,2,0,L|493:193,1,75,0|0,3:0|3:0,0:0:0:0:
160,109,41011,6,0,L|71:133,1,75,2|0,0:0|3:0,0:0:0:0:
387,333,41344,2,0,L|476:309,1,75,2|0,1:2|3:0,0:0:0:0:
201,269,41677,2,0,L|112:293,1,75,10|0,0:0|3:0,0:0:0:0:
331,236,42010,2,0,L|420:212,1,75,0|0,3:0|0:0,0:0:0:0:
383,78,42343,6,0,L|294:102,1,75,2|0,1:2|3:0,0:0:0:0:
56,308,42676,2,0,L|145:284,1,75,2|0,3:2|0:0,0:0:0:0:
264,240,43009,1,10,0:0:0:0:
139,111,43175,1,0,3:0:0:0:
244,370,43342,2,0,L|333:346,1,75,0|0,3:0|3:0,0:0:0:0:
493,175,43674,6,0,L|476:260,1,75,2|2,0:0|0:0,0:0:0:0:
395,112,44007,1,2,0:0:0:0:
355,349,44174,1,2,0:0:0:0:
332,57,44340,1,2,0:0:0:0:
396,268,44507,1,2,0:0:0:0:
421,32,44673,1,2,0:0:0:0:
313,227,44839,1,2,0:0:0:0:
421,32,45006,6,0,L|441:201,1,150,6|2,1:2|0:0,0:0:0:0:
258,373,45672,2,0,L|271:271,1,75,10|2,0:0|0:0,0:0:0:0:
183,226,46005,2,0,L|93:236,1,75,2|2,3:0|3:0,0:0:0:0:
289,150,46337,6,0,L|302:48,1,75,2|0,1:2|3:0,0:0:0:0:
512,370,46670,2,0,L|345:344,1,150,0|8,1:0|0:0,0:0:0:0:
0,293,47336,1,2,3:2:0:0:
218,243,47502,1,2,0:0:0:0:
102,384,47669,6,0,L|128:217,1,150,2|2,1:2|3:2,0:0:0:0:
158,48,48168,1,2,0:0:0:0:
266,97,48335,2,0,L|352:84,1,75,10|2,0:0|0:0,0:0:0:0:
59,12,48668,1,2,3:2:0:0:
125,235,48834,1,0,3:2:0:0:
266,97,49000,6,0,L|258:15,1,75,2|8,0:2|0:0,0:0:0:0:
0,243,49333,2,0,L|8:161,1,75,2|0,1:2|0:0,0:0:0:0:
233,292,49666,1,10,0:0:0:0:
153,98,49833,1,2,3:2:0:0:
76,353,49999,1,2,3:2:0:0:
159,82,50165,1,2,0:0:0:0:
243,375,50332,6,0,L|399:356,1,150,6|2,1:2|3:2,0:0:0:0:
294,108,50998,2,0,L|279:200,1,75,10|2,0:0|0:0,0:0:0:0:
413,164,51330,1,2,3:2:0:0:
192,21,51497,1,0,3:0:0:0:
413,164,51663,6,0,L|426:73,1,75,2|0,1:2|0:0,0:0:0:0:
159,277,51996,2,0,L|-12:296,1,150,0|10,1:0|0:0,0:0:0:0:
206,173,52496,1,2,3:2:0:0:
174,372,52662,2,0,L|81:383,1,75,2|2,3:2|0:0,0:0:0:0:
416,137,52995,6,0,L|386:295,1,150,2|2,1:2|3:2,0:0:0:0:
276,22,53494,1,2,0:0:0:0:
388,284,53661,2,0,L|230:254,1,150,10|2,0:0|0:0,0:0:0:0:
276,22,54160,1,2,3:2:0:0:
240,256,54326,6,0,L|259:164,1,75,10|2,0:0|0:0,0:0:0:0:
99,58,54659,1,2,1:2:0:0:
180,350,54826,1,0,3:0:0:0:
356,220,54992,2,0,L|515:192,1,150,10|0,0:0|3:0,0:0:0:0:
57,200,55658,5,6,1:2:0:0:
57,200,55991,2,0,L|41:288,1,75,2|0,0:0|0:0,0:0:0:0:
231,115,56324,1,10,0:0:0:0:
167,233,56490,1,2,0:0:0:0:
125,37,56656,1,2,3:0:0:0:
171,249,56823,1,2,3:0:0:0:
125,37,56989,6,0,L|109:125,1,75,2|0,1:2|0:0,0:0:0:0:
264,384,57322,2,0,L|295:209,1,150,0|8,1:0|0:0,0:0:0:0:
290,236,57988,1,2,3:2:0:0:
61,311,58154,1,0,0:0:0:0:
290,236,58321,6,0,L|321:61,1,150,2|2,1:2|3:2,0:0:0:0:
196,134,58820,1,2,0:0:0:0:
398,234,58987,2,0,L|478:226,1,75,10|2,0:0|0:0,0:0:0:0:
196,134,59319,1,2,3:2:0:0:
196,134,59486,1,0,3:2:0:0:
269,279,59652,5,2,0:2:0:0:
323,28,59819,1,8,0:0:0:0:
269,279,59985,2,0,L|90:293,1,150,0|10,1:0|0:0,0:0:0:0:
321,168,60484,1,2,3:2:0:0:
21,240,60651,1,2,3:2:0:0:
337,346,60817,1,2,0:0:0:0:
195,65,60984,6,0,L|181:228,1,150,6|2,1:2|3:2,0:0:0:0:
452,379,61649,2,0,L|437:288,1,75,10|2,0:0|0:0,0:0:0:0:
414,189,61982,1,2,3:2:0:0:
335,360,62149,1,0,3:0:0:0:
414,189,62315,6,0,L|431:101,1,75,2|0,1:2|0:0,0:0:0:0:
185,350,62648,2,0,L|168:262,1,75,0|0,1:0|0:0,0:0:0:0:
306,143,62981,1,10,0:0:0:0:
280,279,63147,1,2,3:2:0:0:
309,129,63314,2,0,L|292:41,1,75,2|2,3:2|0:0,0:0:0:0:
36,368,63647,6,0,L|186:349,1,150,2|2,1:2|3:2,0:0:0:0:
294,55,64146,1,2,0:0:0:0:
17,268,64312,2,0,L|167:249,1,150,10|2,0:0|0:0,0:0:0:0:
294,55,64812,1,2,3:2:0:0:
405,241,64978,6,0,L|392:328,1,75,10|2,0:0|0:0,0:0:0:0:
236,155,65311,1,2,1:2:0:0:
320,380,65477,1,0,3:0:0:0:
404,65,65644,1,10,0:0:0:0:
30,248,65977,1,0,3:0:0:0:
30,248,66310,6,0,P|104:248|191:198,1,150,2|2,1:2|0:0,0:0:0:0:
171,215,67308,1,2,0:0:0:0:
312,247,67641,2,0,P|244:215|170:214,1,150,2|2,1:2|0:0,0:0:0:0:
170,214,68640,1,2,0:0:0:0:
28,246,68973,6,0,P|102:246|189:196,1,150,2|2,1:2|0:0,0:0:0:0:
311,245,69638,2,0,P|243:213|169:212,1,150,2|2,0:0|0:0,0:0:0:0:
405,21,71636,6,0,P|386:77|382:172,1,150,2|2,1:2|0:2,0:0:0:0:
381,167,72634,1,2,0:2:0:0:
357,313,72967,2,0,P|376:257|380:162,1,150,2|2,1:2|0:0,0:0:0:0:
381,167,73965,1,2,0:0:0:0:
405,21,74299,6,0,P|386:77|382:172,1,150,2|2,1:2|0:0,0:0:0:0:
357,313,74964,2,0,P|376:257|380:162,1,150,2|2,0:0|0:0,0:0:0:0:
51,169,76962,5,0,0:0:0:0:
114,225,77294,1,0,0:0:0:0:
114,225,77960,1,0,0:0:0:0:
51,169,78293,5,0,0:0:0:0:
481,337,78626,1,0,0:0:0:0:
481,337,79292,1,0,0:0:0:0:
51,169,79625,5,0,0:0:0:0:
114,225,79957,1,0,0:0:0:0:
51,169,80290,1,0,0:0:0:0:
114,225,80623,1,0,0:0:0:0:
