osu file format v14

[General]
AudioFilename: audio.mp3
AudioLeadIn: 0
PreviewTime: 861
Countdown: 0
SampleSet: Soft
StackLeniency: 0.7
Mode: 0
LetterboxInBreaks: 0
WidescreenStoryboard: 1

[Editor]
DistanceSpacing: 0.1
BeatDivisor: 4
GridSize: 4
TimelineZoom: 2.999999

[Metadata]
Title:testo
TitleUnicode:testo
Artist:schoolboy
ArtistUnicode:schoolboy
Creator:schoolboy
Version:djulus' expert
Source:
Tags:sherrycherry tatemae anishina kodoku loreley komore rauf faik детство тесто detstvo Frakturehawkens smozit djulus
BeatmapID:2175511
BeatmapSetID:1033999

[Difficulty]
HPDrainRate:5
CircleSize:4.2
OverallDifficulty:8
ApproachRate:9.3
SliderMultiplier:1.73
SliderTickRate:1

[Events]
//Background and Video events
0,0,"ANIME-PICTURES.NET_-_612428-1920x1080-original-aenami-highres-wide+image-sky-cloud+(clouds).jpg",0,0
//Break Periods
//Storyboard Layer 0 (Background)
//Storyboard Layer 1 (Fail)
//Storyboard Layer 2 (Pass)
//Storyboard Layer 3 (Foreground)
//Storyboard Layer 4 (Overlay)
//Storyboard Sound Samples

[TimingPoints]
-2927,332.871012482663,4,2,1,45,1,0
1067,-100,4,2,1,30,0,0
2398,-111.111111111111,4,2,1,45,0,0
23680,-153.846153846153,4,2,1,45,0,0
24368,-222.22222222222,4,2,1,45,0,0
25533,-100,4,2,1,45,0,0
26032,-76.9230769230769,4,2,1,45,0,0
26365,-181.818181818181,4,2,1,45,0,0
28030,-100,4,2,1,45,0,0
28612,-133.333333333333,4,2,1,45,0,0
29694,-76.9230769230769,4,2,1,45,0,0
30692,-181.818181818181,4,2,1,45,0,0
33023,-399.999999999997,4,2,1,45,0,0
33180,-153.846153846153,4,2,1,10,0,0
34346,-133.333333333333,4,2,1,45,0,0
34680,-117.647058823529,4,2,1,45,0,0
35013,-105.263157894737,4,2,1,45,0,0
35353,-80.0000000000001,4,2,1,45,0,0
37017,-133.333333333333,4,2,1,45,0,0
37683,-66.6666666666667,4,2,1,45,0,0
38515,-100,4,2,1,45,0,0
39650,-66.6666666666667,4,2,1,45,0,0
39983,-90.9090909090909,4,2,1,45,0,0
40316,-117.64705882353,4,2,1,45,0,0
40983,-66.6666666666667,4,2,1,45,0,0
41316,-133.333333333333,4,2,1,45,0,0
41650,-55.5555555555556,4,2,1,45,0,0
43009,-66.6666666666667,4,2,1,45,0,0
43674,-117.647058823529,4,2,1,30,0,0
44983,-111.111111111111,4,2,1,45,0,0
65977,-181.818181818181,4,2,1,45,0,0
66310,-100,4,2,1,35,0,0
76983,-100,4,2,1,10,0,0

[Colours]
Combo1 : 255,242,202
Combo2 : 202,202,255
Combo3 : 255,206,255
Combo4 : 252,190,200

[HitObjects]
55,95,1067,5,2,0:0:0:0:
142,66,1233,1,2,0:0:0:0:
214,112,1400,1,2,0:0:0:0:
221,200,1566,1,2,0:0:0:0:
336,338,1733,5,2,0:0:0:0:
408,277,1899,1,2,0:0:0:0:
324,244,2066,1,2,0:0:0:0:
336,338,2232,1,2,0:0:0:0:
468,211,2398,6,0,L|460:69,1,116.77499643631,6|0,1:2|0:0,0:0:0:0:
386,18,2731,2,0,P|360:58|372:101,1,77.8499976242066,2|0,0:0|0:0,0:0:0:0:
269,302,3064,1,10,0:0:0:0:
217,235,3231,1,2,0:0:0:0:
132,236,3397,1,2,3:0:0:0:
132,236,3480,1,0,0:0:0:0:
132,236,3563,1,2,3:0:0:0:
74,304,3730,6,0,P|60:356|65:383,1,77.8499976242066,2|0,1:2|3:0,0:0:0:0:
259,151,4063,2,0,P|266:99|237:67,1,77.8499976242066,0|0,3:0|3:0,0:0:0:0:
167,39,4312,1,0,0:0:0:0:
167,49,4396,2,0,L|178:105,1,38.9249988121033,10|0,0:0|0:0,0:0:0:0:
87,166,4562,2,0,L|94:120,1,38.9249988121033,2|0,3:2|3:0,0:0:0:0:
38,46,4729,1,2,3:2:0:0:
242,249,4895,5,0,0:0:0:0:
253,246,5061,6,0,B|319:251|316:209|393:222,1,116.77499643631,2|0,1:2|0:0,0:0:0:0:
423,146,5394,2,0,P|425:95|429:56,1,77.8499976242066,2|2,3:2|0:0,0:0:0:0:
318,117,5727,1,10,0:0:0:0:
480,249,5894,1,2,0:0:0:0:
328,350,6060,1,2,3:2:0:0:
332,333,6143,1,0,3:2:0:0:
338,314,6226,1,0,3:2:0:0:
365,219,6393,5,2,0:2:0:0:
231,282,6559,1,8,0:0:0:0:
426,352,6726,2,0,L|501:383,1,77.8499976242066,2|0,1:2|0:0,0:0:0:0:
222,153,7059,5,10,0:0:0:0:
152,198,7225,1,2,3:2:0:0:
80,159,7392,1,2,3:2:0:0:
85,78,7558,1,2,0:0:0:0:
176,14,7724,6,0,P|183:62|171:96,1,77.8499976242066,6|0,1:2|0:0,0:0:0:0:
338,267,8057,2,0,P|328:223|333:181,1,77.8499976242066,2|0,3:2|0:0,0:0:0:0:
271,85,8390,5,10,0:0:0:0:
455,200,8557,1,2,0:0:0:0:
234,319,8723,1,2,3:2:0:0:
330,190,8889,1,0,3:0:0:0:
330,190,8973,1,0,0:0:0:0:
330,190,9056,5,2,1:2:0:0:
427,316,9222,1,0,0:0:0:0:
233,220,9389,2,0,P|195:180|93:190,1,155.699995248413,0|10,3:0|0:0,0:0:0:0:
80,271,9888,1,2,3:2:0:0:
80,271,10054,2,0,L|97:350,1,77.8499976242066,2|2,3:2|0:0,0:0:0:0:
307,160,10387,6,0,P|298:81|292:15,1,116.77499643631,2|0,1:2|0:0,0:0:0:0:
392,123,10720,2,0,P|408:170|394:219,1,77.8499976242066,2|2,3:2|0:0,0:0:0:0:
248,339,11053,2,0,P|231:290|239:252,1,77.8499976242066,10|0,0:0|0:0,0:0:0:0:
326,280,11386,1,2,0:0:0:0:
326,280,11469,1,0,3:0:0:0:
326,280,11552,1,2,3:2:0:0:
138,120,11719,5,10,0:0:0:0:
148,203,11885,1,2,0:0:0:0:
162,287,12052,1,0,3:0:0:0:
165,306,12218,1,0,3:0:0:0:
403,241,12385,6,0,P|381:199|288:210,1,116.77499643631,10|0,0:0|3:0,0:0:0:0:
248,141,12717,2,0,L|263:42,1,77.8499976242066,0|0,3:0|0:0,0:0:0:0:
26,292,13050,6,0,B|55:253|94:263|94:263|109:291|151:282,1,116.77499643631,6|0,1:2|0:0,0:0:0:0:
211,240,13383,2,0,L|199:321,1,77.8499976242066,2|0,0:0|0:0,0:0:0:0:
430,347,13716,5,10,0:0:0:0:
463,269,13882,1,2,0:0:0:0:
383,237,14049,1,2,3:0:0:0:
351,314,14215,1,2,3:0:0:0:
464,187,14382,6,0,P|475:137|456:100,1,77.8499976242066,2|0,1:2|0:0,0:0:0:0:
312,10,14715,2,0,P|293:60|307:94,1,77.8499976242066,0|0,3:0|3:0,0:0:0:0:
263,156,14964,1,0,0:0:0:0:
252,164,15048,2,0,L|210:155,1,38.9249988121033,10|0,0:0|0:0,0:0:0:0:
150,97,15214,2,0,L|97:105,1,38.9249988121033,2|0,3:2|3:0,0:0:0:0:
40,163,15380,1,2,3:2:0:0:
122,344,15547,5,0,0:0:0:0:
126,335,15713,6,0,L|141:194,1,116.77499643631,2|0,1:2|0:0,0:0:0:0:
283,335,16046,2,0,P|256:309|209:311,1,77.8499976242066,2|2,3:2|0:0,0:0:0:0:
332,208,16379,5,10,0:0:0:0:
415,195,16545,1,2,0:0:0:0:
478,252,16712,1,2,3:2:0:0:
476,336,16878,1,0,3:2:0:0:
385,360,17045,6,0,P|379:294|381:271,1,77.8499976242066,2|8,0:2|0:0,0:0:0:0:
203,66,17378,2,0,P|210:130|210:152,1,77.8499976242066,0|0,3:0|3:0,0:0:0:0:
75,363,17711,5,10,0:0:0:0:
108,266,17877,1,2,3:2:0:0:
199,289,18043,1,2,3:2:0:0:
178,384,18210,1,2,0:0:0:0:
20,188,18376,6,0,L|99:170,1,77.8499976242066,6|0,1:2|0:0,0:0:0:0:
354,111,18709,1,2,3:2:0:0:
354,111,19042,5,10,0:0:0:0:
223,72,19208,1,2,0:0:0:0:
369,216,19375,1,2,3:2:0:0:
392,218,19458,1,0,0:0:0:0:
416,220,19541,1,0,3:0:0:0:
261,338,19708,6,0,P|207:303|143:320,1,116.77499643631,2|0,1:2|0:0,0:0:0:0:
71,354,20041,2,0,L|58:255,1,77.8499976242066,0|0,3:0|3:0,0:0:0:0:
183,101,20373,5,10,0:0:0:0:
183,101,20457,1,0,0:0:0:0:
183,101,20540,2,0,L|237:121,1,38.9249988121033,2|0,3:2|3:2,0:0:0:0:
293,156,20706,2,0,L|345:145,1,38.9249988121033,2|0,3:2|0:0,0:0:0:0:
394,79,20873,1,2,0:0:0:0:
480,307,21039,6,0,B|393:294|393:294|356:263|394:221,1,155.699995248413,2|2,1:2|3:2,0:0:0:0:
282,71,21539,1,2,0:0:0:0:
46,231,21705,6,0,B|103:190|153:202|153:202|131:226|136:270,1,155.699995248413,10|2,0:0|0:0,0:0:0:0:
218,266,22204,1,2,3:2:0:0:
456,321,22371,5,10,0:0:0:0:
282,71,22537,1,2,0:0:0:0:
190,350,22704,1,2,1:2:0:0:
190,350,22787,1,0,0:0:0:0:
190,350,22870,1,0,3:0:0:0:
484,156,23036,2,0,P|424:156|380:114,1,116.77499643631,10|0,0:0|3:0,0:0:0:0:
302,2,23369,2,0,L|294:87,1,77.8499976242066,0|0,3:0|3:0,0:0:0:0:
10,329,23702,6,0,B|74:297|110:324|110:324|142:275|142:275|97:292,1,196.787490991784,6|0,1:2|0:0,0:0:0:0:
209,359,24368,6,0,P|261:317|332:331,1,136.237495842362,2|0,0:0|0:0,0:0:0:0:
414,254,25034,6,0,L|404:148,1,97.3124970302583,2|0,0:0|3:0,0:0:0:0:
396,135,25533,5,0,3:0:0:0:
402,127,25616,2,0,B|428:102|466:108|466:108|458:128,1,86.5,0|0,0:0|0:0,0:0:0:0:
358,26,25866,6,0,P|353:46|364:37,1,43.25,0|0,3:0|3:0,0:0:0:0:
249,116,26032,6,0,B|156:151|118:80|147:48|172:42|184:69,1,168.674992278672,0|0,3:0|0:0,0:0:0:0:
188,68,26365,6,0,L|178:170,1,95.1500029037476,2|0,1:2|0:0,0:0:0:0:
261,281,26864,1,0,0:0:0:0:
17,276,27031,6,0,P|57:259|109:269,1,95.1500029037476,2|0,0:0|3:0,0:0:0:0:
182,332,27447,1,0,3:2:0:0:
182,332,27530,2,0,L|173:369,1,23.7875007259369,0|0,3:2|0:0,0:0:0:0:
261,281,27697,6,0,L|309:268,1,47.5750014518738,2|0,0:0|0:0,0:0:0:0:
477,197,28030,6,0,B|400:227|361:154|361:154|378:175|417:175,1,173,0|10,1:2|0:2,0:0:0:0:
505,105,28529,1,0,0:0:0:0:
429,38,28695,2,0,L|419:90,2,32.4375012373925,0|0|0,0:0|0:0|0:0,0:0:0:0:
306,268,29028,6,0,L|318:359,1,64.8750024747849,2|2,1:2|0:0,0:0:0:0:
141,275,29361,6,0,P|121:258|137:263,1,64.8750024747849,2|2,0:0|0:0,0:0:0:0:
195,178,29611,5,0,0:0:0:0:
187,173,29694,2,0,P|195:197|179:183,1,56.2249974262239,10|0,0:0|0:0,0:0:0:0:
64,137,29860,6,0,P|114:101|79:157,1,168.674992278672,0|0,0:0|3:0,0:0:0:0:
96,131,30193,1,0,3:0:0:0:
237,70,30360,6,0,B|326:99|313:12|424:59,1,168.674992278672,2|0,0:2|0:0,0:0:0:0:
487,17,30692,2,0,L|476:101,1,71.3625021778107,0|0,1:0|0:0,0:0:0:0:
424,149,31025,5,10,0:0:0:0:
431,157,31109,1,2,0:0:0:0:
426,171,31192,2,0,L|424:213,1,23.7875007259369,2|0,3:2|3:0,0:0:0:0:
489,252,31358,2,0,L|494:280,1,23.7875007259369,0|0,3:0|0:0,0:0:0:0:
416,344,31525,1,0,0:0:0:0:
407,348,31691,6,0,P|364:300|284:321,1,142.725004355621,2|2,1:2|0:0,0:0:0:0:
222,368,32357,2,0,L|206:266,1,95.1500029037476,10|0,0:0|3:0,0:0:0:0:
207,273,32773,1,0,3:0:0:0:
207,273,32856,1,0,3:0:0:0:
52,35,33023,6,0,L|47:57,1,21.625,2|0,0:0|0:0,0:0:0:0:
148,26,34354,6,0,P|97:71|114:111,1,97.3125037121774,6|0,1:2|0:0,0:0:0:0:
237,174,34687,6,0,P|232:126|171:109,1,110.287502103567,2|0,3:2|0:0,0:0:0:0:
30,185,35020,6,0,P|112:196|157:139,1,123.262496708536,10|0,0:0|0:0,0:0:0:0:
100,92,35353,6,0,P|83:172|106:266,1,162.1875,0|0,3:0|0:0,0:0:0:0:
238,333,35686,2,0,P|249:258|236:170,1,162.1875,2|0,0:0|0:0,0:0:0:0:
379,48,36018,6,0,P|379:129|395:247,1,162.1875,2|0,1:2|0:0,0:0:0:0:
432,329,36351,1,10,0:0:0:0:
432,329,36518,6,0,B|454:309|469:312|469:312|462:297|444:296,1,54.0625,0|0,3:0|3:0,0:0:0:0:
316,258,36684,2,0,B|294:238|279:241|279:241|286:226|304:225,1,54.0625,0|0,3:0|0:0,0:0:0:0:
419,119,36851,1,0,0:0:0:0:
419,119,37017,6,0,P|379:79|318:92,1,97.3125037121774,2|0,1:2|0:0,0:0:0:0:
257,110,37350,2,0,L|248:18,1,64.8750024747849,0|0,0:0|0:0,0:0:0:0:
126,324,37683,6,0,P|94:245|3:324,2,194.625007424355,10|0|0,0:0|0:0|3:0,0:0:0:0:
430,40,38515,6,0,L|422:92,2,43.25,8|0|0,0:0|0:0|1:0,0:0:0:0:
387,158,39014,6,0,B|303:203|230:129|308:59|327:100,1,173,10|0,0:0|3:0,0:0:0:0:
98,312,39680,6,0,B|112:285|112:285|182:312|182:312|172:336,1,129.75000494957,6|0,1:2|3:0,0:0:0:0:
98,312,39930,1,0,0:0:0:0:
241,165,40013,6,0,B|215:211|262:234|262:234|284:259|248:330,1,142.725004355621,2|0,3:2|0:0,0:0:0:0:
263,301,40346,6,0,P|276:312|275:306,1,36.7625007011891,10|0,0:0|0:0,0:0:0:0:
375,361,40512,6,0,P|389:353|379:351,1,36.7625007011891,0|0,0:0|0:0,0:0:0:0:
463,249,40679,6,0,P|450:255|467:256,1,36.7625007011891,0|0,3:0|3:0,0:0:0:0:
452,259,41011,6,0,B|474:234|474:234|333:254|333:254|347:240,1,194.625007424355,2|0,0:0|0:0,0:0:0:0:
439,145,41344,6,0,B|434:130|434:130|437:112|437:112|432:83,1,32.4375012373925,2|0,1:2|0:0,0:0:0:0:
454,94,41511,2,0,B|453:91|453:91|456:108|456:108|449:124,1,32.4375012373925,0|0,3:0|0:0,0:0:0:0:
379,22,41677,6,0,P|307:76|160:89,1,233.54999287262,10|0,0:0|0:0,0:0:0:0:
103,40,42010,6,0,P|190:81|129:161,1,155.699995248413,0|0,3:0|0:0,0:0:0:0:
103,40,42343,5,2,1:2:0:0:
25,262,42509,2,0,P|41:228|78:221,1,77.8499976242066,0|0,3:0|0:0,0:0:0:0:
187,311,42676,6,0,B|223:316|193:377|112:356|92:292,1,155.699995248413,2|0,3:2|0:0,0:0:0:0:
182,235,42925,5,0,0:0:0:0:
192,227,43009,2,0,B|221:236|221:236|230:246|230:246|255:252,1,64.8750024747849,10|0,0:0|0:0,0:0:0:0:
371,164,43175,5,0,3:0:0:0:
377,152,43258,2,0,B|404:147|404:147|419:153|419:153|451:144,1,64.8750024747849,2|0,0:0|3:0,0:0:0:0:
126,63,43508,5,0,3:0:0:0:
57,91,43674,1,2,0:0:0:0:
57,91,45006,6,0,P|123:77|173:133,1,116.77499643631,6|0,1:2|0:0,0:0:0:0:
234,242,45339,2,0,L|246:156,1,77.8499976242066,2|0,0:0|0:0,0:0:0:0:
154,279,45672,1,10,0:0:0:0:
206,346,45838,1,2,0:0:0:0:
291,345,46005,1,2,3:0:0:0:
291,345,46088,1,0,0:0:0:0:
291,345,46171,1,2,3:0:0:0:
349,277,46337,6,0,P|363:225|358:198,1,77.8499976242066,2|0,1:2|3:0,0:0:0:0:
171,33,46670,2,0,P|161:78|171:106,1,77.8499976242066,0|0,1:0|0:0,0:0:0:0:
260,144,46920,1,0,0:0:0:0:
260,134,47003,2,0,L|249:78,1,38.9249988121033,10|0,0:0|0:0,0:0:0:0:
340,17,47170,2,0,L|333:63,1,38.9249988121033,2|0,3:2|3:0,0:0:0:0:
389,137,47336,1,2,3:2:0:0:
224,259,47502,5,2,0:0:0:0:
224,259,47669,6,0,B|170:239|167:289|81:268,1,116.77499643631,2|0,1:2|0:0,0:0:0:0:
28,234,48002,2,0,P|26:285|22:316,1,77.8499976242066,2|2,3:2|0:0,0:0:0:0:
227,179,48335,1,10,0:0:0:0:
62,84,48501,1,2,0:0:0:0:
221,19,48668,1,2,3:2:0:0:
217,36,48751,1,0,3:2:0:0:
211,55,48834,1,0,3:2:0:0:
114,161,49000,5,2,0:2:0:0:
287,258,49167,1,8,0:0:0:0:
117,360,49333,2,0,P|166:330|211:341,1,77.8499976242066,2|0,1:2|0:0,0:0:0:0:
290,231,49666,5,10,0:0:0:0:
360,186,49833,1,2,3:2:0:0:
432,225,49999,1,2,3:2:0:0:
427,306,50165,1,2,0:0:0:0:
336,370,50332,6,0,P|329:322|341:288,1,77.8499976242066,6|0,1:2|0:0,0:0:0:0:
174,117,50665,2,0,P|184:161|179:203,1,77.8499976242066,2|0,3:2|0:0,0:0:0:0:
241,299,50998,5,10,0:0:0:0:
57,184,51164,1,2,0:0:0:0:
278,65,51330,1,2,3:2:0:0:
182,194,51497,1,0,3:0:0:0:
182,194,51580,1,0,0:0:0:0:
182,194,51663,5,2,1:2:0:0:
85,68,51830,1,0,0:0:0:0:
293,236,51996,2,0,P|363:197|415:224,1,116.77499643631,0|0,1:0|0:0,0:0:0:0:
425,239,52329,1,10,0:0:0:0:
432,113,52496,1,2,3:2:0:0:
432,113,52662,2,0,L|415:34,1,77.8499976242066,2|2,3:2|0:0,0:0:0:0:
205,224,52995,6,0,P|214:303|220:369,1,116.77499643631,2|0,1:2|0:0,0:0:0:0:
120,261,53328,2,0,P|104:214|118:165,1,77.8499976242066,2|2,3:2|0:0,0:0:0:0:
264,45,53661,2,0,P|281:94|273:132,1,77.8499976242066,10|0,0:0|0:0,0:0:0:0:
186,104,53993,1,2,0:0:0:0:
186,104,54077,1,0,0:0:0:0:
186,104,54160,1,2,3:2:0:0:
374,264,54326,5,10,0:0:0:0:
364,181,54493,1,2,0:0:0:0:
350,97,54659,1,2,1:2:0:0:
347,78,54826,1,0,3:0:0:0:
70,254,54992,2,0,P|120:221|175:240,1,116.77499643631,10|0,0:0|3:0,0:0:0:0:
262,307,55325,2,0,L|272:219,1,77.8499976242066,0|0,3:0|3:0,0:0:0:0:
488,114,55658,6,0,B|424:141|398:108|398:108|425:80,1,116.77499643631,6|0,1:2|0:0,0:0:0:0:
300,8,55991,2,0,L|288:85,1,77.8499976242066,2|0,0:0|0:0,0:0:0:0:
82,37,56324,5,10,0:0:0:0:
49,115,56490,1,2,0:0:0:0:
129,147,56656,1,2,3:0:0:0:
161,70,56823,1,2,3:0:0:0:
48,197,56989,6,0,P|37:247|56:284,1,77.8499976242066,2|0,1:2|0:0,0:0:0:0:
200,374,57322,2,0,P|219:324|205:290,1,77.8499976242066,0|0,1:0|0:0,0:0:0:0:
249,228,57572,1,0,0:0:0:0:
260,220,57655,2,0,L|302:229,1,38.9249988121033,10|0,0:0|0:0,0:0:0:0:
362,287,57821,2,0,L|415:279,1,38.9249988121033,2|0,3:2|3:0,0:0:0:0:
472,221,57988,1,2,3:2:0:0:
390,40,58154,5,0,0:0:0:0:
386,49,58321,6,0,L|371:190,1,116.77499643631,2|0,1:2|0:0,0:0:0:0:
229,49,58654,2,0,P|256:75|303:73,1,77.8499976242066,2|2,3:2|0:0,0:0:0:0:
180,176,58987,5,10,0:0:0:0:
97,189,59153,1,2,0:0:0:0:
34,132,59319,1,2,3:2:0:0:
36,48,59486,1,0,3:2:0:0:
127,24,59652,6,0,P|133:90|131:113,1,77.8499976242066,2|8,0:2|0:0,0:0:0:0:
309,318,59985,2,0,P|302:254|302:232,1,77.8499976242066,0|0,1:0|0:0,0:0:0:0:
437,21,60318,5,10,0:0:0:0:
404,118,60484,1,2,3:2:0:0:
313,95,60651,1,2,3:2:0:0:
334,0,60817,1,2,0:0:0:0:
492,196,60984,6,0,L|413:214,1,77.8499976242066,6|0,1:2|0:0,0:0:0:0:
158,273,61317,1,2,3:2:0:0:
158,273,61649,5,10,0:0:0:0:
289,312,61816,1,2,0:0:0:0:
143,168,61982,1,2,3:2:0:0:
120,166,62066,1,0,3:0:0:0:
96,164,62149,1,0,3:0:0:0:
251,46,62315,6,0,P|305:81|369:64,1,116.77499643631,2|0,1:2|0:0,0:0:0:0:
441,30,62648,2,0,L|454:129,1,77.8499976242066,0|0,1:0|0:0,0:0:0:0:
329,283,62981,5,10,0:0:0:0:
329,283,63064,1,0,0:0:0:0:
329,283,63147,2,0,L|275:263,1,38.9249988121033,2|0,3:2|3:2,0:0:0:0:
219,228,63314,2,0,L|167:239,1,38.9249988121033,2|0,3:2|0:0,0:0:0:0:
118,305,63480,1,2,0:0:0:0:
67,66,63647,6,0,B|135:84|135:84|152:129|127:143,1,116.77499643631,2|0,1:2|0:0,0:0:0:0:
65,167,63980,1,2,3:2:0:0:
272,56,64146,1,2,0:0:0:0:
457,324,64312,2,0,P|402:274|347:289,1,116.77499643631,10|0,0:0|0:0,0:0:0:0:
376,357,64645,1,2,0:0:0:0:
474,186,64812,1,2,3:2:0:0:
272,56,64978,5,10,0:0:0:0:
364,278,65145,1,2,0:0:0:0:
110,183,65311,1,2,1:2:0:0:
94,174,65394,1,0,0:0:0:0:
81,167,65477,1,0,3:0:0:0:
22,280,65644,6,0,B|74:268|108:297|108:297|155:261,1,116.77499643631,10|0,0:0|3:0,0:0:0:0:
226,225,65977,6,0,L|211:331,1,95.1500029037476,0|2,3:0|1:2,0:0:0:0:
