osu file format v14

[General]
AudioFilename: audio.mp3
AudioLeadIn: 0
PreviewTime: -1
Countdown: 1
SampleSet: None
StackLeniency: 0.7
Mode: 0
LetterboxInBreaks: 0
WidescreenStoryboard: 0

[Editor]
DistanceSpacing: 1
BeatDivisor: 4
GridSize: 8
TimelineZoom: 1

[Metadata]
Title:IM THE SCATMAN (for swivel_z)
TitleUnicode:IM THE SCATMAN (for swivel_z)
Artist:scatman
ArtistUnicode:scatman
Creator:SiiXSwanYT
Version:Easy
Source:
Tags:
BeatmapID:1296593
BeatmapSetID:614646

[Difficulty]
HPDrainRate:5
CircleSize:5
OverallDifficulty:5
ApproachRate:5
SliderMultiplier:1.4
SliderTickRate:1

[Events]
//Background and Video events
//Break Periods
//Storyboard Layer 0 (Background)
//Storyboard Layer 1 (Fail)
//Storyboard Layer 2 (Pass)
//Storyboard Layer 3 (Foreground)
//Storyboard Sound Samples

[TimingPoints]
0,500,4,1,0,100,1,0

[HitObjects]
192,200,0,5,0,0:0:0:0:
160,168,125,1,0,0:0:0:0:
232,168,375,1,0,0:0:0:0:
224,128,500,1,0,0:0:0:0:
96,152,2000,1,0,0:0:0:0:
152,160,2250,1,0,0:0:0:0:
200,160,2375,1,0,0:0:0:0:
168,160,2500,1,0,0:0:0:0:
200,160,2625,1,0,0:0:0:0:
216,160,2750,1,0,0:0:0:0:
240,152,2875,1,0,0:0:0:0:
392,328,3750,1,0,0:0:0:0:
376,304,3875,1,0,0:0:0:0:
360,280,4000,1,0,0:0:0:0:
336,264,4125,1,0,0:0:0:0:
312,240,4250,1,0,0:0:0:0:
288,200,4375,1,0,0:0:0:0:
280,152,4500,1,0,0:0:0:0:
224,184,7125,1,0,0:0:0:0:
216,168,7250,1,0,0:0:0:0:
200,160,7375,1,0,0:0:0:0:
224,160,7500,1,0,0:0:0:0:
248,160,7625,1,0,0:0:0:0:
264,144,7750,1,0,0:0:0:0:
288,128,7875,1,0,0:0:0:0:
288,128,8000,1,0,0:0:0:0:
288,128,9375,1,0,0:0:0:0:
288,128,9625,1,0,0:0:0:0:
232,112,9875,1,0,0:0:0:0:
232,112,10000,1,0,0:0:0:0:
232,112,10125,1,0,0:0:0:0:
120,56,10625,1,0,0:0:0:0:
136,64,10750,1,0,0:0:0:0:
152,72,10875,1,0,0:0:0:0:
168,80,11000,1,0,0:0:0:0:
184,96,11125,1,0,0:0:0:0:
200,112,11250,1,0,0:0:0:0:
200,112,11375,1,0,0:0:0:0:
200,112,11500,1,0,0:0:0:0:
200,112,11875,1,0,0:0:0:0:
440,328,13000,1,0,0:0:0:0:
384,280,13250,1,0,0:0:0:0:
352,248,13375,1,0,0:0:0:0:
320,216,13500,1,0,0:0:0:0:
288,144,13750,1,0,0:0:0:0:
208,240,14250,1,0,0:0:0:0:
208,216,14375,1,0,0:0:0:0:
200,192,14500,1,0,0:0:0:0:
232,176,14625,1,0,0:0:0:0:
272,168,14750,1,0,0:0:0:0:
248,128,14875,1,0,0:0:0:0:
272,192,16625,1,0,0:0:0:0:
248,160,16750,1,0,0:0:0:0:
232,128,16875,1,0,0:0:0:0:
216,104,17000,1,0,0:0:0:0:
160,40,17375,1,0,0:0:0:0:
264,96,17750,1,0,0:0:0:0:
272,144,17875,1,0,0:0:0:0:
224,128,18125,1,0,0:0:0:0:
208,120,18250,1,0,0:0:0:0:
224,104,18375,1,0,0:0:0:0:
272,32,18625,1,0,0:0:0:0:
232,72,18875,1,0,0:0:0:0:
496,272,20000,1,0,0:0:0:0:
448,240,20250,1,0,0:0:0:0:
408,224,20375,1,0,0:0:0:0:
368,200,20500,1,0,0:0:0:0:
240,120,21125,1,0,0:0:0:0:
216,120,21250,1,0,0:0:0:0:
192,144,21375,1,0,0:0:0:0:
288,160,21750,1,0,0:0:0:0:
256,136,21875,1,0,0:0:0:0:
192,96,22125,1,0,0:0:0:0:
192,96,22250,1,0,0:0:0:0:
256,112,22500,1,0,0:0:0:0:
176,112,23625,1,0,0:0:0:0:
232,120,23875,1,0,0:0:0:0:
256,128,24000,1,0,0:0:0:0:
256,128,24125,1,0,0:0:0:0:
88,104,24750,1,0,0:0:0:0:
200,120,25125,1,0,0:0:0:0:
288,128,25500,1,0,0:0:0:0:
288,128,25625,1,0,0:0:0:0:
288,128,25750,1,0,0:0:0:0:
208,120,26000,1,0,0:0:0:0:
496,168,27000,1,0,0:0:0:0:
400,160,27375,1,0,0:0:0:0:
376,160,27500,1,0,0:0:0:0:
344,152,27625,1,0,0:0:0:0:
168,128,28250,1,0,0:0:0:0:
288,152,28625,1,0,0:0:0:0:
216,136,28875,1,0,0:0:0:0:
264,136,29125,1,0,0:0:0:0:
296,136,29250,1,0,0:0:0:0:
152,152,30750,1,0,0:0:0:0:
136,128,31750,1,0,0:0:0:0:
264,144,32250,1,0,0:0:0:0:
208,136,32500,1,0,0:0:0:0:
264,136,32750,1,0,0:0:0:0:
264,136,32875,1,0,0:0:0:0:
264,136,33250,1,0,0:0:0:0:
80,344,34250,1,0,0:0:0:0:
136,288,34500,1,0,0:0:0:0:
168,240,34750,1,0,0:0:0:0:
320,168,35375,1,0,0:0:0:0:
200,136,35875,1,0,0:0:0:0:
240,144,36000,1,0,0:0:0:0:
296,152,36250,1,0,0:0:0:0:
264,144,36375,1,0,0:0:0:0:
200,112,36625,1,0,0:0:0:0:
240,136,36750,1,0,0:0:0:0:
176,128,37000,1,0,0:0:0:0:
224,128,37250,1,0,0:0:0:0:
224,128,37375,1,0,0:0:0:0:
184,128,37500,1,0,0:0:0:0:
184,128,37625,1,0,0:0:0:0:
240,128,37875,1,0,0:0:0:0:
208,128,38000,1,0,0:0:0:0:
208,128,38125,1,0,0:0:0:0:
208,128,38250,1,0,0:0:0:0:
208,128,38375,1,0,0:0:0:0:
208,128,38750,1,0,0:0:0:0:
208,128,38875,1,0,0:0:0:0:
208,128,39000,1,0,0:0:0:0:
208,128,39125,1,0,0:0:0:0:
208,128,39375,1,0,0:0:0:0:
208,128,39500,1,0,0:0:0:0:
208,128,39625,1,0,0:0:0:0:
208,128,39750,1,0,0:0:0:0:
208,128,40125,1,0,0:0:0:0:
208,128,40250,1,0,0:0:0:0:
208,128,40375,1,0,0:0:0:0:
208,160,42375,1,0,0:0:0:0:
312,144,42750,1,0,0:0:0:0:
192,144,44000,1,0,0:0:0:0:
240,160,45875,1,0,0:0:0:0:
208,176,47625,1,0,0:0:0:0:
208,176,48125,1,0,0:0:0:0:
224,160,49500,1,0,0:0:0:0:
224,160,51250,1,0,0:0:0:0:
224,160,51750,1,0,0:0:0:0:
224,160,53000,1,0,0:0:0:0:
224,160,55625,1,0,0:0:0:0:
224,160,55875,1,0,0:0:0:0:
224,160,56625,1,0,0:0:0:0:
224,160,60000,1,0,0:0:0:0:
200,160,61750,1,0,0:0:0:0:
200,160,62125,1,0,0:0:0:0:
176,160,63500,1,0,0:0:0:0:
312,160,64000,1,0,0:0:0:0:
184,160,64500,1,0,0:0:0:0:
304,160,64875,1,0,0:0:0:0:
152,152,65375,1,0,0:0:0:0:
224,152,65625,1,0,0:0:0:0:
288,168,65875,1,0,0:0:0:0:
288,168,66125,1,0,0:0:0:0:
160,136,66625,1,0,0:0:0:0:
280,152,67125,1,0,0:0:0:0:
280,152,67875,1,0,0:0:0:0:
208,176,68125,1,0,0:0:0:0:
168,136,68375,1,0,0:0:0:0:
288,144,68875,1,0,0:0:0:0:
256,144,69000,1,0,0:0:0:0:
304,152,69125,1,0,0:0:0:0:
280,144,70500,1,0,0:0:0:0:
360,104,72500,1,0,0:0:0:0:
312,112,74125,1,0,0:0:0:0:
336,80,77750,1,0,0:0:0:0:
448,64,78125,1,0,0:0:0:0:
104,88,79375,1,0,0:0:0:0:
144,96,79500,1,0,0:0:0:0:
248,112,79875,1,0,0:0:0:0:
200,96,80125,1,0,0:0:0:0:
168,152,81750,1,0,0:0:0:0:
168,152,82000,1,0,0:0:0:0:
208,120,82250,1,0,0:0:0:0:
224,104,82375,1,0,0:0:0:0:
88,128,82875,1,0,0:0:0:0:
208,112,83375,1,0,0:0:0:0:
152,104,83625,1,0,0:0:0:0:
192,104,83750,1,0,0:0:0:0:
248,112,84000,1,0,0:0:0:0:
208,104,84125,1,0,0:0:0:0:
208,104,84250,1,0,0:0:0:0:
496,8,85375,1,0,1:1:0:0:
464,16,85500,1,0,1:1:0:0:
408,32,85750,1,0,1:1:0:0:
384,40,85875,1,0,1:1:0:0:
352,56,86000,1,0,1:1:0:0:
232,88,86500,1,0,1:1:0:0:
232,200,86875,1,0,1:1:0:0:
248,128,87125,1,0,1:1:0:0:
200,88,87375,1,0,1:1:0:0:
200,88,87500,1,0,1:1:0:0:
224,112,87625,1,0,1:1:0:0:
224,112,88875,1,0,1:1:0:0:
184,104,89000,1,0,1:1:0:0:
144,80,89250,1,0,1:1:0:0:
168,80,89375,1,0,1:1:0:0:
8,88,90000,1,0,1:1:0:0:
112,88,90375,1,0,1:1:0:0:
184,72,90625,1,0,1:1:0:0:
272,96,91000,1,0,1:1:0:0:
240,88,91125,1,0,1:1:0:0:
144,80,91500,1,0,1:1:0:0:
424,112,92500,1,0,1:1:0:0:
376,104,92750,1,0,1:1:0:0:
344,104,92875,1,0,1:1:0:0:
320,104,93000,1,0,1:1:0:0:
264,104,93250,1,0,1:1:0:0:
344,216,93750,1,0,1:1:0:0:
232,160,94250,1,0,1:1:0:0:
216,152,94375,1,0,1:1:0:0:
248,136,94500,1,0,1:1:0:0:
248,136,94750,1,0,1:1:0:0:
248,136,95000,1,0,1:1:0:0:
224,128,96125,1,0,1:1:0:0:
224,128,96250,1,0,1:1:0:0:
256,136,96375,1,0,1:1:0:0:
256,136,96500,1,0,1:1:0:0:
256,136,96750,1,0,1:1:0:0:
136,104,97250,1,0,1:1:0:0:
264,128,97750,1,0,1:1:0:0:
264,128,97875,1,0,1:1:0:0:
296,128,98000,1,0,1:1:0:0:
296,128,98125,1,0,1:1:0:0:
296,128,98250,1,0,1:1:0:0:
296,128,98500,1,0,1:1:0:0:
184,376,99500,1,0,1:1:0:0:
200,336,99625,1,0,1:1:0:0:
224,280,99875,1,0,1:1:0:0:
240,248,100000,1,0,1:1:0:0:
264,184,100250,1,0,1:1:0:0:
264,184,100750,1,0,1:1:0:0:
264,184,100875,1,0,1:1:0:0:
208,160,101125,1,0,1:1:0:0:
160,160,101375,1,0,1:1:0:0:
160,160,101500,1,0,1:1:0:0:
160,160,101625,1,0,1:1:0:0:
136,184,101750,1,0,1:1:0:0:
136,184,101875,1,0,1:1:0:0:
136,184,102000,1,0,1:1:0:0:
384,208,102875,1,0,1:1:0:0:
344,192,103000,1,0,1:1:0:0:
352,136,103250,1,0,1:1:0:0:
312,136,103375,1,0,1:1:0:0:
216,120,103750,1,0,1:1:0:0:
344,136,104250,1,0,1:1:0:0:
256,128,104625,1,0,1:1:0:0:
288,128,104750,1,0,1:1:0:0:
288,128,104875,1,0,1:1:0:0:
288,128,105000,1,0,1:1:0:0:
288,128,105125,1,0,1:1:0:0:
288,128,105250,1,0,1:1:0:0:
288,128,105500,1,0,1:1:0:0:
192,128,106750,1,0,1:1:0:0:
192,128,106875,1,0,1:1:0:0:
192,128,107125,1,0,1:1:0:0:
192,128,107375,1,0,1:1:0:0:
192,128,107875,1,0,1:1:0:0:
280,176,108250,1,0,1:1:0:0:
240,152,109500,1,0,1:1:0:0:
240,152,109875,1,0,1:1:0:0:
240,152,110125,1,0,1:1:0:0:
240,152,110375,1,0,1:1:0:0:
240,152,110750,1,0,1:1:0:0:
240,152,111000,1,0,1:1:0:0:
240,152,111250,1,0,1:1:0:0:
240,152,111625,1,0,1:1:0:0:
240,152,111875,1,0,1:1:0:0:
240,152,112250,1,0,1:1:0:0:
272,160,112375,1,0,1:1:0:0:
272,160,112750,1,0,1:1:0:0:
272,160,113000,1,0,1:1:0:0:
272,160,113125,1,0,1:1:0:0:
360,200,113500,1,0,1:1:0:0:
288,168,113750,1,0,1:1:0:0:
288,168,114375,1,0,1:1:0:0:
288,168,114625,1,0,1:1:0:0:
288,168,114875,1,0,1:1:0:0:
288,168,115125,1,0,1:1:0:0:
288,168,115500,1,0,1:1:0:0:
288,168,115625,1,0,1:1:0:0:
288,168,116000,1,0,1:1:0:0:
288,168,116250,1,0,1:1:0:0:
288,168,116500,1,0,1:1:0:0:
288,168,116875,1,0,1:1:0:0:
288,168,117125,1,0,1:1:0:0:
288,168,117375,1,0,1:1:0:0:
288,168,117625,1,0,1:1:0:0:
288,168,118000,1,0,1:1:0:0:
288,168,118250,1,0,1:1:0:0:
288,168,118375,1,0,1:1:0:0:
288,168,118750,1,0,1:1:0:0:
288,168,119000,1,0,1:1:0:0:
288,168,119125,1,0,1:1:0:0:
288,168,119625,1,0,1:1:0:0:
288,168,119875,1,0,1:1:0:0:
288,168,120125,1,0,1:1:0:0:
288,168,120375,1,0,1:1:0:0:
216,224,120750,1,0,1:1:0:0:
248,200,120875,1,0,1:1:0:0:
328,152,121250,1,0,1:1:0:0:
264,192,121500,1,0,1:1:0:0:
264,192,121750,1,0,1:1:0:0:
264,192,122000,1,0,1:1:0:0:
264,192,122250,1,0,1:1:0:0:
208,128,124375,1,0,1:1:0:0:
480,56,125375,1,0,1:1:0:0:
384,80,125750,1,0,1:1:0:0:
344,88,125875,1,0,1:1:0:0:
304,136,126125,1,0,1:1:0:0:
304,136,126250,1,0,1:1:0:0:
304,136,126625,1,0,1:1:0:0:
304,136,127250,1,0,1:1:0:0:
304,136,127875,1,0,1:1:0:0:
304,136,128125,1,0,1:1:0:0:
304,136,128250,1,0,1:1:0:0:
304,136,128500,1,0,1:1:0:0:
120,144,131250,1,0,0:0:0:0:
432,104,132375,1,0,0:0:0:0:
336,144,132750,1,0,0:0:0:0:
280,96,133000,1,0,0:0:0:0:
360,112,133250,1,0,0:0:0:0:
304,104,133500,1,0,0:0:0:0:
304,104,133750,1,0,0:0:0:0:
48,248,134750,1,0,0:0:0:0:
104,216,135000,1,0,0:0:0:0:
160,184,135250,1,0,0:0:0:0:
184,168,135375,1,0,0:0:0:0:
232,168,135625,1,0,0:0:0:0:
328,176,136000,1,0,0:0:0:0:
448,176,136500,1,0,0:0:0:0:
352,176,136875,1,0,0:0:0:0:
400,176,137125,1,0,0:0:0:0:
400,176,137250,1,0,0:0:0:0:
104,112,138375,1,0,0:0:0:0:
144,120,138500,1,0,0:0:0:0:
152,72,138625,1,0,0:0:0:0:
184,104,138750,1,0,0:0:0:0:
184,104,139125,1,0,0:0:0:0:
288,144,139500,1,0,0:0:0:0:
184,112,139875,1,0,0:0:0:0:
296,128,140250,1,0,0:0:0:0:
240,120,140500,1,0,0:0:0:0:
296,144,142000,1,0,0:0:0:0:
296,144,142125,1,0,0:0:0:0:
296,144,142375,1,0,0:0:0:0:
296,144,142625,1,0,0:0:0:0:
296,144,143000,1,0,0:0:0:0:
296,144,143250,1,0,0:0:0:0:
296,144,143375,1,0,0:0:0:0:
296,144,143500,1,0,0:0:0:0:
272,136,143625,1,0,0:0:0:0:
248,136,143750,1,0,0:0:0:0:
248,136,143875,1,0,0:0:0:0:
248,136,144000,1,0,0:0:0:0:
248,136,144375,1,0,0:0:0:0:
152,136,144750,1,0,0:0:0:0:
328,152,145375,1,0,0:0:0:0:
272,152,145625,1,0,0:0:0:0:
232,160,145750,1,0,0:0:0:0:
256,200,145875,1,0,0:0:0:0:
256,200,146125,1,0,0:0:0:0:
312,328,146625,1,0,0:0:0:0:
280,288,146750,1,0,0:0:0:0:
256,248,146875,1,0,0:0:0:0:
304,272,147125,1,0,0:0:0:0:
128,200,148875,1,0,0:0:0:0:
160,152,149125,1,0,0:0:0:0:
192,152,149250,1,0,0:0:0:0:
224,144,149375,1,0,0:0:0:0:
176,16,149875,1,0,0:0:0:0:
200,80,150125,1,0,0:0:0:0:
224,104,150250,1,0,0:0:0:0:
184,96,150375,1,0,0:0:0:0:
144,104,150500,1,0,0:0:0:0:
144,104,150750,1,0,0:0:0:0:
144,104,151000,1,0,0:0:0:0:
144,104,151250,1,0,0:0:0:0:
168,104,151375,1,0,0:0:0:0:
136,136,152500,1,0,0:0:0:0:
176,136,152625,1,0,0:0:0:0:
176,136,152750,1,0,0:0:0:0:
352,288,153625,1,0,0:0:0:0:
272,224,154000,1,0,0:0:0:0:
200,136,155375,1,0,0:0:0:0:
232,200,155625,1,0,0:0:0:0:
264,176,157125,1,0,0:0:0:0:
232,88,158000,1,0,0:0:0:0:
432,200,158875,1,0,0:0:0:0:
368,176,159125,1,0,0:0:0:0:
96,80,160125,1,0,0:0:0:0:
232,136,160625,1,0,0:0:0:0:
320,176,161000,1,0,0:0:0:0:
240,136,161250,1,0,0:0:0:0:
240,136,161625,1,0,0:0:0:0:
240,136,161750,1,0,0:0:0:0:
240,136,161875,1,0,0:0:0:0:
240,136,162000,1,0,0:0:0:0:
240,136,162125,1,0,0:0:0:0:
240,136,162250,1,0,0:0:0:0:
240,136,162375,1,0,0:0:0:0:
240,136,162500,1,0,0:0:0:0:
240,136,162750,1,0,0:0:0:0:
240,136,163375,1,0,0:0:0:0:
240,136,163625,1,0,0:0:0:0:
240,136,163875,1,0,0:0:0:0:
240,136,164125,1,0,0:0:0:0:
240,136,164250,1,0,0:0:0:0:
240,136,164375,1,0,0:0:0:0:
240,136,164500,1,0,0:0:0:0:
240,136,164625,1,0,0:0:0:0:
240,136,164750,1,0,0:0:0:0:
240,136,164875,1,0,0:0:0:0:
240,136,165000,1,0,0:0:0:0:
264,144,165125,1,0,0:0:0:0:
264,144,166375,1,0,0:0:0:0:
264,144,166750,1,0,0:0:0:0:
304,160,166875,1,0,0:0:0:0:
304,160,167250,1,0,0:0:0:0:
368,152,167500,1,0,0:0:0:0:
320,168,167625,1,0,0:0:0:0:
440,160,168125,1,0,0:0:0:0:
216,200,169000,1,0,0:0:0:0:
272,192,169250,1,0,0:0:0:0:
376,176,170250,1,0,0:0:0:0:
376,176,170625,1,0,0:0:0:0:
376,176,170750,1,0,0:0:0:0:
376,176,171250,1,0,0:0:0:0:
376,176,171750,1,0,0:0:0:0:
504,168,172250,1,0,0:0:0:0:
248,136,174750,1,0,0:0:0:0:
376,136,175250,1,0,0:0:0:0:
328,136,175500,1,0,0:0:0:0:
400,152,175750,1,0,0:0:0:0:
360,144,175875,1,0,0:0:0:0:
360,144,176000,1,0,0:0:0:0:
40,128,177125,1,0,0:0:0:0:
104,128,177375,1,0,0:0:0:0:
136,128,177500,1,0,0:0:0:0:
176,120,177625,1,0,0:0:0:0:
240,112,177875,1,0,0:0:0:0:
240,112,178250,1,0,0:0:0:0:
360,128,178750,1,0,0:0:0:0:
336,120,178875,1,0,0:0:0:0:
240,120,179250,1,0,0:0:0:0:
272,120,179375,1,0,0:0:0:0:
232,112,179500,1,0,0:0:0:0:
112,368,180500,1,0,0:0:0:0:
152,312,180750,1,0,0:0:0:0:
184,272,181000,1,0,0:0:0:0:
184,240,181125,1,0,0:0:0:0:
200,200,181250,1,0,0:0:0:0:
64,80,181875,1,0,0:0:0:0:
160,80,182250,1,0,0:0:0:0:
248,88,182625,1,0,0:0:0:0:
248,88,183125,1,0,0:0:0:0:
128,96,183500,1,0,0:0:0:0:
272,96,184000,1,0,0:0:0:0:
136,104,184500,1,0,0:0:0:0:
256,104,185000,1,0,0:0:0:0:
256,104,185375,1,0,0:0:0:0:
256,104,185750,1,0,0:0:0:0:
256,104,186000,1,0,0:0:0:0:
256,104,186250,1,0,0:0:0:0:
256,104,186375,1,0,0:0:0:0:
256,104,186500,1,0,0:0:0:0:
104,368,187625,1,0,0:0:0:0:
128,336,187750,1,0,0:0:0:0:
168,304,188000,1,0,0:0:0:0:
192,288,188125,1,0,0:0:0:0:
208,264,188250,1,0,0:0:0:0:
280,88,189000,1,0,0:0:0:0:
288,176,189375,1,0,0:0:0:0:
208,152,189625,1,0,0:0:0:0:
144,144,189875,1,0,0:0:0:0:
168,144,190000,1,0,0:0:0:0:
224,144,190250,1,0,0:0:0:0:
280,144,191375,1,0,0:0:0:0:
280,144,191625,1,0,0:0:0:0:
264,136,191750,1,0,0:0:0:0:
264,136,192000,1,0,0:0:0:0:
152,136,192375,1,0,0:0:0:0:
280,136,192875,1,0,0:0:0:0:
312,136,193000,1,0,0:0:0:0:
256,128,193250,1,0,0:0:0:0:
208,136,193375,1,0,0:0:0:0:
256,136,193625,1,0,0:0:0:0:
216,144,194625,1,0,0:0:0:0:
216,144,195000,1,0,0:0:0:0:
168,136,195125,1,0,0:0:0:0:
224,128,195375,1,0,0:0:0:0:
248,120,195500,1,0,0:0:0:0:
256,152,195625,1,0,0:0:0:0:
296,168,195750,1,0,0:0:0:0:
296,168,196000,1,0,0:0:0:0:
296,168,196125,1,0,0:0:0:0:
272,160,196250,1,0,0:0:0:0:
272,160,196375,1,0,0:0:0:0:
304,176,196500,1,0,0:0:0:0:
192,160,197875,1,0,0:0:0:0:
192,160,198000,1,0,0:0:0:0:
264,56,198500,1,0,0:0:0:0:
240,88,198625,1,0,0:0:0:0:
216,120,198750,1,0,0:0:0:0:
216,120,199000,1,0,0:0:0:0:
216,120,199500,1,0,0:0:0:0:
328,176,200000,1,0,0:0:0:0:
280,168,200125,1,0,0:0:0:0:
368,168,200500,1,0,0:0:0:0:
344,168,200625,1,0,0:0:0:0:
312,160,200750,1,0,0:0:0:0:
16,88,201875,1,0,0:0:0:0:
56,96,202000,1,0,0:0:0:0:
120,112,202250,1,0,0:0:0:0:
360,160,203125,1,0,0:0:0:0:
112,80,204000,1,0,0:0:0:0:
328,160,204875,1,0,0:0:0:0:
40,88,206000,1,0,0:0:0:0:
56,88,206125,1,0,0:0:0:0:
72,96,206250,1,0,0:0:0:0:
96,104,206375,1,0,0:0:0:0:
120,112,206500,1,0,0:0:0:0:
136,120,206625,1,0,0:0:0:0:
160,120,206750,1,0,0:0:0:0:
184,128,206875,1,0,0:0:0:0:
184,128,207000,1,0,0:0:0:0:
184,128,207125,1,0,0:0:0:0:
184,128,207375,1,0,0:0:0:0:
184,128,207625,1,0,0:0:0:0:
184,128,207750,1,0,0:0:0:0:
184,128,207875,1,0,0:0:0:0:
184,128,208000,1,0,0:0:0:0:
184,128,208250,1,0,0:0:0:0:
184,128,208375,1,0,0:0:0:0:
184,128,208500,1,0,0:0:0:0:
184,128,208625,1,0,0:0:0:0:
184,128,208875,1,0,0:0:0:0:
184,128,209000,1,0,0:0:0:0:
184,128,209125,1,0,0:0:0:0:
184,128,209375,1,0,0:0:0:0:
184,128,209500,1,0,0:0:0:0:
184,128,209625,1,0,0:0:0:0:
184,128,209875,1,0,0:0:0:0:
184,128,210000,1,0,0:0:0:0:
184,128,210125,1,0,0:0:0:0:
184,128,210375,1,0,0:0:0:0:
184,128,210500,1,0,0:0:0:0:
184,128,210750,1,0,0:0:0:0:
184,128,210875,1,0,0:0:0:0:
184,128,211000,1,0,0:0:0:0:
