osu file format v14

[General]
AudioFilename: audio.mp3
AudioLeadIn: 0
PreviewTime: 79937
Countdown: 1
SampleSet: None
StackLeniency: 0.7
Mode: 0
LetterboxInBreaks: 0
WidescreenStoryboard: 0

[Editor]
Bookmarks: 80062,88062,96062
DistanceSpacing: 0.3
BeatDivisor: 4
GridSize: 4
TimelineZoom: 1.7

[Metadata]
Title:HEART ATTACK
TitleUnicode:HEART ATTACK
Artist:scarlxrd
ArtistUnicode:scarlxrd
Creator:dima21
Version:WaRNiNG
Source:
Tags:
BeatmapID:1642114
BeatmapSetID:781936

[Difficulty]
HPDrainRate:5.7
CircleSize:3.6
OverallDifficulty:9.4
ApproachRate:9.8
SliderMultiplier:3.59999990463257
SliderTickRate:1

[Events]
//Background and Video events
0,0,"856.jpg",0,0
//Break Periods
//Storyboard Layer 0 (Background)
//Storyboard Layer 1 (Fail)
//Storyboard Layer 2 (Pass)
//Storyboard Layer 3 (Foreground)
//Storyboard Sound Samples

[TimingPoints]
48062,500,4,1,0,37,1,0
80062,-50,4,1,0,37,0,0

[Colours]
Combo1 : 255,0,0
Combo2 : 0,0,0

[HitObjects]
296,172,80062,6,0,B|296:52|296:52|320:120,1,179.999995231628
368,284,80312,5,0,0:0:0:0:
184,128,80437,1,0,0:0:0:0:
444,216,80562,1,0,0:0:0:0:
160,232,80687,1,0,0:0:0:0:
412,120,80812,1,0,0:0:0:0:
156,240,80937,2,0,B|132:260|112:276|112:276|88:276|88:276|74:296|44:308|44:308|68:292|76:268,1,179.999995231628
184,136,81187,5,0,0:0:0:0:
68,260,81312,1,0,0:0:0:0:
256,180,81437,5,0,0:0:0:0:
224,344,81562,1,0,0:0:0:0:
392,112,81687,5,0,0:0:0:0:
472,320,81812,2,0,B|470:341|495:366|495:366|503:313|452:233,1,179.999995231628
264,188,82062,5,0,0:0:0:0:
460,228,82187,1,0,0:0:0:0:
296,0,82312,5,0,0:0:0:0:
256,196,82437,1,0,0:0:0:0:
496,48,82562,5,0,0:0:0:0:
300,8,82687,1,0,0:0:0:0:
464,216,82812,5,0,0:0:0:0:
188,120,82937,1,0,0:0:0:0:
464,208,83062,1,0,0:0:0:0:
180,100,83187,1,0,0:0:0:0:
344,280,83312,5,0,0:0:0:0:
384,112,83437,1,0,0:0:0:0:
460,336,83562,1,0,0:0:0:0:
376,112,83687,2,0,B|352:-12|352:-12|347:43,1,179.999995231629
340,296,83937,5,0,0:0:0:0:
372,116,84062,1,0,0:0:0:0:
260,312,84187,5,0,0:0:0:0:
188,88,84312,1,0,0:0:0:0:
112,260,84437,5,0,0:0:0:0:
284,60,84562,1,0,0:0:0:0:
256,324,84687,5,0,0:0:0:0:
184,100,84812,1,0,0:0:0:0:
136,384,84937,1,0,0:0:0:0:
372,132,85062,5,0,0:0:0:0:
120,264,85187,1,0,0:0:0:0:
416,264,85312,5,0,0:0:0:0:
175,111,85437,1,0,0:0:0:0:
213,361,85562,5,0,0:0:0:0:
372,116,85687,2,0,P|452:124|408:160,1,179.999995231629
176,120,85937,5,0,0:0:0:0:
416,272,86062,1,0,0:0:0:0:
364,104,86187,2,0,B|344:48|272:28|272:28|256:88|296:132,1,179.999995231629
412,284,86437,5,0,0:0:0:0:
124,248,86562,1,0,0:0:0:0:
432,176,86687,1,0,0:0:0:0:
100,260,86812,2,0,B|44:248|8:224|8:224|36:208|36:208|59:228|112:232,1,179.999995231629
248,376,87062,5,0,0:0:0:0:
282,88,87187,1,0,0:0:0:0:
32,300,87312,5,0,0:0:0:0:
203,66,87437,1,0,0:0:0:0:
250,367,87562,5,0,0:0:0:0:
132,101,87687,1,0,0:0:0:0:
336,236,87812,5,0,0:0:0:0:
104,172,87937,1,0,0:0:0:0:
424,176,88062,6,0,P|500:184|556:252,1,119.999996821086
88,176,88228,2,0,P|12:184|-44:252,1,119.999996821086
420,160,88395,6,0,B|492:108|492:108|416:124,1,119.999996821086
85,326,88561,2,0,P|18:292|81:251,1,179.999995231629
244,344,88812,5,0,0:0:0:0:
232,176,88937,1,0,0:0:0:0:
376,328,89062,5,0,0:0:0:0:
224,148,89187,1,0,0:0:0:0:
476,132,89312,5,0,0:0:0:0:
376,352,89437,1,0,0:0:0:0:
284,60,89562,5,0,0:0:0:0:
512,280,89687,1,0,0:0:0:0:
216,264,89812,2,0,B|126:264|126:264|26:230,1,179.999995231629
296,208,90062,5,0,0:0:0:0:
307,224,90145,1,0,0:0:0:0:
315,242,90228,1,0,0:0:0:0:
318,262,90311,1,0,0:0:0:0:
317,282,90395,1,0,0:0:0:0:
311,301,90478,1,0,0:0:0:0:
304,320,90562,2,0,P|208:344|296:268,1,179.999995231629
296,208,90812,5,0,0:0:0:0:
56,232,90937,1,0,0:0:0:0:
208,288,91062,5,0,0:0:0:0:
104,112,91187,1,0,0:0:0:0:
100,340,91312,5,0,0:0:0:0:
232,88,91437,1,0,0:0:0:0:
60,244,91562,5,0,0:0:0:0:
376,136,91687,1,0,0:0:0:0:
112,356,91812,5,0,0:0:0:0:
388,140,91937,1,0,0:0:0:0:
308,368,92062,5,0,0:0:0:0:
232,104,92187,1,0,0:0:0:0:
452,284,92312,5,0,0:0:0:0:
136,224,92437,1,0,0:0:0:0:
468,288,92562,5,0,0:0:0:0:
128,368,92687,1,0,0:0:0:0:
372,156,92812,5,0,0:0:0:0:
308,368,92937,1,0,0:0:0:0:
232,116,93062,5,0,0:0:0:0:
144,372,93187,1,0,0:0:0:0:
232,116,93312,5,0,0:0:0:0:
308,352,93437,1,0,0:0:0:0:
388,128,93562,5,0,0:0:0:0:
104,244,93687,1,0,0:0:0:0:
396,96,93812,5,0,0:0:0:0:
92,276,93937,1,0,0:0:0:0:
400,56,94062,5,0,0:0:0:0:
324,360,94187,1,0,0:0:0:0:
372,8,94312,2,0,P|264:0|208:56,1,179.999995231629
312,344,94562,5,0,0:0:0:0:
220,56,94687,1,0,0:0:0:0:
192,328,94812,5,0,0:0:0:0:
353,72,94937,1,0,0:0:0:0:
110,230,95062,5,0,0:0:0:0:
356,84,95187,1,0,0:0:0:0:
208,324,95312,5,0,0:0:0:0:
224,68,95437,1,0,0:0:0:0:
320,336,95562,5,0,0:0:0:0:
216,80,95687,1,0,0:0:0:0:
416,256,95812,2,0,P|477:179|418:223,1,359.999990463257
