osu file format v14

[General]
AudioFilename: audio.mp3
AudioLeadIn: 0
PreviewTime: -1
Countdown: 0
SampleSet: None
StackLeniency: 0.7
Mode: 0
LetterboxInBreaks: 0
WidescreenStoryboard: 0

[Editor]
Bookmarks: 96315
DistanceSpacing: 1.6
BeatDivisor: 4
GridSize: 8
TimelineZoom: 1.9

[Metadata]
Title:HEART ATTACK
TitleUnicode:HEART ATTACK
Artist:scarlxrd
ArtistUnicode:scarlxrd
Creator:DominicsHase
Version:MADNESS
Source:
Tags:
BeatmapID:1670815
BeatmapSetID:795579

[Difficulty]
HPDrainRate:2
CircleSize:3.8
OverallDifficulty:6
ApproachRate:9.4
SliderMultiplier:2.3
SliderTickRate:1

[Events]
//Background and Video events
0,0,"anime MADNESS.jpg",0,0
//Break Periods
//Storyboard Layer 0 (Background)
//Storyboard Layer 1 (Fail)
//Storyboard Layer 2 (Pass)
//Storyboard Layer 3 (Foreground)
//Storyboard Sound Samples

[TimingPoints]
48111.5950388249,249.760646047538,4,2,0,100,1,0
50734,-285.714285714284,4,2,0,100,0,0
51108,-66.6666666666667,4,2,0,100,0,0
51795,-100,4,2,0,100,0,0
63097,-45.4545454545455,4,2,0,100,0,0
63846,-66.6666666666667,4,2,0,100,0,0

[HitObjects]
320,56,48111,6,0,L|384:168,1,115
168,120,48361,2,0,L|104:248,1,115
368,168,48611,2,0,L|440:312,1,115
416,320,48798,1,0,0:0:0:0:
344,320,48860,1,0,0:0:0:0:
272,288,48923,1,0,0:0:0:0:
216,224,48985,1,0,0:0:0:0:
184,136,49048,1,0,0:0:0:0:
216,32,49110,1,0,0:0:0:0:
376,224,49610,6,0,B|288:256|288:256|336:176,1,172.5
424,104,49859,2,0,B|456:192|456:192|376:144,1,172.5
304,64,50109,2,0,B|392:32|392:32|344:112,1,172.5
304,120,50359,1,0,0:0:0:0:
224,312,50484,1,0,0:0:0:0:
64,48,50609,1,0,0:0:0:0:
392,72,50734,2,0,L|400:128,2,40.2499987716675
112,56,51108,2,0,B|56:80|56:80|280:80|136:264,1,345.000013160706
64,144,51608,5,0,0:0:0:0:
392,280,51858,1,0,0:0:0:0:
320,320,51920,1,0,0:0:0:0:
232,320,51982,1,0,0:0:0:0:
136,264,52045,1,0,0:0:0:0:
80,160,52107,1,0,0:0:0:0:
368,336,52357,1,0,0:0:0:0:
104,152,52482,1,0,0:0:0:0:
456,72,52607,1,0,0:0:0:0:
440,264,52732,6,0,L|440:168,1,57.5
312,168,52857,2,0,L|312:264,1,57.5
176,256,52981,2,0,L|176:176,1,57.5
80,112,53106,2,0,P|192:72|448:112,1,345.000013160706
256,328,53606,5,0,0:0:0:0:
152,344,53731,1,0,0:0:0:0:
192,248,53856,1,0,0:0:0:0:
352,80,53980,5,0,0:0:0:0:
488,128,54105,1,0,0:0:0:0:
376,216,54230,1,0,0:0:0:0:
80,160,54355,5,0,0:0:0:0:
168,32,54480,1,0,0:0:0:0:
248,168,54605,2,0,P|168:160|144:80,1,172.5
216,104,54855,2,0,P|208:208|152:256,1,172.5
112,280,55104,5,0,0:0:0:0:
120,216,55167,1,0,0:0:0:0:
176,160,55229,1,0,0:0:0:0:
256,136,55292,1,0,0:0:0:0:
352,160,55354,1,0,0:0:0:0:
296,232,55417,5,0,0:0:0:0:
264,144,55479,1,0,0:0:0:0:
328,64,55541,1,0,0:0:0:0:
416,104,55604,1,0,0:0:0:0:
368,272,55729,5,0,0:0:0:0:
152,144,55854,1,0,0:0:0:0:
328,336,55979,2,0,L|208:360,1,115
192,72,56228,1,0,0:0:0:0:
456,240,56353,2,0,L|352:304,1,115
144,40,56603,1,0,0:0:0:0:
448,96,56728,2,0,L|432:232,1,115
88,80,56978,1,0,0:0:0:0:
64,144,57040,1,0,0:0:0:0:
80,208,57102,1,0,0:0:0:0:
376,152,57602,6,0,L|480:80,2,115
144,248,58102,2,0,L|40:176,1,115
48,120,58289,1,0,0:0:0:0:
120,152,58351,1,0,0:0:0:0:
184,224,58414,1,0,0:0:0:0:
200,336,58476,1,0,0:0:0:0:
320,48,58601,1,0,0:0:0:0:
416,320,58726,1,0,0:0:0:0:
112,144,58851,1,0,0:0:0:0:
424,128,58976,1,0,0:0:0:0:
88,344,59101,1,0,0:0:0:0:
360,40,59600,5,0,0:0:0:0:
384,328,59725,1,0,0:0:0:0:
72,120,59850,1,0,0:0:0:0:
448,120,59975,1,0,0:0:0:0:
112,120,60100,1,0,0:0:0:0:
456,352,60224,1,0,0:0:0:0:
168,120,60349,1,0,0:0:0:0:
456,288,60474,1,0,0:0:0:0:
232,120,60599,1,0,0:0:0:0:
40,344,60724,5,0,0:0:0:0:
256,112,60849,1,0,0:0:0:0:
408,264,60974,2,0,L|504:368,1,115
80,112,61598,6,0,L|216:56,2,115
288,160,61973,2,0,L|168:104,1,115
288,280,62223,6,0,L|416:216,2,115
504,320,62597,2,0,L|352:320,1,115
272,232,62847,2,0,L|432:232,1,115
160,48,63097,6,0,P|112:224|280:104,1,506.000015441895
240,80,63409,1,0,0:0:0:0:
200,136,63471,1,0,0:0:0:0:
240,192,63534,1,0,0:0:0:0:
328,120,63596,1,0,0:0:0:0:
104,272,64096,6,0,L|104:48,2,172.500006580353
240,152,64470,1,0,0:0:0:0:
400,152,64595,1,0,0:0:0:0:
320,272,64720,1,0,0:0:0:0:
232,112,64845,1,0,0:0:0:0:
424,112,64970,1,0,0:0:0:0:
320,328,65095,2,0,L|120:328,2,172.500006580353
328,56,65469,5,0,0:0:0:0:
120,64,65594,1,0,0:0:0:0:
336,192,65719,1,0,0:0:0:0:
64,200,65844,1,0,0:0:0:0:
336,328,65969,1,0,0:0:0:0:
40,328,66094,2,0,L|40:120,2,172.500006580353
296,328,66469,5,0,0:0:0:0:
296,64,66593,1,0,0:0:0:0:
184,336,66718,1,0,0:0:0:0:
184,40,66843,1,0,0:0:0:0:
416,120,66968,5,0,0:0:0:0:
80,120,67093,1,0,0:0:0:0:
456,200,67218,1,0,0:0:0:0:
40,200,67343,1,0,0:0:0:0:
400,264,67468,1,0,0:0:0:0:
72,280,67592,5,0,0:0:0:0:
40,200,67655,1,0,0:0:0:0:
80,120,67717,1,0,0:0:0:0:
160,80,67780,1,0,0:0:0:0:
240,104,67842,1,0,0:0:0:0:
152,336,67967,5,0,0:0:0:0:
152,48,68092,1,0,0:0:0:0:
448,168,68217,5,0,0:0:0:0:
56,168,68342,1,0,0:0:0:0:
224,352,68467,5,0,0:0:0:0:
232,24,68591,1,0,0:0:0:0:
384,256,68716,5,0,0:0:0:0:
96,120,68841,1,0,0:0:0:0:
464,128,68966,1,0,0:0:0:0:
24,240,69091,1,0,0:0:0:0:
472,208,69216,5,0,0:0:0:0:
104,128,69341,1,0,0:0:0:0:
480,136,69466,1,0,0:0:0:0:
24,168,69591,1,0,0:0:0:0:
432,256,69715,6,0,L|448:40,1,172.500006580353
112,96,69965,1,0,0:0:0:0:
152,224,70090,1,0,0:0:0:0:
456,80,70215,1,0,0:0:0:0:
344,48,70340,1,0,0:0:0:0:
240,304,70465,5,0,0:0:0:0:
360,288,70590,1,0,0:0:0:0:
16,144,70714,1,0,0:0:0:0:
56,248,70839,1,0,0:0:0:0:
416,112,70964,1,0,0:0:0:0:
80,56,71089,1,0,0:0:0:0:
288,336,71214,1,0,0:0:0:0:
424,72,71339,1,0,0:0:0:0:
56,248,71464,1,0,0:0:0:0:
336,256,71589,5,0,0:0:0:0:
392,176,71651,1,0,0:0:0:0:
320,104,71713,1,0,0:0:0:0:
424,48,71776,1,0,0:0:0:0:
272,24,71838,1,0,0:0:0:0:
256,192,72088,5,0,0:0:0:0:
