osu file format v14

[General]
AudioFilename: audio.mp3
AudioLeadIn: 0
PreviewTime: 49673
Countdown: 0
SampleSet: Soft
StackLeniency: 0.5
Mode: 0
LetterboxInBreaks: 0
WidescreenStoryboard: 0

[Editor]
Bookmarks: 1548,12977,24405,35834,50119,72977,80119,81548,86905
DistanceSpacing: 0.9
BeatDivisor: 4
GridSize: 4
TimelineZoom: 2.500002

[Metadata]
Title:The Girls Are Alright! (TV Size)
TitleUnicode:The Girls Are Alright! (TV Size)
Artist:saya
ArtistUnicode:saya
Creator:Meyrink
Version:Normal
Source:宇宙よりも遠い場所
Tags:Antartica A Place Further Than The Universe Yorimoi Sora Uchuu yori mo Tooi Basho Opening Expedition
BeatmapID:1870504
BeatmapSetID:895173

[Difficulty]
HPDrainRate:4
CircleSize:3.5
OverallDifficulty:4
ApproachRate:5
SliderMultiplier:1.15
SliderTickRate:1

[Events]
//Background and Video events
Video,-440,"Opening.flv"
0,0,"BG.jpg",0,0
//Break Periods
//Storyboard Layer 0 (Background)
//Storyboard Layer 1 (Fail)
//Storyboard Layer 2 (Pass)
//Storyboard Layer 3 (Foreground)
//Storyboard Sound Samples

[TimingPoints]
120,357.142857142857,4,2,1,60,1,0
12977,-125,4,2,1,60,0,0
23691,-100,4,2,1,60,0,0
24405,-100,4,2,1,50,0,0
35834,-100,4,2,1,65,0,0
50119,-100,4,2,1,70,0,1
72619,-100,4,2,1,60,0,0
72977,-100,4,2,1,70,0,1
80119,-100,4,2,1,60,0,0
81548,-125,5,2,1,40,0,0
84405,-100,5,2,1,60,0,0
85834,-100,5,2,1,70,0,0

[Colours]
Combo1 : 218,78,81
Combo2 : 95,205,172
Combo3 : 121,155,225
Combo4 : 231,192,103

[HitObjects]
143,152,120,6,0,P|119:99|119:43,2,115,2|2|8,3:3|3:3|0:0,0:0:0:0:
241,117,1191,1,12,0:0:0:0:
219,218,1548,6,0,P|170:247|113:246,1,115,4|0,3:2|0:0,0:0:0:0:
172,331,2262,2,0,P|199:322|227:319,1,57.5,10|10,0:0|0:0,0:0:0:0:
279,324,2619,2,0,B|330:329|378:281|378:281|403:295|421:335,1,172.5,4|8,3:2|0:0,0:0:0:0:
496,259,3512,2,0,L|507:202,1,57.5,0|8,3:0|0:0,0:0:0:0:
426,137,4048,2,0,L|415:194,1,57.5,2|0,0:0|3:0,0:0:0:0:
402,243,4405,5,0,3:0:0:0:
308,200,4762,2,0,P|279:201|251:207,1,57.5,0|0,0:0|3:0,0:0:0:0:
205,232,5119,1,10,0:0:0:0:
103,212,5477,2,0,B|102:160|48:136|48:136|59:103|95:83,1,172.5,12|8,0:0|0:0,0:0:0:0:
179,23,6369,1,0,3:0:0:0:
179,23,6548,2,0,P|235:34|292:40,2,115,8|10|4,0:0|0:0|3:2,0:0:0:0:
95,82,7619,5,0,0:0:0:0:
152,168,7977,2,0,P|180:162|208:161,1,57.5,10|10,0:0|0:0,0:0:0:0:
259,173,8334,2,0,P|292:249|257:325,1,172.5,4|8,3:2|0:0,0:0:0:0:
165,376,9227,2,0,P|137:366|109:361,1,57.5,0|8,3:0|0:0,0:0:0:0:
28,296,9762,2,0,P|33:268|43:241,1,57.5,2|8,0:0|0:0,0:0:0:0:
63,192,10119,6,0,P|67:135|43:83,2,115,0|0|10,3:0|0:0|0:0,0:0:0:0:
142,258,11191,2,0,B|173:278|182:307|182:307|224:277|282:271,1,172.5,12|8,0:0|0:0,0:0:0:0:
334,272,11905,2,0,L|447:289,1,115,2|10,3:2|3:2,0:0:0:0:
508,205,12619,1,2,0:0:0:0:
438,118,12977,6,0,P|393:118|347:124,1,92,4|8,3:2|0:1,0:0:0:0:
266,101,13691,2,0,P|251:57|257:12,2,92,8|8|8,0:1|0:1|0:1,0:0:0:0:
269,142,14584,1,0,3:0:0:0:
269,142,14762,2,0,P|257:186|248:231,1,92,8|8,0:1|0:1,0:0:0:0:
248,314,15477,2,0,P|226:306|203:303,1,46,8|0,0:1|3:0,0:0:0:0:
164,316,15834,6,0,P|120:331|75:325,1,92,0|8,3:0|0:1,0:0:0:0:
15,268,16548,2,0,P|21:222|27:176,1,92,8|8,0:1|0:1,0:0:0:0:
33,135,17084,1,0,3:0:0:0:
33,135,17262,1,8,0:1:0:0:
114,149,17619,2,0,P|119:126|120:103,1,46,8|2,0:1|3:2,0:0:0:0:
146,71,17977,2,0,P|189:55|234:61,1,92,8|8,0:1|0:1,0:0:0:0:
271,77,18512,1,0,3:0:0:0:
271,77,18691,6,0,B|309:82|309:82|334:75|358:60,2,92,2|8|8,3:2|0:1|0:1,0:0:0:0:
251,157,19762,2,0,P|273:161|295:166,1,46,8|0,0:1|3:0,0:0:0:0:
331,187,20119,2,0,P|341:231|343:277,1,92,8|8,0:1|0:1,0:0:0:0:
395,342,20834,2,0,P|417:339|439:332,1,46,8|0,0:1|3:0,0:0:0:0:
477,315,21191,2,0,P|487:271|489:225,1,92,8|0,0:1|3:0,0:0:0:0:
469,143,21905,6,0,P|491:103|492:57,2,92,8|8|8,0:1|0:1|0:1,0:0:0:0:
432,163,22798,1,2,3:2:0:0:
432,163,22977,2,0,P|389:146|343:143,1,92,8|8,0:1|0:1,0:0:0:0:
249,99,23691,2,0,P|246:70|240:42,2,57.5,8|8|8,0:0|0:3|0:0,0:0:0:0:
277,198,24405,6,0,B|288:244|288:244|277:276|245:296,1,115,4|8,3:2|0:0,0:0:0:0:
160,353,25119,2,0,P|132:346|104:346,1,57.5,0|0,3:0|3:0,0:0:0:0:
52,336,25477,1,8,0:0:0:0:
52,336,25655,2,0,P|30:286|45:227,1,115,2|0,3:2|0:0,0:0:0:0:
68,183,26191,1,8,0:0:0:0:
171,189,26548,2,0,P|199:189|227:182,1,57.5,2|0,3:2|3:0,0:0:0:0:
274,159,26905,2,0,P|267:101|260:44,2,115,8|0|8,0:0|3:0|0:0,0:0:0:0:
346,233,27977,6,0,L|336:291,1,57.5,0|0,3:0|3:0,0:0:0:0:
328,341,28334,1,8,0:0:0:0:
328,341,28512,2,0,P|378:315|435:315,1,115,2|0,3:2|3:0,0:0:0:0:
484,331,29048,1,8,0:0:0:0:
505,229,29405,2,0,P|512:201|512:172,1,57.5,2|0,3:2|3:0,0:0:0:0:
500,121,29762,2,0,P|444:106|387:98,1,115,8|0,0:0|3:0,0:0:0:0:
307,31,30477,5,8,0:0:0:0:
223,91,30834,2,0,P|216:123|214:147,1,57.5,0|0,3:0|0:0,0:0:0:0:
228,197,31191,1,8,0:0:0:0:
228,197,31369,2,0,P|172:183|119:202,1,115,2|0,3:2|3:0,0:0:0:0:
82,238,31905,1,8,0:0:0:0:
56,137,32262,2,0,P|28:129|0:126,2,57.5,2|0|8,3:2|3:0|0:0,0:0:0:0:
146,86,32977,6,0,B|192:97|192:97|224:86|244:54,1,115,4|8,3:2|0:0,0:0:0:0:
294,45,33512,2,0,P|350:36|401:59,1,115,4|0,3:2|3:0,0:0:0:0:
439,94,34048,1,12,0:0:0:0:
384,182,34405,2,0,P|357:174|328:174,1,57.5,0|8,3:0|0:0,0:0:0:0:
278,191,34762,2,0,L|293:304,2,115,0|8|0,3:0|0:3|3:3,0:0:0:0:
265,88,35834,5,12,0:0:0:0:
185,154,36191,1,8,0:0:0:0:
106,84,36548,2,0,P|51:82|10:120,1,115,8|10,0:0|0:0,0:0:0:0:
0,171,37084,1,0,3:0:0:0:
0,171,37262,2,0,P|14:226|22:283,1,115,8|8,0:0|0:0,0:0:0:0:
110,336,37977,2,0,P|112:308|117:280,1,57.5,8|0,0:0|3:0,0:0:0:0:
153,241,38334,2,0,P|207:229|257:255,1,115,10|8,0:0|0:0,0:0:0:0:
325,333,39048,6,0,P|380:344|429:318,1,115,8|8,0:0|0:0,0:0:0:0:
465,279,39584,1,0,3:0:0:0:
465,279,39762,1,10,0:0:0:0:
365,250,40119,2,0,P|361:192|384:138,1,115,8|8,0:0|0:0,0:0:0:0:
419,43,40834,2,0,B|448:67|448:67|486:66|512:29,2,115,10|10|14,0:0|0:0|0:0,0:0:0:0:
316,29,41905,5,8,0:0:0:0:
241,101,42262,2,0,P|235:157|261:208,1,115,8|10,0:0|0:0,0:0:0:0:
293,249,42798,1,0,3:0:0:0:
293,249,42977,2,0,B|375:231|375:231|402:244,1,115,8|8,0:0|0:0,0:0:0:0:
441,278,43512,1,2,3:2:0:0:
441,278,43691,2,0,L|434:340,2,57.5,8|2|10,0:0|3:2|0:0,0:0:0:0:
491,192,44405,6,0,P|483:135|474:78,1,115,8|10,0:0|0:0,0:0:0:0:
387,20,45119,1,10,0:0:0:0:
309,89,45477,2,0,L|302:146,1,57.5,10|0,0:0|3:0,0:0:0:0:
293,197,45834,2,0,P|240:175|183:180,1,115,10|10,0:0|0:0,0:0:0:0:
93,230,46548,2,0,P|84:257|79:285,2,57.5,8|0|8,0:0|0:0|0:0,0:0:0:0:
256,192,47262,12,10,48691,0:0:0:0:
309,289,50119,6,0,P|252:280|201:304,1,115,4|8,3:2|0:0,0:0:0:0:
110,355,50834,2,0,P|82:355|54:348,1,57.5,0|0,3:0|3:0,0:0:0:0:
6,326,51191,1,8,0:0:0:0:
6,326,51369,2,0,L|20:208,1,115,0|0,3:0|3:0,0:0:0:0:
28,160,51905,1,8,0:0:0:0:
118,109,52262,2,0,P|116:81|113:52,2,57.5,0|0|8,3:0|3:0|0:0,0:0:0:0:
119,213,52977,6,0,B|193:197|193:197|227:214,1,115,0|8,3:0|0:0,0:0:0:0:
300,288,53691,2,0,L|361:278,1,57.5,0|0,3:0|3:0,0:0:0:0:
407,268,54048,1,8,0:0:0:0:
407,268,54227,2,0,B|431:232|431:232|412:163,1,115,0|0,3:0|3:0,0:0:0:0:
395,114,54762,1,8,0:0:0:0:
486,65,55119,2,0,P|489:37|495:9,2,57.5,0|0|8,0:0|3:0|0:0,0:0:0:0:
395,114,55834,6,0,P|339:98|282:94,1,115,0|8,3:0|0:0,0:0:0:0:
214,16,56548,2,0,P|156:20|101:36,1,115,0|8,3:0|0:0,0:0:0:0:
66,73,57084,2,0,P|44:124|60:178,1,115,0|0,3:0|3:0,0:0:0:0:
91,220,57619,1,8,0:0:0:0:
187,261,57977,2,0,P|215:257|243:251,1,57.5,0|0,3:0|3:0,0:0:0:0:
294,239,58334,6,0,P|286:297|281:354,2,115,8|0|8,0:0|3:0|0:0,0:0:0:0:
379,182,59405,2,0,P|374:153|368:125,2,57.5,0|0|8,3:0|3:0|0:0,0:0:0:0:
390,232,59941,1,0,3:0:0:0:
390,232,60119,1,0,0:0:0:0:
382,335,60477,2,0,B|409:328|409:328|466:339|466:339|494:334,2,115,8|0|0,0:0|3:0|3:2,0:0:0:0:
279,352,61548,6,0,P|226:330|169:334,1,115,4|8,3:2|0:0,0:0:0:0:
67,358,62262,2,0,P|43:308|57:253,1,115,0|8,3:0|0:0,0:0:0:0:
98,220,62798,2,0,L|83:103,1,115,0|0,3:0|3:0,0:0:0:0:
106,59,63334,1,8,0:0:0:0:
199,102,63691,2,0,L|191:163,1,57.5,0|0,3:0|3:0,0:0:0:0:
213,205,64048,6,0,P|267:217|317:190,2,115,8|0|8,0:0|3:0|0:0,0:0:0:0:
122,254,65119,2,0,P|129:282|135:310,1,57.5,0|0,3:0|3:0,0:0:0:0:
168,351,65477,1,8,0:0:0:0:
168,351,65655,2,0,B|195:344|195:344|252:355|252:355|280:350,1,115,0|0,3:0|3:0,0:0:0:0:
331,337,66191,1,8,0:0:0:0:
331,337,66369,2,0,P|382:310|438:316,1,115,0|0,3:0|3:0,0:0:0:0:
486,334,66905,1,8,0:0:0:0:
472,231,67262,6,0,B|483:185|483:185|472:153|440:133,1,115,0|8,3:2|0:0,0:0:0:0:
351,81,67977,2,0,P|295:69|246:96,1,115,0|8,3:0|0:0,0:0:0:0:
223,142,68512,2,0,B|195:137|195:137|138:148|138:148|111:141,1,115,0|0,3:0|3:0,0:0:0:0:
59,132,69048,1,8,0:0:0:0:
12,224,69405,2,0,P|40:228|68:236,1,57.5,0|0,3:0|3:0,0:0:0:0:
117,253,69762,2,0,P|110:283|105:308,1,57.5,8|8,0:0|0:0,0:0:0:0:
102,360,70119,6,0,P|158:350|215:340,1,115,0|8,3:0|0:0,0:0:0:0:
299,279,70834,2,0,P|355:273|402:303,1,115,0|8,3:0|0:0,0:0:0:0:
437,341,71369,1,0,3:0:0:0:
437,341,71548,1,0,0:0:0:0:
499,257,71905,2,0,P|495:228|491:200,1,57.5,0|8,3:0|0:0,0:0:0:0:
450,167,72262,2,0,P|446:138|442:110,1,57.5,0|8,3:0|0:0,0:0:0:0:
410,69,72619,1,0,3:0:0:0:
319,119,72977,6,0,B|273:130|273:130|241:119|221:87,1,115,14|8,0:0|0:0,0:0:0:0:
124,50,73691,2,0,P|118:79|114:107,1,57.5,10|0,0:0|3:0,0:0:0:0:
121,159,74048,2,0,P|68:139|13:155,2,115,8|10|10,0:0|0:0|0:0,0:0:0:0:
216,199,75119,2,0,P|221:227|225:255,1,57.5,10|0,0:0|3:0,0:0:0:0:
227,307,75477,1,10,0:0:0:0:
312,365,75834,6,0,P|319:308|335:252,1,115,10|8,0:0|0:0,0:0:0:0:
374,156,76548,2,0,P|401:162|431:165,1,57.5,10|0,0:0|3:0,0:0:0:0:
481,155,76905,2,0,P|505:103|498:47,2,115,8|10|10,0:0|0:0|0:0,0:0:0:0:
432,246,77977,2,0,B|405:239|405:239|348:250|348:250|320:245,1,115,10|10,0:0|0:0,0:0:0:0:
270,229,78512,1,0,3:0:0:0:
270,229,78691,6,0,B|224:218|224:218|192:229|172:261,1,115,10|8,0:0|0:0,0:0:0:0:
112,344,79405,2,0,P|56:354|8:325,1,115,10|8,0:0|0:0,0:0:0:0:
29,223,80119,2,0,P|16:183|15:140,2,86.25,2|2|2,3:2|3:2|3:2,0:0:0:0:
73,250,80834,1,2,3:2:0:0:
231,200,81548,6,0,P|274:214|320:216,1,92,2|2,1:2|1:2,0:0:0:0:
399,192,82262,2,0,P|413:148|415:102,1,92,0|2,1:0|1:2,0:0:0:0:
354,46,82977,2,0,P|310:31|264:29,2,92,2|2|2,1:2|1:2|1:2,0:0:0:0:
415,102,84048,1,10,1:2:0:0:
468,190,84405,6,0,B|479:236|479:236|468:268|436:288,1,115,2|2,3:2|3:2,0:0:0:0:
343,331,85119,2,0,P|293:304|236:309,1,115,2|2,3:2|3:2,0:0:0:0:
134,324,85834,2,0,B|107:317|107:317|50:328|50:328|22:323,2,115,2|2|2,1:2|1:2|1:2,0:0:0:0:
236,308,86905,1,10,1:2:0:0:
