osu file format v14

[General]
AudioFilename: audio.mp3
AudioLeadIn: 0
PreviewTime: 49673
Countdown: 0
SampleSet: Soft
StackLeniency: 0.5
Mode: 0
LetterboxInBreaks: 0
WidescreenStoryboard: 0

[Editor]
Bookmarks: 1548,12977,24405,35834,50119,72977,80119,81548,86905
DistanceSpacing: 1
BeatDivisor: 4
GridSize: 4
TimelineZoom: 2.500002

[Metadata]
Title:The Girls Are Alright! (TV Size)
TitleUnicode:The Girls Are Alright! (TV Size)
Artist:saya
ArtistUnicode:saya
Creator:Meyrink
Version:Insane
Source:宇宙よりも遠い場所
Tags:Antartica A Place Further Than The Universe Yorimoi Sora Uchuu yori mo Tooi Basho Opening Expedition
BeatmapID:1870503
BeatmapSetID:895173

[Difficulty]
HPDrainRate:6
CircleSize:4
OverallDifficulty:8
ApproachRate:9
SliderMultiplier:1.8
SliderTickRate:1

[Events]
//Background and Video events
0,0,"BG.jpg",0,0
Video,-440,"Opening.flv"
//Break Periods
//Storyboard Layer 0 (Background)
//Storyboard Layer 1 (Fail)
//Storyboard Layer 2 (Pass)
//Storyboard Layer 3 (Foreground)
//Storyboard Sound Samples

[TimingPoints]
120,357.142857142857,4,2,1,60,1,0
1191,-83.3333333333333,4,2,1,60,0,0
1548,-100,4,2,1,60,0,0
12977,-125,4,2,1,60,0,0
24405,-100,4,2,1,50,0,0
35834,-100,4,2,1,65,0,0
50119,-100,4,2,1,70,0,1
72619,-100,4,2,1,60,0,0
72977,-100,4,2,1,70,0,1
80119,-83.3333333333333,4,2,1,60,0,0
80834,-125,4,2,1,60,0,0
81369,-125,4,2,1,5,0,0
81548,-100,5,2,1,40,0,0
82143,-100,5,2,1,5,0,0
82262,-100,5,2,1,40,0,0
82858,-100,5,2,1,5,0,0
82977,-100,5,2,1,40,0,0
84286,-100,5,2,1,5,0,0
84405,-100,5,2,1,60,0,0
84643,-100,5,2,1,5,0,0
84762,-100,5,2,1,60,0,0
85000,-100,5,2,1,5,0,0
85119,-100,5,2,1,60,0,0
85358,-100,5,2,1,5,0,0
85477,-100,5,2,1,60,0,0
85715,-100,5,2,1,5,0,0
85834,-83.3333333333333,5,2,1,60,0,0

[Colours]
Combo1 : 218,78,81
Combo2 : 95,205,172
Combo3 : 121,155,225
Combo4 : 231,192,103

[HitObjects]
0,226,120,5,2,3:3:0:0:
0,226,477,1,2,3:3:0:0:
73,342,834,1,8,0:0:0:0:
73,342,923,1,8,3:0:0:0:
73,342,1012,1,8,3:0:0:0:
73,342,1102,1,4,3:0:0:0:
73,342,1191,2,0,P|147:324|233:324,1,161.999995056153,12|0,0:0|0:0,0:0:0:0:
263,317,1548,6,0,P|306:242|263:167,1,180,4|0,3:2|0:0,0:0:0:0:
150,115,2084,1,0,3:0:0:0:
221,243,2262,1,10,0:0:0:0:
93,297,2441,1,10,0:0:0:0:
307,350,2619,6,0,B|327:302|327:302|297:177,1,180,4|0,3:2|0:0,0:0:0:0:
390,10,3155,1,8,0:0:0:0:
437,104,3334,2,0,P|425:147|419:191,1,90,2|0,0:0|3:0,0:0:0:0:
228,92,3691,2,0,P|272:86|316:74,1,90,8|0,0:0|3:2,0:0:0:0:
507,209,4048,2,0,P|464:198|420:192,1,90,2|0,0:0|3:0,0:0:0:0:
211,247,4405,5,0,3:0:0:0:
298,122,4584,2,0,P|311:211|324:300,1,180,8|0,0:0|3:0,0:0:0:0:
157,336,5119,1,10,0:0:0:0:
212,166,5298,1,2,3:2:0:0:
52,235,5477,6,0,P|-1:166|19:81,1,180,12|0,0:0|0:0,0:0:0:0:
197,246,6012,1,8,0:0:0:0:
97,143,6191,1,2,0:0:0:0:
30,311,6369,1,0,3:0:0:0:
177,204,6548,1,8,0:0:0:0:
177,204,6637,1,8,0:0:0:0:
177,204,6727,1,0,3:0:0:0:
268,361,6905,1,10,0:0:0:0:
303,365,6994,1,8,0:0:0:0:
339,365,7084,1,0,3:0:0:0:
375,359,7172,1,0,3:0:0:0:
412,344,7262,6,0,P|406:300|399:255,1,90,4|0,3:2|0:0,0:0:0:0:
289,93,7619,2,0,P|280:137|275:181,1,90,0|0,0:0|3:0,0:0:0:0:
192,106,7977,1,10,0:0:0:0:
378,42,8155,1,10,0:0:0:0:
347,230,8334,6,0,P|266:263|194:215,1,180,4|0,3:2|0:0,0:0:0:0:
133,117,8869,1,8,0:0:0:0:
274,181,9048,2,0,P|283:136|288:92,1,90,2|0,0:0|3:0,0:0:0:0:
102,196,9405,2,0,P|107:241|116:285,1,90,8|0,0:0|3:0,0:0:0:0:
324,278,9762,2,0,P|279:272|235:264,1,90,2|8,0:0|0:0,0:0:0:0:
0,159,10119,6,0,B|45:182|45:182|171:155,1,180,0|0,3:0|0:0,0:0:0:0:
278,128,10655,1,0,3:0:0:0:
93,82,10834,1,10,0:0:0:0:
145,252,11012,1,2,3:2:0:0:
76,77,11191,6,0,P|163:61|253:45,1,180,12|0,0:0|0:0,0:0:0:0:
381,22,11727,1,8,0:0:0:0:
324,185,11905,1,2,3:2:0:0:
206,150,12084,1,0,0:0:0:0:
206,150,12173,1,8,0:0:0:0:
206,150,12262,2,0,P|197:195|189:239,1,90,10|0,3:2|0:0,0:0:0:0:
282,350,12619,2,0,P|289:305|296:261,1,90,2|0,0:0|3:0,0:0:0:0:
386,136,12977,6,0,P|455:124|512:164,2,144,4|8|8,3:2|0:1|0:1,0:0:0:0:
199,81,14048,2,0,P|193:116|187:152,1,72,8|0,0:1|3:0,0:0:0:0:
286,242,14405,6,0,P|252:252|220:268,1,72,8|0,0:1|3:0,0:0:0:0:
46,240,14762,2,0,P|81:235|115:224,1,72,8|0,0:1|0:0,0:0:0:0:
339,160,15119,2,0,P|374:221|369:292,1,144,8|8,0:1|0:1,0:0:0:0:
147,214,15655,1,0,3:0:0:0:
147,214,15834,6,0,P|214:239|285:241,1,144,0|8,3:0|0:1,0:0:0:0:
485,341,16548,2,0,P|448:345|414:353,1,72,8|0,0:1|0:0,0:0:0:0:
413,183,16905,2,0,P|419:218|424:253,1,72,8|0,0:1|3:0,0:0:0:0:
296,352,17262,6,0,P|301:316|307:281,1,72,8|0,0:1|0:0,0:0:0:0:
362,113,17619,1,8,0:1:0:0:
278,172,17798,1,2,3:2:0:0:
274,80,17977,1,8,0:1:0:0:
369,205,18155,1,2,3:2:0:0:
226,257,18334,2,0,P|188:253|154:247,1,72,8|0,0:1|3:0,0:0:0:0:
9,369,18691,6,0,P|74:339|145:343,2,144,2|8|8,3:2|0:1|0:1,0:0:0:0:
2,138,19762,2,0,L|73:150,1,72,8|0,0:1|3:0,0:0:0:0:
131,254,20119,6,0,P|166:246|201:243,1,72,8|0,0:1|3:0,0:0:0:0:
253,126,20477,2,0,P|288:133|323:136,1,72,8|0,0:1|0:0,0:0:0:0:
466,68,20834,1,8,0:1:0:0:
466,68,21012,1,0,3:0:0:0:
343,122,21191,6,0,P|315:187|331:256,1,144,8|0,0:1|3:0,0:0:0:0:
466,349,21727,1,0,0:0:0:0:
466,349,21905,2,0,P|477:276|492:199,2,144,8|8|8,0:1|0:1|0:1,0:0:0:0:
331,256,22798,1,2,3:2:0:0:
371,362,22977,5,8,0:1:0:0:
389,170,23155,1,2,3:2:0:0:
303,262,23334,1,8,0:1:0:0:
441,294,23512,1,2,0:0:0:0:
280,161,23691,5,8,0:0:0:0:
280,161,23780,1,8,0:3:0:0:
280,161,23869,1,8,0:3:0:0:
220,353,24048,1,8,0:0:0:0:
44,257,24227,1,8,0:0:0:0:
44,257,24316,1,8,0:0:0:0:
44,257,24405,6,0,P|133:246|222:236,1,180,4|8,3:2|0:0,0:0:0:0:
353,352,24941,2,0,P|360:310|367:263,1,90,2|0,0:0|3:0,0:0:0:0:
255,123,25298,1,0,3:0:0:0:
356,250,25477,1,8,0:0:0:0:
176,180,25655,6,0,P|161:94|220:30,1,180,2|0,3:2|0:0,0:0:0:0:
337,175,26191,1,8,0:0:0:0:
213,262,26369,1,0,0:0:0:0:
313,359,26548,2,0,P|320:314|327:270,1,90,2|0,3:2|3:0,0:0:0:0:
142,132,26905,2,0,P|133:176|126:220,1,90,8|2,0:0|0:0,0:0:0:0:
307,269,27262,6,0,P|393:282|461:227,1,180,0|8,3:0|0:0,0:0:0:0:
367,183,27798,1,2,0:0:0:0:
428,360,27977,1,0,3:0:0:0:
428,360,28155,1,0,3:0:0:0:
258,271,28334,1,8,0:0:0:0:
429,105,28512,6,0,P|409:192|391:281,1,180,2|0,3:2|3:0,0:0:0:0:
209,149,29048,2,0,P|253:154|299:162,1,90,8|0,0:0|0:0,0:0:0:0:
480,270,29405,2,0,P|435:272|391:281,1,90,2|0,3:2|3:0,0:0:0:0:
268,317,29762,1,8,0:0:0:0:
137,256,29941,1,2,0:0:0:0:
137,256,30030,1,8,0:0:0:0:
137,256,30119,6,0,P|124:299|121:343,1,90,0|0,3:0|0:0,0:0:0:0:
287,208,30477,2,0,P|283:163|271:120,1,90,8|2,0:0|0:0,0:0:0:0:
118,40,30834,1,0,3:0:0:0:
201,166,31012,1,0,0:0:0:0:
60,230,31191,1,8,0:0:0:0:
180,130,31369,1,2,3:2:0:0:
235,291,31548,6,0,P|195:297|142:310,1,90,0|0,0:0|3:0,0:0:0:0:
13,143,31905,2,0,P|56:153|101:160,1,90,8|0,0:0|0:0,0:0:0:0:
283,96,32262,1,2,3:2:0:0:
283,96,32441,1,0,3:0:0:0:
156,218,32619,1,8,0:0:0:0:
274,317,32798,1,2,0:0:0:0:
274,317,32887,1,8,0:0:0:0:
274,316,32977,6,0,P|281:271|293:228,1,90,4|0,3:2|0:0,0:0:0:0:
393,109,33334,1,8,0:0:0:0:
236,57,33512,2,0,P|270:141|293:228,1,180,4|0,3:2|3:0,0:0:0:0:
421,309,34048,6,0,P|332:320|259:370,1,180,12|0,0:0|3:0,0:0:0:0:
54,318,34584,1,8,0:0:0:0:
112,244,34762,2,0,L|200:259,1,90,0|8,3:0|0:0,0:0:0:0:
407,195,35119,5,8,0:3:0:0:
423,155,35209,1,8,3:3:0:0:
421,112,35297,1,0,3:3:0:0:
399,75,35386,1,0,3:3:0:0:
360,54,35477,1,0,3:3:0:0:
233,166,35744,1,0,3:0:0:0:
233,166,35834,6,0,P|278:159|320:146,1,90,12|0,0:0|0:0,0:0:0:0:
499,257,36191,2,0,P|454:250|411:236,1,90,8|2,0:0|0:0,0:0:0:0:
252,83,36548,1,8,0:0:0:0:
322,236,36727,1,0,3:0:0:0:
351,51,36905,1,10,0:0:0:0:
188,172,37084,1,0,3:0:0:0:
300,324,37262,6,0,P|343:314|388:306,1,90,8|0,0:0|0:0,0:0:0:0:
276,156,37619,2,0,P|231:163|187:173,1,90,8|2,0:0|0:0,0:0:0:0:
67,245,37977,1,8,0:0:0:0:
130,70,38155,1,0,3:0:0:0:
276,156,38334,1,10,0:0:0:0:
156,257,38512,1,0,3:0:0:0:
32,80,38691,6,0,P|15:122|9:167,1,90,8|0,0:0|0:0,0:0:0:0:
226,319,39048,2,0,P|242:277|248:232,1,90,8|2,0:0|0:0,0:0:0:0:
100,142,39405,1,8,0:0:0:0:
139,301,39584,1,0,3:0:0:0:
280,216,39762,1,10,0:0:0:0:
250,374,39941,1,0,3:0:0:0:
427,303,40119,6,0,P|383:295|338:291,1,90,8|2,0:0|0:0,0:0:0:0:
75,222,40477,2,0,P|119:217|164:210,1,90,8|2,0:0|0:0,0:0:0:0:
347,51,40834,1,10,0:0:0:0:
300,203,41012,1,2,3:2:0:0:
469,187,41191,1,10,0:0:0:0:
469,187,41280,1,0,3:0:0:0:
469,187,41369,1,2,3:2:0:0:
469,187,41459,1,0,3:0:0:0:
469,187,41548,6,0,P|488:252|473:317,1,135,14|0,0:0|0:0,0:0:0:0:
449,347,41905,2,0,P|403:337|361:331,1,90,8|2,0:0|0:0,0:0:0:0:
278,182,42262,2,0,P|233:188|189:198,1,90,8|0,0:0|0:0,0:0:0:0:
51,260,42619,1,10,0:0:0:0:
126,111,42798,1,0,3:0:0:0:
211,287,42977,6,0,P|256:281|300:271,1,90,8|0,0:0|0:0,0:0:0:0:
430,132,43334,1,8,0:0:0:0:
322,260,43512,1,2,3:2:0:0:
468,332,43691,1,8,0:0:0:0:
299,175,43869,1,2,3:2:0:0:
449,43,44048,1,10,0:0:0:0:
411,221,44227,1,2,3:2:0:0:
252,89,44405,6,0,P|206:101|157:106,1,90,8|0,0:0|0:0,0:0:0:0:
0,177,44762,2,0,P|44:182|87:194,1,90,10|0,0:0|0:0,0:0:0:0:
245,206,45119,2,0,P|238:250|226:293,1,90,10|0,0:0|0:0,0:0:0:0:
102,366,45477,1,10,0:0:0:0:
102,366,45655,1,0,3:0:0:0:
226,293,45834,6,0,P|269:280|313:274,1,90,10|0,0:0|3:0,0:0:0:0:
508,341,46191,2,0,P|464:354|420:360,1,90,10|0,0:0|0:0,0:0:0:0:
420,360,46459,1,8,0:0:0:0:
420,360,46548,1,8,0:0:0:0:
375,164,46727,1,0,0:0:0:0:
440,267,46905,1,8,0:0:0:0:
440,267,46994,1,8,3:0:0:0:
440,267,47084,1,0,3:0:0:0:
206,338,47262,5,4,3:2:0:0:
278,266,47441,1,2,0:0:0:0:
307,361,47619,1,0,3:0:0:0:
169,263,47798,1,2,0:0:0:0:
359,156,47977,5,0,3:0:0:0:
394,363,48155,1,2,0:0:0:0:
213,187,48334,1,0,3:0:0:0:
471,108,48512,1,2,0:0:0:0:
383,277,48691,5,10,0:0:0:0:
383,277,48780,1,0,3:0:0:0:
383,277,48869,1,0,3:0:0:0:
302,19,49048,1,10,0:0:0:0:
272,234,50119,6,0,P|184:237|126:172,2,180,4|8|0,3:2|0:0|3:0,0:0:0:0:
421,159,51012,1,0,3:0:0:0:
331,294,51191,1,8,0:0:0:0:
473,367,51369,6,0,P|484:323|490:278,1,90,0|0,3:0|0:0,0:0:0:0:
350,93,51727,2,0,P|336:135|331:180,1,90,0|8,3:0|0:0,0:0:0:0:
331,294,52084,1,0,0:0:0:0:
331,294,52173,1,8,0:0:0:0:
331,294,52262,1,0,3:0:0:0:
432,214,52441,1,0,3:0:0:0:
363,384,52619,1,8,0:0:0:0:
210,276,52798,1,8,0:0:0:0:
210,276,52887,1,8,0:0:0:0:
210,276,52977,6,0,B|219:214|193:165|193:165|210:140|247:129,1,180,0|8,3:0|0:0,0:0:0:0:
365,206,53512,1,0,0:0:0:0:
238,364,53691,2,0,P|194:354|150:344,1,90,0|0,3:0|3:0,0:0:0:0:
286,213,54048,1,8,0:0:0:0:
356,324,54227,1,0,3:0:0:0:
187,233,54405,6,0,P|191:188|209:147,1,90,0|0,0:0|3:0,0:0:0:0:
382,100,54762,2,0,P|341:118|297:123,1,90,8|0,0:0|3:0,0:0:0:0:
168,1,55119,2,0,P|205:27|231:64,1,90,0|0,0:0|3:0,0:0:0:0:
286,213,55477,1,8,0:0:0:0:
177,310,55655,1,8,0:0:0:0:
177,310,55744,1,8,0:0:0:0:
177,310,55834,6,0,P|89:291|0:283,2,180,0|8|0,3:0|0:0|3:0,0:0:0:0:
286,213,56727,1,0,3:0:0:0:
318,363,56905,1,8,0:0:0:0:
196,301,57084,1,0,3:0:0:0:
387,248,57262,6,0,P|383:203|372:159,1,90,0|0,0:0|3:0,0:0:0:0:
216,21,57619,2,0,P|167:94|193:176,1,180,8|0,0:0|3:0,0:0:0:0:
409,69,58155,1,0,3:0:0:0:
409,69,58334,2,0,P|364:74|320:85,1,90,8|0,0:0|0:0,0:0:0:0:
223,265,58691,6,0,P|179:260|135:249,1,90,0|0,3:0|0:0,0:0:0:0:
370,179,59048,2,0,P|380:222|385:267,1,90,8|0,0:0|0:0,0:0:0:0:
211,366,59405,1,0,3:0:0:0:
211,366,59584,1,0,3:0:0:0:
305,246,59762,1,8,0:0:0:0:
126,220,59941,1,0,3:0:0:0:
290,330,60119,5,0,0:0:0:0:
342,166,60298,1,0,3:2:0:0:
342,166,60387,1,0,0:0:0:0:
342,166,60477,2,0,P|337:121|326:77,1,90,8|8,0:0|0:0,0:0:0:0:
318,1,60745,1,0,3:0:0:0:
318,1,60834,2,0,L|266:18,1,45,0|0,3:0|0:0,0:0:0:0:
145,32,61012,2,0,L|158:74,1,45,8|0,0:0|0:0,0:0:0:0:
191,162,61191,1,0,3:2:0:0:
158,302,61369,1,8,0:0:0:0:
158,302,61459,1,8,0:0:0:0:
158,302,61548,6,0,P|246:303|311:243,2,180,4|8|0,3:2|0:0|3:0,0:0:0:0:
74,220,62441,1,0,3:0:0:0:
0,351,62619,2,0,P|44:357|89:362,1,90,8|0,0:0|3:0,0:0:0:0:
215,220,62977,6,0,P|210:175|195:132,1,90,0|0,0:0|3:0,0:0:0:0:
65,107,63334,1,8,0:0:0:0:
94,245,63512,1,0,0:0:0:0:
94,245,63602,1,8,0:0:0:0:
94,245,63691,1,0,3:0:0:0:
281,147,63869,1,0,3:0:0:0:
226,322,64048,2,0,P|271:313|315:307,1,90,8|0,0:0|0:0,0:0:0:0:
177,181,64405,6,0,P|88:199|0:200,1,180,0|8,3:0|0:0,0:0:0:0:
89,101,64941,1,0,0:0:0:0:
105,299,65119,2,0,P|150:293|194:284,1,90,0|0,3:0|3:0,0:0:0:0:
277,185,65477,1,8,0:0:0:0:
277,185,65655,1,0,3:0:0:0:
194,59,65834,5,0,0:0:0:0:
148,204,66012,1,0,3:0:0:0:
357,145,66191,2,0,P|360:190|354:235,1,90,8|0,0:0|3:0,0:0:0:0:
502,101,66548,2,0,P|457:94|414:82,1,90,0|0,0:0|3:0,0:0:0:0:
291,302,66905,2,0,P|334:314|378:320,1,90,8|8,0:0|0:0,0:0:0:0:
464,342,67173,1,8,0:0:0:0:
463,342,67262,6,0,B|497:303|497:303|479:175,2,180,0|8|0,3:2|0:0|3:0,0:0:0:0:
348,208,68155,1,0,3:0:0:0:
503,92,68334,1,8,0:0:0:0:
477,262,68512,1,0,3:0:0:0:
279,100,68691,6,0,P|323:105|368:110,1,90,0|0,0:0|3:0,0:0:0:0:
512,247,69048,2,0,P|423:253|335:273,1,180,8|0,0:0|3:0,0:0:0:0:
285,369,69584,1,0,3:0:0:0:
230,196,69762,1,8,0:0:0:0:
91,302,69941,1,8,0:0:0:0:
91,302,70030,1,8,0:0:0:0:
91,302,70119,6,0,P|135:305|179:313,1,90,0|0,3:0|0:0,0:0:0:0:
381,181,70477,2,0,P|324:215|258:211,1,135,8|0,0:0|0:0,0:0:0:0:
230,196,70834,2,0,L|242:106,1,90,0|0,3:0|0:0,0:0:0:0:
309,302,71191,1,8,0:0:0:0:
150,180,71369,1,0,3:0:0:0:
355,118,71548,5,0,0:0:0:0:
211,268,71727,1,8,0:0:0:0:
359,372,71905,1,0,3:0:0:0:
304,210,72084,1,8,0:0:0:0:
304,210,72173,1,8,0:0:0:0:
304,210,72262,1,0,3:0:0:0:
142,312,72441,1,8,0:0:0:0:
37,250,72619,5,0,3:0:0:0:
37,250,72709,1,8,0:3:0:0:
37,250,72798,1,8,3:0:0:0:
37,250,72887,1,0,3:0:0:0:
36,249,72976,6,0,P|18:295|16:337,1,90,14|0,0:0|0:0,0:0:0:0:
179,192,73334,1,8,0:0:0:0:
88,85,73512,1,0,0:0:0:0:
88,85,73602,1,0,0:0:0:0:
88,85,73691,1,10,0:0:0:0:
121,268,73869,1,0,3:0:0:0:
316,98,74048,2,0,P|271:106|227:112,1,90,8|0,0:0|3:0,0:0:0:0:
121,268,74405,6,0,P|165:274|210:281,1,90,10|0,0:0|0:0,0:0:0:0:
351,206,74762,1,10,0:0:0:0:
239,373,74941,1,0,0:0:0:0:
239,373,75030,1,0,0:0:0:0:
239,373,75119,1,10,0:0:0:0:
414,300,75298,1,0,3:0:0:0:
245,168,75477,1,10,0:0:0:0:
399,291,75655,1,0,3:0:0:0:
222,376,75834,6,0,P|227:332|234:287,1,90,10|0,0:0|0:0,0:0:0:0:
334,94,76191,2,0,P|352:134|353:179,1,90,8|0,0:0|0:0,0:0:0:0:
164,125,76548,1,10,0:0:0:0:
313,248,76727,1,0,3:0:0:0:
142,347,76905,1,8,0:0:0:0:
251,187,77084,1,0,3:0:0:0:
419,305,77262,5,10,0:0:0:0:
345,107,77441,1,0,0:0:0:0:
210,286,77619,1,10,0:0:0:0:
381,207,77798,1,0,0:0:0:0:
381,207,77887,1,0,0:0:0:0:
381,207,77977,5,10,0:0:0:0:
192,95,78155,1,0,3:0:0:0:
298,253,78334,1,10,0:0:0:0:
383,36,78512,1,0,3:0:0:0:
134,171,78691,6,0,P|178:172|223:181,1,90,10|0,0:0|0:0,0:0:0:0:
472,248,79048,2,0,P|428:249|383:258,1,90,8|0,0:0|0:0,0:0:0:0:
252,358,79405,1,10,0:0:0:0:
252,358,79584,1,0,3:0:0:0:
323,160,79762,1,8,0:0:0:0:
53,231,80119,6,0,B|15:219|6:192|6:192|40:155|36:100,2,161.999995056153,2|2|2,3:2|3:2|3:2,0:0:0:0:
134,268,80834,6,0,B|192:269|240:243|240:243|209:297|223:344,1,216,2|0,3:2|0:0,0:0:0:0:
320,297,81548,6,0,P|315:326|312:356,2,60,2|0|0,1:2|1:0|1:0,0:0:0:0:
355,215,81905,2,0,P|421:227|475:201,1,120,2|0,1:2|0:0,0:0:0:0:
512,133,82262,2,0,P|508:103|503:73,1,60,0|0,1:0|1:0,0:0:0:0:
425,23,82500,1,0,1:0:0:0:
425,23,82619,2,0,P|405:78|404:138,1,120,2|0,1:2|0:0,0:0:0:0:
454,289,82977,6,0,P|483:279|512:273,2,60,2|0|0,1:2|1:0|1:0,0:0:0:0:
348,283,83334,2,0,P|354:253|363:225,2,60,2|0|0,1:2|1:0|1:0,0:0:0:0:
251,355,83691,2,0,P|242:326|235:297,2,60,2|0|0,1:2|1:0|1:0,0:0:0:0:
264,212,84048,2,0,P|206:210|158:244,1,120,10|0,1:2|0:0,0:0:0:0:
79,344,84405,6,0,P|64:281|41:228,1,120,2|0,3:2|0:0,0:0:0:0:
157,64,84762,2,0,P|180:119|193:177,1,120,2|0,3:2|0:0,0:0:0:0:
187,321,85119,2,0,P|246:325|295:292,1,120,2|0,3:2|0:0,0:0:0:0:
451,218,85477,2,0,P|392:222|343:189,1,120,2|0,3:2|0:0,0:0:0:0:
289,53,85834,6,0,P|281:88|277:123,1,71.9999978027344,2|0,1:2|1:0,0:0:0:0:
79,117,86072,1,0,1:0:0:0:
79,117,86191,2,0,P|113:106|146:91,1,71.9999978027344,2|0,1:2|1:0,0:0:0:0:
236,258,86429,1,0,1:0:0:0:
236,258,86548,2,0,P|209:233|180:212,1,71.9999978027344,2|0,1:2|1:0,0:0:0:0:
61,234,86786,1,0,1:0:0:0:
61,234,86905,1,10,1:2:0:0:
