osu file format v14

[General]
AudioFilename: audio.mp3
AudioLeadIn: 0
PreviewTime: 49673
Countdown: 0
SampleSet: Soft
StackLeniency: 0.5
Mode: 0
LetterboxInBreaks: 0
WidescreenStoryboard: 0

[Editor]
Bookmarks: 1548,12977,24405,35834,50119,72977,80119,81548,86905
DistanceSpacing: 1.2
BeatDivisor: 2
GridSize: 4
TimelineZoom: 0.8000021

[Metadata]
Title:The Girls Are Alright! (TV Size)
TitleUnicode:The Girls Are Alright! (TV Size)
Artist:saya
ArtistUnicode:saya
Creator:Meyrink
Version:Easy
Source:宇宙よりも遠い場所
Tags:Antartica A Place Further Than The Universe Yorimoi Sora Uchuu yori mo Tooi Basho Opening Expedition
BeatmapID:1870501
BeatmapSetID:895173

[Difficulty]
HPDrainRate:2
CircleSize:3
OverallDifficulty:2
ApproachRate:3
SliderMultiplier:0.8
SliderTickRate:1

[Events]
//Background and Video events
Video,-440,"Opening.flv"
0,0,"BG.jpg",0,0
//Break Periods
//Storyboard Layer 0 (Background)
//Storyboard Layer 1 (Fail)
//Storyboard Layer 2 (Pass)
//Storyboard Layer 3 (Foreground)
//Storyboard Sound Samples

[TimingPoints]
120,357.142857142857,4,2,1,60,1,0
24405,-100,4,2,1,50,0,0
35834,-100,4,2,1,65,0,0
50119,-100,4,2,1,70,0,1
72619,-100,4,2,1,60,0,0
72977,-100,4,2,1,70,0,1
80119,-100,4,2,1,60,0,0
81548,-100,5,2,1,40,0,0
84405,-100,5,2,1,60,0,0
85834,-100,5,2,1,70,0,0

[Colours]
Combo1 : 218,78,81
Combo2 : 95,205,172
Combo3 : 121,155,225
Combo4 : 231,192,103

[HitObjects]
96,295,120,6,0,P|56:290|18:303,2,80,2|2|8,3:3|3:3|0:0,0:0:0:0:
182,335,1191,1,12,0:0:0:0:
263,284,1548,6,0,B|255:254|274:228|274:228|319:253|371:237,1,160,4|10,3:2|0:0,0:0:0:0:
448,180,2619,2,0,P|464:124|447:67,2,120,4|8|8,3:2|0:0|0:0,0:0:0:0:
372,237,4048,1,2,0:0:0:0:
328,152,4405,6,0,B|270:137|270:137|171:160,1,160,0|10,3:0|0:0,0:0:0:0:
76,159,5477,2,0,P|67:99|48:42,2,120,12|8|8,0:0|0:0|0:0,0:0:0:0:
61,253,6905,1,10,0:0:0:0:
122,326,7262,6,0,P|197:342|260:296,1,160,4|10,3:2|0:0,0:0:0:0:
338,240,8334,2,0,P|397:239|448:269,2,120,4|8|8,3:2|0:0|0:0,0:0:0:0:
260,296,9762,1,2,0:0:0:0:
176,248,10119,6,0,B|155:274|160:314|160:314|119:291|72:294,1,160,0|10,3:0|0:0,0:0:0:0:
23,212,11191,2,0,L|53:54,1,160,12|2,0:0|3:2,0:0:0:0:
148,44,12262,2,0,P|153:83|159:123,1,80,10|2,3:2|0:0,0:0:0:0:
204,208,12977,6,0,P|279:184|359:193,1,160,4|8,3:2|0:1,0:0:0:0:
441,241,14048,2,0,P|432:282|426:319,2,80,8|8|8,0:1|0:1|0:1,0:0:0:0:
498,164,15119,2,0,P|494:125|482:87,1,80,8|8,0:1|0:1,0:0:0:0:
402,32,15834,6,0,P|324:20|260:65,1,160,0|8,3:0|0:1,0:0:0:0:
199,138,16905,2,0,P|159:137|124:119,1,80,8|8,0:1|0:1,0:0:0:0:
29,101,17619,2,0,P|36:61|45:22,2,80,8|8|8,0:1|0:1|0:1,0:0:0:0:
4,193,18691,6,0,B|7:249|43:285|43:285|97:265,1,160,2|8,3:2|0:1,0:0:0:0:
188,235,19762,1,8,0:1:0:0:
273,279,20119,2,0,P|283:317|286:357,1,80,8|8,0:1|0:1,0:0:0:0:
378,331,20834,2,0,L|390:252,1,80,8|8,0:1|0:1,0:0:0:0:
434,167,21548,6,0,P|470:182|510:184,2,80,0|8|8,3:0|0:1|0:1,0:0:0:0:
356,110,22619,1,8,0:1:0:0:
273,60,22977,2,0,P|233:62|196:77,1,80,8|8,0:1|0:1,0:0:0:0:
130,147,23691,2,0,L|52:128,1,80,8|8,0:0|0:0,0:0:0:0:
5,212,24405,6,0,B|-2:255|22:287|22:287|52:267|98:262,1,160,4|0,3:2|3:0,0:0:0:0:
193,270,25477,2,0,P|187:309|183:349,2,80,8|0|8,0:0|0:0|0:0,0:0:0:0:
268,210,26548,2,0,L|255:129,1,80,2|8,3:2|0:0,0:0:0:0:
312,54,27262,6,0,P|389:41|453:85,1,160,0|0,3:0|3:0,0:0:0:0:
507,164,28334,2,0,P|483:240|474:319,1,160,8|8,0:0|0:0,0:0:0:0:
387,359,29405,2,0,L|375:281,1,80,2|8,3:2|0:0,0:0:0:0:
357,186,30119,1,0,3:0:0:0:
276,237,30477,6,0,P|200:249|148:192,1,160,8|8,0:0|0:0,0:0:0:0:
118,101,31548,2,0,P|123:61|135:23,1,80,0|8,0:0|0:0,0:0:0:0:
229,42,32262,2,0,P|223:81|211:119,1,80,2|8,3:2|0:0,0:0:0:0:
148,192,32977,6,0,P|89:178|29:171,2,120,4|4|12,3:2|3:2|0:0,0:0:0:0:
238,225,34405,2,0,L|219:302,1,80,0|0,3:0|3:0,0:0:0:0:
305,343,35119,2,0,L|323:265,1,80,8|0,0:3|3:3,0:0:0:0:
376,185,35834,6,0,P|452:199|512:150,1,160,12|8,0:0|0:0,0:0:0:0:
481,58,36905,1,10,0:0:0:0:
388,33,37262,2,0,B|348:27|348:27|277:43|277:43|231:34,1,160,8|8,0:0|0:0,0:0:0:0:
135,25,38334,1,10,0:0:0:0:
57,81,38691,6,0,B|32:125|32:125|41:182|99:204,1,160,8|8,0:0|0:0,0:0:0:0:
193,186,39762,1,10,0:0:0:0:
288,173,40119,2,0,P|273:251|261:330,2,160,8|10|14,0:0|0:0|0:0,0:0:0:0:
358,108,41905,6,0,P|397:116|436:121,1,80,8|8,0:0|0:0,0:0:0:0:
510,181,42619,1,10,0:0:0:0:
452,258,42977,2,0,B|406:253|376:233|376:233|352:265|359:308,1,160,8|8,0:0|0:0,0:0:0:0:
281,364,44048,1,10,0:0:0:0:
228,283,44405,6,0,P|151:269|86:314,1,160,8|10,0:0|0:0,0:0:0:0:
5,263,45477,1,10,0:0:0:0:
16,167,45834,2,0,B|22:142|41:119|41:119|95:143|143:137,1,160,10|8,0:0|0:0,0:0:0:0:
235,110,46905,1,8,0:0:0:0:
256,192,47262,12,10,48691,0:0:0:0:
0,313,50119,6,0,P|66:272|144:283,1,160,4|0,3:2|3:0,0:0:0:0:
219,343,51191,1,8,0:0:0:0:
310,314,51548,2,0,B|350:308|350:308|421:324|421:324|467:315,1,160,0|0,0:0|3:0,0:0:0:0:
507,227,52619,1,8,0:0:0:0:
412,206,52977,6,0,P|417:126|429:47,1,160,0|0,3:0|3:0,0:0:0:0:
336,23,54048,1,8,0:0:0:0:
260,82,54405,2,0,P|220:81|181:70,1,80,0|8,0:0|0:0,0:0:0:0:
114,139,55119,2,0,P|74:139|35:150,1,80,0|8,0:0|0:0,0:0:0:0:
1,240,55834,6,0,B|8:302|44:332|44:332|97:314,1,160,0|0,3:0|3:0,0:0:0:0:
188,283,56905,1,8,0:0:0:0:
261,346,57262,2,0,P|336:321|414:332,1,160,0|0,0:0|3:0,0:0:0:0:
473,256,58334,1,8,0:0:0:0:
401,192,58691,6,0,P|376:119|411:50,2,160,0|0|0,3:0|3:0|0:0,0:0:0:0:
473,256,60477,2,0,P|474:295|459:332,2,80,8|0|0,0:0|3:0|3:2,0:0:0:0:
379,277,61548,6,0,B|339:271|339:271|268:287|268:287|222:278,1,160,4|0,3:2|3:0,0:0:0:0:
128,258,62619,1,8,0:0:0:0:
47,310,62977,2,0,P|8:243|18:165,1,160,0|0,0:0|3:0,0:0:0:0:
78,89,64048,1,8,0:0:0:0:
167,122,64405,6,0,P|206:120|245:111,1,80,0|8,3:0|0:0,0:0:0:0:
327,59,65119,2,0,P|366:59|405:68,1,80,0|8,3:0|0:0,0:0:0:0:
492,110,65834,1,0,0:0:0:0:
412,163,66191,2,0,P|373:230|394:305,1,160,8|8,0:0|0:0,0:0:0:0:
467,367,67262,6,0,P|391:342|312:347,1,160,0|0,3:2|3:0,0:0:0:0:
225,304,68334,1,8,0:0:0:0:
136,341,68691,2,0,B|103:290|103:290|132:192,1,160,0|0,0:0|3:0,0:0:0:0:
189,118,69762,1,8,0:0:0:0:
245,40,70119,6,0,P|324:52|402:65,2,160,0|0|0,3:0|3:0|0:0,0:0:0:0:
189,118,71905,2,0,P|152:104|113:99,2,80,0|0|0,3:0|3:0|3:0,0:0:0:0:
279,150,72977,6,0,P|255:226|252:305,1,160,14|10,0:0|0:0,0:0:0:0:
322,370,74048,1,8,0:0:0:0:
410,333,74405,2,0,P|434:256|437:177,1,160,10|10,0:0|0:0,0:0:0:0:
376,103,75477,1,10,0:0:0:0:
280,103,75834,6,0,B|234:108|204:128|204:128|182:98|181:53,1,160,10|10,0:0|0:0,0:0:0:0:
85,59,76905,1,8,0:0:0:0:
15,125,77262,2,0,B|6:171|6:171|22:242|22:242|16:282,1,160,10|10,0:0|0:0,0:0:0:0:
69,362,78334,1,10,0:0:0:0:
155,320,78691,6,0,B|213:305|213:305|310:327,1,160,10|10,0:0|0:0,0:0:0:0:
399,290,79762,1,8,0:0:0:0:
481,339,80119,2,0,P|510:265|501:186,1,160,2|2,3:2|3:2,0:0:0:0:
349,66,81548,6,0,P|282:106|203:96,1,160,2|0,1:2|1:0,0:0:0:0:
34,188,82977,2,0,B|34:256|69:281|69:281|124:263,1,160,2|2,1:2|1:2,0:0:0:0:
215,236,84048,1,10,1:2:0:0:
308,257,84405,6,0,P|298:295|294:335,1,80,2|2,3:2|3:2,0:0:0:0:
389,351,85119,2,0,P|398:312|402:272,1,80,2|2,3:2|3:2,0:0:0:0:
380,178,85834,2,0,P|420:174|465:159,2,80,2|2|2,1:2|1:2|1:2,0:0:0:0:
284,166,86905,1,10,1:2:0:0:
