osu file format v14

[General]
AudioFilename: audio.mp3
AudioLeadIn: 0
PreviewTime: 52651
Countdown: 0
SampleSet: Soft
StackLeniency: 0.5
Mode: 0
LetterboxInBreaks: 0
WidescreenStoryboard: 0

[Editor]
Bookmarks: 131780
DistanceSpacing: 1.2
BeatDivisor: 4
GridSize: 32
TimelineZoom: 1

[Metadata]
Title:Sora o Miagete
TitleUnicode:宇宙を見上げて
Artist:saya
ArtistUnicode:saya
Creator:NotEnough
Version:Motion
Source:宇宙よりも遠い場所
Tags:Sora yori mo Tooi Basho A Place Further Than The Universe insert song episode 2 Kowari The Girls Are Alright! よりもい yorimoi
BeatmapID:1763809
BeatmapSetID:842966

[Difficulty]
HPDrainRate:6
CircleSize:4
OverallDifficulty:7.5
ApproachRate:8
SliderMultiplier:2.4
SliderTickRate:1

[Events]
//Background and Video events
0,0,"sora soth.jpg",0,0
//Break Periods
2,92119,99264
//Storyboard Layer 0 (Background)
//Storyboard Layer 1 (Fail)
//Storyboard Layer 2 (Pass)
//Storyboard Layer 3 (Foreground)
//Storyboard Sound Samples

[TimingPoints]
491,476.190476190476,4,2,1,38,1,0
491,-200,4,2,1,38,0,0
19538,-142.857142857143,4,2,1,48,0,0
52633,-200,4,2,1,38,0,0
53824,-111.111111111111,4,2,1,60,0,1
68348,458.015267175573,4,2,1,60,1,9
68348,-111.111111111111,4,2,1,60,0,1
69035,504.201680672269,4,2,1,60,1,9
69035,-111.111111111111,4,2,1,60,0,1
69539,476.190476190476,4,2,1,60,1,9
69539,-111.111111111111,4,2,1,60,0,1
70967,476.190476190476,4,2,1,60,1,9
70967,-111.111111111111,4,2,1,60,0,1
84300,-142.857142857143,4,2,1,50,0,0
91919,-142.857142857143,4,2,1,5,0,0
92038,-142.857142857143,4,2,1,60,0,0
100014,-250,4,2,1,35,0,0
114776,-250,4,2,1,5,0,0
114895,-250,4,2,1,35,0,0
116681,-200,4,2,1,40,0,0
124300,-142.857142857143,4,2,1,48,0,0
129776,-111.111111111111,4,2,1,60,0,0
130728,408.163265306122,4,2,1,60,1,8
130728,-111.111111111111,4,2,1,60,0,0
131181,491.803278688525,4,2,1,60,1,8
131181,-111.111111111111,4,2,1,60,0,0
131672,458.015267175573,4,2,1,60,1,8
131672,-111.111111111111,4,2,1,60,0,0
131904,491.803278688525,4,2,1,60,1,9
131904,-111.111111111111,4,2,1,60,0,1
132395,476.190476190476,4,2,1,60,1,9
132395,-111.111111111111,4,2,1,60,0,1
133823,476.190476190476,4,2,1,60,1,9
133823,-111.111111111111,4,2,1,60,0,1
148584,-166.666666666667,4,2,1,60,0,0
150965,-111.111111111111,4,2,1,60,0,0
152394,-142.857142857143,4,2,1,60,0,0
158584,-142.857142857143,4,2,1,5,0,0

[Colours]
Combo1 : 149,203,109
Combo2 : 171,160,29
Combo3 : 34,134,255

[HitObjects]
96,95,4300,5,0,0:2:0:0:
96,95,4776,2,0,P|151:78|229:105,2,120,2|2|0,0:2|0:2|0:2,0:2:0:0:
155,185,5967,1,2,0:2:0:0:
210,92,6205,2,0,B|269:104|269:104|329:90,1,120,2|2,0:2|0:2,0:2:0:0:
375,16,6919,2,0,P|409:50|416:73,1,60,2|0,0:2|0:2,0:2:0:0:
365,134,7395,2,0,P|331:100|324:77,1,60,2|0,0:2|0:2,0:2:0:0:
448,136,7871,2,0,P|432:186|408:204,1,60,2|0,0:2|0:2,0:2:0:0:
385,268,8348,2,0,P|343:219|349:148,1,120,2|0,0:2|0:2,0:2:0:0:
341,165,9300,5,2,0:2:0:0:
272,227,9538,1,2,0:2:0:0:
233,144,9776,2,0,P|192:179|186:255,1,120,2|0,0:2|0:2,0:2:0:0:
272,227,10490,1,2,0:2:0:0:
272,227,10729,2,0,P|271:269|260:295,1,60,2|0,0:2|0:2,0:2:0:0:
179,330,11205,1,2,0:2:0:0:
105,279,11443,1,2,0:2:0:0:
181,241,11681,1,2,0:2:0:0:
181,241,12395,6,0,L|263:236,1,60,2|0,0:2|0:2,0:2:0:0:
322,284,12871,2,0,P|333:226|294:160,1,120,2|0,0:2|0:2,0:2:0:0:
223,143,13586,1,2,0:2:0:0:
291,82,13824,2,0,L|436:75,1,120,2|2,0:2|0:2,0:2:0:0:
480,144,14538,2,0,P|492:182|487:214,1,60,2|0,0:2|0:2,0:2:0:0:
492,288,15014,2,0,P|453:279|427:259,1,60,2|0,0:2|0:2,0:2:0:0:
361,226,15490,2,0,P|388:196|418:184,1,60,2|0,0:2|0:2,0:2:0:0:
436,268,15967,2,0,P|377:309|323:301,1,120,2|0,0:2|0:2,0:2:0:0:
248,263,19538,6,0,P|202:280|135:260,1,83.9999974365235,0|0,1:2|0:2,0:2:0:0:
99,169,20014,1,2,1:2:0:0:
195,197,20252,1,2,0:2:0:0:
69,248,20490,2,0,P|21:208|14:175,1,83.9999974365235,2|0,1:2|0:2,0:2:0:0:
92,78,20967,1,0,1:2:0:0:
99,169,21205,5,2,0:2:0:0:
99,169,21443,2,0,P|160:184|247:152,1,125.999996154785,2|0,1:2|0:2,0:2:0:0:
220,169,21919,1,2,1:2:0:0:
322,93,22157,2,0,P|377:107|410:136,1,83.9999974365235,2|0,0:2|1:2,0:2:0:0:
347,259,22633,2,0,P|331:204|340:161,1,83.9999974365235,2|0,0:2|1:2,0:2:0:0:
479,155,23110,2,0,P|439:195|397:209,1,83.9999974365235,2|0,0:2|1:2,0:2:0:0:
265,299,23586,6,0,P|331:346|410:324,1,167.999994873047,2|0,0:2|0:2,0:2:0:0:
347,262,24300,1,0,1:2:0:0:
242,384,24538,1,2,0:2:0:0:
208,240,24776,1,2,1:2:0:0:
111,285,25014,5,2,0:2:0:0:
111,285,25252,2,0,P|114:228|146:195,1,83.9999974365235,0|0,1:2|0:2,0:2:0:0:
250,161,25729,1,2,1:2:0:0:
208,240,25967,2,0,P|169:204|176:112,1,125.999996154785,2|0,0:2|0:2,0:2:0:0:
163,134,26443,1,2,0:2:0:0:
291,81,26681,1,2,1:2:0:0:
250,161,26919,1,2,0:2:0:0:
135,55,27157,6,0,P|96:82|79:123,1,83.9999974365235,0|0,1:2|0:2,0:2:0:0:
140,234,27633,1,2,1:2:0:0:
163,134,27871,1,2,0:2:0:0:
57,218,28110,2,0,P|83:298|190:300,1,167.999994873047,2|0,1:2|1:2,0:2:0:0:
140,234,28824,1,2,0:2:0:0:
140,234,29062,6,0,L|252:230,1,83.9999974365235,2|0,1:2|0:2,0:2:0:0:
320,148,29538,1,2,1:2:0:0:
233,93,29776,2,0,P|187:82|134:97,1,83.9999974365235,2|0,0:2|1:2,0:2:0:0:
140,234,30252,2,0,P|172:199|186:146,1,83.9999974365235,2|0,0:2|1:2,0:2:0:0:
64,82,30729,6,0,P|77:127|116:165,1,83.9999974365235,2|0,0:2|1:2,0:2:0:0:
92,167,31125,5,2,0:2:0:0:
85,189,31284,6,0,P|80:246|133:310,1,139.999995727539,2|0,0:2|0:2,0:2:0:0:
256,245,31919,2,0,P|201:226|151:246,1,83.9999974365235,0|0,1:2|0:2,0:2:0:0:
160,384,32395,2,0,P|201:344|209:291,1,83.9999974365235,0|0,1:2|0:2,0:2:0:0:
190,140,32871,6,0,P|124:142|107:153,1,83.9999974365235,0|0,1:2|0:2,0:2:0:0:
257,207,33348,2,0,P|283:165|281:110,1,83.9999974365235,0|0,1:2|0:2,0:2:0:0:
286,132,33705,1,0,1:2:0:0:
286,132,33824,1,0,1:2:0:0:
171,9,34062,1,0,1:2:0:0:
111,151,34300,1,8,1:2:0:0:
257,48,34538,1,0,1:2:0:0:
45,91,34776,6,0,P|25:148|73:231,1,125.999996154785,6|0,1:2|0:2,0:2:0:0:
45,207,35252,1,2,0:2:0:0:
195,157,35490,2,0,L|73:149,1,83.9999974365235,2|0,1:2|0:2,0:2:0:0:
233,59,35967,1,2,1:2:0:0:
303,167,36205,1,8,0:2:0:0:
265,260,36443,1,4,0:3:0:0:
320,82,36681,6,0,P|377:122|381:184,1,125.999996154785,0|0,1:2|0:2,0:2:0:0:
383,174,37157,1,0,0:2:0:0:
219,177,37395,2,0,L|318:165,1,83.9999974365235,2|8,1:2|0:3,0:2:0:0:
180,74,37871,1,4,0:3:0:0:
110,182,38109,1,8,0:2:0:0:
147,270,38347,1,4,0:3:0:0:
92,98,38586,6,0,P|29:141|32:206,1,125.999996154785,2|0,1:2|0:2,0:2:0:0:
24,185,39062,1,0,0:2:0:0:
147,270,39300,2,0,B|285:260,1,125.999996154785,2|0,1:2|0:2,0:2:0:0:
272,260,39776,1,8,0:3:0:0:
360,360,40014,1,8,0:2:0:0:
409,220,40252,1,4,0:3:0:0:
270,350,40490,6,0,P|202:317|182:248,1,125.999996154785,0|0,1:2|0:2,0:2:0:0:
182,273,40967,1,2,1:2:0:0:
168,136,41205,1,0,1:2:0:0:
279,258,41443,1,8,0:2:0:0:
303,130,41681,1,8,0:3:0:0:
303,130,41800,1,8,0:3:0:0:
303,130,41919,1,8,0:3:0:0:
197,218,42157,1,4,1:3:0:0:
257,54,42395,6,0,P|315:44|374:79,1,125.999996154785,2|0,1:2|0:2,0:2:0:0:
371,75,42871,1,2,0:2:0:0:
219,133,43110,2,0,L|322:129,1,83.9999974365235,2|2,1:2|0:2,0:2:0:0:
412,212,43586,1,0,1:2:0:0:
291,258,43824,1,8,0:2:0:0:
302,129,44062,1,0,1:2:0:0:
372,296,44300,6,0,P|334:337|247:332,1,125.999996154785,0|0,1:2|0:2,0:2:0:0:
267,342,44776,1,0,1:2:0:0:
277,175,45014,2,0,L|294:276,1,83.9999974365235,2|0,1:2|0:2,0:2:0:0:
176,343,45490,1,2,1:2:0:0:
162,197,45729,1,10,0:2:0:0:
213,267,45967,1,2,1:2:0:0:
67,217,46205,6,0,P|68:168|143:107,1,125.999996154785,0|0,1:2|0:2,0:2:0:0:
117,113,46681,1,0,1:2:0:0:
277,189,46919,2,0,P|234:212|143:178,1,125.999996154785,8|0,1:2|0:2,0:2:0:0:
161,196,47395,1,0,1:2:0:0:
275,82,47633,1,8,0:2:0:0:
364,214,47871,1,2,1:2:0:0:
210,134,48110,6,0,P|192:64|236:15,1,125.999996154785,2|0,1:2|0:2,0:2:0:0:
220,23,48586,1,2,1:2:0:0:
119,126,48824,2,0,P|64:145|22:136,1,83.9999974365235,2|0,1:2|0:2,0:2:0:0:
168,207,49300,1,2,1:2:0:0:
60,67,49538,1,8,0:2:0:0:
12,221,49776,1,2,1:2:0:0:
202,129,50014,5,0,1:2:0:0:
60,67,50252,1,8,1:3:0:0:
102,229,50490,1,4,0:3:0:0:
156,58,50729,2,0,P|218:46|275:92,1,125.999996154785,0|0,1:2|0:2,0:2:0:0:
267,79,51205,1,0,1:2:0:0:
301,244,51443,1,8,1:2:0:0:
202,129,51681,1,0,1:2:0:0:
366,327,51919,5,8,0:2:0:0:
149,62,52395,1,8,0:2:0:0:
90,131,52633,5,2,0:2:0:0:
90,131,52871,2,0,P|132:152|161:156,1,60,2|0,0:2|0:2,0:2:0:0:
230,112,53348,2,0,P|269:112|301:121,1,60,2|0,0:2|0:2,0:2:0:0:
260,306,53824,6,0,L|256:192,1,107.999996704102,6|0,1:2|1:2,0:2:0:0:
149,73,54300,1,8,0:2:0:0:
115,226,54538,1,0,0:2:0:0:
115,226,54657,1,8,0:2:0:0:
115,226,54776,1,0,1:2:0:0:
202,136,55014,1,0,1:2:0:0:
38,186,55252,2,0,P|31:248|65:292,1,107.999996704102,8|2,0:2|0:2,0:2:0:0:
320,212,55729,6,0,B|201:187|201:187|92:235,1,215.999993408203,2|10,1:2|0:2,0:2:0:0:
10,361,56443,1,2,0:2:0:0:
10,361,56562,1,8,0:2:0:0:
10,361,56681,1,0,1:2:0:0:
138,331,56919,1,2,1:2:0:0:
33,239,57157,2,0,P|50:175|93:151,1,107.999996704102,8|2,0:2|0:2,0:2:0:0:
320,238,57633,6,0,B|201:263|201:263|92:215,1,215.999993408203,2|8,1:2|0:2,0:2:0:0:
32,87,58348,1,0,0:2:0:0:
32,87,58467,1,8,0:2:0:0:
32,87,58586,1,0,1:2:0:0:
167,107,58824,1,0,1:2:0:0:
35,215,59062,1,10,0:2:0:0:
32,87,59300,1,2,0:2:0:0:
223,174,59538,6,0,B|161:211|101:167,1,107.999996704102,2|0,1:2|1:2,0:2:0:0:
258,274,60014,1,10,0:2:0:0:
312,152,60252,1,2,0:2:0:0:
312,152,60371,1,8,0:2:0:0:
312,152,60490,1,0,1:2:0:0:
163,104,60729,1,2,1:2:0:0:
265,243,60967,1,8,0:2:0:0:
337,62,61205,5,2,0:2:0:0:
337,62,61324,1,0,0:2:0:0:
337,62,61443,2,0,P|390:105|377:215,1,161.999995056153,2|0,1:2|0:2,0:2:0:0:
391,193,61919,1,10,0:2:0:0:
473,90,62157,1,2,0:2:0:0:
473,90,62276,1,8,0:2:0:0:
473,90,62395,1,0,1:2:0:0:
313,149,62633,1,0,1:2:0:0:
388,288,62871,1,10,0:2:0:0:
391,193,63110,1,2,0:2:0:0:
265,279,63348,6,0,L|96:273,1,161.999995056153,2|0,1:2|0:2,0:2:0:0:
103,273,63824,1,10,0:2:0:0:
10,176,64062,1,2,0:2:0:0:
10,176,64181,1,8,0:2:0:0:
10,176,64300,1,0,1:2:0:0:
169,157,64538,1,0,1:2:0:0:
17,272,64776,1,8,0:2:0:0:
100,98,65014,5,2,0:2:0:0:
100,98,65252,2,0,P|175:71|256:155,1,161.999995056153,2|0,1:2|0:2,0:2:0:0:
240,110,65729,1,10,0:2:0:0:
209,239,65967,1,2,0:2:0:0:
209,239,66086,1,8,0:2:0:0:
209,239,66205,1,0,1:2:0:0:
100,98,66443,1,0,1:2:0:0:
325,122,66681,1,10,0:2:0:0:
52,177,66919,6,0,P|8:92|132:21,1,215.999993408203,6|2,1:2|1:2,0:2:0:0:
127,233,67633,2,0,P|69:267|13:264,1,107.999996704102,10|2,0:2|1:2,0:2:0:0:
100,98,68110,1,0,1:2:0:0:
233,254,68348,1,8,0:3:0:0:
233,227,68462,1,8,0:3:0:0:
234,200,68577,1,8,0:3:0:0:
234,173,68691,1,8,0:3:0:0:
235,146,68806,2,0,L|237:88,1,53.9999983520508,4|0,0:3|0:3,0:3:0:0:
318,307,69035,6,0,P|213:350|126:262,1,215.999993408203,6|8,1:2|0:2,0:2:0:0:
98,170,69777,1,0,0:2:0:0:
98,170,69896,1,8,0:2:0:0:
98,170,70015,1,0,1:2:0:0:
233,254,70253,1,0,1:2:0:0:
45,249,70491,1,8,0:2:0:0:
231,163,70729,5,2,0:2:0:0:
231,163,70967,2,0,P|284:181|320:252,1,107.999996704102,2|0,1:2|1:2,0:2:0:0:
236,334,71443,1,10,0:2:0:0:
146,198,71681,1,2,0:2:0:0:
146,198,71800,1,8,0:2:0:0:
146,198,71919,1,0,1:2:0:0:
86,352,72157,1,2,1:2:0:0:
220,264,72395,1,8,0:2:0:0:
81,255,72633,1,2,0:2:0:0:
285,331,72871,6,0,P|308:280|210:171,1,215.999993408203,2|8,1:2|0:2,0:2:0:0:
88,262,73586,1,0,0:2:0:0:
88,262,73705,1,8,0:2:0:0:
88,262,73824,1,0,1:2:0:0:
224,354,74062,1,0,1:2:0:0:
114,180,74300,2,0,P|45:180|11:212,1,107.999996704102,8|2,0:2|0:2,0:2:0:0:
182,253,74776,6,0,P|208:195|185:112,1,107.999996704102,2|0,1:2|1:2,0:2:0:0:
284,304,75252,1,10,0:2:0:0:
339,185,75490,1,2,0:2:0:0:
339,185,75610,1,8,0:2:0:0:
339,185,75729,1,0,1:2:0:0:
182,253,75967,1,2,1:2:0:0:
366,275,76205,1,8,0:2:0:0:
320,96,76443,5,2,0:2:0:0:
320,96,76562,1,0,0:2:0:0:
320,96,76681,2,0,L|153:92,1,161.999995056153,2|0,1:2|0:2,0:2:0:0:
158,92,77157,1,8,0:2:0:0:
46,19,77395,1,2,0:2:0:0:
46,19,77514,1,8,0:2:0:0:
46,19,77633,1,2,1:2:0:0:
209,0,77871,1,0,1:2:0:0:
81,153,78110,1,10,0:2:0:0:
46,19,78348,1,2,0:2:0:0:
10,211,78586,6,0,P|65:241|157:205,1,161.999995056153,2|0,1:2|0:2,0:2:0:0:
153,209,79062,1,10,0:2:0:0:
83,326,79300,1,2,0:2:0:0:
83,326,79419,1,8,0:2:0:0:
83,326,79538,1,0,1:2:0:0:
81,153,79776,1,0,1:2:0:0:
186,329,80014,1,8,0:2:0:0:
280,173,80252,5,2,0:2:0:0:
280,173,80490,2,0,B|243:273|324:294|264:409,1,215.999993408203,2|8,1:2|0:2,0:2:0:0:
355,230,81205,1,2,0:2:0:0:
355,230,81324,1,8,0:2:0:0:
355,230,81443,1,2,1:2:0:0:
198,332,81681,1,0,1:2:0:0:
390,329,81919,1,10,0:2:0:0:
168,249,82157,6,0,P|122:287|146:407,1,161.999995056153,6|0,1:2|0:2,0:2:0:0:
123,383,82633,1,2,1:2:0:0:
45,212,82871,1,10,0:2:0:0:
245,201,83110,1,0,0:2:0:0:
245,201,83229,1,8,0:2:0:0:
245,201,83348,1,0,1:2:0:0:
89,314,83586,1,0,0:2:0:0:
89,314,83705,1,8,0:2:0:0:
89,314,83824,1,10,0:2:0:0:
203,305,84062,1,0,1:2:0:0:
146,237,84300,6,0,P|210:218|269:247,1,125.999996154785,6|0,1:2|0:2,0:2:0:0:
262,240,84776,1,8,0:2:0:0:
341,358,85014,2,0,L|336:243,1,83.9999974365235,2|0,1:2|0:2,0:2:0:0:
264,355,85490,1,2,1:2:0:0:
414,265,85729,6,0,P|455:230|361:231,1,209.999993591309,6|0,1:2|0:2,0:2:0:0:
361,201,86443,2,0,P|285:233|182:200,1,167.999994873047,8|8,0:2|0:2,0:2:0:0:
177,143,87157,2,0,P|133:178|124:214,1,83.9999974365235,8|8,0:2|0:2,0:2:0:0:
124,202,87514,1,8,0:2:0:0:
124,202,87633,1,8,0:2:0:0:
159,279,87871,1,10,0:2:0:0:
245,89,88110,5,2,1:2:0:0:
257,181,88348,1,0,1:2:0:0:
329,121,88586,1,10,0:2:0:0:
173,157,88824,2,0,P|177:225|249:272,1,125.999996154785,2|0,1:2|0:2,0:2:0:0:
216,263,89300,1,2,1:2:0:0:
111,89,89538,1,6,1:2:0:0:
256,192,89657,12,0,91919,0:2:0:0:
444,326,100014,5,2,0:2:0:0:
444,326,100252,2,0,L|378:331,1,48,2|2,0:2|0:2,0:2:0:0:
314,291,100729,2,0,L|248:286,2,48,2|2|2,0:2|0:2|0:2,0:2:0:0:
396,244,101443,5,2,0:2:0:0:
396,244,101681,2,0,L|465:239,1,48,2|0,0:2|0:2,0:2:0:0:
501,177,102157,2,0,P|502:153|498:127,1,48,2|0,0:2|0:2,0:2:0:0:
433,68,102633,1,2,0:2:0:0:
433,68,102871,2,0,P|395:63|378:66,1,48,2|2,0:2|0:2,0:2:0:0:
404,146,103348,5,0,0:2:0:0:
324,127,103586,2,0,L|269:131,1,48,2|0,0:2|0:2,0:2:0:0:
207,90,104062,2,0,P|195:134|210:181,1,96,0|0,0:2|0:2,0:2:0:0:
288,213,104776,1,0,0:2:0:0:
221,267,105014,5,2,0:2:0:0:
221,267,105252,2,0,L|111:274,1,96,2|2,0:2|0:2,0:2:0:0:
56,218,105967,2,0,P|48:186|50:168,1,48,2|0,0:2|0:2,0:2:0:0:
127,133,106443,2,0,P|135:165|133:183,1,48,2|0,0:2|0:2,0:2:0:0:
197,58,107157,6,0,B|266:74|266:74|321:52|321:52|402:67,1,192,2|0,0:2|0:2,0:2:0:0:
437,133,108348,1,2,0:2:0:0:
349,159,108586,1,2,0:2:0:0:
427,217,108824,2,0,P|482:206|511:166,1,96,2|0,0:2|0:2,0:2:0:0:
483,306,109776,5,2,0:2:0:0:
483,306,110014,2,0,L|423:313,1,48,2|0,0:2|0:2,0:2:0:0:
379,378,110490,2,0,L|319:371,1,48,2|0,0:2|0:2,0:2:0:0:
256,192,110967,12,0,114776,0:2:0:0:
424,25,115490,5,2,0:2:0:0:
424,25,115729,2,0,L|362:33,1,48,2|0,0:2|0:2,0:2:0:0:
316,90,116205,2,0,L|254:82,1,48,2|0,0:2|0:2,0:2:0:0:
175,117,116681,6,0,P|86:147|205:192,1,300,2|0,0:2|0:2,0:2:0:0:
204,207,118348,5,2,0:2:0:0:
204,207,118586,2,0,L|332:211,1,120,2|2,0:2|0:2,0:2:0:0:
411,244,119300,2,0,P|420:288|419:306,1,60,2|0,0:2|0:2,0:2:0:0:
347,367,119776,2,0,L|286:360,1,60,2|0,0:2|0:2,0:2:0:0:
222,301,120252,1,2,0:2:0:0:
222,301,120490,2,0,B|96:316|96:316|30:280,1,180,2|0,0:2|0:2,0:2:0:0:
71,151,121919,6,0,L|135:156,1,60,2|0,0:2|0:2,0:2:0:0:
130,155,122395,2,0,P|180:143|245:162,1,120,2|2,0:2|0:2,0:2:0:0:
314,233,123110,2,0,P|354:235|378:229,1,60,2|0,0:2|0:2,0:2:0:0:
439,159,123586,2,0,P|448:124|444:94,1,60,2|0,0:2|0:2,0:2:0:0:
368,39,124062,5,2,0:2:0:0:
368,39,124300,2,0,L|285:42,1,83.9999974365235,0|2,1:2|0:2,0:2:0:0:
204,8,124776,2,0,P|196:60|214:93,1,83.9999974365235,0|2,1:2|0:2,0:2:0:0:
283,127,125252,2,0,P|249:166|208:175,1,83.9999974365235,0|0,1:2|0:2,0:2:0:0:
138,145,125728,1,2,1:2:0:0:
154,261,125967,5,2,0:2:0:0:
154,261,126205,2,0,L|256:267,1,83.9999974365235,0|2,1:2|0:2,0:2:0:0:
295,333,126681,2,0,L|397:327,1,83.9999974365235,2|2,1:2|0:2,0:2:0:0:
437,250,127157,2,0,P|445:206|437:163,1,83.9999974365235,0|0,1:2|0:2,0:2:0:0:
375,99,127633,1,0,1:2:0:0:
349,214,127871,5,2,0:2:0:0:
349,214,128110,2,0,P|296:218|250:208,1,83.9999974365235,2|0,1:2|0:2,0:2:0:0:
232,292,128586,1,2,1:2:0:0:
151,309,128824,2,0,P|150:267|174:233,1,83.9999974365235,2|2,0:2|1:2,0:2:0:0:
265,212,129300,1,0,0:2:0:0:
197,150,129538,1,2,1:2:0:0:
391,294,129776,6,0,B|427:234|427:234|418:103,1,161.999995056153,6|0,1:2|0:2,0:2:0:0:
420,142,130252,1,2,1:2:0:0:
297,324,130490,1,2,1:2:0:0:
486,302,130729,1,8,0:3:0:0:
486,302,130830,1,8,0:3:0:0:
486,302,130932,1,4,0:3:0:0:
318,213,131181,1,4,0:3:0:0:
297,178,131303,1,8,0:3:0:0:
292,138,131426,1,8,0:3:0:0:
304,100,131549,1,4,0:3:0:0:
330,70,131672,2,0,L|410:50,1,53.9999983520508,4|4,0:3|0:3,0:3:0:0:
318,213,131904,6,0,P|213:262|122:182,1,215.999993408203,6|8,1:2|0:2,0:2:0:0:
84,76,132633,1,0,0:2:0:0:
84,76,132752,1,8,0:2:0:0:
84,76,132871,1,0,1:2:0:0:
230,171,133110,1,0,1:2:0:0:
84,276,133348,1,8,0:2:0:0:
188,72,133586,5,2,0:2:0:0:
188,72,133823,2,0,P|243:61|299:90,1,107.999996704102,2|0,1:2|1:2,0:2:0:0:
378,199,134299,1,10,0:2:0:0:
239,159,134537,1,2,0:2:0:0:
239,159,134656,1,8,0:2:0:0:
239,159,134775,1,0,1:2:0:0:
404,100,135013,1,2,1:2:0:0:
279,237,135251,1,8,0:2:0:0:
319,104,135489,1,2,0:2:0:0:
368,264,135727,6,0,P|286:326|196:277,1,215.999993408203,2|8,1:2|0:2,0:2:0:0:
140,166,136442,1,0,0:2:0:0:
140,166,136561,1,8,0:2:0:0:
140,166,136680,1,0,1:2:0:0:
282,240,136917,1,0,1:2:0:0:
136,348,137155,1,10,0:2:0:0:
140,184,137393,1,2,0:2:0:0:
270,326,137631,6,0,P|318:319|357:276,1,107.999996704102,2|0,1:2|1:2,0:2:0:0:
368,137,138108,1,10,0:2:0:0:
282,240,138346,1,2,0:2:0:0:
282,240,138465,1,8,0:2:0:0:
282,240,138584,1,0,1:2:0:0:
444,191,138822,1,2,1:2:0:0:
244,153,139060,1,8,0:2:0:0:
365,221,139298,1,2,0:2:0:0:
291,84,139536,6,0,P|198:83|158:149,1,161.999995056153,2|0,1:2|0:2,0:2:0:0:
160,133,140012,1,8,0:2:0:0:
123,247,140250,1,2,0:2:0:0:
123,247,140369,1,8,0:2:0:0:
123,247,140488,1,2,1:2:0:0:
282,240,140727,1,0,1:2:0:0:
88,162,140965,1,10,0:2:0:0:
201,279,141203,5,2,0:2:0:0:
201,279,141322,1,0,0:2:0:0:
201,279,141441,2,0,P|275:328|349:296,1,161.999995056153,0|0,1:2|0:2,0:2:0:0:
338,306,141917,1,10,0:2:0:0:
408,176,142155,1,2,0:2:0:0:
408,176,142274,1,8,0:2:0:0:
408,176,142393,1,0,1:2:0:0:
282,240,142631,1,0,1:2:0:0:
443,342,142869,1,8,0:2:0:0:
408,176,143108,1,2,0:2:0:0:
282,334,143346,6,0,P|225:316|217:172,1,215.999993408203,6|8,1:2|0:2,0:2:0:0:
364,275,144060,2,0,P|383:333|368:386,1,107.999996704102,0|2,1:2|1:2,0:2:0:0:
281,244,144536,1,0,0:2:0:0:
281,244,144655,1,8,0:2:0:0:
281,244,144774,1,10,0:2:0:0:
465,350,145012,6,0,B|462:262|462:262|481:210|481:210|476:119,1,215.999993408203,6|2,1:2|1:2,0:2:0:0:
367,21,145727,1,8,0:2:0:0:
342,188,145965,2,0,L|346:253,1,53.9999983520508,0|8,1:2|0:2,0:2:0:0:
265,96,146203,1,8,0:3:0:0:
265,96,146322,1,8,0:3:0:0:
265,96,146441,2,4,L|270:28,1,53.9999983520508,4|4,0:3|0:3,0:3:0:0:
216,203,146679,1,8,0:3:0:0:
216,203,146798,1,8,0:3:0:0:
216,203,146917,2,4,L|222:265,1,53.9999983520508,4|4,0:3|0:3,0:3:0:0:
381,89,147155,6,0,P|429:109|456:213,1,161.999995056153,6|0,1:2|0:2,0:2:0:0:
457,207,147631,1,8,0:2:0:0:
216,203,147869,2,0,L|382:179,1,161.999995056153,2|0,1:2|0:2,0:2:0:0:
376,179,148346,1,10,0:2:0:0:
208,123,148584,6,0,P|150:154|147:243,1,143.999995605469,6|8,1:2|0:2,0:2:0:0:
238,318,149298,1,0,0:2:0:0:
238,318,149417,1,8,0:2:0:0:
238,318,149536,1,8,0:2:0:0:
296,225,149774,2,0,L|303:169,1,35.9999989013672,8|8,0:3|0:3,0:3:0:0:
347,315,150012,2,0,L|354:371,1,35.9999989013672,4|4,0:3|0:3,0:3:0:0:
398,225,150250,2,0,L|405:169,1,35.9999989013672,8|8,0:3|0:3,0:3:0:0:
449,315,150488,2,0,L|456:371,1,35.9999989013672,4|4,0:3|0:3,0:3:0:0:
503,235,150727,1,8,0:3:0:0:
287,312,150965,6,0,L|473:315,1,161.999995056153,6|0,1:2|0:2,0:2:0:0:
448,314,151441,1,10,0:2:0:0:
284,217,151679,2,0,P|244:226|216:249,1,53.9999983520508,2|0,1:2|1:2,0:2:0:0:
179,292,151917,1,8,0:2:0:0:
320,370,152155,1,2,1:2:0:0:
367,224,152393,1,6,1:2:0:0:
256,192,152512,12,0,158584,0:2:0:0:
