osu file format v14

[General]
AudioFilename: audio.mp3
AudioLeadIn: 0
PreviewTime: 47590
Countdown: 0
SampleSet: Soft
StackLeniency: 0.6
Mode: 0
LetterboxInBreaks: 0
WidescreenStoryboard: 0

[Editor]
DistanceSpacing: 1
BeatDivisor: 4
GridSize: 32
TimelineZoom: 1

[Metadata]
Title:Haru ka Tooku
TitleUnicode:ハルカトオク
Artist:saya
ArtistUnicode:saya
Creator:handsome
Version:Normal
Source:宇宙よりも遠い場所
Tags:sora yori mo tooi basho a place further than the universe antartica the girls are alright expedition anime insert song
BeatmapID:1653506
BeatmapSetID:787828

[Difficulty]
HPDrainRate:3
CircleSize:3.5
OverallDifficulty:4
ApproachRate:5
SliderMultiplier:0.999999999999999
SliderTickRate:1

[Events]
//Background and Video events
0,0,"sorayori.jpg",0,0
//Break Periods
2,43964,47365
2,94165,102565
//Storyboard Layer 0 (Background)
//Storyboard Layer 1 (Fail)
//Storyboard Layer 2 (Pass)
//Storyboard Layer 3 (Foreground)
//Storyboard Sound Samples

[TimingPoints]
565,300,4,2,0,30,1,0
565,-125,4,2,0,30,0,0
5365,-125,4,2,0,40,0,0
24565,-100,4,2,0,60,0,0
48565,-100,4,2,0,90,0,1
67765,-100,4,2,0,80,0,1
86965,-125,4,2,0,50,0,0
103765,-100,4,2,0,50,0,0
109765,-100,4,2,0,60,0,0
110965,-100,4,2,0,60,0,0
111265,-100,4,2,0,65,0,0
111565,-100,4,2,0,70,0,0
111865,-100,4,2,0,75,0,0
112165,-100,4,2,0,80,0,0
113365,-100,4,2,0,90,0,1
132565,-100,4,2,0,90,0,0

[Colours]
Combo1 : 17,254,176
Combo2 : 173,255,95
Combo3 : 255,88,100
Combo4 : 255,94,55

[HitObjects]
145,27,565,6,0,P|147:70|145:116,1,79.9999999999999,6|0,0:0|0:0,0:0:0:0:
119,136,1015,2,0,P|117:179|119:225,1,79.9999999999999,2|0,0:0|0:0,0:0:0:0:
167,286,1615,1,0,0:0:0:0:
167,286,1765,6,0,L|252:280,1,79.9999999999999,6|0,0:0|0:0,0:0:0:0:
282,298,2215,2,0,L|367:292,1,79.9999999999999,2|2,0:0|0:0,0:0:0:0:
446,306,2815,1,2,0:0:0:0:
446,306,2965,6,0,P|448:262|442:211,1,79.9999999999999,6|0,0:0|0:0,0:0:0:0:
434,187,3415,1,2,0:0:0:0:
356,209,3715,1,0,0:0:0:0:
289,167,4015,1,0,0:0:0:0:
289,167,4165,6,0,P|237:168|204:174,2,79.9999999999999,2|2|2,0:0|0:0|0:0,0:0:0:0:
293,206,4915,1,2,0:0:0:0:
305,300,5215,1,2,0:0:0:0:
305,300,5365,6,0,L|219:307,1,79.9999999999999,6|2,0:0|0:0,0:0:0:0:
152,369,5965,2,0,B|99:361|99:361|31:379,1,120,2|2,0:0|0:0,0:0:0:0:
23,331,6565,2,0,L|19:242,1,79.9999999999999,2|2,0:0|0:0,0:0:0:0:
64,235,7015,2,0,L|69:153,1,79.9999999999999,2|0,0:0|0:0,0:0:0:0:
38,117,7465,1,2,0:0:0:0:
63,24,7765,5,2,0:0:0:0:
256,192,7915,12,2,8965,0:0:0:0:
254,98,10165,6,0,P|312:93|351:92,1,79.9999999999999,4|2,0:0|0:0,0:0:0:0:
406,29,10765,2,0,P|463:47|497:107,1,120,2|2,0:0|0:0,0:0:0:0:
472,138,11365,2,0,P|477:187|477:230,1,79.9999999999999,2|2,0:0|0:0,0:0:0:0:
430,226,11815,2,0,L|345:224,1,79.9999999999999,2|0,0:0|0:0,0:0:0:0:
306,202,12265,1,2,0:0:0:0:
307,297,12565,5,2,0:0:0:0:
256,192,12715,12,2,13765,0:0:0:0:
112,354,14965,6,0,P|156:348|206:349,1,79.9999999999999,4|2,0:0|0:0,0:0:0:0:
283,376,15565,2,0,B|293:303|268:338|281:249,1,120,2|2,0:0|0:0,0:0:0:0:
327,252,16165,2,0,L|416:244,1,79.9999999999999,2|2,0:0|0:0,0:0:0:0:
454,238,16615,2,0,B|461:197|461:197|444:148,1,79.9999999999999,2|0,0:0|0:0,0:0:0:0:
426,117,17065,1,2,0:0:0:0:
345,63,17365,6,0,P|266:68|180:65,2,160,6|6|6,0:0|0:0|0:0,0:0:0:0:
433,25,18865,1,2,0:0:0:0:
510,82,19165,2,0,P|514:125|512:166,1,79.9999999999999,2|2,0:0|0:0,0:0:0:0:
422,126,19765,6,0,P|381:145|358:254,1,160,6|0,0:0|0:0,0:0:0:0:
433,305,20665,1,0,0:0:0:0:
358,364,20965,2,0,L|260:352,1,79.9999999999999,2|0,0:0|0:0,0:0:0:0:
260,259,21565,2,0,L|162:271,1,79.9999999999999,0|2,0:0|0:0,0:0:0:0:
127,349,22165,6,0,B|143:254|143:254|107:224|107:224|121:121,1,240,2|2,0:0|0:0,0:0:0:0:
140,33,23365,1,6,0:0:0:0:
467,259,24565,6,0,P|472:208|468:154,1,99.9999999999999,4|4,0:2|1:2,0:0:0:0:
384,209,25165,2,0,P|379:158|383:104,1,99.9999999999999,0|0,0:0|1:0,0:0:0:0:
405,76,25615,1,0,0:0:0:0:
405,76,25765,2,0,L|291:73,1,99.9999999999999,4|0,0:0|1:0,0:0:0:0:
277,148,26365,2,0,L|163:151,1,99.9999999999999,0|0,0:0|1:0,0:0:0:0:
107,112,26965,6,0,B|95:63|95:63|112:4,2,99.9999999999999,4|4|0,0:2|1:2|0:0,0:0:0:0:
59,176,27865,1,0,1:0:0:0:
112,235,28165,2,0,P|164:228|219:227,1,99.9999999999999,2|2,0:0|1:2,0:0:0:0:
286,172,28765,2,0,L|295:276,1,99.9999999999999,2|0,1:2|0:0,0:0:0:0:
372,253,29365,6,0,P|422:238|486:258,1,99.9999999999999,4|4,0:2|1:2,0:0:0:0:
471,327,29965,2,0,P|421:342|357:322,1,99.9999999999999,0|0,0:0|1:0,0:0:0:0:
345,359,30415,1,0,0:0:0:0:
345,359,30565,2,0,L|241:350,1,99.9999999999999,4|0,0:2|1:0,0:0:0:0:
237,270,31165,2,0,L|137:278,1,99.9999999999999,0|0,1:0|1:0,0:0:0:0:
57,285,31764,6,0,P|55:334|61:384,2,99.9999999999999,4|4|0,0:2|1:2|0:0,0:0:0:0:
88,211,32665,1,0,1:0:0:0:
37,144,32965,2,0,B|85:129|85:129|149:142,1,99.9999999999999,2|2,0:2|1:2,0:0:0:0:
195,189,33565,2,0,L|298:179,1,99.9999999999999,2|0,1:2|0:0,0:0:0:0:
342,114,34165,6,0,L|333:10,1,99.9999999999999,6|4,0:2|1:2,0:0:0:0:
431,16,34765,2,0,L|422:115,1,99.9999999999999,0|0,0:0|1:0,0:0:0:0:
459,129,35215,1,0,0:0:0:0:
459,129,35365,2,0,P|464:177|462:243,1,99.9999999999999,4|0,0:2|1:0,0:0:0:0:
383,218,35965,2,0,P|378:266|380:332,1,99.9999999999999,0|0,0:0|1:0,0:0:0:0:
449,355,36565,6,0,B|316:329|373:381|236:354,2,200,6|6|6,0:0|0:0|0:0,0:0:0:0:
498,292,38065,1,2,1:2:0:0:
462,220,38365,2,0,P|419:227|367:249,1,99.9999999999999,2|2,0:0|1:2,0:0:0:0:
299,292,38965,5,4,0:2:0:0:
219,285,39265,2,0,P|222:332|223:401,2,99.9999999999999,4|0|0,1:2|0:0|1:0,0:0:0:0:
140,300,40165,2,0,P|106:281|78:221,1,99.9999999999999,4|0,0:2|1:0,0:0:0:0:
53,197,40615,2,0,L|158:184,1,99.9999999999999,0|0,0:0|0:0,0:0:0:0:
168,147,41065,1,0,1:0:0:0:
247,142,41365,6,0,P|250:80|241:24,1,99.9999999999999,4|4,0:2|1:2,0:0:0:0:
331,40,41965,1,0,0:0:0:0:
331,40,42115,2,0,P|328:102|337:158,1,99.9999999999999,2|0,0:0|0:0,0:0:0:0:
371,150,42565,2,0,L|370:215,1,50,2|2,1:2|1:2,0:0:0:0:
401,282,43015,1,0,1:0:0:0:
401,282,43165,2,0,P|367:279|282:287,1,99.9999999999999,0|0,1:0|1:0,0:0:0:0:
262,271,43615,2,0,L|269:329,1,50,0|6,1:0|1:2,0:0:0:0:
56,341,48565,5,4,0:2:0:0:
8,253,48865,2,0,P|5:189|14:134,1,99.9999999999999,0|2,1:0|0:0,0:0:0:0:
35,123,49315,2,0,L|32:63,1,50,2|0,0:0|1:0,0:0:0:0:
128,160,49765,1,4,0:2:0:0:
203,95,50065,2,0,P|262:109|293:148,1,99.9999999999999,0|2,1:0|0:0,0:0:0:0:
292,176,50515,2,0,L|292:232,1,50,2|0,0:0|1:0,0:0:0:0:
392,186,50965,6,0,P|392:238|401:287,1,99.9999999999999,4|0,0:2|1:0,0:0:0:0:
408,334,51415,2,0,P|358:333|308:342,1,99.9999999999999,4|0,0:2|1:0,0:0:0:0:
267,371,51865,1,4,0:2:0:0:
258,271,52165,2,0,L|144:264,1,99.9999999999999,4|2,0:2|1:2,0:0:0:0:
108,268,52615,1,2,0:0:0:0:
108,268,52765,2,0,L|116:318,2,50,2|2|2,1:2|0:0|1:2,0:0:0:0:
70,175,53365,5,4,0:2:0:0:
170,182,53665,2,0,P|225:185|281:197,1,99.9999999999999,0|2,1:0|0:0,0:0:0:0:
315,175,54115,2,0,L|326:230,1,50,2|0,0:0|1:0,0:0:0:0:
410,139,54565,1,4,0:2:0:0:
383,42,54865,2,0,P|346:20|280:16,1,99.9999999999999,0|2,1:0|0:0,0:0:0:0:
247,40,55315,2,0,L|252:93,1,50,2|0,0:0|1:0,0:0:0:0:
153,18,55765,6,0,L|44:9,1,99.9999999999999,4|0,0:2|1:0,0:0:0:0:
11,37,56215,2,0,L|20:146,1,99.9999999999999,4|0,0:2|1:0,0:0:0:0:
68,129,56665,1,4,0:2:0:0:
58,228,56965,2,0,P|61:275|57:337,1,99.9999999999999,4|2,0:2|1:2,0:0:0:0:
62,377,57415,1,2,0:2:0:0:
62,377,57565,2,0,L|3:368,2,50,2|2|2,1:2|0:2|1:2,0:0:0:0:
143,318,58165,6,0,P|194:310|256:314,1,99.9999999999999,4|0,0:2|1:0,0:0:0:0:
289,295,58615,2,0,P|351:307|450:300,1,150,2|2,0:0|1:2,0:0:0:0:
491,218,59365,2,0,P|440:210|378:214,1,99.9999999999999,4|0,0:2|1:0,0:0:0:0:
345,195,59815,2,0,P|283:207|184:200,1,150,2|2,0:0|1:2,0:0:0:0:
129,128,60565,6,0,P|184:100|234:92,1,99.9999999999999,4|0,0:2|1:0,0:0:0:0:
247,49,61015,2,0,B|334:45|289:74|417:73,1,150,2|2,0:0|1:2,0:0:0:0:
481,23,61765,2,0,B|496:71|496:71|481:135,1,99.9999999999999,4|0,0:2|1:0,0:0:0:0:
504,217,62365,1,2,0:0:0:0:
409,185,62665,1,2,1:2:0:0:
321,233,62965,6,0,L|211:225,2,99.9999999999999,4|0|2,0:2|1:0|0:0,0:0:0:0:
283,140,63865,1,2,1:2:0:0:
221,54,64165,2,0,L|320:46,2,99.9999999999999,4|0|2,0:2|1:0|0:0,0:0:0:0:
127,17,65065,1,2,1:2:0:0:
53,85,65365,6,0,P|45:127|51:192,1,99.9999999999999,4|0,1:2|1:0,0:0:0:0:
148,176,65965,2,0,P|156:218|150:283,1,99.9999999999999,2|2,1:2|1:2,0:0:0:0:
231,335,66565,2,0,P|169:330|78:335,2,150,4|4|4,0:2|0:2|0:2,0:0:0:0:
305,268,67765,5,4,0:2:0:0:
404,272,68065,2,0,P|400:324|400:388,2,99.9999999999999,2|2|2,1:2|0:2|1:2,0:0:0:0:
472,199,68965,1,6,0:2:0:0:
472,199,69115,2,0,P|427:186|369:184,1,99.9999999999999,2|2,0:2|0:0,0:0:0:0:
323,184,69565,2,0,L|312:78,1,99.9999999999999,0|0,0:0|1:2,0:0:0:0:
212,85,70165,6,0,B|161:77|161:77|97:105,1,99.9999999999999,4|0,0:2|1:0,0:0:0:0:
131,195,70765,2,0,B|182:203|182:203|246:175,1,99.9999999999999,4|0,0:2|1:0,0:0:0:0:
282,266,71365,2,0,P|336:272|386:293,1,99.9999999999999,4|0,0:2|1:0,0:0:0:0:
413,324,71815,2,0,P|410:277|416:211,1,99.9999999999999,4|0,0:2|1:0,0:0:0:0:
463,217,72265,1,4,0:2:0:0:
414,129,72565,5,4,0:2:0:0:
412,29,72865,2,0,P|471:26|514:26,2,99.9999999999999,2|2|2,1:2|0:2|1:2,0:0:0:0:
333,90,73765,1,6,0:2:0:0:
333,90,73915,2,0,P|283:83|233:82,1,99.9999999999999,2|2,0:0|0:2,0:0:0:0:
185,97,74365,1,0,0:0:0:0:
107,160,74665,6,0,P|69:147|26:79,2,99.9999999999999,2|4|0,1:2|0:2|1:0,0:0:0:0:
180,228,75565,2,0,L|281:214,1,99.9999999999999,4|0,0:2|1:0,0:0:0:0:
317,181,76015,1,0,0:0:0:0:
317,181,76165,2,0,B|315:270|340:230|341:329,2,150,4|4|4,0:2|0:2|1:2,0:0:0:0:
413,208,77365,6,0,L|515:194,1,99.9999999999999,4|2,0:2|1:2,0:0:0:0:
510,94,77965,2,0,L|408:80,1,99.9999999999999,0|2,0:0|1:2,0:0:0:0:
378,42,78415,1,2,0:0:0:0:
378,42,78565,2,0,B|327:30|327:30|265:49,1,99.9999999999999,4|0,0:2|1:0,0:0:0:0:
184,17,79165,1,0,0:0:0:0:
207,114,79465,1,2,1:2:0:0:
110,141,79765,6,0,P|114:188|116:245,1,99.9999999999999,4|2,0:2|1:2,0:0:0:0:
15,242,80365,2,0,P|16:192|20:142,1,99.9999999999999,0|2,0:0|1:2,0:0:0:0:
5,94,80815,1,2,0:2:0:0:
5,94,80965,2,0,P|42:62|108:54,1,99.9999999999999,4|0,0:2|1:0,0:0:0:0:
184,87,81565,5,2,0:0:0:0:
283,74,81865,1,2,1:2:0:0:
382,61,82165,1,4,0:2:0:0:
477,236,82765,5,2,0:0:0:0:
378,223,83065,1,2,1:2:0:0:
279,210,83365,1,4,0:2:0:0:
128,341,83965,5,2,0:0:0:0:
227,328,84265,1,2,1:2:0:0:
326,314,84565,2,0,P|330:267|329:206,1,99.9999999999999,4|0,1:2|1:0,0:0:0:0:
279,210,85015,2,0,P|275:163|276:102,1,99.9999999999999,0|2,0:0|0:2,0:0:0:0:
279,60,85465,1,2,1:2:0:0:
186,21,85765,1,4,1:2:0:0:
186,21,85915,2,0,P|144:28|91:79,1,99.9999999999999,4|4,3:0|1:2,0:0:0:0:
51,50,86365,1,8,3:0:0:0:
80,145,86665,1,0,1:0:0:0:
42,234,86965,5,6,0:2:0:0:
185,304,87565,1,2,0:0:0:0:
337,256,88165,1,8,3:0:0:0:
194,186,88765,1,8,3:0:0:0:
192,26,89365,6,0,B|289:29|231:62|354:58,1,160,2|2,0:0|0:0,0:0:0:0:
425,55,90265,1,2,0:0:0:0:
496,197,90865,5,2,0:0:0:0:
416,193,91165,2,0,B|348:188|374:215|302:218,1,120,2|0,0:0|0:0,0:0:0:0:
261,217,91765,6,0,P|263:272|262:337,2,120,2|2|2,0:0|0:0|0:0,0:0:0:0:
207,44,103765,6,0,P|159:41|100:48,1,99.9999999999999,0|0,1:0|0:0,0:0:0:0:
105,126,104365,2,0,P|57:123|-2:130,1,99.9999999999999,0|0,1:0|0:0,0:0:0:0:
8,208,104965,2,0,L|16:310,1,99.9999999999999,0|0,1:0|0:0,0:0:0:0:
92,285,105565,2,0,L|100:387,1,99.9999999999999,0|0,1:0|0:0,0:0:0:0:
177,363,106165,6,0,P|220:357|283:359,1,99.9999999999999,0|0,1:0|0:0,0:0:0:0:
318,289,106765,2,0,P|291:254|261:199,1,99.9999999999999,0|0,1:0|0:0,0:0:0:0:
184,204,107365,2,0,P|167:244|134:297,1,99.9999999999999,0|0,1:0|0:0,0:0:0:0:
59,277,107965,6,0,L|61:388,2,99.9999999999999,0|0|0,1:0|0:0|1:0,0:0:0:0:
18,207,108865,1,0,0:0:0:0:
70,146,109165,2,0,B|118:159|118:159|168:147,1,99.9999999999999,0|0,1:0|0:0,0:0:0:0:
203,218,109765,6,0,B|321:215|269:166|401:171,2,200,0|0|0,1:0|1:0|1:0,0:0:0:0:
157,283,111265,1,0,1:0:0:0:
179,359,111565,1,0,1:0:0:0:
256,377,111865,1,0,1:0:0:0:
316,324,112165,1,6,1:2:0:0:
389,35,113365,5,4,0:2:0:0:
455,109,113665,2,0,B|414:131|414:131|340:119,1,99.9999999999999,0|2,1:0|0:0,0:0:0:0:
313,106,114115,2,0,L|322:163,1,50,2|0,0:0|1:0,0:0:0:0:
225,56,114565,1,4,0:2:0:0:
155,128,114865,2,0,L|42:119,1,99.9999999999999,0|2,1:0|0:0,0:0:0:0:
7,141,115315,2,0,L|-1:85,1,50,2|0,0:0|1:0,0:0:0:0:
66,223,115765,6,0,P|60:274|68:337,1,99.9999999999999,4|0,0:2|1:0,0:0:0:0:
83,368,116215,2,0,L|191:346,1,99.9999999999999,4|0,0:2|1:0,0:0:0:0:
229,335,116665,1,4,0:2:0:0:
323,368,116965,2,0,P|316:314|322:236,1,99.9999999999999,4|2,0:2|1:2,0:0:0:0:
303,220,117415,1,2,0:0:0:0:
303,220,117565,2,0,L|365:208,2,50,2|2|2,1:2|0:0|1:2,0:0:0:0:
203,236,118165,5,4,0:2:0:0:
141,156,118465,2,0,P|195:155|270:142,1,99.9999999999999,0|2,1:0|0:0,0:0:0:0:
257,101,118915,2,0,L|323:102,1,50,2|0,0:0|1:0,0:0:0:0:
304,11,119365,1,4,0:2:0:0:
397,47,119665,2,0,P|400:86|395:167,1,99.9999999999999,0|2,1:0|0:0,0:0:0:0:
367,187,120115,2,0,L|369:245,1,50,2|0,0:0|1:0,0:0:0:0:
267,199,120565,6,0,L|156:189,1,99.9999999999999,4|0,0:2|1:0,0:0:0:0:
125,217,121015,2,0,L|115:106,1,99.9999999999999,4|0,0:2|1:0,0:0:0:0:
66,117,121465,1,4,0:2:0:0:
32,22,121765,2,0,P|89:10|146:35,1,99.9999999999999,4|2,0:2|1:2,0:0:0:0:
173,42,122215,1,2,0:2:0:0:
173,42,122365,2,0,L|237:33,2,50,2|2|2,1:2|1:2|1:2,0:0:0:0:
213,133,122965,6,0,L|212:252,1,99.9999999999999,4|0,0:2|1:0,0:0:0:0:
178,270,123415,1,2,0:0:0:0:
240,348,123715,1,2,0:2:0:0:
240,348,123865,2,0,P|299:339|365:344,1,99.9999999999999,2|4,1:2|0:2,0:0:0:0:
327,240,124465,2,0,P|386:249|452:244,1,99.9999999999999,0|0,1:0|0:0,0:0:0:0:
512,299,125065,1,2,1:2:0:0:
507,199,125365,6,0,P|509:122|502:79,1,99.9999999999999,4|0,0:2|1:0,0:0:0:0:
477,57,125815,2,0,L|368:60,1,99.9999999999999,2|2,0:0|0:2,0:0:0:0:
385,108,126265,2,0,L|276:105,1,99.9999999999999,2|4,1:2|0:2,0:0:0:0:
218,30,126865,1,0,1:0:0:0:
134,84,127165,6,0,P|82:70|41:6,2,99.9999999999999,2|2|4,0:0|1:2|0:2,0:0:0:0:
223,129,128065,2,0,L|233:233,1,99.9999999999999,0|2,1:0|0:0,0:0:0:0:
288,311,128665,1,2,1:2:0:0:
200,359,128965,6,0,P|160:343|94:333,1,99.9999999999999,4|0,0:2|1:0,0:0:0:0:
27,258,129565,2,0,P|76:250|122:232,1,99.9999999999999,2|2,0:0|1:2,0:0:0:0:
52,160,130165,2,0,L|57:41,1,99.9999999999999,4|0,1:2|1:0,0:0:0:0:
64,12,130615,1,0,0:0:0:0:
64,12,130765,2,0,L|-18:21,2,50,2|2|2,1:2|0:0|1:2,0:0:0:0:
149,64,131365,6,0,P|208:48|272:65,1,99.9999999999999,4|0,0:2|1:0,0:0:0:0:
288,26,131815,2,0,L|307:126,1,99.9999999999999,4|2,0:2|1:2,0:0:0:0:
354,137,132265,2,0,L|353:214,1,50,2|2,1:2|1:2,0:0:0:0:
353,236,132565,1,6,1:2:0:0:
