osu file format v14

[General]
AudioFilename: audio.mp3
AudioLeadIn: 0
PreviewTime: 47590
Countdown: 0
SampleSet: Soft
StackLeniency: 0.6
Mode: 0
LetterboxInBreaks: 0
WidescreenStoryboard: 0

[Editor]
DistanceSpacing: 1
BeatDivisor: 4
GridSize: 16
TimelineZoom: 1

[Metadata]
Title:Haru ka Tooku
TitleUnicode:ハルカトオク
Artist:saya
ArtistUnicode:saya
Creator:handsome
Version:Insane
Source:宇宙よりも遠い場所
Tags:sora yori mo tooi basho a place further than the universe antartica the girls are alright expedition anime insert song
BeatmapID:1653505
BeatmapSetID:787828

[Difficulty]
HPDrainRate:6
CircleSize:4
OverallDifficulty:8
ApproachRate:8.5
SliderMultiplier:1.8
SliderTickRate:1

[Events]
//Background and Video events
0,0,"sorayori.jpg",0,0
//Break Periods
2,43965,47365
2,94165,102490
//Storyboard Layer 0 (Background)
//Storyboard Layer 1 (Fail)
//Storyboard Layer 2 (Pass)
//Storyboard Layer 3 (Foreground)
//Storyboard Sound Samples

[TimingPoints]
565,300,4,2,0,30,1,0
565,-250.000000000001,4,2,0,30,0,0
5365,-166.666666666667,4,2,0,40,0,0
7690,-166.666666666667,4,2,0,10,0,0
7765,-166.666666666667,4,2,0,40,0,0
12490,-166.666666666667,4,2,0,10,0,0
12565,-166.666666666667,4,2,0,40,0,0
17290,-166.666666666667,4,2,0,10,0,0
17365,-166.666666666667,4,2,0,40,0,0
24565,-125,4,2,0,60,0,0
27190,-125,4,2,0,10,0,0
27265,-125,4,2,0,60,0,0
39190,-125,4,2,0,10,0,0
39265,-125,4,2,0,60,0,0
41590,-125,4,2,0,10,0,0
41665,-125,4,2,0,60,0,0
48565,-100,4,2,0,90,0,1
67765,-100,4,2,0,80,0,1
86965,-250,4,2,0,50,0,0
91540,-250,4,2,0,30,0,0
91765,-250,4,2,0,50,0,0
103765,-166.666666666667,4,2,0,50,0,0
109765,-125,4,2,0,60,0,0
110965,-125,4,2,0,60,0,0
111265,-125,4,2,0,65,0,0
111565,-125,4,2,0,70,0,0
111865,-125,4,2,0,75,0,0
112165,-125,4,2,0,80,0,0
113365,-100,4,2,0,90,0,1
132565,-100,4,2,0,90,0,0

[Colours]
Combo1 : 17,254,176
Combo2 : 173,255,95
Combo3 : 255,88,100
Combo4 : 255,94,55

[HitObjects]
0,78,565,6,0,P|39:72|82:73,1,72,6|0,0:0|0:0,0:0:0:0:
139,47,1015,2,0,P|178:53|221:52,1,72,2|0,0:0|0:0,0:0:0:0:
278,74,1465,2,0,L|327:68,1,36,2|0,0:0|0:0,0:0:0:0:
410,49,1765,6,0,P|406:88|408:127,1,72,6|0,0:0|0:0,0:0:0:0:
448,183,2215,1,2,0:0:0:0:
425,271,2515,1,2,0:0:0:0:
468,361,2815,1,2,0:0:0:0:
468,361,2965,6,0,L|381:355,1,72,6|0,0:0|0:0,0:0:0:0:
323,372,3415,2,0,P|318:337|323:286,1,72,2|0,0:0|0:0,0:0:0:0:
359,237,3865,1,2,0:0:0:0:
285,158,4165,5,2,0:0:0:0:
215,144,4315,1,2,0:0:0:0:
292,146,4465,1,2,0:0:0:0:
343,21,4765,5,2,0:0:0:0:
343,21,4915,2,0,L|346:62,1,36,2|0,0:0|0:0,0:0:0:0:
399,107,5215,2,0,L|396:148,1,36,2|6,0:0|0:0,0:0:0:0:
0,328,5665,5,2,0:0:0:0:
0,328,5965,2,0,P|71:331|131:340,1,107.999996704102,2|0,0:0|0:0,0:0:0:0:
174,368,6415,1,2,0:0:0:0:
228,315,6565,1,2,0:0:0:0:
300,293,6715,1,2,0:0:0:0:
373,309,6865,1,2,0:0:0:0:
373,309,7015,2,0,L|377:370,1,53.9999983520508,2|0,0:0|0:0,0:0:0:0:
472,154,7465,2,0,P|473:114|479:73,1,80.9999975280763,2|0,0:0|0:0,0:0:0:0:
479,74,7765,6,0,L|352:87,1,107.999996704102,2|0,0:0|0:0,0:0:0:0:
315,37,8215,2,0,P|320:79|321:156,1,107.999996704102,2|0,0:0|0:0,0:0:0:0:
318,218,8665,2,0,L|316:279,1,53.9999983520508,2|0,0:0|0:0,0:0:0:0:
244,361,8965,5,2,0:0:0:0:
331,343,9115,1,2,0:0:0:0:
233,345,9265,1,2,0:0:0:0:
81,372,9565,5,2,0:0:0:0:
81,372,9715,2,0,P|51:369|22:370,1,53.9999983520508,2|0,0:0|0:0,0:0:0:0:
167,301,10015,2,0,P|137:304|108:303,1,53.9999983520508,2|4,0:0|0:0,0:0:0:0:
12,97,10465,5,2,0:0:0:0:
12,97,10765,2,0,P|38:54|102:29,1,107.999996704102,2|0,0:0|0:0,0:0:0:0:
162,11,11215,1,2,0:0:0:0:
235,30,11365,1,2,0:0:0:0:
292,79,11515,1,2,0:0:0:0:
367,86,11665,1,2,0:0:0:0:
367,86,11815,2,0,L|428:78,1,53.9999983520508,2|0,0:0|0:0,0:0:0:0:
418,384,12265,2,0,P|413:343|413:303,1,80.9999975280763,2|0,0:0|0:0,0:0:0:0:
412,303,12565,6,0,P|415:232|413:185,1,107.999996704102,2|0,0:0|0:0,0:0:0:0:
343,224,13015,2,0,L|230:233,1,107.999996704102,2|0,0:0|0:0,0:0:0:0:
244,157,13465,2,0,L|313:154,1,53.9999983520508,2|0,0:0|0:0,0:0:0:0:
374,34,13765,5,2,0:0:0:0:
364,122,13915,1,2,0:0:0:0:
346,45,14065,1,2,0:0:0:0:
493,230,14365,5,2,0:0:0:0:
493,230,14515,2,0,L|496:164,1,53.9999983520508,2|0,0:0|0:0,0:0:0:0:
512,354,14815,2,0,L|509:288,1,53.9999983520508,2|4,0:0|0:0,0:0:0:0:
233,363,15265,5,2,0:0:0:0:
233,363,15565,2,0,P|181:359|109:366,1,107.999996704102,2|0,0:0|0:0,0:0:0:0:
52,382,16015,1,2,0:0:0:0:
12,317,16165,1,2,0:0:0:0:
13,241,16315,1,2,0:0:0:0:
59,181,16465,1,2,0:0:0:0:
59,181,16615,2,0,L|119:181,1,53.9999983520508,2|0,0:0|0:0,0:0:0:0:
366,139,17065,2,0,P|406:142|470:139,1,80.9999975280763,2|0,0:0|0:0,0:0:0:0:
446,141,17365,6,0,P|414:228|293:217,2,215.999993408203,6|6|6,0:0|0:0|0:0,0:0:0:0:
411,22,18865,5,2,0:0:0:0:
411,22,19015,2,0,P|414:49|409:97,1,53.9999983520508,2|2,0:0|0:0,0:0:0:0:
318,104,19315,2,0,P|317:131|320:158,1,53.9999983520508,2|2,0:0|0:0,0:0:0:0:
235,33,19615,1,2,0:0:0:0:
235,33,19765,6,0,B|171:27|193:49|112:41,1,107.999996704102,6|0,0:0|0:0,0:0:0:0:
56,18,20215,2,0,P|56:64|62:129,1,107.999996704102,2|0,0:0|0:0,0:0:0:0:
36,197,20665,2,0,L|-21:209,1,53.9999983520508,0|0,0:0|0:0,0:0:0:0:
113,181,20965,5,2,0:0:0:0:
113,181,21115,1,2,0:0:0:0:
221,279,21415,2,0,P|281:244|296:198,1,107.999996704102,2|0,0:0|0:0,0:0:0:0:
269,141,21865,1,2,0:0:0:0:
457,17,22165,6,0,P|457:75|465:146,1,107.999996704102,2|0,0:0|0:0,0:0:0:0:
438,196,22615,2,0,L|435:259,1,53.9999983520508,2|0,0:0|0:0,0:0:0:0:
488,317,22915,1,0,0:0:0:0:
488,317,23065,2,0,B|440:297|440:297|385:317,1,107.999996704102,2|6,0:0|0:0,0:0:0:0:
120,359,24565,5,4,0:2:0:0:
10,228,24865,2,0,P|0:185|4:136,1,72,4|0,1:2|0:0,0:0:0:0:
88,91,25165,2,0,P|146:105|196:189,1,144,0|0,0:0|1:0,0:0:0:0:
225,239,25615,1,0,0:0:0:0:
86,269,25765,5,4,0:0:0:0:
86,269,25915,2,0,L|176:272,1,72,0|0,0:0|1:0,0:0:0:0:
217,319,26215,2,0,B|288:303|288:303|376:313,1,144,0|0,0:0|0:0,0:0:0:0:
394,381,26665,1,0,1:0:0:0:
394,381,26815,1,0,3:0:0:0:
497,175,26965,6,0,P|491:241|500:304,1,108,4|0,0:2|0:0,0:0:0:0:
496,283,27265,2,0,L|407:275,1,72,4|0,1:2|0:0,0:0:0:0:
315,58,27715,1,0,0:0:0:0:
315,58,27865,2,0,L|233:67,1,72,0|0,1:0|0:0,0:0:0:0:
174,24,28165,5,2,0:0:0:0:
161,157,28315,1,2,0:0:0:0:
147,17,28465,1,2,1:2:0:0:
6,125,28765,5,2,1:2:0:0:
76,139,28915,2,0,P|78:189|75:225,1,72,2|0,0:0|0:0,0:0:0:0:
108,283,29215,1,2,0:0:0:0:
108,283,29365,5,4,0:2:0:0:
391,304,29665,1,4,1:2:0:0:
169,333,29965,2,0,P|209:320|254:313,1,72,0|0,0:0|0:0,0:0:0:0:
311,341,30265,1,0,1:0:0:0:
298,270,30415,1,0,0:0:0:0:
313,199,30565,1,4,0:2:0:0:
283,133,30715,1,0,0:0:0:0:
283,133,30865,2,0,L|283:50,1,72,0|0,1:0|0:0,0:0:0:0:
341,15,31165,2,0,P|401:32|490:38,1,144,0|0,1:0|1:0,0:0:0:0:
207,96,31765,5,4,0:2:0:0:
26,9,32065,1,4,1:2:0:0:
26,9,32215,2,0,L|38:88,1,72,0|0,0:0|0:0,0:0:0:0:
3,149,32515,1,0,0:0:0:0:
3,149,32665,2,0,L|82:161,1,72,0|0,1:0|0:0,0:0:0:0:
128,245,32965,5,2,0:2:0:0:
140,127,33115,1,2,0:2:0:0:
151,258,33265,1,2,1:2:0:0:
468,234,33565,5,2,1:2:0:0:
344,269,33715,2,0,P|297:268|261:261,1,72,2|0,0:0|0:0,0:0:0:0:
223,210,34015,1,2,0:0:0:0:
223,210,34165,5,6,0:2:0:0:
281,19,34465,2,0,B|271:52|271:52|287:110,1,72,4|0,1:2|0:0,0:0:0:0:
491,136,34765,2,0,P|464:86|362:62,1,144,0|0,0:0|1:0,0:0:0:0:
349,121,35215,1,0,0:0:0:0:
226,152,35365,5,4,0:2:0:0:
226,152,35515,2,0,L|235:230,1,72,0|0,0:0|1:0,0:0:0:0:
293,269,35815,2,0,B|391:263|338:300|455:292,1,144,0|0,0:0|0:0,0:0:0:0:
490,244,36265,1,0,1:0:0:0:
230,327,36565,6,0,P|90:336|48:210,2,288,6|6|6,0:0|0:0|0:0,0:0:0:0:
178,277,37915,5,2,0:0:0:0:
185,205,38065,1,2,1:2:0:0:
248,170,38215,1,2,0:0:0:0:
333,210,38365,5,2,0:0:0:0:
420,183,38515,1,2,0:0:0:0:
449,98,38665,1,2,1:2:0:0:
412,23,38815,1,2,0:0:0:0:
511,21,38965,6,0,P|497:67|485:140,1,108,4|0,0:2|0:0,0:0:0:0:
487,125,39265,2,0,L|333:105,2,144,4|0|0,1:2|0:0|1:0,0:0:0:0:
161,185,40165,6,0,P|157:141|173:87,1,72,4|0,0:2|0:0,0:0:0:0:
122,49,40465,1,0,1:0:0:0:
281,2,40615,2,0,P|285:46|269:100,1,72,0|0,0:0|0:0,0:0:0:0:
367,216,40915,5,0,0:0:0:0:
297,240,41065,2,0,L|302:329,1,72,0|0,1:0|0:0,0:0:0:0:
435,348,41365,6,0,L|442:226,1,108,4|0,0:2|0:0,0:0:0:0:
441,240,41665,2,0,P|370:245|276:238,1,144,4|0,1:2|0:0,0:0:0:0:
238,291,42115,1,2,0:0:0:0:
255,171,42265,2,0,P|295:166|347:173,1,72,0|0,1:0|0:0,0:0:0:0:
389,127,42565,5,2,1:2:0:0:
389,127,42715,1,2,1:2:0:0:
389,127,43015,5,0,1:0:0:0:
362,32,43165,1,0,1:0:0:0:
280,1,43315,1,0,1:0:0:0:
204,27,43465,1,0,1:0:0:0:
167,93,43615,1,0,1:0:0:0:
182,162,43765,1,6,1:2:0:0:
444,347,48565,6,0,P|449:282|479:194,1,135,4|0,0:2|0:0,0:0:0:0:
468,215,48865,2,0,L|345:200,1,90,0|0,1:0|0:0,0:0:0:0:
384,47,49165,5,2,0:0:0:0:
384,47,49315,1,2,0:0:0:0:
306,234,49465,2,0,B|295:187|295:187|323:122,1,90,0|0,1:0|0:0,0:0:0:0:
233,55,49765,6,0,L|134:46,1,90,4|0,0:2|0:0,0:0:0:0:
84,139,50065,2,0,P|146:127|214:239,1,180,0|2,1:0|0:0,0:0:0:0:
148,384,50515,1,2,0:0:0:0:
139,307,50665,2,0,L|130:211,1,90,0|0,1:0|0:0,0:0:0:0:
388,332,50965,6,0,P|442:325|489:296,1,90,4|0,0:2|0:0,0:0:0:0:
498,213,51265,1,0,1:0:0:0:
215,240,51415,6,0,P|161:233|114:204,1,90,4|0,0:2|0:0,0:0:0:0:
105,121,51715,1,0,1:0:0:0:
326,55,51865,6,0,B|310:133|347:99|321:198,1,135,4|0,0:2|0:0,0:0:0:0:
324,188,52165,2,0,P|340:246|338:296,1,90,4|0,0:2|0:0,0:0:0:0:
280,349,52465,5,2,1:2:0:0:
193,257,52615,1,2,0:0:0:0:
60,281,52765,1,2,1:2:0:0:
154,370,52915,1,2,0:0:0:0:
148,161,53065,5,2,1:2:0:0:
210,325,53215,1,0,1:0:0:0:
148,161,53365,6,0,P|139:82|154:7,1,135,4|0,0:2|0:0,0:0:0:0:
147,27,53665,2,0,L|24:15,1,90,0|0,1:0|0:0,0:0:0:0:
91,213,53965,5,2,0:0:0:0:
91,213,54115,1,2,0:0:0:0:
226,140,54265,2,0,P|228:95|221:50,1,90,0|0,1:0|0:0,0:0:0:0:
387,54,54565,6,0,L|491:43,1,90,4|0,0:2|0:0,0:0:0:0:
380,309,54865,2,0,P|319:291|296:175,1,180,0|2,1:0|0:0,0:0:0:0:
441,179,55315,1,2,0:0:0:0:
374,133,55465,2,0,B|363:177|363:177|379:236,1,90,0|0,1:0|0:0,0:0:0:0:
188,322,55765,6,0,L|286:302,1,90,4|0,0:2|0:0,0:0:0:0:
341,364,56065,1,0,1:0:0:0:
112,108,56215,6,0,L|210:128,1,90,4|0,0:2|0:0,0:0:0:0:
265,66,56515,1,0,1:0:0:0:
0,194,56665,6,0,P|74:182|120:246,1,135,4|0,0:2|0:0,0:0:0:0:
113,220,56965,2,0,P|109:267|117:322,1,90,4|0,0:2|0:0,0:0:0:0:
220,256,57265,5,2,1:2:0:0:
209,339,57415,1,2,0:2:0:0:
405,257,57565,1,2,1:2:0:0:
334,213,57715,1,2,0:2:0:0:
326,334,57865,5,2,1:2:0:0:
498,354,58015,1,2,1:2:0:0:
326,334,58165,6,0,P|256:338|151:393,1,180,4|0,0:2|1:0,0:0:0:0:
51,265,58615,2,0,P|40:203|55:135,1,90,2|0,0:0|0:0,0:0:0:0:
27,339,58915,1,2,0:2:0:0:
137,218,59065,1,2,1:2:0:0:
15,105,59215,1,2,0:2:0:0:
15,105,59365,6,0,P|103:99|196:100,1,180,4|0,0:2|1:0,0:0:0:0:
394,31,59815,2,0,P|350:60|337:115,1,90,2|0,0:0|0:0,0:0:0:0:
485,221,60115,1,2,0:0:0:0:
415,111,60265,1,2,1:2:0:0:
306,185,60415,1,2,0:0:0:0:
306,185,60565,6,0,P|384:207|411:315,1,180,4|0,0:2|1:0,0:0:0:0:
494,343,61015,2,0,P|494:286|505:230,1,90,2|0,0:0|0:0,0:0:0:0:
362,352,61315,1,2,0:2:0:0:
246,261,61465,1,2,1:2:0:0:
114,317,61615,1,2,0:2:0:0:
114,317,61765,6,0,B|227:317|161:359|286:361,1,180,4|0,0:2|1:0,0:0:0:0:
246,126,62215,1,0,0:0:0:0:
170,152,62365,2,0,P|163:196|169:240,1,90,2|0,0:0|0:0,0:0:0:0:
362,352,62665,2,0,P|368:307|362:263,1,90,2|0,1:2|0:0,0:0:0:0:
485,204,62965,6,0,P|402:198|364:93,1,180,4|0,0:2|1:0,0:0:0:0:
457,33,63415,1,0,0:0:0:0:
457,33,63565,2,0,L|448:133,1,90,2|0,0:0|0:0,0:0:0:0:
276,3,63865,2,0,L|285:103,1,90,2|0,1:2|0:0,0:0:0:0:
245,239,64165,6,0,B|186:248|186:248|161:281|161:281|80:296,1,180,4|0,0:2|1:0,0:0:0:0:
200,156,64615,1,0,0:0:0:0:
116,147,64765,2,0,L|10:136,1,90,2|0,0:0|0:0,0:0:0:0:
234,324,65065,2,0,L|340:313,1,90,2|0,1:2|0:0,0:0:0:0:
492,354,65365,6,0,P|480:295|376:253,1,180,4|0,1:2|1:0,0:0:0:0:
404,342,65815,1,0,0:0:0:0:
492,194,65965,5,2,1:2:0:0:
309,216,66115,1,2,0:0:0:0:
252,150,66265,1,2,1:2:0:0:
72,179,66415,1,2,0:0:0:0:
120,21,66565,6,0,P|111:77|122:137,1,90,4|0,0:2|0:0,0:0:0:0:
172,167,66865,1,0,1:0:0:0:
257,362,67015,6,0,P|248:306|259:246,1,90,4|0,0:2|0:0,0:0:0:0:
309,216,67315,1,0,1:0:0:0:
503,171,67465,6,0,P|437:172|344:164,1,135,4|0,0:2|0:0,0:0:0:0:
368,167,67765,2,0,L|360:54,1,90,4|0,0:2|0:0,0:0:0:0:
109,183,68065,6,0,B|92:141|92:141|105:67,1,90,2|0,1:2|0:0,0:0:0:0:
270,40,68365,2,0,B|287:82|287:82|274:156,1,90,2|0,0:2|0:0,0:0:0:0:
170,224,68665,2,0,L|283:232,1,90,2|0,1:2|0:0,0:0:0:0:
380,321,68965,5,6,0:2:0:0:
317,366,69115,2,0,P|322:307|313:243,1,90,2|0,0:2|1:0,0:0:0:0:
66,326,69415,2,0,P|155:319|245:325,1,180,2|0,0:0|0:0,0:0:0:0:
8,173,69865,2,0,P|13:223|12:268,1,90,0|0,1:2|0:0,0:0:0:0:
84,25,70165,6,0,P|167:16|245:117,1,180,4|0,0:2|1:0,0:0:0:0:
208,160,70615,1,0,0:0:0:0:
430,154,70765,6,0,P|347:145|269:246,1,180,4|0,0:2|1:0,0:0:0:0:
306,289,71215,1,0,0:0:0:0:
141,354,71365,6,0,P|124:293|120:232,1,90,4|0,0:2|0:0,0:0:0:0:
130,187,71665,1,0,1:0:0:0:
351,227,71815,6,0,P|368:166|372:105,1,90,4|0,0:2|0:0,0:0:0:0:
362,60,72115,1,0,1:0:0:0:
85,64,72265,6,0,P|144:68|236:55,1,135,4|0,0:2|0:0,0:0:0:0:
219,59,72565,2,0,L|212:161,1,90,4|0,0:2|0:0,0:0:0:0:
157,364,72865,6,0,P|122:317|117:264,1,90,2|0,1:2|0:0,0:0:0:0:
290,118,73165,2,0,P|325:165|330:218,1,90,2|0,0:2|0:0,0:0:0:0:
238,359,73465,2,0,L|332:337,1,90,2|0,1:2|0:0,0:0:0:0:
492,150,73765,5,6,0:2:0:0:
489,224,73915,2,0,P|443:221|393:225,1,90,2|0,0:0|1:0,0:0:0:0:
285,263,74215,1,2,0:2:0:0:
285,263,74365,2,0,P|286:189|292:117,1,135,0|0,0:0|0:0,0:0:0:0:
290,128,74665,2,0,B|303:83|303:83|289:42,1,90,2|0,1:2|0:0,0:0:0:0:
53,31,74965,6,0,B|174:33|108:78|222:82,2,180,4|0|4,0:2|1:0|0:2,0:0:0:0:
50,110,75715,1,0,1:0:0:0:
50,110,75865,2,0,L|57:207,1,90,0|0,1:0|0:0,0:0:0:0:
31,307,76165,6,0,P|78:274|136:271,1,90,4|0,0:2|0:0,0:0:0:0:
101,353,76465,1,0,1:0:0:0:
185,108,76615,6,0,P|232:141|290:144,1,90,4|0,0:2|0:0,0:0:0:0:
255,62,76915,1,0,1:0:0:0:
403,260,77065,5,4,1:2:0:0:
217,225,77215,1,0,1:0:0:0:
403,260,77365,6,0,P|396:211|396:151,1,90,4|0,0:2|0:0,0:0:0:0:
369,9,77665,1,2,1:2:0:0:
443,20,77815,2,0,P|449:68|450:129,1,90,2|0,0:0|0:0,0:0:0:0:
512,217,78115,1,2,0:0:0:0:
445,325,78265,1,2,1:2:0:0:
325,242,78415,1,2,0:0:0:0:
325,242,78565,6,0,P|363:175|330:59,1,180,4|0,0:2|1:0,0:0:0:0:
155,224,79015,2,0,P|115:145|135:59,1,180,2|0,0:0|0:0,0:0:0:0:
265,39,79465,2,0,P|269:83|265:128,1,90,2|0,1:2|0:0,0:0:0:0:
0,189,79765,6,0,L|110:175,1,90,4|0,0:2|0:0,0:0:0:0:
89,322,80065,1,2,1:2:0:0:
89,322,80215,2,0,L|199:336,1,90,2|0,0:2|0:0,0:0:0:0:
271,381,80515,1,2,0:2:0:0:
235,247,80665,1,2,1:2:0:0:
336,151,80815,1,2,0:2:0:0:
336,151,80965,6,0,P|248:149|151:142,1,180,4|0,0:2|1:0,0:0:0:0:
2,198,81415,1,0,0:0:0:0:
84,103,81565,2,0,B|71:147|71:147|88:200,1,90,2|0,0:0|0:0,0:0:0:0:
235,333,81865,2,0,B|248:289|248:289|231:236,1,90,2|0,1:2|0:0,0:0:0:0:
387,49,82165,6,0,P|471:96|466:201,1,180,4|0,0:2|1:0,0:0:0:0:
442,281,82615,1,0,0:0:0:0:
320,195,82765,2,0,L|433:206,1,90,2|0,0:0|0:0,0:0:0:0:
160,288,83065,2,0,L|47:299,1,90,2|0,1:2|0:0,0:0:0:0:
205,11,83365,6,0,B|184:127|235:64|198:196,1,180,4|0,0:2|1:0,0:0:0:0:
330,314,83815,1,0,0:0:0:0:
253,338,83965,2,0,P|247:288|254:225,1,90,2|0,0:0|0:0,0:0:0:0:
448,28,84265,2,0,P|442:78|449:141,1,90,2|0,1:2|0:0,0:0:0:0:
512,269,84565,6,0,P|450:251|365:255,1,135,4|0,1:2|0:0,0:0:0:0:
380,251,84865,1,0,1:0:0:0:
442,329,85015,1,0,0:0:0:0:
452,209,85165,5,2,0:2:0:0:
297,277,85315,1,2,1:2:0:0:
201,129,85465,1,2,1:2:0:0:
354,92,85615,1,2,0:2:0:0:
151,203,85765,5,4,1:2:0:0:
276,165,85915,2,0,P|283:123|271:74,1,90,4|0,3:0|0:0,0:0:0:0:
338,214,86215,5,4,1:2:0:0:
55,69,86365,2,0,P|47:115|69:219,1,135,8|0,3:0|0:0,0:0:0:0:
61,201,86665,2,0,L|184:203,1,90,0|0,1:0|0:0,0:0:0:0:
76,320,86965,6,0,P|129:289|223:298,1,144,6|2,0:2|0:0,0:0:0:0:
266,352,88165,5,8,3:0:0:0:
339,320,88615,1,0,3:0:0:0:
339,320,88765,1,8,3:0:0:0:
423,339,89215,1,2,0:0:0:0:
423,339,89290,1,2,0:0:0:0:
423,339,89365,1,2,0:0:0:0:
343,90,89965,5,2,0:0:0:0:
343,90,90265,2,0,P|341:134|343:169,1,72,2|0,0:0|0:0,0:0:0:0:
204,306,90865,5,2,0:0:0:0:
177,239,91165,1,2,0:0:0:0:
218,182,91465,2,0,L|248:173,3,18,2|0|0|0,0:0|0:0|0:0|0:0,0:0:0:0:
218,182,91765,6,0,P|163:180|105:188,2,108,2|2|2,0:0|0:0|0:0,0:0:0:0:
102,203,103165,6,0,B|107:117|81:165|93:64,1,126,0|0,0:0|0:0,0:0:0:0:
96,83,103765,6,0,P|150:75|221:80,2,107.999996704102,0|0|0,1:0|0:0|1:0,0:0:0:0:
96,83,104665,1,0,0:0:0:0:
385,80,104965,2,0,P|331:88|260:83,2,107.999996704102,0|0|0,1:0|0:0|1:0,0:0:0:0:
385,80,105865,1,0,0:0:0:0:
491,215,106165,6,0,P|434:213|389:257,1,107.999996704102,0|0,1:0|0:0,0:0:0:0:
322,236,106615,1,0,0:0:0:0:
322,236,106765,2,0,P|268:239|214:234,2,107.999996704102,0|0|0,1:0|0:0|1:0,0:0:0:0:
322,236,107665,1,0,0:0:0:0:
357,165,107965,5,0,1:0:0:0:
297,109,108265,1,0,0:0:0:0:
218,126,108565,2,0,P|212:179|217:256,1,107.999996704102,0|0,1:0|0:0,0:0:0:0:
116,292,109165,2,0,P|122:239|117:162,1,107.999996704102,0|0,1:0|0:0,0:0:0:0:
158,17,109765,6,0,P|113:29|71:130,1,144,0|0,1:0|0:0,0:0:0:0:
361,104,110365,2,0,P|406:116|448:217,1,144,0|0,1:0|0:0,0:0:0:0:
279,359,110965,5,0,1:0:0:0:
197,372,111265,5,0,1:0:0:0:
124,309,111565,5,0,1:0:0:0:
120,186,111865,5,0,1:0:0:0:
223,85,112165,5,6,1:2:0:0:
22,268,113365,6,0,P|98:252|167:249,1,135,4|0,0:2|0:0,0:0:0:0:
155,248,113665,2,0,L|141:358,1,90,0|0,1:0|0:0,0:0:0:0:
79,164,113965,5,2,0:0:0:0:
79,164,114115,1,2,0:0:0:0:
246,293,114265,2,0,B|235:251|235:251|259:183,1,90,0|0,1:0|0:0,0:0:0:0:
239,43,114565,6,0,L|149:35,1,90,4|0,0:2|0:0,0:0:0:0:
424,146,114865,2,0,P|399:232|289:247,1,180,0|2,1:0|0:0,0:0:0:0:
334,162,115315,1,2,0:0:0:0:
370,340,115465,2,0,P|324:334|270:338,1,90,0|0,1:0|0:0,0:0:0:0:
109,209,115765,6,0,L|131:318,1,90,4|0,0:2|0:0,0:0:0:0:
88,375,116065,1,0,1:0:0:0:
298,91,116215,6,0,L|276:200,1,90,4|0,0:2|0:0,0:0:0:0:
319,257,116515,1,0,1:0:0:0:
53,127,116665,6,0,P|157:111|207:108,1,135,4|0,0:2|0:0,0:0:0:0:
186,108,116965,2,0,L|178:13,1,90,4|0,0:2|0:0,0:0:0:0:
456,41,117265,5,2,1:2:0:0:
331,0,117415,1,2,0:0:0:0:
259,129,117565,1,2,1:2:0:0:
391,174,117715,1,2,0:0:0:0:
306,285,117865,5,2,1:2:0:0:
334,98,118015,1,0,1:0:0:0:
306,285,118165,6,0,L|452:277,1,135,4|0,0:2|0:0,0:0:0:0:
440,277,118465,2,0,P|452:332|457:377,1,90,0|0,1:0|0:0,0:0:0:0:
253,339,118765,5,2,0:0:0:0:
253,339,118915,1,2,0:0:0:0:
280,210,119065,2,0,P|292:155|297:110,1,90,0|0,1:0|0:0,0:0:0:0:
38,274,119365,6,0,L|132:265,1,90,4|0,0:2|0:0,0:0:0:0:
170,190,119665,2,0,B|148:315|201:250|169:387,1,180,0|2,1:0|0:0,0:0:0:0:
224,128,120115,1,2,0:0:0:0:
86,186,120265,2,0,P|51:148|45:84,1,90,0|0,1:0|0:0,0:0:0:0:
180,34,120565,6,0,L|71:50,1,90,4|0,0:2|0:0,0:0:0:0:
266,18,120865,1,0,1:0:0:0:
403,147,121015,6,0,L|512:163,1,90,4|0,0:2|0:0,0:0:0:0:
317,131,121315,1,0,1:0:0:0:
300,369,121465,6,0,L|279:229,1,135,4|0,0:2|0:0,0:0:0:0:
279,235,121765,2,0,P|228:229|168:237,1,90,4|0,0:2|0:0,0:0:0:0:
80,191,122065,5,2,1:2:0:0:
211,321,122215,1,2,0:2:0:0:
354,203,122365,1,2,1:2:0:0:
321,84,122515,5,2,1:2:0:0:
261,139,122665,5,2,1:2:0:0:
180,130,122815,5,2,1:2:0:0:
216,215,122965,6,0,P|199:111|202:10,1,180,4|0,0:2|1:0,0:0:0:0:
328,276,123415,2,0,B|285:264|285:264|219:297,1,90,2|0,0:0|0:0,0:0:0:0:
373,347,123715,1,2,0:2:0:0:
324,192,123865,1,2,1:2:0:0:
414,72,124015,1,2,0:2:0:0:
414,72,124165,6,0,P|425:120|418:180,1,90,4|0,0:2|0:0,0:0:0:0:
262,71,124465,2,0,P|251:119|258:179,1,90,0|2,1:0|0:0,0:0:0:0:
460,382,124765,5,0,0:0:0:0:
476,253,124915,1,2,0:0:0:0:
275,293,125065,2,0,L|177:302,1,90,2|2,1:2|0:0,0:0:0:0:
384,353,125365,6,0,P|386:283|297:219,1,180,4|0,0:2|1:0,0:0:0:0:
131,234,125815,2,0,L|25:223,1,90,2|0,0:0|0:0,0:0:0:0:
91,364,126115,1,2,0:2:0:0:
199,198,126265,1,2,1:2:0:0:
35,82,126415,1,2,0:2:0:0:
35,82,126565,6,0,B|163:80|86:129|220:122,1,180,4|0,0:2|1:0,0:0:0:0:
406,38,127015,1,0,0:0:0:0:
362,96,127165,2,0,L|261:85,1,90,2|0,0:0|0:0,0:0:0:0:
423,215,127465,2,0,L|524:204,1,90,2|0,1:2|0:0,0:0:0:0:
277,299,127765,6,0,P|279:211|378:180,1,180,4|0,0:2|1:0,0:0:0:0:
512,299,128215,1,0,0:0:0:0:
418,353,128365,1,2,0:0:0:0:
357,268,128515,1,0,0:0:0:0:
206,359,128665,2,0,L|189:263,1,90,2|0,1:2|0:0,0:0:0:0:
208,14,128965,6,0,P|207:88|223:194,1,180,4|0,0:2|1:0,0:0:0:0:
108,255,129415,1,0,0:0:0:0:
45,107,129565,2,0,P|111:76|160:72,1,90,2|0,0:0|0:0,0:0:0:0:
371,190,129865,2,0,P|305:159|256:155,1,90,2|0,1:2|0:0,0:0:0:0:
81,343,130165,6,0,B|149:335|149:335|189:300|189:300|258:289,1,180,4|0,1:2|1:0,0:0:0:0:
324,349,130615,1,0,0:0:0:0:
371,190,130765,5,2,1:2:0:0:
390,279,130915,1,2,0:0:0:0:
165,282,131065,5,2,0:0:0:0:
175,128,131215,1,2,1:2:0:0:
15,135,131365,6,0,B|44:213|44:213|24:309,1,180,4|0,0:2|1:0,0:0:0:0:
123,210,131815,2,0,P|168:206|213:208,1,90,4|0,0:2|0:0,0:0:0:0:
429,234,132115,5,2,1:2:0:0:
246,109,132265,1,2,1:2:0:0:
299,222,132415,5,2,1:2:0:0:
213,314,132565,1,6,1:2:0:0:
