osu file format v14

[General]
AudioFilename: audio.mp3
AudioLeadIn: 0
PreviewTime: 47590
Countdown: 0
SampleSet: Soft
StackLeniency: 0.6
Mode: 0
LetterboxInBreaks: 0
WidescreenStoryboard: 0

[Editor]
DistanceSpacing: 1
BeatDivisor: 4
GridSize: 16
TimelineZoom: 1

[Metadata]
Title:Haru ka Tooku
TitleUnicode:ハルカトオク
Artist:saya
ArtistUnicode:saya
Creator:handsome
Version:Hard
Source:宇宙よりも遠い場所
Tags:sora yori mo tooi basho a place further than the universe antartica the girls are alright expedition anime insert song
BeatmapID:1653504
BeatmapSetID:787828

[Difficulty]
HPDrainRate:4.5
CircleSize:4
OverallDifficulty:6
ApproachRate:7
SliderMultiplier:1.2
SliderTickRate:1

[Events]
//Background and Video events
0,0,"sorayori.jpg",0,0
//Break Periods
2,43965,47365
2,94165,102865
//Storyboard Layer 0 (Background)
//Storyboard Layer 1 (Fail)
//Storyboard Layer 2 (Pass)
//Storyboard Layer 3 (Foreground)
//Storyboard Sound Samples

[TimingPoints]
565,300,4,2,0,30,1,0
565,-125,4,2,0,30,0,0
5365,-125,4,2,0,40,0,0
24565,-100,4,2,0,60,0,0
48565,-83.3333333333333,4,2,0,90,0,1
67765,-83.3333333333333,4,2,0,80,0,1
86965,-125,4,2,0,50,0,0
103765,-125,4,2,0,50,0,0
109765,-100,4,2,0,60,0,0
110965,-100,4,2,0,60,0,0
111265,-100,4,2,0,65,0,0
111565,-100,4,2,0,70,0,0
111865,-100,4,2,0,75,0,0
112165,-100,4,2,0,80,0,0
113365,-83.3333333333333,4,2,0,90,0,1
132565,-100,4,2,0,90,0,0

[Colours]
Combo1 : 17,254,176
Combo2 : 173,255,95
Combo3 : 255,88,100
Combo4 : 255,94,55

[HitObjects]
96,29,565,6,0,P|100:66|96:134,1,96,6|0,0:0|0:0,0:0:0:0:
123,192,1015,2,0,P|119:229|123:297,1,96,2|0,0:0|0:0,0:0:0:0:
127,359,1465,2,0,L|72:368,1,48,2|0,0:0|0:0,0:0:0:0:
196,334,1765,6,0,B|241:348|241:348|307:329,1,96,6|0,0:0|0:0,0:0:0:0:
356,356,2215,1,2,0:0:0:0:
317,217,2515,1,2,0:0:0:0:
369,82,2815,1,2,0:0:0:0:
369,82,2965,6,0,P|318:86|270:81,1,96,6|0,0:0|0:0,0:0:0:0:
211,44,3415,2,0,L|156:39,1,48,2|0,0:0|0:0,0:0:0:0:
102,80,3715,1,0,0:0:0:0:
200,163,4015,5,0,0:0:0:0:
200,163,4165,2,0,L|197:224,1,48,2|2,0:0|0:0,0:0:0:0:
126,224,4465,2,0,L|129:285,1,48,2|0,0:0|0:0,0:0:0:0:
66,355,4765,5,2,0:0:0:0:
137,348,4915,2,0,L|253:341,1,96,2|2,0:0|0:0,0:0:0:0:
304,337,5365,1,6,0:0:0:0:
443,269,5665,6,0,P|442:315|452:384,2,96,2|2|0,0:0|0:0|0:0,0:0:0:0:
490,201,6415,1,2,0:0:0:0:
490,201,6565,2,0,P|492:152|487:101,1,96,2|2,0:0|0:0,0:0:0:0:
412,71,7015,2,0,P|410:120|415:171,1,96,2|0,0:0|0:0,0:0:0:0:
359,227,7465,1,2,0:0:0:0:
277,85,7765,6,0,B|232:94|232:94|163:79,1,96,2|0,0:0|0:0,0:0:0:0:
104,62,8215,2,0,L|109:122,1,48,2|0,0:0|0:0,0:0:0:0:
117,190,8515,1,0,0:0:0:0:
0,300,8815,5,0,0:0:0:0:
0,300,8965,2,0,P|32:297|60:298,1,48,2|2,0:0|0:0,0:0:0:0:
98,362,9265,2,0,P|130:365|158:364,1,48,2|0,0:0|0:0,0:0:0:0:
277,344,9565,5,2,0:0:0:0:
207,318,9715,2,0,P|197:268|204:220,1,96,2|2,0:0|0:0,0:0:0:0:
274,198,10165,1,4,0:0:0:0:
219,35,10465,6,0,B|266:30|328:35,2,96,2|2|0,0:0|0:0|0:0,0:0:0:0:
226,116,11215,1,2,0:0:0:0:
226,116,11365,2,0,B|210:158|210:158|232:212,1,96,2|2,0:0|0:0,0:0:0:0:
305,234,11815,2,0,L|403:244,1,96,2|0,0:0|0:0,0:0:0:0:
481,255,12265,1,2,0:0:0:0:
243,281,12565,6,0,P|247:331|247:379,1,96,2|0,0:0|0:0,0:0:0:0:
167,331,13015,2,0,L|108:326,1,48,2|0,0:0|0:0,0:0:0:0:
44,320,13315,1,0,0:0:0:0:
97,133,13615,5,0,0:0:0:0:
97,133,13765,2,0,L|101:189,1,48,2|2,0:0|0:0,0:0:0:0:
14,187,14065,2,0,L|18:131,1,48,2|0,0:0|0:0,0:0:0:0:
13,63,14365,5,2,0:0:0:0:
93,51,14515,2,0,L|210:37,1,96,2|2,0:0|0:0,0:0:0:0:
268,26,14965,1,4,0:0:0:0:
258,250,15265,6,0,P|257:189|254:132,2,96,2|2|0,0:0|0:0|0:0,0:0:0:0:
204,312,16015,1,2,0:0:0:0:
204,312,16165,2,0,P|152:316|101:310,1,96,2|2,0:0|0:0,0:0:0:0:
179,229,16615,2,0,P|131:224|84:229,1,96,2|0,0:0|0:0,0:0:0:0:
30,292,17065,1,2,0:0:0:0:
202,102,17365,6,0,B|90:102|147:52|-1:60,2,192,6|6|6,0:0|0:0|0:0,0:0:0:0:
413,177,18865,5,2,0:0:0:0:
413,177,19015,2,0,L|408:120,2,48,2|2|2,0:0|0:0|0:0,0:0:0:0:
334,87,19465,2,0,L|330:141,1,48,2|2,0:0|0:0,0:0:0:0:
275,192,19765,6,0,P|241:199|203:265,1,96,6|0,0:0|0:0,0:0:0:0:
206,322,20215,2,0,B|253:309|253:309|303:321,1,96,2|0,0:0|0:0,0:0:0:0:
373,351,20665,1,0,0:0:0:0:
491,244,20965,6,0,L|499:298,2,48,2|2|0,0:0|0:0|0:0,0:0:0:0:
498,164,21415,2,0,P|454:147|393:158,1,96,2|0,0:0|0:0,0:0:0:0:
334,120,21865,2,0,L|272:131,1,48,2|0,0:0|0:0,0:0:0:0:
206,142,22165,5,2,0:0:0:0:
109,90,22465,1,0,0:0:0:0:
109,90,22615,1,2,0:0:0:0:
27,167,22915,1,0,0:0:0:0:
27,167,23065,2,0,P|31:216|28:269,1,96,2|6,0:0|0:0,0:0:0:0:
396,319,24565,5,4,0:2:0:0:
201,368,24865,2,0,P|197:324|199:281,1,60,4|0,1:2|0:0,0:0:0:0:
214,232,25165,2,0,P|211:172|202:103,1,120,0|0,0:0|1:0,0:0:0:0:
163,44,25615,5,0,0:0:0:0:
257,50,25765,2,0,L|335:52,1,60,4|0,0:0|0:0,0:0:0:0:
445,48,26065,5,0,1:0:0:0:
445,125,26215,2,0,P|393:131|318:125,1,120
334,203,26665,2,0,L|341:270,1,60,0|0,1:0|3:0,0:0:0:0:
432,364,26965,5,4,0:2:0:0:
207,348,27265,1,4,1:2:0:0:
207,348,27415,2,0,P|214:294|280:239,1,120,0|0,0:0|0:0,0:0:0:0:
251,170,27865,2,0,L|170:167,1,60,0|0,1:0|0:0,0:0:0:0:
150,100,28165,5,2,0:0:0:0:
83,141,28315,1,2,0:0:0:0:
10,111,28465,2,0,L|4:45,1,60,2|0,1:2|0:0,0:0:0:0:
68,6,28765,1,2,1:2:0:0:
68,6,28915,2,0,P|126:12|204:39,1,120,2|2,0:0|0:0,0:0:0:0:
262,24,29365,5,4,0:2:0:0:
466,168,29665,2,0,P|427:166|392:167,1,60,4|0,1:2|0:0,0:0:0:0:
327,162,29965,2,0,B|342:220|342:220|334:290,1,120,0|0,0:0|1:0,0:0:0:0:
257,288,30415,5,0,0:0:0:0:
248,179,30565,2,0,L|251:100,1,60,4|0,0:2|0:0,0:0:0:0:
167,136,30865,6,0,L|164:57,1,60,0|0,1:0|0:0,0:0:0:0:
212,21,31165,2,0,P|149:28|76:56,1,120,0|0,1:0|1:0,0:0:0:0:
19,22,31615,1,0,0:0:0:0:
19,22,31765,5,4,0:2:0:0:
84,181,32065,1,4,1:2:0:0:
84,181,32215,2,0,B|73:254|99:219|87:305,1,120,0|0,0:0|0:0,0:0:0:0:
97,377,32665,2,0,L|11:387,1,60,0|0,1:0|0:0,0:0:0:0:
165,292,32965,5,2,0:2:0:0:
237,319,33115,1,2,0:2:0:0:
302,277,33265,2,0,L|371:269,1,60,2|0,1:2|0:0,0:0:0:0:
420,353,33565,1,2,1:2:0:0:
420,353,33715,2,0,P|473:346|502:266,1,120,2|2,0:0|0:0,0:0:0:0:
467,223,34165,5,6,0:2:0:0:
405,99,34465,2,0,P|437:102|468:101,1,60,4|0,1:2|0:0,0:0:0:0:
330,114,34765,2,0,P|279:111|197:122,1,120,0|0,0:0|1:0,0:0:0:0:
154,174,35215,5,0,0:0:0:0:
112,280,35365,2,0,L|192:272,1,60,4|0,0:2|0:0,0:0:0:0:
240,309,35665,5,0,1:0:0:0:
225,217,35815,2,0,P|290:215|349:221,1,120,0|0,0:0|0:0,0:0:0:0:
396,276,36265,2,0,L|404:340,1,60,0|0,1:0|0:0,0:0:0:0:
503,246,36565,6,0,P|491:161|354:118,2,240,6|6|6,0:0|0:0|0:0,0:0:0:0:
427,236,37915,5,2,0:0:0:0:
427,236,38065,2,0,L|343:230,1,60,2|2,1:2|0:0,0:0:0:0:
267,169,38365,1,2,0:0:0:0:
189,174,38515,1,2,0:0:0:0:
150,241,38665,1,2,1:2:0:0:
175,314,38815,1,2,0:0:0:0:
245,347,38965,6,0,L|323:338,1,60,4|0,0:2|0:0,0:0:0:0:
380,361,39265,2,0,P|442:352|522:360,2,120,4|0|0,1:2|0:0|1:0,0:0:0:0:
121,360,40165,5,4,0:2:0:0:
162,207,40465,1,0,1:0:0:0:
162,207,40615,1,0,0:0:0:0:
83,52,40915,1,0,0:0:0:0:
83,52,41065,2,0,L|77:139,1,60,0|0,1:0|0:0,0:0:0:0:
2,82,41365,5,4,0:2:0:0:
162,207,41665,2,0,P|217:202|305:206,1,120,4|0,1:2|0:0,0:0:0:0:
356,227,42115,1,2,0:0:0:0:
356,227,42265,2,0,L|357:153,1,60,0|0,1:0|0:0,0:0:0:0:
359,89,42565,5,2,1:2:0:0:
359,89,42715,1,2,1:2:0:0:
498,165,43015,5,0,1:0:0:0:
468,186,43165,1,0,1:0:0:0:
457,220,43315,1,0,1:0:0:0:
458,255,43465,1,0,1:0:0:0:
475,286,43615,1,0,1:0:0:0:
503,307,43765,1,6,1:2:0:0:
352,384,48565,6,0,P|349:346|352:295,1,71.9999978027344,4|0,0:2|0:0,0:0:0:0:
428,285,48865,2,0,B|328:282|372:260|288:259,1,143.999995605469,0|2,1:0|0:0,0:0:0:0:
403,202,49315,1,2,0:0:0:0:
403,202,49465,2,0,P|420:163|423:124,1,71.9999978027344,0|0,1:0|0:0,0:0:0:0:
506,56,49765,6,0,L|433:60,1,71.9999978027344,4|0,0:2|0:0,0:0:0:0:
267,109,50065,2,0,P|295:46|364:33,1,143.999995605469,0|2,1:0|0:0,0:0:0:0:
191,73,50515,1,2,0:0:0:0:
191,73,50665,2,0,P|193:110|191:156,1,71.9999978027344,0|0,1:0|0:0,0:0:0:0:
144,209,50965,6,0,P|73:207|-5:223,1,143.999995605469,4|0,0:2|1:0,0:0:0:0:
174,280,51415,2,0,P|245:282|323:266,1,143.999995605469,4|0,0:2|1:0,0:0:0:0:
311,196,51865,2,0,L|309:116,1,71.9999978027344,4|0,0:2|0:0,0:0:0:0:
404,2,52165,6,0,P|460:15|494:102,1,143.999995605469,4|2,0:2|1:2,0:0:0:0:
425,104,52615,1,2,0:0:0:0:
382,162,52765,1,2,1:2:0:0:
395,232,52915,1,2,0:0:0:0:
457,267,53065,1,2,1:2:0:0:
470,337,53215,1,0,1:0:0:0:
411,379,53365,6,0,P|340:372|315:371,1,71.9999978027344,4|0,0:2|0:0,0:0:0:0:
187,344,53665,2,0,P|252:314|323:301,1,143.999995605469,0|2,1:0|0:0,0:0:0:0:
146,278,54115,1,2,0:0:0:0:
146,278,54265,2,0,P|151:238|146:195,1,71.9999978027344,0|0,1:0|0:0,0:0:0:0:
0,247,54565,6,0,L|89:239,1,71.9999978027344,4|0,0:2|0:0,0:0:0:0:
220,165,54865,2,0,B|149:181|149:181|71:153,1,143.999995605469,0|2,1:0|0:0,0:0:0:0:
56,77,55315,1,2,0:0:0:0:
56,77,55465,2,0,L|145:85,1,71.9999978027344,0|0,1:0|0:0,0:0:0:0:
297,2,55765,6,0,P|228:28|209:117,1,143.999995605469,4|0,0:2|1:0,0:0:0:0:
353,55,56215,2,0,P|422:81|441:170,1,143.999995605469,4|0,0:2|1:0,0:0:0:0:
358,146,56665,2,0,L|366:225,1,71.9999978027344,4|0,0:2|0:0,0:0:0:0:
485,295,56965,6,0,P|420:298|314:288,1,143.999995605469,4|2,0:2|1:2,0:0:0:0:
272,316,57415,1,2,0:2:0:0:
272,316,57565,2,0,L|194:318,1,71.9999978027344,2|2,1:2|0:2,0:0:0:0:
119,369,57865,5,2,1:2:0:0:
149,255,58015,1,2,1:2:0:0:
73,166,58165,2,0,P|66:112|77:15,1,143.999995605469,4|0,0:2|1:0,0:0:0:0:
151,29,58615,2,0,P|141:100|149:171,1,143.999995605469,2|2,0:0|0:2,0:0:0:0:
220,210,59065,5,2,1:2:0:0:
325,157,59215,1,2,0:2:0:0:
413,236,59365,2,0,P|402:299|319:344,1,143.999995605469,4|0,0:2|1:0,0:0:0:0:
244,382,59815,2,0,P|185:343|170:275,1,143.999995605469,2|2,0:0|0:0,0:0:0:0:
95,324,60265,5,2,1:2:0:0:
90,238,60415,1,2,0:0:0:0:
248,277,60565,2,0,P|247:203|237:128,1,143.999995605469,4|0,0:2|1:0,0:0:0:0:
330,128,61015,2,0,P|331:202|341:277,1,143.999995605469,2|2,0:0|0:2,0:0:0:0:
411,310,61465,6,0,L|502:318,1,71.9999978027344,2|2,1:2|0:2,0:0:0:0:
441,197,61765,2,0,L|532:189,1,71.9999978027344,4|0,0:2|0:0,0:0:0:0:
393,78,62065,2,0,L|464:84,1,71.9999978027344,0|0,1:0|0:0,0:0:0:0:
333,15,62365,6,0,B|241:20|293:56|177:59,2,143.999995605469,2|2|4,0:0|1:2|0:2,0:0:0:0:
302,112,63115,1,0,0:0:0:0:
302,112,63265,2,0,L|304:189,1,71.9999978027344,0|0,1:0|0:0,0:0:0:0:
96,185,63565,6,0,B|188:190|136:226|252:229,2,143.999995605469,2|2|4,0:0|1:2|0:2,0:0:0:0:
141,282,64315,1,0,0:0:0:0:
141,282,64465,2,0,L|139:359,1,71.9999978027344,0|0,1:0|0:0,0:0:0:0:
239,302,64765,6,0,P|310:296|382:297,1,143.999995605469,2|2,0:0|1:2,0:0:0:0:
435,352,65215,1,0,0:0:0:0:
443,255,65365,2,0,L|444:162,1,71.9999978027344,4|0,1:2|0:0,0:0:0:0:
488,79,65665,6,0,P|440:108|351:67,1,143.999995605469,0|2,1:0|1:2,0:0:0:0:
311,133,66115,1,2,0:0:0:0:
246,101,66265,1,2,1:2:0:0:
186,142,66415,1,2,0:0:0:0:
125,60,66565,6,0,L|36:52,1,71.9999978027344,4|0,0:2|0:0,0:0:0:0:
0,143,66865,1,0,1:0:0:0:
0,143,67015,2,0,L|89:135,1,71.9999978027344,4|0,0:2|0:0,0:0:0:0:
137,228,67315,1,0,1:0:0:0:
137,228,67465,2,0,L|48:220,1,71.9999978027344,4|0,0:2|0:0,0:0:0:0:
11,291,67765,5,4,0:2:0:0:
216,362,68065,2,0,P|214:300|217:209,1,143.999995605469,2|2,1:2|0:2,0:0:0:0:
294,254,68515,1,0,0:0:0:0:
294,254,68665,2,0,L|291:175,1,71.9999978027344,2|0,1:2|0:0,0:0:0:0:
345,123,68965,5,6,0:2:0:0:
232,130,69115,2,0,L|235:51,1,71.9999978027344,2|0,0:2|1:0,0:0:0:0:
398,57,69415,2,0,B|429:119|429:119|404:193,1,143.999995605469,2|0,0:0|0:0,0:0:0:0:
470,231,69865,2,0,P|469:270|476:319,1,71.9999978027344,0|0,1:2|0:0,0:0:0:0:
410,348,70165,6,0,B|327:352|369:381|269:377,1,143.999995605469,4|0,0:2|1:0,0:0:0:0:
226,311,70615,1,0,0:0:0:0:
226,311,70765,2,0,B|128:314|170:285|87:281,1,143.999995605469,4|0,0:2|1:0,0:0:0:0:
24,324,71215,1,0,0:0:0:0:
26,234,71365,6,0,P|0:157|30:83,1,143.999995605469,4|0,0:2|1:0,0:0:0:0:
167,89,71815,2,0,P|193:166|163:240,1,143.999995605469,4|0,0:2|1:0,0:0:0:0:
94,195,72265,2,0,L|99:106,1,71.9999978027344,4|0,0:2|0:0,0:0:0:0:
53,28,72565,5,4,0:2:0:0:
231,136,72865,2,0,P|300:127|385:131,1,143.999995605469,2|2,1:2|0:2,0:0:0:0:
446,92,73315,1,0,0:0:0:0:
446,92,73465,2,0,L|453:187,1,71.9999978027344,2|0,1:2|0:0,0:0:0:0:
512,206,73765,5,6,0:2:0:0:
373,211,73915,2,0,B|336:204|336:204|291:214,1,71.9999978027344,2|0,0:0|1:0,0:0:0:0:
232,364,74215,2,0,P|319:335|334:265,1,143.999995605469,2|0,0:2|0:0,0:0:0:0:
251,283,74665,2,0,L|164:278,1,71.9999978027344,2|0,1:2|0:0,0:0:0:0:
83,221,74965,6,0,P|79:288|91:378,2,143.999995605469,4|0|4,0:2|1:0|0:2,0:0:0:0:
139,167,75715,1,0,1:0:0:0:
139,167,75865,2,0,P|141:117|137:84,1,71.9999978027344,0|0,1:0|0:0,0:0:0:0:
69,60,76165,5,4,0:2:0:0:
230,98,76465,1,0,1:0:0:0:
230,98,76615,1,4,0:2:0:0:
369,46,76915,1,0,1:0:0:0:
369,46,77065,2,0,L|377:133,1,71.9999978027344,4|0,1:2|1:0,0:0:0:0:
455,170,77365,6,0,B|389:199|389:199|303:186,1,143.999995605469,4|2,0:2|1:2,0:0:0:0:
293,263,77815,2,0,P|257:257|210:257,1,71.9999978027344,2|0,0:0|0:0,0:0:0:0:
261,134,78115,1,2,0:0:0:0:
261,134,78265,2,0,P|225:140|178:140,1,71.9999978027344,2|2,1:2|0:0,0:0:0:0:
10,212,78565,6,0,P|70:205|170:214,1,143.999995605469,4|0,0:2|1:0,0:0:0:0:
9,291,79015,2,0,P|69:284|169:293,1,143.999995605469,2|0,0:0|0:0,0:0:0:0:
228,281,79465,2,0,P|228:321|231:370,1,71.9999978027344,2|0,1:2|0:0,0:0:0:0:
348,381,79765,6,0,P|363:329|339:235,1,143.999995605469,4|2,0:2|1:2,0:0:0:0:
434,254,80215,2,0,L|539:242,1,71.9999978027344,2|0,0:2|0:0,0:0:0:0:
429,142,80515,1,2,0:2:0:0:
429,142,80665,2,0,L|534:154,1,71.9999978027344,2|2,1:2|0:2,0:0:0:0:
373,70,80965,6,0,P|329:121|230:124,1,143.999995605469,4|0,0:2|1:0,0:0:0:0:
180,55,81415,1,0,0:0:0:0:
180,55,81565,2,0,P|104:49|9:57,2,143.999995605469,2|2|4,0:0|1:2|0:2,0:0:0:0:
367,132,82465,6,0,L|360:220,1,71.9999978027344,0|0,1:0|0:0,0:0:0:0:
295,246,82765,2,0,P|383:254|466:248,2,143.999995605469,2|2|4,0:0|1:2|0:2,0:0:0:0:
95,232,83665,6,0,L|102:320,1,71.9999978027344,0|0,1:0|0:0,0:0:0:0:
164,346,83965,2,0,P|92:341|-7:348,2,143.999995605469,2|2|4,0:0|1:2|1:2,0:0:0:0:
439,356,84865,5,0,1:0:0:0:
439,356,85015,2,0,P|392:354|348:346,1,71.9999978027344,0|2,0:0|1:2,0:0:0:0:
453,233,85315,1,2,0:2:0:0:
453,233,85465,2,0,P|406:234|362:242,1,71.9999978027344,2|2,1:2|0:2,0:0:0:0:
311,195,85765,5,4,1:2:0:0:
316,286,85915,2,0,P|244:284|175:216,1,143.999995605469,4|4,3:0|1:2,0:0:0:0:
88,292,86365,2,0,L|100:124,1,143.999995605469,8|0,3:0|1:0,0:0:0:0:
105,69,86815,1,0,0:0:0:0:
105,69,86965,5,6,0:2:0:0:
430,32,87565,1,2,0:0:0:0:
197,98,88165,5,8,3:0:0:0:
273,66,88615,1,0,3:0:0:0:
273,66,88765,1,8,3:0:0:0:
353,100,89215,1,2,0:0:0:0:
353,100,89290,1,2,0:0:0:0:
353,100,89365,1,2,0:0:0:0:
446,323,89965,5,2,0:0:0:0:
434,251,90265,2,0,P|440:221|435:147,1,96,2|0,0:0|0:0,0:0:0:0:
351,314,90865,5,2,0:0:0:0:
281,278,91165,1,2,0:0:0:0:
211,301,91465,2,0,P|184:302|157:307,1,48,2|0,0:0|0:0,0:0:0:0:
134,230,91765,6,0,P|90:254|-15:230,2,144,2|2|2,0:0|0:0|0:0,0:0:0:0:
55,132,103765,6,0,P|46:81|52:15,1,96,0|0,1:0|0:0,0:0:0:0:
142,35,104365,2,0,P|151:86|145:152,1,96,0|0,1:0|0:0,0:0:0:0:
153,317,104965,2,0,P|152:270|161:223,1,96,0|0,1:0|0:0,0:0:0:0:
255,225,105565,2,0,P|256:272|248:320,1,96,0|0,1:0|0:0,0:0:0:0:
421,178,106165,6,0,L|303:182,1,96,0|0,1:0|0:0,0:0:0:0:
269,122,106615,1,0,0:0:0:0:
269,122,106765,2,0,B|277:73|277:73|264:12,2,96,0|0|0,1:0|0:0|1:0,0:0:0:0:
172,66,107665,1,0,0:0:0:0:
29,106,107965,6,0,L|32:-2,1,96,0|0,1:0|0:0,0:0:0:0:
77,204,108565,2,0,P|39:213|-5:266,1,96,0|0,1:0|0:0,0:0:0:0:
158,152,109165,2,0,P|196:161|240:214,1,96,0|0,1:0|0:0,0:0:0:0:
305,320,109765,6,0,B|232:317|263:344|190:349,1,120,0|0,1:0|0:0,0:0:0:0:
374,243,110365,2,0,B|446:240|415:267|488:272,1,120,0|0,1:0|0:0,0:0:0:0:
348,127,110965,5,0,1:0:0:0:
253,189,111265,1,0,1:0:0:0:
170,112,111565,1,0,1:0:0:0:
220,18,111865,1,0,1:0:0:0:
327,28,112165,1,6,1:2:0:0:
121,360,113365,6,0,P|122:324|122:288,1,71.9999978027344,4|0,0:2|0:0,0:0:0:0:
188,108,113665,2,0,P|183:173|187:255,1,143.999995605469,0|2,1:0|0:0,0:0:0:0:
267,185,114115,1,2,0:0:0:0:
267,185,114265,2,0,L|353:188,1,71.9999978027344,0|0,1:0|0:0,0:0:0:0:
404,55,114565,6,0,L|389:133,1,71.9999978027344,4|0,0:2|0:0,0:0:0:0:
463,305,114865,2,0,P|482:258|454:158,1,143.999995605469,0|2,1:0|0:0,0:0:0:0:
386,303,115315,1,2,0:0:0:0:
386,303,115465,2,0,P|354:303|308:310,1,71.9999978027344,0|0,1:0|0:0,0:0:0:0:
119,373,115765,6,0,B|188:347|188:347|264:363,1,143.999995605469,4|0,0:2|1:0,0:0:0:0:
313,224,116215,2,0,B|244:250|244:250|168:234,1,143.999995605469,4|0,0:2|1:0,0:0:0:0:
100,296,116665,2,0,P|101:258|98:212,1,71.9999978027344,4|0,0:2|0:0,0:0:0:0:
0,116,116965,6,0,B|93:114|43:150|162:143,1,143.999995605469,4|2,0:2|1:2,0:0:0:0:
191,93,117415,1,2,0:0:0:0:
262,82,117565,1,2,1:2:0:0:
329,105,117715,1,2,0:0:0:0:
370,164,117865,1,2,1:2:0:0:
369,235,118015,1,0,1:0:0:0:
311,277,118165,6,0,P|316:317|316:352,1,71.9999978027344,4|0,0:2|0:0,0:0:0:0:
140,384,118465,2,0,P|202:376|231:279,1,143.999995605469,0|2,1:0|0:0,0:0:0:0:
129,307,118915,1,2,0:0:0:0:
129,307,119065,2,0,B|92:315|92:315|47:304,1,71.9999978027344,0|0,1:0|0:0,0:0:0:0:
233,212,119365,6,0,L|312:196,1,71.9999978027344,4|0,0:2|0:0,0:0:0:0:
155,90,119665,2,0,P|148:171|159:246,1,143.999995605469,0|2,1:0|0:0,0:0:0:0:
237,98,120115,1,2,0:0:0:0:
237,98,120265,2,0,L|234:18,1,71.9999978027344,0|0,1:0|0:0,0:0:0:0:
380,0,120565,6,0,P|391:64|381:156,1,143.999995605469,4|0,0:2|1:0,0:0:0:0:
313,297,121015,2,0,P|302:233|312:141,1,143.999995605469,4|0,0:2|1:0,0:0:0:0:
389,291,121465,2,0,L|470:286,1,71.9999978027344,4|0,0:2|0:0,0:0:0:0:
258,349,121765,6,0,L|111:345,1,143.999995605469,4|2,0:2|1:2,0:0:0:0:
138,270,122215,1,2,0:2:0:0:
138,270,122365,2,0,P|102:271|65:278,1,71.9999978027344,2|2,1:2|1:2,0:0:0:0:
169,196,122665,5,2,1:2:0:0:
281,263,122815,1,2,1:2:0:0:
374,175,122965,2,0,P|378:116|427:28,1,143.999995605469,4|0,0:2|1:0,0:0:0:0:
307,6,123415,2,0,P|303:65|254:153,1,143.999995605469,2|2,0:0|0:2,0:0:0:0:
204,93,123865,5,2,1:2:0:0:
239,216,124015,1,2,0:2:0:0:
144,301,124165,2,0,B|59:300|102:258|9:261,1,143.999995605469,4|0,0:2|1:0,0:0:0:0:
131,383,124615,2,0,B|223:386|180:344|265:343,1,143.999995605469,2|2,0:0|0:0,0:0:0:0:
318,281,125065,5,2,1:2:0:0:
224,273,125215,1,2,0:0:0:0:
350,211,125365,2,0,P|282:200|186:203,1,143.999995605469,4|0,0:2|1:0,0:0:0:0:
353,133,125815,2,0,P|285:122|189:125,1,143.999995605469,2|2,0:0|0:2,0:0:0:0:
60,162,126265,6,0,L|137:147,1,71.9999978027344,2|2,1:2|0:2,0:0:0:0:
25,32,126565,2,0,L|0:106,1,71.9999978027344,4|0,0:2|0:0,0:0:0:0:
155,66,126865,2,0,L|103:6,1,71.9999978027344,0|0,1:0|0:0,0:0:0:0:
0,199,127165,6,0,P|61:192|135:261,1,143.999995605469,2|2,0:0|1:2,0:0:0:0:
71,291,127615,1,0,0:0:0:0:
71,291,127765,2,0,L|78:369,1,71.9999978027344,4|0,0:2|0:0,0:0:0:0:
198,245,128065,6,0,P|264:249|354:241,1,143.999995605469,0|2,1:0|0:0,0:0:0:0:
234,170,128515,1,0,0:0:0:0:
234,170,128665,2,0,P|275:166|317:168,1,71.9999978027344,2|0,1:2|0:0,0:0:0:0:
450,308,128965,6,0,P|467:261|461:150,1,143.999995605469,4|0,0:2|1:0,0:0:0:0:
371,37,129415,1,0,0:0:0:0:
371,37,129565,6,0,P|366:108|387:177,1,143.999995605469,2|2,0:0|1:2,0:0:0:0:
330,363,130015,1,0,0:0:0:0:
330,363,130165,6,0,P|334:291|313:222,1,143.999995605469,4|0,1:2|1:0,0:0:0:0:
244,243,130615,1,0,0:0:0:0:
174,223,130765,2,0,L|83:230,1,71.9999978027344,2|2,1:2|0:0,0:0:0:0:
238,86,131065,2,0,L|329:93,1,71.9999978027344,2|2,1:2|0:0,0:0:0:0:
103,0,131365,6,0,B|77:56|77:56|114:140,1,143.999995605469,4|0,0:2|1:0,0:0:0:0:
16,116,131815,2,0,P|22:151|18:220,1,71.9999978027344,4|0,0:2|0:0,0:0:0:0:
32,265,132115,5,2,1:2:0:0:
147,230,132265,1,2,1:2:0:0:
179,312,132415,5,2,1:2:0:0:
233,250,132565,1,6,1:2:0:0:
