osu file format v14

[General]
AudioFilename: audio.mp3
AudioLeadIn: 0
PreviewTime: 79595
Countdown: 0
SampleSet: Soft
StackLeniency: 0.7
Mode: 0
LetterboxInBreaks: 0
WidescreenStoryboard: 0

[Editor]
Bookmarks: 59385,69490
DistanceSpacing: 1.2
BeatDivisor: 1
GridSize: 32
TimelineZoom: 8

[Metadata]
Title:Koishi Circulation
TitleUnicode:Koishi Circulation
Artist:sawawa
ArtistUnicode:さわわ
Creator:SakiZ
Version:Asaiga's Easy
Source:疾走アレンジ
Tags:shissou arenji nioshi noai zun hartmann youkai girl touhou koishi komeiji asaiga hikan shortthu astarte hokichi lmt
BeatmapID:1392012
BeatmapSetID:641707

[Difficulty]
HPDrainRate:3.2
CircleSize:3.2
OverallDifficulty:3.2
ApproachRate:3.5
SliderMultiplier:0.75
SliderTickRate:1

[Events]
//Background and Video events
0,0,"bg1.jpg",0,0
//Break Periods
2,39374,42812
2,59585,68110
//Storyboard Layer 0 (Background)
//Storyboard Layer 1 (Fail)
//Storyboard Layer 2 (Pass)
//Storyboard Layer 3 (Foreground)
//Storyboard Sound Samples

[TimingPoints]
1280,315.789473684211,7,2,1,70,1,0
18964,315.789473684211,4,2,1,70,1,0
69490,-100,4,2,1,50,0,0
74542,-100,4,2,1,70,0,0
79595,-100,7,2,1,90,0,1
98542,-100,7,2,1,70,0,0
99806,-100,7,2,1,90,0,1
120016,-100,7,2,1,70,0,0

[Colours]
Combo1 : 135,174,0
Combo2 : 0,191,115
Combo3 : 70,163,255
Combo4 : 254,228,52
Combo5 : 128,255,255
SliderBorder : 179,255,255
SliderTrackOverride : 0,43,43

[HitObjects]
112,26,1280,6,0,B|54:42|11:75|11:75|46:141|46:141|110:112|110:112|181:97|212:182,1,375,6|6,1:2|1:2,0:2:0:0:
217,342,3490,6,0,B|129:304|130:189|130:189|30:235|30:235|59:274|68:324,1,375,6|6,1:2|1:2,0:2:0:0:
235,250,5701,6,0,B|306:277|304:371|304:371|326:321|381:291|381:291|418:346|494:326,1,375,6|6,1:2|1:2,0:2:0:0:
455,242,7595,1,6,1:2:0:0:
512,175,7911,6,0,B|458:139|404:172|404:172|442:29|442:29|397:67|328:47,1,375,6|6,1:2|1:2,0:2:0:0:
249,23,9806,1,6,1:2:0:0:
273,109,10122,6,0,P|295:160|265:236,1,112.5,6|6,1:2|1:2,0:2:0:0:
102,215,11227,2,0,P|90:160|112:110,1,112.5,6|6,1:2|1:2,0:2:0:0:
191,271,12332,6,0,L|191:390,1,112.5,6|6,1:2|1:2,0:2:0:0:
371,381,13437,2,0,L|371:267,1,112.5,6|6,1:2|1:2,0:2:0:0:
484,128,14543,6,0,P|434:147|363:119,1,112.5,6|6,1:2|1:2,0:2:0:0:
203,173,15648,2,0,P|221:111|197:55,1,112.5,6|6,1:2|1:2,0:2:0:0:
130,117,16437,1,6,1:2:0:0:
54,67,16753,6,0,P|39:120|57:172,1,112.5,6|6,1:2|1:2,0:2:0:0:
10,346,17858,2,0,P|63:362|132:334,1,112.5,6|6,1:2|1:2,0:2:0:0:
184,287,18648,1,0,0:2:0:0:
267,321,18964,6,0,L|356:325,1,75,6|10,1:2|1:2,0:2:0:0:
431,328,19595,1,2,1:2:0:0:
445,148,20227,2,0,B|316:171|353:94|227:131,1,225,2|10,1:2|1:2,0:2:0:0:
166,197,21490,6,0,L|176:286,2,75,2|10|2,1:2|1:2|1:2,0:2:0:0:
227,130,22437,1,10,1:2:0:0:
138,111,22753,2,0,L|125:0,2,112.5,2|0|10,1:2|0:2|1:2,0:2:0:0:
77,177,24016,6,0,P|64:216|68:274,1,75,2|10,1:2|1:2,0:2:0:0:
87,336,24648,1,2,1:2:0:0:
262,294,25279,2,0,P|346:358|434:277,1,225,2|10,1:2|1:2,0:2:0:0:
346,263,26542,6,0,L|335:94,1,150,2|2,1:2|1:2,0:2:0:0:
302,29,27490,1,10,1:2:0:0:
239,93,27806,2,0,P|202:101|150:84,1,75,2|10,1:2|1:2,0:2:0:0:
85,54,28437,2,0,P|76:89|85:132,1,75,6|14,1:2|1:2,0:2:0:0:
140,195,29069,6,0,L|222:189,1,75,6|10,1:2|1:2,0:2:0:0:
304,179,29700,1,2,1:2:0:0:
349,353,30332,2,0,B|117:333,1,225,2|10,1:2|1:2,0:2:0:0:
57,274,31595,6,0,L|49:184,2,75,2|10|2,1:2|1:2|1:2,0:2:0:0:
124,333,32542,1,10,1:2:0:0:
174,258,32858,2,0,P|224:273|293:240,2,112.5,2|0|10,1:2|0:2|1:2,0:2:0:0:
223,182,34121,6,0,L|215:107,1,75,6|10,1:2|1:2,0:2:0:0:
205,17,34753,1,2,1:2:0:0:
384,9,35384,2,0,B|370:159|370:159|402:239,1,225,6|10,1:2|1:2,0:2:0:0:
432,310,36647,6,0,P|368:343|293:325,1,150,6|6,1:2|1:2,0:2:0:0:
226,267,37595,1,10,1:2:0:0:
268,187,37911,2,0,L|251:59,2,112.5,2|2|2,1:2|1:2|1:2,0:2:0:0:
337,244,39174,5,6,0:2:0:0:
431,308,44227,6,0,L|416:149,1,150,6|2,1:2|1:2,0:2:0:0:
310,13,45490,2,0,L|133:25,1,150,2|2,1:2|1:2,0:2:0:0:
38,155,46753,6,0,P|10:222|43:289,2,150,2|2|6,1:2|1:2|1:2,0:2:0:0:
100,220,48332,1,6,1:2:0:0:
179,177,48648,2,0,P|189:223|182:258,1,75,6|6,1:2|1:2,0:2:0:0:
123,316,49279,6,0,L|276:309,1,150,6|2,1:2|1:2,0:2:0:0:
441,245,50542,2,0,L|435:88,1,150,2|2,1:2|1:2,0:2:0:0:
263,38,51806,6,0,P|191:23|132:68,2,150,2|2|2,1:2|1:2|1:2,0:2:0:0:
211,111,53385,1,10,1:2:0:0:
160,186,53700,2,0,L|181:273,1,75,2|10,1:2|1:2,0:2:0:0:
233,329,54332,6,0,P|300:343|367:289,1,150,6|2,1:2|1:2,0:2:0:0:
400,216,55279,1,10,1:2:0:0:
372,130,55595,2,0,B|337:115|337:115|223:134,1,150,6|2,1:2|1:2,0:2:0:0:
138,153,56542,1,10,1:2:0:0:
50,174,56858,6,0,L|63:259,1,75,6|10,1:2|1:2,0:2:0:0:
85,335,57490,2,0,P|117:350|164:350,1,75,6|10,1:2|1:2,0:2:0:0:
237,312,58121,2,0,P|274:301|323:305,1,75,6|10,1:2|1:2,0:2:0:0:
395,331,58753,2,0,L|408:244,1,75,6|14,1:2|1:2,0:2:0:0:
422,167,59385,5,6,0:2:0:0:
384,55,69490,6,0,P|306:55|306:179,1,225,4|0,0:2|0:2,0:2:0:0:
391,163,70753,2,0,B|391:249,2,75,0|0|0,0:2|0:2|0:2,0:2:0:0:
305,321,72016,6,0,B|176:275|216:366|84:326,1,225,0|0,0:2|0:2,0:2:0:0:
18,270,73279,2,0,L|12:181,2,75,0|0|0,0:2|0:2|0:2,0:2:0:0:
90,104,74542,6,0,P|127:155|208:149,1,150,6|2,1:2|1:2,0:2:0:0:
262,77,75490,1,2,1:2:0:0:
344,111,75806,2,0,B|366:141|366:141|347:256,1,150,6|2,1:2|1:2,0:2:0:0:
331,340,76753,1,2,1:2:0:0:
251,298,77069,6,0,P|216:286|175:288,1,75,6|2,1:2|1:2,0:2:0:0:
96,325,77700,2,0,L|90:246,1,75,6|2,1:2|1:2,0:2:0:0:
31,181,78332,2,0,L|36:103,1,75,6|2,1:2|1:2,0:2:0:0:
45,16,78964,2,0,P|85:17|128:42,1,75,2|2,1:2|0:2,0:2:0:0:
183,91,79595,6,0,P|250:118|320:79,1,150,6|2,1:2|1:2,0:2:0:0:
379,21,80542,1,10,1:2:0:0:
443,83,80858,2,0,L|454:177,1,75,2|10,1:2|1:2,0:2:0:0:
410,237,81490,1,2,1:2:0:0:
328,199,81806,1,10,1:2:0:0:
261,258,82121,6,0,P|241:207|258:145,2,112.5,2|0|10,1:2|0:2|1:2,0:2:0:0:
328,199,83385,2,0,L|423:190,2,75,2|10|2,1:2|1:2|1:2,0:2:0:0:
195,321,84648,6,0,P|114:333|61:284,1,150,2|2,1:2|1:2,0:2:0:0:
143,248,85595,1,10,1:2:0:0:
98,169,85911,2,0,P|136:158|190:168,1,75,2|10,1:2|1:2,0:2:0:0:
236,222,86542,2,0,P|270:231|311:223,1,75,2|10,1:2|1:2,0:2:0:0:
365,153,87174,2,0,B|328:218|328:218|344:292|344:292|310:359,1,225,2|10,1:2|1:2,0:2:0:0:
227,323,88437,5,6,1:2:0:0:
183,244,88753,1,6,1:2:0:0:
226,164,89069,1,6,1:2:0:0:
352,35,89700,6,0,P|352:107|425:157,1,150,6|2,1:2|1:2,0:2:0:0:
497,165,90647,1,10,1:2:0:0:
446,238,90963,2,0,L|442:330,1,75,2|10,1:2|1:2,0:2:0:0:
360,275,91595,1,2,1:2:0:0:
277,311,91911,1,10,1:2:0:0:
195,274,92226,6,0,P|205:222|185:166,2,112.5,2|0|10,1:2|0:2|1:2,0:2:0:0:
132,339,93490,2,0,L|49:333,2,75,2|10|2,1:2|1:2|1:2,0:2:0:0:
185,167,94753,6,0,L|354:159,1,150,6|2,1:2|1:2,0:2:0:0:
418,194,95700,1,10,1:2:0:0:
495,147,96016,2,0,P|506:194|498:236,1,75,6|10,1:2|1:2,0:2:0:0:
463,300,96648,2,0,P|426:307|390:297,1,75,2|10,1:2|1:2,0:2:0:0:
318,243,97279,6,0,P|253:208|170:240,1,150,6|6,1:2|1:2,0:2:0:0:
120,292,98227,1,14,1:2:0:0:
34,265,98542,1,6,1:2:0:0:
97,201,98858,2,0,L|64:64,1,112.5,6|6,1:2|1:2,0:2:0:0:
191,31,99806,6,0,B|244:25|244:25|288:39|288:39|339:37,1,150,6|2,1:2|1:2,0:2:0:0:
428,32,100753,1,10,1:2:0:0:
416,121,101069,2,0,L|427:215,1,75,2|10,1:2|1:2,0:2:0:0:
434,285,101701,1,2,1:2:0:0:
350,250,102017,1,10,1:2:0:0:
278,304,102332,6,0,P|229:280|168:289,2,112.5,2|0|10,1:2|0:2|1:2,0:2:0:0:
350,250,103596,2,0,L|356:159,2,75,2|10|2,1:2|1:2|1:2,0:2:0:0:
436,92,104858,6,0,P|359:60|288:80,1,150,2|2,1:2|1:2,0:2:0:0:
230,135,105806,1,10,1:2:0:0:
149,93,106122,2,0,L|62:83,1,75,2|10,1:2|1:2,0:2:0:0:
5,141,106753,2,0,P|3:182|20:233,1,75,2|10,1:2|1:2,0:2:0:0:
46,297,107385,2,0,P|149:311|220:219,1,225,2|10,1:2|1:2,0:2:0:0:
269,149,108648,5,6,1:2:0:0:
312,228,108964,1,6,1:2:0:0:
355,307,109280,1,6,1:2:0:0:
177,277,109911,6,0,P|105:262|69:199,1,150,6|2,1:2|1:2,0:2:0:0:
89,112,110858,1,10,1:2:0:0:
176,90,111174,2,0,L|254:77,1,75,6|14,1:2|1:2,0:2:0:0:
337,101,111806,1,6,1:2:0:0:
414,55,112122,1,14,1:2:0:0:
489,103,112437,6,0,P|495:165|463:211,2,112.5,6|0|10,1:2|0:2|1:2,0:2:0:0:
414,55,113701,2,0,L|334:47,2,75,6|14|6,1:2|1:2|1:2,0:2:0:0:
266,158,114964,6,0,P|207:114|136:129,1,150,6|6,1:2|1:2,0:2:0:0:
80,199,115911,1,2,1:2:0:0:
112,282,116227,2,0,P|150:293|204:283,1,75,6|2,1:2|1:2,0:2:0:0:
260,241,116858,2,0,P|294:232|335:240,1,75,6|6,1:2|1:2,0:2:0:0:
401,297,117490,6,0,P|420:226|381:165,1,150,6|6,1:2|1:2,0:2:0:0:
302,121,118437,1,6,1:2:0:0:
217,152,118753,2,0,L|119:146,2,75,6|6|6,1:2|1:2|0:2,0:2:0:0:
381,165,120016,5,6,1:2:0:0:
