osu file format v14

[General]
AudioFilename: audio.mp3
AudioLeadIn: 0
PreviewTime: 165055
Countdown: 0
SampleSet: Normal
StackLeniency: 0.7
Mode: 1
LetterboxInBreaks: 0
WidescreenStoryboard: 1

[Editor]
DistanceSpacing: 1.9
BeatDivisor: 8
GridSize: 32
TimelineZoom: 1.8

[Metadata]
Title:Fire in the Phoenix
TitleUnicode:Fire in the Phoenix
Artist:sawawa
ArtistUnicode:さわわ
Creator:4sbet1
Version:Oni
Source:東方永夜抄 ~ Imperishable Night.
Tags:太田 順也 Oota Junya Ohta ZUN 東方Project Touhou Project 上海アリス幻樂団 Team Shanghai Alice IN th08 Eternal Night Vignette 月まで届け、不死の煙 tsuki made todoke, fushi no kemuri Reach for the Moon, Immortal Smoke 藤原 妹紅 Fujiwara no Mokou 東方疾走響2 Touhou Eiyashou Hibiki 2 toho Extra Stage Boss Lieblings Tracks Exist twinkle EXTW-0001 C-Show コミックマーケット87 Comic Market 87 C87 Video Game Hardcore piano Doujin Indie Electronic Instrumental arctic
BeatmapID:3447399
BeatmapSetID:1630732

[Difficulty]
HPDrainRate:5.5
CircleSize:5
OverallDifficulty:6
ApproachRate:5
SliderMultiplier:1.4
SliderTickRate:1

[Events]
//Background and Video events
0,0,"BG.jpg",0,0
//Break Periods
//Storyboard Layer 0 (Background)
//Storyboard Layer 1 (Fail)
//Storyboard Layer 2 (Pass)
//Storyboard Layer 3 (Foreground)
//Storyboard Layer 4 (Overlay)
//Storyboard Sound Samples

[TimingPoints]
-4141,419.58041958042,4,1,0,50,1,0
34460,419.58041958042,4,1,0,60,1,8
35247,-100,4,1,0,60,0,0
35299,315.789473684211,4,1,0,70,1,0
35299,-107.709750566893,4,1,0,70,0,0
45404,-96.9387755102041,4,1,0,80,0,0
54226,-96.9387755102042,4,1,0,80,0,0
54384,-97.5632589563215,4,1,0,80,0,0
54542,-98.1916366672879,4,1,0,80,0,0
54700,-98.8239312652125,4,1,0,80,0,0
55015,-100.09629777455,4,1,0,80,0,0
55173,-100.740454569934,4,1,0,80,0,0
55331,-101.388619696101,4,1,0,80,0,0
55489,-102.040816326531,4,1,0,80,0,0
60542,-102.040816326531,4,1,0,70,0,0
60779,-101.795455341324,4,1,0,70,0,0
60858,-101.713802138142,4,1,0,70,0,0
61016,-101.550696078764,4,1,0,70,0,0
61095,-101.469243109134,4,1,0,70,0,0
61174,-101.387856770672,4,1,0,70,0,0
61332,-101.225283760952,4,1,0,70,0,0
61489,-101.064003023024,4,1,0,70,0,0
61647,-100.901959576298,4,1,0,70,0,0
61805,-100.740181076981,4,1,0,70,0,0
62042,-100.498009121033,4,1,0,70,0,0
62279,-100.256430771164,4,1,0,70,0,0
62595,-99.9352470826672,4,1,0,70,0,0
62753,-99.7750488538734,4,1,0,70,0,0
62910,-99.6161238754961,4,1,0,70,0,0
63068,-99.4564471838909,4,1,0,70,0,0
63226,-99.2970314249747,4,1,0,70,0,0
63305,-99.2174212570056,4,1,0,70,0,0
63463,-99.0583960679458,4,1,0,70,0,0
63542,-98.978980936565,4,1,0,70,0,0
63700,-98.820345324751,4,1,0,70,0,0
63858,-98.6619688809812,4,1,0,70,0,0
63936,-98.5838784599353,4,1,0,70,0,0
64016,-98.503851166089,4,1,0,70,0,0
64174,-98.3459917417026,4,1,0,70,0,0
64332,-98.1883901702432,4,1,0,70,0,0
64568,-97.9534645596914,4,1,0,70,0,0
64805,-97.718120002622,4,1,0,70,0,0
64963,-97.5615438632994,4,1,0,70,0,0
65121,-97.4052234035919,4,1,0,70,0,0
65279,-97.2491581906407,4,1,0,70,0,0
65594,-96.9387755102042,4,1,0,70,0,0
65614,-96.9387755102042,4,1,0,100,0,1
74436,-96.9387755102042,4,1,0,100,0,1
74594,-98.2258732751096,4,1,0,100,0,1
74673,-98.875610575375,4,1,0,100,0,1
74753,-99.5378102233069,4,1,0,100,0,1
74910,-100.849872227372,4,1,0,100,0,1
75068,-102.187170645594,4,1,0,100,0,1
75147,-102.862232454761,4,1,0,100,0,1
75226,-103.541603132836,4,1,0,100,0,1
75384,-104.913373247953,4,1,0,100,0,1
75700,-107.709750566894,4,1,0,60,0,1
75720,306.122448979592,4,1,0,70,1,0
75720,-111.111111111111,4,1,0,70,0,0
85324,-108.108108108108,4,1,0,70,0,0
85477,-105.263157894737,4,1,0,75,0,0
90375,-100,4,1,0,80,0,0
95273,-100,4,1,0,100,0,0
95311,-100,4,1,0,100,0,1
114865,-100,4,1,0,80,0,1
114903,-100,4,1,0,80,0,0
123475,-100,4,1,0,80,0,0
123704,-101.906585629839,4,1,0,80,0,0
123781,-102.564102564103,4,1,0,80,0,0
123934,-103.896103896104,4,1,0,80,0,0
124087,-105.263157894737,4,1,0,80,0,0
124240,-106.666666666667,4,1,0,80,0,0
124393,-108.108108108108,4,1,0,80,0,0
124546,-109.58904109589,4,1,0,80,0,0
124661,-109.58904109589,4,1,0,70,0,0
124699,-111.111111111111,4,1,0,70,0,0
133883,-111.111111111111,4,1,0,70,0,0
134189,-105.263157894737,4,1,0,70,0,0
134265,-103.904923599321,4,1,0,70,0,0
134342,-102.564102564103,4,1,0,70,0,0
134418,-101.274201555519,4,1,0,70,0,0
134457,-101.274201555519,4,1,0,100,0,0
134495,-100,4,1,0,100,0,1
143047,-100,4,1,0,100,0,1
143124,-100.664463929497,4,1,0,100,0,1
143201,-101.333342982131,4,1,0,100,0,1
143277,-101.997893423121,4,1,0,100,0,1
143354,-102.675632633765,4,1,0,100,0,1
143430,-103.348985894771,4,1,0,100,0,1
143507,-104.035702627543,4,1,0,100,0,1
143583,-104.717975313169,4,1,0,100,0,1
143660,-105.413788486825,4,1,0,100,0,1
143736,-106.10509874625,4,1,0,100,0,1
143813,-106.810128854776,4,1,0,100,0,1
143889,-107.510596402217,4,1,0,100,0,1
143966,-108.224965535697,4,1,0,100,0,1
144272,-111.111111111111,4,1,0,80,0,1
144291,-111.111111111111,4,1,0,80,0,0
148251,-111.111111111111,4,1,0,80,0,0
148404,-109.168891275477,4,1,0,80,0,0
148557,-107.263898845518,4,1,0,80,0,0
148633,-106.331210291981,4,1,0,80,0,0
148710,-105.395307171574,4,1,0,80,0,0
148863,-103.562311884091,4,1,0,80,0,0
148939,-102.664793921082,4,1,0,80,0,0
149016,-101.764130156953,4,1,0,80,0,0
149092,-100.883620671513,4,1,0,80,0,0
149169,-100,4,1,0,100,0,0
149189,-100,4,1,0,100,0,1
154062,-100,4,1,0,100,0,1
154087,-100,4,1,0,100,0,0
154521,-106.28400296897,4,1,0,89,0,0
154980,-112.962892871081,4,1,0,78,0,0
155311,306.122448979592,4,1,0,70,1,0
155311,-117.647058823529,4,1,0,70,0,0
162632,-117.647058823529,4,1,0,70,0,0
162786,-116.437837238522,4,1,0,72,0,0
162862,-115.846344780034,4,1,0,73,0,0
162939,-115.250584707155,4,1,0,74,0,0
163092,-114.077201419055,4,1,0,76,0,0
163245,-112.917489710744,4,1,0,78,0,0
163398,-111.771255467879,4,1,0,79,0,0
163474,-111.20683517371,4,1,0,80,0,0
163551,-110.638308046112,4,1,0,81,0,0
163704,-109.518460194048,4,1,0,83,0,0
163857,-108.411527978268,4,1,0,85,0,0
164010,-107.31733071033,4,1,0,87,0,0
164087,-106.771417406064,4,1,0,88,0,0
164163,-106.235690875699,4,1,0,89,0,0
164316,-105.166434064546,4,1,0,91,0,0
164393,-104.632941313758,4,1,0,92,0,0
164469,-104.109388904349,4,1,0,93,0,0
164622,-103.064386994259,4,1,0,94,0,0
164775,-102.031262841158,4,1,0,96,0,0
165081,-100,4,1,0,100,0,0
165106,-100,4,1,0,100,0,1
184660,-100,4,1,0,80,0,1
184698,-100,4,1,0,80,0,0
203946,-105.263157894737,4,1,0,80,0,0
204252,-111.111111111111,4,1,0,70,0,0
209169,-111.111111111111,4,1,0,70,0,0
209475,-110.378660778763,4,1,0,70,0,0
209628,-110.014427731858,4,1,0,70,0,0
209934,-109.289917884444,4,1,0,70,0,0
210087,-108.929629973545,4,1,0,70,0,0
210240,-108.570646045204,4,1,0,70,0,0
210394,-108.21062706128,4,1,0,70,0,0
210623,-107.67769476264,4,1,0,70,0,0
210853,-107.145332537413,4,1,0,70,0,0
211159,-106.44152922222,4,1,0,70,0,0
211312,-106.091529439718,4,1,0,70,0,0
211465,-105.742790510742,4,1,0,70,0,0
211618,-105.395307171574,4,1,0,70,0,0
211771,-105.049074185241,4,1,0,70,0,0
211924,-104.704086341348,4,1,0,70,0,0
212077,-104.360338455911,4,1,0,70,0,0
212230,-104.017825371194,4,1,0,70,0,0
212383,-103.676541955541,4,1,0,70,0,0
212536,-103.336483103218,4,1,0,70,0,0
212689,-102.997643734247,4,1,0,70,0,0
212843,-102.657816078883,4,1,0,70,0,0
212996,-102.321408427016,4,1,0,70,0,0
213149,-101.986205138912,4,1,0,70,0,0
213302,-101.652201236202,4,1,0,70,0,0
213455,-101.319391765491,4,1,0,70,0,0
213761,-100.657336430397,4,1,0,70,0,0
213914,-100.328080782682,4,1,0,70,0,0
214067,-100,4,1,0,100,0,0
214086,-100,4,1,0,100,0,1
262721,-100,4,1,0,60,0,1
262759,-80,4,1,0,30,0,0
263027,-100,4,1,0,20,0,0
264252,-125,4,1,0,10,0,0
265476,-125,4,1,0,5,0,0

[HitObjects]
256,192,893,5,8,0:0:0:0:
256,192,1733,1,8,0:0:0:0:
256,192,2572,1,4,0:0:0:0:
256,192,3411,1,0,0:0:0:0:
256,192,3621,1,0,0:0:0:0:
256,192,3831,1,8,0:0:0:0:
256,192,4250,1,0,0:0:0:0:
256,192,5299,1,0,0:0:0:0:
256,192,5509,1,0,0:0:0:0:
256,192,5718,1,8,0:0:0:0:
256,192,5928,1,8,0:0:0:0:
256,192,6348,1,0,0:0:0:0:
256,192,6767,1,8,0:0:0:0:
256,192,7187,1,8,0:0:0:0:
256,192,7606,1,0,0:0:0:0:
256,192,9285,1,0,0:0:0:0:
256,192,10124,1,0,0:0:0:0:
256,192,10334,1,0,0:0:0:0:
256,192,10544,1,8,0:0:0:0:
256,192,10963,1,0,0:0:0:0:
256,192,11802,1,0,0:0:0:0:
256,192,12641,1,0,0:0:0:0:
256,192,12851,1,0,0:0:0:0:
256,192,13061,1,0,0:0:0:0:
256,192,13271,1,8,0:0:0:0:
256,192,13481,1,8,0:0:0:0:
256,192,13690,1,0,0:0:0:0:
256,192,13900,1,0,0:0:0:0:
256,192,14110,1,8,0:0:0:0:
256,192,14320,1,0,0:0:0:0:
256,192,14530,1,0,0:0:0:0:
256,192,14739,1,8,0:0:0:0:
256,192,14949,1,8,0:0:0:0:
256,192,15159,1,8,0:0:0:0:
256,192,15578,1,0,0:0:0:0:
256,192,15788,1,0,0:0:0:0:
256,192,15998,1,4,0:0:0:0:
256,192,16837,1,0,0:0:0:0:
256,192,17047,1,0,0:0:0:0:
256,192,17257,1,8,0:0:0:0:
256,192,17676,1,0,0:0:0:0:
256,192,18725,1,0,0:0:0:0:
256,192,18935,1,0,0:0:0:0:
256,192,19145,1,8,0:0:0:0:
256,192,19355,1,8,0:0:0:0:
256,192,19774,1,0,0:0:0:0:
256,192,20194,1,8,0:0:0:0:
256,192,20613,1,8,0:0:0:0:
256,192,21033,1,0,0:0:0:0:
256,192,22711,1,0,0:0:0:0:
256,192,23551,1,0,0:0:0:0:
256,192,23760,1,0,0:0:0:0:
256,192,23970,1,8,0:0:0:0:
256,192,24390,1,8,0:0:0:0:
256,192,25229,1,0,0:0:0:0:
256,192,26068,1,0,0:0:0:0:
256,192,26278,1,0,0:0:0:0:
256,192,26488,1,0,0:0:0:0:
256,192,26697,1,8,0:0:0:0:
256,192,26907,1,8,0:0:0:0:
256,192,27117,1,0,0:0:0:0:
256,192,27327,1,0,0:0:0:0:
256,192,27537,1,8,0:0:0:0:
256,192,27746,1,0,0:0:0:0:
256,192,27956,1,0,0:0:0:0:
256,192,28166,1,8,0:0:0:0:
256,192,28376,1,8,0:0:0:0:
256,192,28585,1,8,0:0:0:0:
256,192,29005,8,0,31523,0:0:0:0:
256,192,31942,5,4,0:0:0:0:
256,192,35299,1,12,0:0:0:0:
256,192,35614,1,0,0:0:0:0:
256,192,35772,1,8,0:0:0:0:
256,192,36088,1,0,0:0:0:0:
256,192,36246,1,8,0:0:0:0:
256,192,36404,1,0,0:0:0:0:
256,192,36562,1,8,0:0:0:0:
256,192,36877,1,0,0:0:0:0:
256,192,37035,1,8,0:0:0:0:
256,192,37351,1,0,0:0:0:0:
256,192,37509,1,12,0:0:0:0:
256,192,37825,1,12,0:0:0:0:
256,192,38141,1,0,0:0:0:0:
256,192,38299,1,8,0:0:0:0:
256,192,38614,1,0,0:0:0:0:
256,192,38772,1,12,0:0:0:0:
256,192,39088,1,12,0:0:0:0:
256,192,39404,1,0,0:0:0:0:
256,192,39562,1,12,0:0:0:0:
256,192,39877,1,0,0:0:0:0:
256,192,40035,1,12,0:0:0:0:
256,192,40351,1,0,0:0:0:0:
256,192,40667,1,0,0:0:0:0:
256,192,40825,1,12,0:0:0:0:
256,192,41141,1,0,0:0:0:0:
256,192,41299,1,12,0:0:0:0:
256,192,41614,1,12,0:0:0:0:
256,192,41851,1,12,0:0:0:0:
256,192,42088,1,12,0:0:0:0:
256,192,42404,1,0,0:0:0:0:
256,192,42562,1,12,0:0:0:0:
256,192,42877,1,12,0:0:0:0:
256,192,43114,1,12,0:0:0:0:
256,192,43351,1,12,0:0:0:0:
256,192,43509,1,0,0:0:0:0:
256,192,43825,1,8,0:0:0:0:
256,192,43983,1,8,0:0:0:0:
256,192,44141,1,0,0:0:0:0:
256,192,44377,1,0,0:0:0:0:
256,192,44456,1,8,0:0:0:0:
256,192,44614,1,8,0:0:0:0:
256,192,44772,1,0,0:0:0:0:
256,192,44930,1,0,0:0:0:0:
256,192,45088,1,8,0:0:0:0:
256,192,45246,1,8,0:0:0:0:
256,192,45404,1,12,0:0:0:0:
256,192,45720,1,0,0:0:0:0:
256,192,45877,1,8,0:0:0:0:
256,192,46035,1,0,0:0:0:0:
256,192,46193,1,0,0:0:0:0:
256,192,46351,1,8,0:0:0:0:
256,192,46509,1,0,0:0:0:0:
256,192,46588,1,0,0:0:0:0:
256,192,46667,1,8,0:0:0:0:
256,192,46983,1,0,0:0:0:0:
256,192,47141,1,8,0:0:0:0:
256,192,47299,1,0,0:0:0:0:
256,192,47456,1,0,0:0:0:0:
256,192,47614,1,8,0:0:0:0:
256,192,47693,1,8,0:0:0:0:
256,192,47772,1,0,0:0:0:0:
256,192,47930,1,8,0:0:0:0:
256,192,48246,1,0,0:0:0:0:
256,192,48404,1,8,0:0:0:0:
256,192,48562,1,0,0:0:0:0:
256,192,48720,1,0,0:0:0:0:
256,192,48877,1,8,0:0:0:0:
256,192,49035,1,0,0:0:0:0:
256,192,49114,1,0,0:0:0:0:
256,192,49193,1,8,0:0:0:0:
256,192,49351,1,0,0:0:0:0:
256,192,49509,1,0,0:0:0:0:
256,192,49667,1,8,0:0:0:0:
256,192,49825,1,0,0:0:0:0:
256,192,49983,1,8,0:0:0:0:
256,192,50062,1,8,0:0:0:0:
256,192,50220,1,8,0:0:0:0:
256,192,50299,1,8,0:0:0:0:
256,192,50456,1,8,0:0:0:0:
256,192,50772,1,0,0:0:0:0:
256,192,50930,1,8,0:0:0:0:
256,192,51088,1,0,0:0:0:0:
256,192,51246,1,0,0:0:0:0:
256,192,51404,1,8,0:0:0:0:
256,192,51562,1,0,0:0:0:0:
256,192,51641,1,0,0:0:0:0:
256,192,51720,1,8,0:0:0:0:
256,192,52035,1,0,0:0:0:0:
256,192,52193,1,8,0:0:0:0:
256,192,52351,1,0,0:0:0:0:
256,192,52509,1,0,0:0:0:0:
256,192,52667,1,8,0:0:0:0:
256,192,52746,1,8,0:0:0:0:
256,192,52825,1,0,0:0:0:0:
256,192,52983,1,8,0:0:0:0:
256,192,53299,1,0,0:0:0:0:
256,192,53456,1,8,0:0:0:0:
256,192,53614,1,0,0:0:0:0:
256,192,53772,1,0,0:0:0:0:
256,192,53930,1,8,0:0:0:0:
256,192,54088,1,0,0:0:0:0:
256,192,54167,1,0,0:0:0:0:
256,192,54246,1,8,0:0:0:0:
256,192,54404,1,0,0:0:0:0:
256,192,54562,1,0,0:0:0:0:
256,192,54720,1,8,0:0:0:0:
256,192,55035,1,0,0:0:0:0:
256,192,55193,1,8,0:0:0:0:
256,192,55351,1,8,0:0:0:0:
256,192,55509,1,0,0:0:0:0:
256,192,55825,1,8,0:0:0:0:
256,192,55983,1,0,0:0:0:0:
256,192,56062,1,8,0:0:0:0:
256,192,56141,1,8,0:0:0:0:
256,192,56299,1,0,0:0:0:0:
256,192,56456,1,8,0:0:0:0:
256,192,56614,1,8,0:0:0:0:
256,192,56772,1,0,0:0:0:0:
256,192,57009,1,0,0:0:0:0:
256,192,57246,1,8,0:0:0:0:
256,192,57562,1,0,0:0:0:0:
256,192,57720,1,8,0:0:0:0:
256,192,57877,1,8,0:0:0:0:
256,192,58035,1,0,0:0:0:0:
256,192,58193,1,8,0:0:0:0:
256,192,58272,1,0,0:0:0:0:
256,192,58430,1,0,0:0:0:0:
256,192,58509,1,8,0:0:0:0:
256,192,58667,1,8,0:0:0:0:
256,192,58825,1,0,0:0:0:0:
256,192,58983,1,8,0:0:0:0:
256,192,59141,1,8,0:0:0:0:
256,192,59299,1,0,0:0:0:0:
256,192,59535,1,0,0:0:0:0:
256,192,59772,1,8,0:0:0:0:
256,192,60088,1,0,0:0:0:0:
256,192,60246,1,8,0:0:0:0:
256,192,60404,1,8,0:0:0:0:
256,192,60562,1,4,0:0:0:0:
256,192,60799,1,0,0:0:0:0:
256,192,60878,1,8,0:0:0:0:
256,192,61036,1,0,0:0:0:0:
256,192,61115,1,8,0:0:0:0:
256,192,61194,1,8,0:0:0:0:
256,192,61352,1,0,0:0:0:0:
256,192,61509,1,8,0:0:0:0:
256,192,61667,1,8,0:0:0:0:
256,192,61825,1,0,0:0:0:0:
256,192,62062,1,0,0:0:0:0:
256,192,62299,1,8,0:0:0:0:
256,192,62615,1,0,0:0:0:0:
256,192,62773,1,8,0:0:0:0:
256,192,62930,1,8,0:0:0:0:
256,192,63088,1,0,0:0:0:0:
256,192,63246,1,8,0:0:0:0:
256,192,63325,1,0,0:0:0:0:
256,192,63483,1,0,0:0:0:0:
256,192,63562,1,8,0:0:0:0:
256,192,63720,1,8,0:0:0:0:
256,192,63878,1,0,0:0:0:0:
256,192,63956,1,0,0:0:0:0:
256,192,64036,1,8,0:0:0:0:
256,192,64194,1,8,0:0:0:0:
256,192,64352,1,0,0:0:0:0:
256,192,64588,1,0,0:0:0:0:
256,192,64825,1,8,0:0:0:0:
256,192,64983,1,0,0:0:0:0:
256,192,65141,1,0,0:0:0:0:
256,192,65299,1,8,0:0:0:0:
256,192,65614,1,0,0:0:0:0:
256,192,65772,1,0,0:0:0:0:
256,192,65930,1,8,0:0:0:0:
256,192,66088,1,0,0:0:0:0:
256,192,66167,1,0,0:0:0:0:
256,192,66246,1,0,0:0:0:0:
256,192,66404,1,0,0:0:0:0:
256,192,66562,1,8,0:0:0:0:
256,192,66641,1,8,0:0:0:0:
256,192,66720,1,0,0:0:0:0:
256,192,66799,1,0,0:0:0:0:
256,192,66877,1,8,0:0:0:0:
256,192,67035,1,0,0:0:0:0:
256,192,67114,1,0,0:0:0:0:
256,192,67193,1,0,0:0:0:0:
256,192,67351,1,0,0:0:0:0:
256,192,67509,1,8,0:0:0:0:
256,192,67667,1,8,0:0:0:0:
256,192,67746,1,0,0:0:0:0:
256,192,67825,1,8,0:0:0:0:
256,192,67983,1,8,0:0:0:0:
256,192,68141,1,0,0:0:0:0:
256,192,68299,1,0,0:0:0:0:
256,192,68457,1,8,0:0:0:0:
256,192,68615,1,0,0:0:0:0:
256,192,68694,1,0,0:0:0:0:
256,192,68773,1,0,0:0:0:0:
256,192,68931,1,0,0:0:0:0:
256,192,69089,1,8,0:0:0:0:
256,192,69168,1,8,0:0:0:0:
256,192,69247,1,0,0:0:0:0:
256,192,69326,1,0,0:0:0:0:
256,192,69404,1,8,0:0:0:0:
256,192,69562,1,0,0:0:0:0:
256,192,69641,1,0,0:0:0:0:
256,192,69720,1,0,0:0:0:0:
256,192,69878,1,0,0:0:0:0:
256,192,70036,1,8,0:0:0:0:
256,192,70193,1,8,0:0:0:0:
256,192,70272,1,8,0:0:0:0:
256,192,70430,1,8,0:0:0:0:
256,192,70510,1,8,0:0:0:0:
256,192,70667,1,0,0:0:0:0:
256,192,70983,1,8,0:0:0:0:
256,192,71141,1,0,0:0:0:0:
256,192,71220,1,0,0:0:0:0:
256,192,71299,1,0,0:0:0:0:
256,192,71457,1,0,0:0:0:0:
256,192,71615,1,8,0:0:0:0:
256,192,71694,1,8,0:0:0:0:
256,192,71773,1,0,0:0:0:0:
256,192,71852,1,0,0:0:0:0:
256,192,71930,1,8,0:0:0:0:
256,192,72088,1,0,0:0:0:0:
256,192,72167,1,0,0:0:0:0:
256,192,72246,1,0,0:0:0:0:
256,192,72404,1,0,0:0:0:0:
256,192,72562,1,8,0:0:0:0:
256,192,72720,1,8,0:0:0:0:
256,192,72799,1,0,0:0:0:0:
256,192,72878,1,8,0:0:0:0:
256,192,73036,1,8,0:0:0:0:
256,192,73194,1,0,0:0:0:0:
256,192,73272,1,0,0:0:0:0:
256,192,73352,1,0,0:0:0:0:
256,192,73430,1,0,0:0:0:0:
256,192,73510,1,8,0:0:0:0:
256,192,73667,1,8,0:0:0:0:
256,192,73826,1,0,0:0:0:0:
256,192,73904,1,0,0:0:0:0:
256,192,73984,1,0,0:0:0:0:
256,192,74062,1,0,0:0:0:0:
256,192,74142,1,8,0:0:0:0:
256,192,74300,1,8,0:0:0:0:
256,192,74456,1,0,0:0:0:0:
256,192,74614,1,8,0:0:0:0:
256,192,74693,1,8,0:0:0:0:
256,192,74773,1,0,0:0:0:0:
256,192,74930,1,8,0:0:0:0:
256,192,75088,1,0,0:0:0:0:
256,192,75167,1,0,0:0:0:0:
256,192,75246,1,0,0:0:0:0:
256,192,75404,1,8,0:0:0:0:
256,192,75720,1,4,0:0:0:0:
256,192,76332,1,0,0:0:0:0:
256,192,76485,1,0,0:0:0:0:
256,192,76638,1,8,0:0:0:0:
256,192,76944,1,0,0:0:0:0:
256,192,77709,1,0,0:0:0:0:
256,192,77862,1,8,0:0:0:0:
256,192,78015,1,0,0:0:0:0:
256,192,78168,1,8,0:0:0:0:
256,192,78475,1,0,0:0:0:0:
256,192,78781,1,8,0:0:0:0:
256,192,79087,1,8,0:0:0:0:
256,192,79393,1,0,0:0:0:0:
256,192,80617,1,0,0:0:0:0:
256,192,81230,1,0,0:0:0:0:
256,192,81383,1,0,0:0:0:0:
256,192,81536,1,8,0:0:0:0:
256,192,81842,1,0,0:0:0:0:
256,192,82454,1,0,0:0:0:0:
256,192,83066,1,0,0:0:0:0:
256,192,83220,1,0,0:0:0:0:
256,192,83373,1,0,0:0:0:0:
256,192,83526,1,8,0:0:0:0:
256,192,83679,1,8,0:0:0:0:
256,192,83832,1,0,0:0:0:0:
256,192,83985,1,0,0:0:0:0:
256,192,84138,1,8,0:0:0:0:
256,192,84291,1,0,0:0:0:0:
256,192,84444,1,0,0:0:0:0:
256,192,84598,1,0,0:0:0:0:
256,192,84751,1,8,0:0:0:0:
256,192,84904,1,8,0:0:0:0:
256,192,85209,1,0,0:0:0:0:
256,192,85362,1,0,0:0:0:0:
256,192,85515,1,4,0:0:0:0:
256,192,85822,1,0,0:0:0:0:
256,192,86128,1,0,0:0:0:0:
256,192,86281,1,0,0:0:0:0:
256,192,86434,1,8,0:0:0:0:
256,192,86740,1,0,0:0:0:0:
256,192,87046,1,0,0:0:0:0:
256,192,87199,1,8,0:0:0:0:
256,192,87505,1,0,0:0:0:0:
256,192,87658,1,0,0:0:0:0:
256,192,87811,1,8,0:0:0:0:
256,192,87964,1,8,0:0:0:0:
256,192,88271,1,0,0:0:0:0:
256,192,88577,1,8,0:0:0:0:
256,192,88883,1,8,0:0:0:0:
256,192,89189,1,0,0:0:0:0:
256,192,89495,1,0,0:0:0:0:
256,192,89801,1,0,0:0:0:0:
256,192,89954,1,0,0:0:0:0:
256,192,90107,1,8,0:0:0:0:
256,192,90260,1,8,0:0:0:0:
256,192,90413,1,4,0:0:0:0:
256,192,90720,1,0,0:0:0:0:
256,192,91026,1,0,0:0:0:0:
256,192,91179,1,0,0:0:0:0:
256,192,91332,1,8,0:0:0:0:
256,192,91638,1,4,0:0:0:0:
256,192,91944,1,0,0:0:0:0:
256,192,92250,1,8,0:0:0:0:
256,192,92403,1,8,0:0:0:0:
256,192,92556,1,8,0:0:0:0:
256,192,92709,1,8,0:0:0:0:
256,192,92862,1,0,0:0:0:0:
256,192,93015,1,0,0:0:0:0:
256,192,93168,1,0,0:0:0:0:
256,192,93322,1,8,0:0:0:0:
256,192,93475,1,8,0:0:0:0:
256,192,93628,1,0,0:0:0:0:
256,192,93781,1,0,0:0:0:0:
256,192,93934,1,8,0:0:0:0:
256,192,94087,1,0,0:0:0:0:
256,192,94240,1,0,0:0:0:0:
256,192,94393,1,0,0:0:0:0:
256,192,94546,1,8,0:0:0:0:
256,192,94699,1,8,0:0:0:0:
256,192,95005,1,8,0:0:0:0:
256,192,95158,1,8,0:0:0:0:
256,192,95311,1,4,0:0:0:0:
256,192,95617,1,8,0:0:0:0:
256,192,95771,1,0,0:0:0:0:
256,192,95847,1,0,0:0:0:0:
256,192,95924,1,8,0:0:0:0:
256,192,96076,1,0,0:0:0:0:
256,192,96229,1,8,0:0:0:0:
256,192,96383,1,8,0:0:0:0:
256,192,96459,1,8,0:0:0:0:
256,192,96536,1,0,0:0:0:0:
256,192,96689,1,0,0:0:0:0:
256,192,96842,1,8,0:0:0:0:
256,192,96995,1,0,0:0:0:0:
256,192,97071,1,0,0:0:0:0:
256,192,97148,1,0,0:0:0:0:
256,192,97301,1,8,0:0:0:0:
256,192,97454,1,8,0:0:0:0:
256,192,97607,1,0,0:0:0:0:
256,192,97760,1,8,0:0:0:0:
256,192,98066,1,0,0:0:0:0:
256,192,98219,1,0,0:0:0:0:
256,192,98372,1,8,0:0:0:0:
256,192,98525,1,0,0:0:0:0:
256,192,98602,1,0,0:0:0:0:
256,192,98678,1,8,0:0:0:0:
256,192,98831,1,8,0:0:0:0:
256,192,98984,1,0,0:0:0:0:
256,192,99138,1,0,0:0:0:0:
256,192,99291,1,8,0:0:0:0:
256,192,99444,1,8,0:0:0:0:
256,192,99520,1,8,0:0:0:0:
256,192,99597,1,0,0:0:0:0:
256,192,99750,1,0,0:0:0:0:
256,192,99903,1,8,0:0:0:0:
256,192,100056,1,8,0:0:0:0:
256,192,100209,1,0,0:0:0:0:
256,192,100515,1,8,0:0:0:0:
256,192,100669,1,0,0:0:0:0:
256,192,100745,1,0,0:0:0:0:
256,192,100822,1,8,0:0:0:0:
256,192,100974,1,0,0:0:0:0:
256,192,101127,1,8,0:0:0:0:
256,192,101281,1,8,0:0:0:0:
256,192,101357,1,8,0:0:0:0:
256,192,101434,1,0,0:0:0:0:
256,192,101587,1,0,0:0:0:0:
256,192,101740,1,8,0:0:0:0:
256,192,101893,1,0,0:0:0:0:
256,192,101969,1,0,0:0:0:0:
256,192,102046,1,0,0:0:0:0:
256,192,102199,1,0,0:0:0:0:
256,192,102352,1,8,0:0:0:0:
256,192,102505,1,8,0:0:0:0:
256,192,102658,1,0,0:0:0:0:
256,192,102811,1,0,0:0:0:0:
256,192,102888,1,0,0:0:0:0:
256,192,102964,1,8,0:0:0:0:
256,192,103117,1,0,0:0:0:0:
256,192,103270,1,8,0:0:0:0:
256,192,103424,1,8,0:0:0:0:
256,192,103500,1,8,0:0:0:0:
256,192,103577,1,0,0:0:0:0:
256,192,103729,1,8,0:0:0:0:
256,192,103882,1,0,0:0:0:0:
256,192,104036,1,8,0:0:0:0:
256,192,104112,1,8,0:0:0:0:
256,192,104265,1,8,0:0:0:0:
256,192,104342,1,8,0:0:0:0:
256,192,104495,1,0,0:0:0:0:
256,192,104648,1,0,0:0:0:0:
256,192,104801,1,8,0:0:0:0:
256,192,105107,1,4,0:0:0:0:
256,192,105413,1,8,0:0:0:0:
256,192,105567,1,0,0:0:0:0:
256,192,105643,1,0,0:0:0:0:
256,192,105720,1,8,0:0:0:0:
256,192,105872,1,0,0:0:0:0:
256,192,106025,1,8,0:0:0:0:
256,192,106179,1,8,0:0:0:0:
256,192,106255,1,8,0:0:0:0:
256,192,106332,1,0,0:0:0:0:
256,192,106485,1,0,0:0:0:0:
256,192,106638,1,8,0:0:0:0:
256,192,106791,1,0,0:0:0:0:
256,192,106867,1,0,0:0:0:0:
256,192,106944,1,0,0:0:0:0:
256,192,107097,1,8,0:0:0:0:
256,192,107250,1,8,0:0:0:0:
256,192,107403,1,0,0:0:0:0:
256,192,107556,1,8,0:0:0:0:
256,192,107862,1,0,0:0:0:0:
256,192,108015,1,0,0:0:0:0:
256,192,108168,1,8,0:0:0:0:
256,192,108321,1,0,0:0:0:0:
256,192,108398,1,0,0:0:0:0:
256,192,108474,1,8,0:0:0:0:
256,192,108627,1,8,0:0:0:0:
256,192,108780,1,0,0:0:0:0:
256,192,108934,1,0,0:0:0:0:
256,192,109087,1,8,0:0:0:0:
256,192,109240,1,8,0:0:0:0:
256,192,109316,1,8,0:0:0:0:
256,192,109393,1,0,0:0:0:0:
256,192,109546,1,0,0:0:0:0:
256,192,109699,1,8,0:0:0:0:
256,192,109852,1,8,0:0:0:0:
256,192,110005,1,0,0:0:0:0:
256,192,110311,1,8,0:0:0:0:
256,192,110465,1,0,0:0:0:0:
256,192,110541,1,0,0:0:0:0:
256,192,110618,1,8,0:0:0:0:
256,192,110770,1,0,0:0:0:0:
256,192,110923,1,8,0:0:0:0:
256,192,111077,1,8,0:0:0:0:
256,192,111153,1,8,0:0:0:0:
256,192,111230,1,0,0:0:0:0:
256,192,111383,1,0,0:0:0:0:
256,192,111536,1,8,0:0:0:0:
256,192,111689,1,0,0:0:0:0:
256,192,111765,1,0,0:0:0:0:
256,192,111842,1,0,0:0:0:0:
256,192,111995,1,0,0:0:0:0:
256,192,112148,1,8,0:0:0:0:
256,192,112301,1,8,0:0:0:0:
256,192,112454,1,0,0:0:0:0:
256,192,112607,1,0,0:0:0:0:
256,192,112760,1,0,0:0:0:0:
256,192,112913,1,8,0:0:0:0:
256,192,113066,1,8,0:0:0:0:
256,192,113220,1,0,0:0:0:0:
256,192,113373,1,0,0:0:0:0:
256,192,113525,1,8,0:0:0:0:
256,192,113679,1,4,0:0:0:0:
256,192,113832,1,4,0:0:0:0:
256,192,113985,1,4,0:0:0:0:
256,192,114138,1,12,0:0:0:0:
256,192,114291,1,12,0:0:0:0:
256,192,114597,1,8,0:0:0:0:
256,192,114903,1,8,0:0:0:0:
256,192,115056,1,8,0:0:0:0:
256,192,115209,1,0,0:0:0:0:
256,192,115362,1,8,0:0:0:0:
256,192,115515,1,8,0:0:0:0:
256,192,115668,1,0,0:0:0:0:
256,192,115822,1,8,0:0:0:0:
256,192,115975,1,0,0:0:0:0:
256,192,116051,1,0,0:0:0:0:
256,192,116128,1,8,0:0:0:0:
256,192,116434,1,0,0:0:0:0:
256,192,116587,1,8,0:0:0:0:
256,192,116740,1,0,0:0:0:0:
256,192,116893,1,0,0:0:0:0:
256,192,117046,1,8,0:0:0:0:
256,192,117123,1,8,0:0:0:0:
256,192,117199,1,0,0:0:0:0:
256,192,117276,1,0,0:0:0:0:
256,192,117352,1,8,0:0:0:0:
256,192,117505,1,8,0:0:0:0:
256,192,117658,1,0,0:0:0:0:
256,192,117811,1,8,0:0:0:0:
256,192,117964,1,8,0:0:0:0:
256,192,118117,1,0,0:0:0:0:
256,192,118271,1,8,0:0:0:0:
256,192,118424,1,0,0:0:0:0:
256,192,118500,1,0,0:0:0:0:
256,192,118577,1,8,0:0:0:0:
256,192,118806,1,8,0:0:0:0:
256,192,118883,1,0,0:0:0:0:
256,192,119036,1,8,0:0:0:0:
256,192,119189,1,8,0:0:0:0:
256,192,119342,1,0,0:0:0:0:
256,192,119418,1,0,0:0:0:0:
256,192,119495,1,0,0:0:0:0:
256,192,119648,1,0,0:0:0:0:
256,192,119801,1,8,0:0:0:0:
256,192,120107,1,0,0:0:0:0:
256,192,120260,1,8,0:0:0:0:
256,192,120413,1,8,0:0:0:0:
256,192,120566,1,0,0:0:0:0:
256,192,120720,1,8,0:0:0:0:
256,192,120873,1,0,0:0:0:0:
256,192,120949,1,0,0:0:0:0:
256,192,121026,1,8,0:0:0:0:
256,192,121332,1,0,0:0:0:0:
256,192,121485,1,8,0:0:0:0:
256,192,121638,1,8,0:0:0:0:
256,192,121714,1,8,0:0:0:0:
256,192,121791,1,8,0:0:0:0:
256,192,121944,1,0,0:0:0:0:
256,192,122021,1,0,0:0:0:0:
256,192,122097,1,0,0:0:0:0:
256,192,122174,1,0,0:0:0:0:
256,192,122250,1,8,0:0:0:0:
256,192,122556,1,0,0:0:0:0:
256,192,122709,1,8,0:0:0:0:
256,192,122862,1,8,0:0:0:0:
256,192,123015,1,0,0:0:0:0:
256,192,123168,1,8,0:0:0:0:
256,192,123322,1,0,0:0:0:0:
256,192,123398,1,0,0:0:0:0:
256,192,123475,1,8,0:0:0:0:
256,192,123704,1,8,0:0:0:0:
256,192,123781,1,0,0:0:0:0:
256,192,123934,1,8,0:0:0:0:
256,192,124087,1,0,0:0:0:0:
256,192,124240,1,0,0:0:0:0:
256,192,124393,1,8,0:0:0:0:
256,192,124546,1,8,0:0:0:0:
256,192,124699,1,12,0:0:0:0:
256,192,125005,1,0,0:0:0:0:
256,192,125158,1,8,0:0:0:0:
256,192,125464,1,0,0:0:0:0:
256,192,125617,1,8,0:0:0:0:
256,192,125771,1,0,0:0:0:0:
256,192,125924,1,8,0:0:0:0:
256,192,126230,1,0,0:0:0:0:
256,192,126383,1,8,0:0:0:0:
256,192,126689,1,0,0:0:0:0:
256,192,126842,1,12,0:0:0:0:
256,192,127148,1,12,0:0:0:0:
256,192,127454,1,0,0:0:0:0:
256,192,127607,1,8,0:0:0:0:
256,192,127913,1,0,0:0:0:0:
256,192,128066,1,12,0:0:0:0:
256,192,128373,1,12,0:0:0:0:
256,192,128679,1,0,0:0:0:0:
256,192,128832,1,12,0:0:0:0:
256,192,129138,1,0,0:0:0:0:
256,192,129291,1,12,0:0:0:0:
256,192,129444,1,8,0:0:0:0:
256,192,129597,1,0,0:0:0:0:
256,192,129903,1,0,0:0:0:0:
256,192,130056,1,12,0:0:0:0:
256,192,130362,1,0,0:0:0:0:
256,192,130515,1,12,0:0:0:0:
256,192,130668,1,0,0:0:0:0:
256,192,130822,1,12,0:0:0:0:
256,192,131051,1,12,0:0:0:0:
256,192,131281,1,12,0:0:0:0:
256,192,131587,1,0,0:0:0:0:
256,192,131740,1,12,0:0:0:0:
256,192,131893,1,0,0:0:0:0:
256,192,132046,1,12,0:0:0:0:
256,192,132276,1,12,0:0:0:0:
256,192,132505,1,12,0:0:0:0:
256,192,132658,1,0,0:0:0:0:
256,192,132811,1,0,0:0:0:0:
256,192,132888,1,0,0:0:0:0:
256,192,132964,1,8,0:0:0:0:
256,192,133117,1,8,0:0:0:0:
256,192,133271,1,0,0:0:0:0:
256,192,133424,1,0,0:0:0:0:
256,192,133500,1,8,0:0:0:0:
256,192,133577,1,0,0:0:0:0:
256,192,133730,1,8,0:0:0:0:
256,192,133883,1,0,0:0:0:0:
256,192,134189,1,0,0:0:0:0:
256,192,134265,1,8,0:0:0:0:
256,192,134342,1,8,0:0:0:0:
256,192,134418,1,8,0:0:0:0:
256,192,134495,1,0,0:0:0:0:
256,192,134648,1,0,0:0:0:0:
256,192,134801,1,8,0:0:0:0:
256,192,134878,1,8,0:0:0:0:
256,192,134954,1,8,0:0:0:0:
256,192,135107,1,0,0:0:0:0:
256,192,135260,1,0,0:0:0:0:
256,192,135413,1,8,0:0:0:0:
256,192,135490,1,8,0:0:0:0:
256,192,135566,1,0,0:0:0:0:
256,192,135643,1,0,0:0:0:0:
256,192,135720,1,8,0:0:0:0:
256,192,135873,1,8,0:0:0:0:
256,192,136026,1,0,0:0:0:0:
256,192,136102,1,0,0:0:0:0:
256,192,136179,1,0,0:0:0:0:
256,192,136332,1,8,0:0:0:0:
256,192,136485,1,8,0:0:0:0:
256,192,136638,1,0,0:0:0:0:
256,192,136714,1,0,0:0:0:0:
256,192,136791,1,8,0:0:0:0:
256,192,136867,1,8,0:0:0:0:
256,192,136944,1,0,0:0:0:0:
256,192,137097,1,0,0:0:0:0:
256,192,137250,1,8,0:0:0:0:
256,192,137327,1,8,0:0:0:0:
256,192,137403,1,0,0:0:0:0:
256,192,137556,1,0,0:0:0:0:
256,192,137709,1,0,0:0:0:0:
256,192,137862,1,8,0:0:0:0:
256,192,137939,1,8,0:0:0:0:
256,192,138015,1,0,0:0:0:0:
256,192,138092,1,0,0:0:0:0:
256,192,138169,1,8,0:0:0:0:
256,192,138322,1,8,0:0:0:0:
256,192,138475,1,0,0:0:0:0:
256,192,138551,1,0,0:0:0:0:
256,192,138628,1,0,0:0:0:0:
256,192,138781,1,8,0:0:0:0:
256,192,138934,1,0,0:0:0:0:
256,192,139010,1,8,0:0:0:0:
256,192,139087,1,0,0:0:0:0:
256,192,139163,1,0,0:0:0:0:
256,192,139240,1,8,0:0:0:0:
256,192,139393,1,0,0:0:0:0:
256,192,139699,1,8,0:0:0:0:
256,192,139776,1,8,0:0:0:0:
256,192,139852,1,8,0:0:0:0:
256,192,140005,1,0,0:0:0:0:
256,192,140158,1,0,0:0:0:0:
256,192,140311,1,8,0:0:0:0:
256,192,140388,1,8,0:0:0:0:
256,192,140464,1,0,0:0:0:0:
256,192,140541,1,0,0:0:0:0:
256,192,140618,1,8,0:0:0:0:
256,192,140771,1,8,0:0:0:0:
256,192,140924,1,0,0:0:0:0:
256,192,141000,1,0,0:0:0:0:
256,192,141077,1,0,0:0:0:0:
256,192,141230,1,8,0:0:0:0:
256,192,141383,1,8,0:0:0:0:
256,192,141536,1,0,0:0:0:0:
256,192,141612,1,0,0:0:0:0:
256,192,141689,1,8,0:0:0:0:
256,192,141765,1,8,0:0:0:0:
256,192,141842,1,0,0:0:0:0:
256,192,141995,1,0,0:0:0:0:
256,192,142148,1,8,0:0:0:0:
256,192,142225,1,8,0:0:0:0:
256,192,142301,1,8,0:0:0:0:
256,192,142454,1,0,0:0:0:0:
256,192,142607,1,0,0:0:0:0:
256,192,142760,1,8,0:0:0:0:
256,192,142837,1,8,0:0:0:0:
256,192,142913,1,0,0:0:0:0:
256,192,142990,1,0,0:0:0:0:
256,192,143066,1,8,0:0:0:0:
256,192,143220,1,0,0:0:0:0:
256,192,143296,1,8,0:0:0:0:
256,192,143373,1,0,0:0:0:0:
256,192,143526,1,8,0:0:0:0:
256,192,143679,1,0,0:0:0:0:
256,192,143755,1,0,0:0:0:0:
256,192,143832,1,0,0:0:0:0:
256,192,143908,1,0,0:0:0:0:
256,192,143985,1,8,0:0:0:0:
256,192,144291,1,4,0:0:0:0:
256,192,144597,1,8,0:0:0:0:
256,192,144827,1,8,0:0:0:0:
256,192,144903,1,0,0:0:0:0:
256,192,145056,1,0,0:0:0:0:
256,192,145209,1,8,0:0:0:0:
256,192,145362,1,0,0:0:0:0:
256,192,145439,1,0,0:0:0:0:
256,192,145516,1,8,0:0:0:0:
256,192,145745,1,0,0:0:0:0:
256,192,145822,1,8,0:0:0:0:
256,192,145975,1,8,0:0:0:0:
256,192,146051,1,8,0:0:0:0:
256,192,146128,1,0,0:0:0:0:
256,192,146281,1,8,0:0:0:0:
256,192,146357,1,0,0:0:0:0:
256,192,146434,1,8,0:0:0:0:
256,192,146587,1,8,0:0:0:0:
256,192,146740,1,0,0:0:0:0:
256,192,146970,1,0,0:0:0:0:
256,192,147046,1,8,0:0:0:0:
256,192,147199,1,8,0:0:0:0:
256,192,147276,1,8,0:0:0:0:
256,192,147352,1,0,0:0:0:0:
256,192,147505,1,0,0:0:0:0:
256,192,147658,1,8,0:0:0:0:
256,192,147811,1,0,0:0:0:0:
256,192,147888,1,0,0:0:0:0:
256,192,147965,1,8,0:0:0:0:
256,192,148194,1,0,0:0:0:0:
256,192,148271,1,8,0:0:0:0:
256,192,148424,1,8,0:0:0:0:
256,192,148577,1,0,0:0:0:0:
256,192,148653,1,0,0:0:0:0:
256,192,148730,1,0,0:0:0:0:
256,192,148883,1,8,0:0:0:0:
256,192,148959,1,8,0:0:0:0:
256,192,149036,1,8,0:0:0:0:
256,192,149112,1,8,0:0:0:0:
256,192,149189,1,0,0:0:0:0:
256,192,149342,1,0,0:0:0:0:
256,192,149495,1,8,0:0:0:0:
256,192,149572,1,8,0:0:0:0:
256,192,149648,1,8,0:0:0:0:
256,192,149801,1,0,0:0:0:0:
256,192,149954,1,0,0:0:0:0:
256,192,150107,1,8,0:0:0:0:
256,192,150184,1,8,0:0:0:0:
256,192,150260,1,0,0:0:0:0:
256,192,150337,1,0,0:0:0:0:
256,192,150414,1,8,0:0:0:0:
256,192,150567,1,8,0:0:0:0:
256,192,150720,1,0,0:0:0:0:
256,192,150796,1,0,0:0:0:0:
256,192,150873,1,0,0:0:0:0:
256,192,151026,1,8,0:0:0:0:
256,192,151179,1,8,0:0:0:0:
256,192,151332,1,0,0:0:0:0:
256,192,151408,1,0,0:0:0:0:
256,192,151485,1,8,0:0:0:0:
256,192,151561,1,8,0:0:0:0:
256,192,151638,1,0,0:0:0:0:
256,192,151791,1,0,0:0:0:0:
256,192,151944,1,8,0:0:0:0:
256,192,152021,1,8,0:0:0:0:
256,192,152097,1,8,0:0:0:0:
256,192,152250,1,0,0:0:0:0:
256,192,152403,1,0,0:0:0:0:
256,192,152556,1,8,0:0:0:0:
256,192,152633,1,8,0:0:0:0:
256,192,152709,1,0,0:0:0:0:
256,192,152786,1,0,0:0:0:0:
256,192,152862,1,8,0:0:0:0:
256,192,153016,1,0,0:0:0:0:
256,192,153092,1,8,0:0:0:0:
256,192,153169,1,0,0:0:0:0:
256,192,153322,1,8,0:0:0:0:
256,192,153475,1,0,0:0:0:0:
256,192,153551,1,0,0:0:0:0:
256,192,153628,1,0,0:0:0:0:
256,192,153704,1,0,0:0:0:0:
256,192,153781,1,8,0:0:0:0:
256,192,154087,1,4,0:0:0:0:
256,192,154546,1,4,0:0:0:0:
256,192,155005,1,4,0:0:0:0:
256,192,155311,1,0,0:0:0:0:
256,192,155464,1,8,0:0:0:0:
256,192,155540,1,8,0:0:0:0:
256,192,155617,1,0,0:0:0:0:
256,192,155770,1,8,0:0:0:0:
256,192,155923,1,0,0:0:0:0:
256,192,156076,1,0,0:0:0:0:
256,192,156152,1,0,0:0:0:0:
256,192,156229,1,8,0:0:0:0:
256,192,156382,1,8,0:0:0:0:
256,192,156535,1,0,0:0:0:0:
256,192,156765,1,0,0:0:0:0:
256,192,156841,1,0,0:0:0:0:
256,192,156994,1,8,0:0:0:0:
256,192,157147,1,8,0:0:0:0:
256,192,157300,1,0,0:0:0:0:
256,192,157377,1,0,0:0:0:0:
256,192,157453,1,8,0:0:0:0:
256,192,157759,1,8,0:0:0:0:
256,192,157913,1,0,0:0:0:0:
256,192,157989,1,0,0:0:0:0:
256,192,158066,1,8,0:0:0:0:
256,192,158219,1,8,0:0:0:0:
256,192,158372,1,8,0:0:0:0:
256,192,158525,1,0,0:0:0:0:
256,192,158601,1,0,0:0:0:0:
256,192,158678,1,0,0:0:0:0:
256,192,158831,1,8,0:0:0:0:
256,192,158984,1,0,0:0:0:0:
256,192,159214,1,8,0:0:0:0:
256,192,159290,1,8,0:0:0:0:
256,192,159443,1,0,0:0:0:0:
256,192,159596,1,8,0:0:0:0:
256,192,159673,1,8,0:0:0:0:
256,192,159749,1,0,0:0:0:0:
256,192,159902,1,8,0:0:0:0:
256,192,160208,1,8,0:0:0:0:
256,192,160362,1,0,0:0:0:0:
256,192,160438,1,0,0:0:0:0:
256,192,160515,1,8,0:0:0:0:
256,192,160668,1,8,0:0:0:0:
256,192,160821,1,0,0:0:0:0:
256,192,160974,1,8,0:0:0:0:
256,192,161050,1,8,0:0:0:0:
256,192,161127,1,8,0:0:0:0:
256,192,161280,1,8,0:0:0:0:
256,192,161433,1,0,0:0:0:0:
256,192,161663,1,0,0:0:0:0:
256,192,161739,1,0,0:0:0:0:
256,192,161892,1,8,0:0:0:0:
256,192,162045,1,8,0:0:0:0:
256,192,162198,1,0,0:0:0:0:
256,192,162275,1,0,0:0:0:0:
256,192,162351,1,8,0:0:0:0:
256,192,162657,1,0,0:0:0:0:
256,192,162811,1,0,0:0:0:0:
256,192,162887,1,0,0:0:0:0:
256,192,162964,1,8,0:0:0:0:
256,192,163117,1,8,0:0:0:0:
256,192,163270,1,0,0:0:0:0:
256,192,163423,1,0,0:0:0:0:
256,192,163499,1,0,0:0:0:0:
256,192,163576,1,8,0:0:0:0:
256,192,163729,1,8,0:0:0:0:
256,192,163882,1,0,0:0:0:0:
256,192,164035,1,8,0:0:0:0:
256,192,164112,1,8,0:0:0:0:
256,192,164188,1,0,0:0:0:0:
256,192,164341,1,8,0:0:0:0:
256,192,164418,1,8,0:0:0:0:
256,192,164494,1,0,0:0:0:0:
256,192,164647,1,0,0:0:0:0:
256,192,164800,1,8,0:0:0:0:
256,192,165106,1,8,0:0:0:0:
256,192,165183,1,8,0:0:0:0:
256,192,165259,1,0,0:0:0:0:
256,192,165336,1,0,0:0:0:0:
256,192,165413,1,8,0:0:0:0:
256,192,165566,1,8,0:0:0:0:
256,192,165719,1,0,0:0:0:0:
256,192,165795,1,0,0:0:0:0:
256,192,165872,1,8,0:0:0:0:
256,192,165948,1,8,0:0:0:0:
256,192,166025,1,0,0:0:0:0:
256,192,166178,1,8,0:0:0:0:
256,192,166331,1,0,0:0:0:0:
256,192,166484,1,0,0:0:0:0:
256,192,166561,1,8,0:0:0:0:
256,192,166637,1,0,0:0:0:0:
256,192,166790,1,8,0:0:0:0:
256,192,166943,1,0,0:0:0:0:
256,192,167096,1,8,0:0:0:0:
256,192,167173,1,8,0:0:0:0:
256,192,167249,1,0,0:0:0:0:
256,192,167402,1,0,0:0:0:0:
256,192,167555,1,8,0:0:0:0:
256,192,167632,1,8,0:0:0:0:
256,192,167708,1,0,0:0:0:0:
256,192,167785,1,0,0:0:0:0:
256,192,167862,1,8,0:0:0:0:
256,192,168015,1,8,0:0:0:0:
256,192,168168,1,0,0:0:0:0:
256,192,168244,1,0,0:0:0:0:
256,192,168321,1,8,0:0:0:0:
256,192,168397,1,8,0:0:0:0:
256,192,168474,1,0,0:0:0:0:
256,192,168627,1,8,0:0:0:0:
256,192,168780,1,0,0:0:0:0:
256,192,168933,1,8,0:0:0:0:
256,192,169009,1,8,0:0:0:0:
256,192,169086,1,0,0:0:0:0:
256,192,169239,1,8,0:0:0:0:
256,192,169392,1,0,0:0:0:0:
256,192,169469,1,0,0:0:0:0:
256,192,169545,1,0,0:0:0:0:
256,192,169622,1,0,0:0:0:0:
256,192,169698,1,8,0:0:0:0:
256,192,170004,1,8,0:0:0:0:
256,192,170081,1,8,0:0:0:0:
256,192,170157,1,0,0:0:0:0:
256,192,170234,1,0,0:0:0:0:
256,192,170311,1,8,0:0:0:0:
256,192,170464,1,8,0:0:0:0:
256,192,170617,1,0,0:0:0:0:
256,192,170693,1,0,0:0:0:0:
256,192,170770,1,8,0:0:0:0:
256,192,170846,1,8,0:0:0:0:
256,192,170923,1,0,0:0:0:0:
256,192,171076,1,8,0:0:0:0:
256,192,171229,1,0,0:0:0:0:
256,192,171382,1,8,0:0:0:0:
256,192,171458,1,0,0:0:0:0:
256,192,171535,1,0,0:0:0:0:
256,192,171688,1,8,0:0:0:0:
256,192,171841,1,0,0:0:0:0:
256,192,171994,1,8,0:0:0:0:
256,192,172071,1,8,0:0:0:0:
256,192,172147,1,0,0:0:0:0:
256,192,172300,1,8,0:0:0:0:
256,192,172453,1,0,0:0:0:0:
256,192,172530,1,0,0:0:0:0:
256,192,172606,1,0,0:0:0:0:
256,192,172683,1,0,0:0:0:0:
256,192,172759,1,8,0:0:0:0:
256,192,172913,1,8,0:0:0:0:
256,192,173066,1,0,0:0:0:0:
256,192,173142,1,0,0:0:0:0:
256,192,173219,1,8,0:0:0:0:
256,192,173295,1,8,0:0:0:0:
256,192,173372,1,0,0:0:0:0:
256,192,173525,1,8,0:0:0:0:
256,192,173678,1,0,0:0:0:0:
256,192,173831,1,8,0:0:0:0:
256,192,173907,1,8,0:0:0:0:
256,192,173984,1,0,0:0:0:0:
256,192,174137,1,8,0:0:0:0:
256,192,174214,1,8,0:0:0:0:
256,192,174290,1,0,0:0:0:0:
256,192,174443,1,0,0:0:0:0:
256,192,174596,1,8,0:0:0:0:
256,192,174902,1,8,0:0:0:0:
256,192,174979,1,8,0:0:0:0:
256,192,175055,1,0,0:0:0:0:
256,192,175132,1,0,0:0:0:0:
256,192,175208,1,8,0:0:0:0:
256,192,175362,1,8,0:0:0:0:
256,192,175515,1,0,0:0:0:0:
256,192,175591,1,0,0:0:0:0:
256,192,175668,1,8,0:0:0:0:
256,192,175744,1,8,0:0:0:0:
256,192,175821,1,0,0:0:0:0:
256,192,175974,1,8,0:0:0:0:
256,192,176127,1,0,0:0:0:0:
256,192,176280,1,0,0:0:0:0:
256,192,176356,1,8,0:0:0:0:
256,192,176433,1,0,0:0:0:0:
256,192,176739,1,4,0:0:0:0:
256,192,176943,1,12,0:0:0:0:
256,192,177147,1,12,0:0:0:0:
256,192,177351,1,8,0:0:0:0:
256,192,177428,1,8,0:0:0:0:
256,192,177504,1,0,0:0:0:0:
256,192,177581,1,0,0:0:0:0:
256,192,177657,1,8,0:0:0:0:
256,192,177811,1,8,0:0:0:0:
256,192,177964,1,0,0:0:0:0:
256,192,178040,1,0,0:0:0:0:
256,192,178117,1,8,0:0:0:0:
256,192,178193,1,8,0:0:0:0:
256,192,178270,1,0,0:0:0:0:
256,192,178576,1,4,0:0:0:0:
256,192,178780,1,12,0:0:0:0:
256,192,178984,1,4,0:0:0:0:
256,192,179188,1,12,0:0:0:0:
256,192,179392,1,12,0:0:0:0:
256,192,179596,1,4,0:0:0:0:
256,192,179800,1,8,0:0:0:0:
256,192,179877,1,8,0:0:0:0:
256,192,179953,1,0,0:0:0:0:
256,192,180030,1,0,0:0:0:0:
256,192,180106,1,8,0:0:0:0:
256,192,180413,1,4,0:0:0:0:
256,192,180617,1,4,0:0:0:0:
256,192,180821,1,12,0:0:0:0:
256,192,181025,1,0,0:0:0:0:
256,192,181101,1,0,0:0:0:0:
256,192,181178,1,8,0:0:0:0:
256,192,181254,1,8,0:0:0:0:
256,192,181331,1,0,0:0:0:0:
256,192,181637,1,12,0:0:0:0:
256,192,181841,1,12,0:0:0:0:
256,192,182045,1,4,0:0:0:0:
256,192,182249,1,4,0:0:0:0:
256,192,182453,1,4,0:0:0:0:
256,192,182657,1,12,0:0:0:0:
256,192,182862,1,4,0:0:0:0:
256,192,183066,1,4,0:0:0:0:
256,192,183270,1,12,0:0:0:0:
256,192,183474,1,12,0:0:0:0:
256,192,183678,1,4,0:0:0:0:
256,192,183882,1,4,0:0:0:0:
256,192,184086,1,12,0:0:0:0:
256,192,184392,1,8,0:0:0:0:
256,192,184545,1,8,0:0:0:0:
256,192,184698,1,4,0:0:0:0:
256,192,184851,1,0,0:0:0:0:
256,192,185004,1,8,0:0:0:0:
256,192,185158,1,0,0:0:0:0:
256,192,185234,1,0,0:0:0:0:
256,192,185311,1,8,0:0:0:0:
256,192,185463,1,0,0:0:0:0:
256,192,185616,1,8,0:0:0:0:
256,192,185770,1,8,0:0:0:0:
256,192,185846,1,8,0:0:0:0:
256,192,185923,1,0,0:0:0:0:
256,192,186076,1,0,0:0:0:0:
256,192,186229,1,8,0:0:0:0:
256,192,186382,1,0,0:0:0:0:
256,192,186458,1,0,0:0:0:0:
256,192,186535,1,0,0:0:0:0:
256,192,186688,1,8,0:0:0:0:
256,192,186841,1,8,0:0:0:0:
256,192,186994,1,0,0:0:0:0:
256,192,187147,1,8,0:0:0:0:
256,192,187453,1,0,0:0:0:0:
256,192,187606,1,0,0:0:0:0:
256,192,187759,1,8,0:0:0:0:
256,192,187912,1,0,0:0:0:0:
256,192,187989,1,0,0:0:0:0:
256,192,188065,1,8,0:0:0:0:
256,192,188218,1,8,0:0:0:0:
256,192,188371,1,0,0:0:0:0:
256,192,188525,1,0,0:0:0:0:
256,192,188678,1,8,0:0:0:0:
256,192,188831,1,8,0:0:0:0:
256,192,188907,1,8,0:0:0:0:
256,192,188984,1,0,0:0:0:0:
256,192,189137,1,0,0:0:0:0:
256,192,189290,1,8,0:0:0:0:
256,192,189443,1,8,0:0:0:0:
256,192,189596,1,0,0:0:0:0:
256,192,189902,1,8,0:0:0:0:
256,192,190056,1,0,0:0:0:0:
256,192,190132,1,0,0:0:0:0:
256,192,190209,1,8,0:0:0:0:
256,192,190361,1,0,0:0:0:0:
256,192,190514,1,8,0:0:0:0:
256,192,190668,1,8,0:0:0:0:
256,192,190744,1,8,0:0:0:0:
256,192,190821,1,0,0:0:0:0:
256,192,190974,1,0,0:0:0:0:
256,192,191127,1,8,0:0:0:0:
256,192,191280,1,0,0:0:0:0:
256,192,191356,1,0,0:0:0:0:
256,192,191433,1,0,0:0:0:0:
256,192,191586,1,0,0:0:0:0:
256,192,191739,1,8,0:0:0:0:
256,192,191892,1,8,0:0:0:0:
256,192,192045,1,0,0:0:0:0:
256,192,192198,1,0,0:0:0:0:
256,192,192275,1,0,0:0:0:0:
256,192,192351,1,8,0:0:0:0:
256,192,192504,1,0,0:0:0:0:
256,192,192657,1,8,0:0:0:0:
256,192,192811,1,8,0:0:0:0:
256,192,192887,1,8,0:0:0:0:
256,192,192964,1,0,0:0:0:0:
256,192,193116,1,8,0:0:0:0:
256,192,193269,1,0,0:0:0:0:
256,192,193423,1,8,0:0:0:0:
256,192,193499,1,8,0:0:0:0:
256,192,193652,1,8,0:0:0:0:
256,192,193729,1,8,0:0:0:0:
256,192,193882,1,0,0:0:0:0:
256,192,194035,1,0,0:0:0:0:
256,192,194188,1,8,0:0:0:0:
256,192,194341,1,8,0:0:0:0:
256,192,194494,1,4,0:0:0:0:
256,192,194800,1,8,0:0:0:0:
256,192,194954,1,0,0:0:0:0:
256,192,195030,1,0,0:0:0:0:
256,192,195107,1,8,0:0:0:0:
256,192,195259,1,0,0:0:0:0:
256,192,195412,1,8,0:0:0:0:
256,192,195566,1,8,0:0:0:0:
256,192,195642,1,8,0:0:0:0:
256,192,195719,1,0,0:0:0:0:
256,192,195872,1,0,0:0:0:0:
256,192,196025,1,8,0:0:0:0:
256,192,196178,1,0,0:0:0:0:
256,192,196254,1,0,0:0:0:0:
256,192,196331,1,0,0:0:0:0:
256,192,196484,1,8,0:0:0:0:
256,192,196637,1,8,0:0:0:0:
256,192,196790,1,0,0:0:0:0:
256,192,196943,1,8,0:0:0:0:
256,192,197249,1,0,0:0:0:0:
256,192,197402,1,0,0:0:0:0:
256,192,197555,1,8,0:0:0:0:
256,192,197708,1,0,0:0:0:0:
256,192,197785,1,0,0:0:0:0:
256,192,197861,1,8,0:0:0:0:
256,192,198014,1,8,0:0:0:0:
256,192,198167,1,0,0:0:0:0:
256,192,198321,1,0,0:0:0:0:
256,192,198474,1,8,0:0:0:0:
256,192,198627,1,8,0:0:0:0:
256,192,198703,1,8,0:0:0:0:
256,192,198780,1,0,0:0:0:0:
256,192,198933,1,0,0:0:0:0:
256,192,199086,1,8,0:0:0:0:
256,192,199239,1,8,0:0:0:0:
256,192,199392,1,0,0:0:0:0:
256,192,199698,1,8,0:0:0:0:
256,192,199852,1,0,0:0:0:0:
256,192,199928,1,0,0:0:0:0:
256,192,200005,1,8,0:0:0:0:
256,192,200157,1,0,0:0:0:0:
256,192,200310,1,8,0:0:0:0:
256,192,200464,1,8,0:0:0:0:
256,192,200540,1,8,0:0:0:0:
256,192,200617,1,0,0:0:0:0:
256,192,200770,1,0,0:0:0:0:
256,192,200923,1,8,0:0:0:0:
256,192,201076,1,0,0:0:0:0:
256,192,201152,1,0,0:0:0:0:
256,192,201229,1,0,0:0:0:0:
256,192,201382,1,0,0:0:0:0:
256,192,201535,1,8,0:0:0:0:
256,192,201688,1,8,0:0:0:0:
256,192,201841,1,0,0:0:0:0:
256,192,201994,1,0,0:0:0:0:
256,192,202147,1,8,0:0:0:0:
256,192,202300,1,0,0:0:0:0:
256,192,202453,1,8,0:0:0:0:
256,192,202607,1,8,0:0:0:0:
256,192,202760,1,0,0:0:0:0:
256,192,202912,1,8,0:0:0:0:
256,192,203065,1,4,0:0:0:0:
256,192,203219,1,4,0:0:0:0:
256,192,203372,1,4,0:0:0:0:
256,192,203525,1,12,0:0:0:0:
256,192,203678,1,12,0:0:0:0:
256,192,203984,1,8,0:0:0:0:
256,192,204290,1,8,0:0:0:0:
256,192,204596,1,0,0:0:0:0:
256,192,204749,1,8,0:0:0:0:
256,192,205055,1,0,0:0:0:0:
256,192,205208,1,8,0:0:0:0:
256,192,205362,1,0,0:0:0:0:
256,192,205438,1,0,0:0:0:0:
256,192,205515,1,8,0:0:0:0:
256,192,205821,1,0,0:0:0:0:
256,192,205974,1,8,0:0:0:0:
256,192,206280,1,0,0:0:0:0:
256,192,206433,1,12,0:0:0:0:
256,192,206739,1,12,0:0:0:0:
256,192,207045,1,0,0:0:0:0:
256,192,207198,1,8,0:0:0:0:
256,192,207504,1,0,0:0:0:0:
256,192,207657,1,12,0:0:0:0:
256,192,207964,1,12,0:0:0:0:
256,192,208270,1,0,0:0:0:0:
256,192,208423,1,12,0:0:0:0:
256,192,208729,1,0,0:0:0:0:
256,192,208882,1,12,0:0:0:0:
256,192,209035,1,8,0:0:0:0:
256,192,209112,1,8,0:0:0:0:
256,192,209188,1,0,0:0:0:0:
256,192,209494,1,0,0:0:0:0:
256,192,209647,1,12,0:0:0:0:
256,192,209953,1,0,0:0:0:0:
256,192,210106,1,12,0:0:0:0:
256,192,210259,1,0,0:0:0:0:
256,192,210413,1,12,0:0:0:0:
256,192,210642,1,12,0:0:0:0:
256,192,210872,1,12,0:0:0:0:
256,192,211178,1,0,0:0:0:0:
256,192,211331,1,12,0:0:0:0:
256,192,211484,1,8,0:0:0:0:
256,192,211637,1,0,0:0:0:0:
256,192,211790,1,0,0:0:0:0:
256,192,211943,1,0,0:0:0:0:
256,192,212096,1,8,0:0:0:0:
256,192,212249,1,8,0:0:0:0:
256,192,212402,1,0,0:0:0:0:
256,192,212555,1,0,0:0:0:0:
256,192,212708,1,8,0:0:0:0:
256,192,212862,1,0,0:0:0:0:
256,192,213015,1,0,0:0:0:0:
256,192,213168,1,0,0:0:0:0:
256,192,213321,1,8,0:0:0:0:
256,192,213474,1,8,0:0:0:0:
256,192,213780,1,8,0:0:0:0:
256,192,213933,1,8,0:0:0:0:
256,192,214086,1,4,0:0:0:0:
256,192,214239,1,0,0:0:0:0:
256,192,214392,1,8,0:0:0:0:
256,192,214546,1,0,0:0:0:0:
256,192,214622,1,0,0:0:0:0:
256,192,214699,1,8,0:0:0:0:
256,192,214851,1,0,0:0:0:0:
256,192,215004,1,8,0:0:0:0:
256,192,215158,1,8,0:0:0:0:
256,192,215234,1,8,0:0:0:0:
256,192,215311,1,0,0:0:0:0:
256,192,215464,1,0,0:0:0:0:
256,192,215617,1,8,0:0:0:0:
256,192,215770,1,0,0:0:0:0:
256,192,215846,1,0,0:0:0:0:
256,192,215923,1,0,0:0:0:0:
256,192,216076,1,8,0:0:0:0:
256,192,216229,1,8,0:0:0:0:
256,192,216382,1,0,0:0:0:0:
256,192,216535,1,8,0:0:0:0:
256,192,216841,1,0,0:0:0:0:
256,192,216994,1,0,0:0:0:0:
256,192,217147,1,8,0:0:0:0:
256,192,217300,1,0,0:0:0:0:
256,192,217377,1,0,0:0:0:0:
256,192,217453,1,8,0:0:0:0:
256,192,217606,1,8,0:0:0:0:
256,192,217759,1,0,0:0:0:0:
256,192,217913,1,0,0:0:0:0:
256,192,218066,1,8,0:0:0:0:
256,192,218219,1,8,0:0:0:0:
256,192,218295,1,8,0:0:0:0:
256,192,218372,1,0,0:0:0:0:
256,192,218525,1,0,0:0:0:0:
256,192,218678,1,8,0:0:0:0:
256,192,218831,1,8,0:0:0:0:
256,192,218984,1,0,0:0:0:0:
256,192,219290,1,8,0:0:0:0:
256,192,219444,1,0,0:0:0:0:
256,192,219520,1,0,0:0:0:0:
256,192,219597,1,8,0:0:0:0:
256,192,219749,1,0,0:0:0:0:
256,192,219902,1,8,0:0:0:0:
256,192,220056,1,8,0:0:0:0:
256,192,220132,1,8,0:0:0:0:
256,192,220209,1,0,0:0:0:0:
256,192,220362,1,0,0:0:0:0:
256,192,220515,1,8,0:0:0:0:
256,192,220668,1,0,0:0:0:0:
256,192,220744,1,0,0:0:0:0:
256,192,220821,1,0,0:0:0:0:
256,192,220974,1,0,0:0:0:0:
256,192,221127,1,8,0:0:0:0:
256,192,221280,1,8,0:0:0:0:
256,192,221433,1,0,0:0:0:0:
256,192,221586,1,0,0:0:0:0:
256,192,221663,1,0,0:0:0:0:
256,192,221739,1,8,0:0:0:0:
256,192,221892,1,0,0:0:0:0:
256,192,222045,1,8,0:0:0:0:
256,192,222199,1,8,0:0:0:0:
256,192,222275,1,8,0:0:0:0:
256,192,222352,1,0,0:0:0:0:
256,192,222504,1,8,0:0:0:0:
256,192,222657,1,0,0:0:0:0:
256,192,222811,1,8,0:0:0:0:
256,192,222887,1,8,0:0:0:0:
256,192,223040,1,8,0:0:0:0:
256,192,223117,1,8,0:0:0:0:
256,192,223270,1,0,0:0:0:0:
256,192,223423,1,0,0:0:0:0:
256,192,223499,1,0,0:0:0:0:
256,192,223576,1,8,0:0:0:0:
256,192,223882,1,4,0:0:0:0:
256,192,224035,1,0,0:0:0:0:
256,192,224188,1,8,0:0:0:0:
256,192,224342,1,0,0:0:0:0:
256,192,224418,1,0,0:0:0:0:
256,192,224495,1,8,0:0:0:0:
256,192,224647,1,0,0:0:0:0:
256,192,224800,1,8,0:0:0:0:
256,192,224954,1,8,0:0:0:0:
256,192,225030,1,8,0:0:0:0:
256,192,225107,1,0,0:0:0:0:
256,192,225260,1,0,0:0:0:0:
256,192,225413,1,8,0:0:0:0:
256,192,225566,1,0,0:0:0:0:
256,192,225642,1,0,0:0:0:0:
256,192,225719,1,0,0:0:0:0:
256,192,225872,1,8,0:0:0:0:
256,192,226025,1,8,0:0:0:0:
256,192,226178,1,0,0:0:0:0:
256,192,226331,1,8,0:0:0:0:
256,192,226637,1,0,0:0:0:0:
256,192,226790,1,0,0:0:0:0:
256,192,226943,1,8,0:0:0:0:
256,192,227096,1,0,0:0:0:0:
256,192,227173,1,0,0:0:0:0:
256,192,227249,1,8,0:0:0:0:
256,192,227402,1,8,0:0:0:0:
256,192,227555,1,0,0:0:0:0:
256,192,227709,1,8,0:0:0:0:
256,192,227785,1,8,0:0:0:0:
256,192,227862,1,0,0:0:0:0:
256,192,228015,1,8,0:0:0:0:
256,192,228168,1,0,0:0:0:0:
256,192,228321,1,8,0:0:0:0:
256,192,228397,1,8,0:0:0:0:
256,192,228550,1,8,0:0:0:0:
256,192,228627,1,8,0:0:0:0:
256,192,228780,1,0,0:0:0:0:
256,192,229086,1,8,0:0:0:0:
256,192,229240,1,0,0:0:0:0:
256,192,229316,1,0,0:0:0:0:
256,192,229393,1,8,0:0:0:0:
256,192,229545,1,0,0:0:0:0:
256,192,229698,1,8,0:0:0:0:
256,192,229852,1,8,0:0:0:0:
256,192,229928,1,8,0:0:0:0:
256,192,230005,1,0,0:0:0:0:
256,192,230158,1,0,0:0:0:0:
256,192,230311,1,8,0:0:0:0:
256,192,230464,1,0,0:0:0:0:
256,192,230540,1,0,0:0:0:0:
256,192,230617,1,0,0:0:0:0:
256,192,230770,1,0,0:0:0:0:
256,192,230923,1,8,0:0:0:0:
256,192,231076,1,8,0:0:0:0:
256,192,231229,1,0,0:0:0:0:
256,192,231382,1,0,0:0:0:0:
256,192,231535,1,0,0:0:0:0:
256,192,231688,1,8,0:0:0:0:
256,192,231841,1,8,0:0:0:0:
256,192,231994,1,0,0:0:0:0:
256,192,232147,1,0,0:0:0:0:
256,192,232300,1,8,0:0:0:0:
256,192,232453,1,4,0:0:0:0:
256,192,232606,1,4,0:0:0:0:
256,192,232759,1,4,0:0:0:0:
256,192,232913,1,12,0:0:0:0:
256,192,233066,1,12,0:0:0:0:
256,192,233372,1,0,0:0:0:0:
256,192,233678,1,8,0:0:0:0:
256,192,233755,1,8,0:0:0:0:
256,192,233831,1,0,0:0:0:0:
256,192,233908,1,0,0:0:0:0:
256,192,233985,1,8,0:0:0:0:
256,192,234138,1,8,0:0:0:0:
256,192,234291,1,0,0:0:0:0:
256,192,234367,1,0,0:0:0:0:
256,192,234444,1,8,0:0:0:0:
256,192,234520,1,8,0:0:0:0:
256,192,234597,1,0,0:0:0:0:
256,192,234750,1,8,0:0:0:0:
256,192,234903,1,0,0:0:0:0:
256,192,235056,1,0,0:0:0:0:
256,192,235133,1,8,0:0:0:0:
256,192,235209,1,0,0:0:0:0:
256,192,235362,1,8,0:0:0:0:
256,192,235515,1,0,0:0:0:0:
256,192,235668,1,8,0:0:0:0:
256,192,235745,1,8,0:0:0:0:
256,192,235821,1,0,0:0:0:0:
256,192,235974,1,0,0:0:0:0:
256,192,236127,1,8,0:0:0:0:
256,192,236204,1,8,0:0:0:0:
256,192,236280,1,0,0:0:0:0:
256,192,236357,1,0,0:0:0:0:
256,192,236434,1,8,0:0:0:0:
256,192,236587,1,8,0:0:0:0:
256,192,236740,1,0,0:0:0:0:
256,192,236816,1,0,0:0:0:0:
256,192,236893,1,8,0:0:0:0:
256,192,236969,1,8,0:0:0:0:
256,192,237046,1,0,0:0:0:0:
256,192,237199,1,8,0:0:0:0:
256,192,237352,1,0,0:0:0:0:
256,192,237505,1,8,0:0:0:0:
256,192,237581,1,8,0:0:0:0:
256,192,237658,1,0,0:0:0:0:
256,192,237811,1,8,0:0:0:0:
256,192,237964,1,0,0:0:0:0:
256,192,238041,1,0,0:0:0:0:
256,192,238117,1,0,0:0:0:0:
256,192,238194,1,0,0:0:0:0:
256,192,238270,1,8,0:0:0:0:
256,192,238576,1,8,0:0:0:0:
256,192,238653,1,8,0:0:0:0:
256,192,238729,1,0,0:0:0:0:
256,192,238806,1,0,0:0:0:0:
256,192,238883,1,8,0:0:0:0:
256,192,239036,1,8,0:0:0:0:
256,192,239189,1,0,0:0:0:0:
256,192,239265,1,0,0:0:0:0:
256,192,239342,1,8,0:0:0:0:
256,192,239418,1,8,0:0:0:0:
256,192,239495,1,0,0:0:0:0:
256,192,239648,1,8,0:0:0:0:
256,192,239801,1,0,0:0:0:0:
256,192,239954,1,8,0:0:0:0:
256,192,240030,1,0,0:0:0:0:
256,192,240107,1,0,0:0:0:0:
256,192,240260,1,8,0:0:0:0:
256,192,240413,1,0,0:0:0:0:
256,192,240566,1,8,0:0:0:0:
256,192,240643,1,8,0:0:0:0:
256,192,240719,1,0,0:0:0:0:
256,192,240872,1,8,0:0:0:0:
256,192,241025,1,0,0:0:0:0:
256,192,241102,1,0,0:0:0:0:
256,192,241178,1,0,0:0:0:0:
256,192,241255,1,0,0:0:0:0:
256,192,241331,1,8,0:0:0:0:
256,192,241485,1,8,0:0:0:0:
256,192,241638,1,0,0:0:0:0:
256,192,241714,1,0,0:0:0:0:
256,192,241791,1,8,0:0:0:0:
256,192,241867,1,8,0:0:0:0:
256,192,241944,1,0,0:0:0:0:
256,192,242097,1,8,0:0:0:0:
256,192,242250,1,0,0:0:0:0:
256,192,242326,1,8,0:0:0:0:
256,192,242403,1,0,0:0:0:0:
256,192,242479,1,8,0:0:0:0:
256,192,242556,1,0,0:0:0:0:
256,192,242709,1,8,0:0:0:0:
256,192,242786,1,8,0:0:0:0:
256,192,242862,1,0,0:0:0:0:
256,192,243015,1,0,0:0:0:0:
256,192,243168,1,8,0:0:0:0:
256,192,243474,1,8,0:0:0:0:
256,192,243551,1,8,0:0:0:0:
256,192,243627,1,0,0:0:0:0:
256,192,243704,1,0,0:0:0:0:
256,192,243780,1,8,0:0:0:0:
256,192,243934,1,8,0:0:0:0:
256,192,244087,1,0,0:0:0:0:
256,192,244163,1,0,0:0:0:0:
256,192,244240,1,8,0:0:0:0:
256,192,244316,1,8,0:0:0:0:
256,192,244393,1,0,0:0:0:0:
256,192,244546,1,8,0:0:0:0:
256,192,244699,1,0,0:0:0:0:
256,192,244852,1,0,0:0:0:0:
256,192,244928,1,8,0:0:0:0:
256,192,245005,1,0,0:0:0:0:
256,192,245311,1,4,0:0:0:0:
256,192,245515,1,12,0:0:0:0:
256,192,245719,1,12,0:0:0:0:
256,192,245923,1,8,0:0:0:0:
256,192,246000,1,8,0:0:0:0:
256,192,246076,1,0,0:0:0:0:
256,192,246153,1,0,0:0:0:0:
256,192,246229,1,8,0:0:0:0:
256,192,246383,1,8,0:0:0:0:
256,192,246536,1,0,0:0:0:0:
256,192,246612,1,0,0:0:0:0:
256,192,246689,1,8,0:0:0:0:
256,192,246765,1,8,0:0:0:0:
256,192,246842,1,0,0:0:0:0:
256,192,247148,1,4,0:0:0:0:
256,192,247352,1,12,0:0:0:0:
256,192,247556,1,4,0:0:0:0:
256,192,247760,1,12,0:0:0:0:
256,192,247964,1,12,0:0:0:0:
256,192,248168,1,4,0:0:0:0:
256,192,248372,1,8,0:0:0:0:
256,192,248449,1,8,0:0:0:0:
256,192,248525,1,0,0:0:0:0:
256,192,248602,1,0,0:0:0:0:
256,192,248678,1,8,0:0:0:0:
256,192,248985,1,4,0:0:0:0:
256,192,249189,1,4,0:0:0:0:
256,192,249393,1,12,0:0:0:0:
256,192,249597,1,0,0:0:0:0:
256,192,249673,1,0,0:0:0:0:
256,192,249750,1,8,0:0:0:0:
256,192,249826,1,8,0:0:0:0:
256,192,249903,1,0,0:0:0:0:
256,192,250209,1,12,0:0:0:0:
256,192,250413,1,12,0:0:0:0:
256,192,250617,1,4,0:0:0:0:
256,192,250821,1,4,0:0:0:0:
256,192,251025,1,4,0:0:0:0:
256,192,251229,1,12,0:0:0:0:
256,192,251434,1,4,0:0:0:0:
256,192,251638,1,4,0:0:0:0:
256,192,251842,1,12,0:0:0:0:
256,192,252045,1,12,0:0:0:0:
256,192,252250,1,4,0:0:0:0:
256,192,252454,1,4,0:0:0:0:
256,192,252658,1,12,0:0:0:0:
256,192,253270,1,12,0:0:0:0:
256,192,253474,1,0,0:0:0:0:
256,192,253678,1,8,0:0:0:0:
256,192,253780,1,8,0:0:0:0:
256,192,253882,1,0,0:0:0:0:
256,192,254086,1,0,0:0:0:0:
256,192,254290,1,8,0:0:0:0:
256,192,254392,1,0,0:0:0:0:
256,192,254494,1,0,0:0:0:0:
256,192,254698,1,0,0:0:0:0:
256,192,254902,1,8,0:0:0:0:
256,192,255004,1,8,0:0:0:0:
256,192,255107,1,0,0:0:0:0:
256,192,255311,1,0,0:0:0:0:
256,192,255413,1,0,0:0:0:0:
256,192,255515,1,8,0:0:0:0:
256,192,255617,1,0,0:0:0:0:
256,192,255719,1,8,0:0:0:0:
256,192,255923,1,0,0:0:0:0:
256,192,256127,1,8,0:0:0:0:
256,192,256229,1,8,0:0:0:0:
256,192,256331,1,0,0:0:0:0:
256,192,256535,1,0,0:0:0:0:
256,192,256739,1,8,0:0:0:0:
256,192,256841,1,0,0:0:0:0:
256,192,256943,1,0,0:0:0:0:
256,192,257147,1,0,0:0:0:0:
256,192,257351,1,8,0:0:0:0:
256,192,257453,1,0,0:0:0:0:
256,192,257555,1,8,0:0:0:0:
256,192,257760,1,0,0:0:0:0:
256,192,257862,1,0,0:0:0:0:
256,192,257964,1,8,0:0:0:0:
256,192,258066,1,0,0:0:0:0:
256,192,258168,1,8,0:0:0:0:
256,192,258372,1,0,0:0:0:0:
256,192,258576,1,0,0:0:0:0:
256,192,258780,1,8,0:0:0:0:
256,192,258984,1,0,0:0:0:0:
256,192,259188,1,8,0:0:0:0:
256,192,259290,1,8,0:0:0:0:
256,192,259392,1,0,0:0:0:0:
256,192,259596,1,0,0:0:0:0:
256,192,259800,1,8,0:0:0:0:
256,192,260004,1,8,0:0:0:0:
256,192,260107,1,8,0:0:0:0:
256,192,260209,1,0,0:0:0:0:
256,192,260311,1,0,0:0:0:0:
256,192,260413,1,8,0:0:0:0:
256,192,260617,1,0,0:0:0:0:
256,192,260719,1,0,0:0:0:0:
256,192,260821,1,0,0:0:0:0:
256,192,260923,1,0,0:0:0:0:
256,192,261025,1,8,0:0:0:0:
256,192,261229,1,0,0:0:0:0:
256,192,261331,1,0,0:0:0:0:
256,192,261433,1,0,0:0:0:0:
256,192,261535,1,8,0:0:0:0:
256,192,261637,1,8,0:0:0:0:
256,192,261841,1,8,0:0:0:0:
256,192,262045,1,0,0:0:0:0:
256,192,262249,1,0,0:0:0:0:
256,192,262453,1,8,0:0:0:0:
256,192,262760,8,0,266739,0:0:0:0:
