osu file format v14

[General]
AudioFilename: audio.mp3
AudioLeadIn: 0
PreviewTime: -1
Countdown: 1
SampleSet: Normal
StackLeniency: 0.7
Mode: 0
LetterboxInBreaks: 0
WidescreenStoryboard: 0

[Editor]
DistanceSpacing: 1.6
BeatDivisor: 8
GridSize: 8
TimelineZoom: 3.400004

[Metadata]
Title:distance
TitleUnicode:distance
Artist:save changes?
ArtistUnicode:save changes?
Creator:GothemCloud
Version:Insane
Source:
Tags:
BeatmapID:1608234
BeatmapSetID:764834

[Difficulty]
HPDrainRate:5
CircleSize:4.5
OverallDifficulty:8
ApproachRate:9.5
SliderMultiplier:1.4
SliderTickRate:1

[Events]
//Background and Video events
0,0,"neon-genesis-evangelion-8846-2560x1600.jpg",0,0
//Break Periods
//Storyboard Layer 0 (Background)
//Storyboard Layer 1 (Fail)
//Storyboard Layer 2 (Pass)
//Storyboard Layer 3 (Foreground)
//Storyboard Sound Samples

[TimingPoints]
36888,461.538461538462,4,1,0,25,1,0
36888,-66.6666666666667,4,1,0,100,0,0
59041,-50,4,1,0,100,0,0
81195,-100,4,1,0,100,0,0

[Colours]
Combo1 : 255,0,255
Combo2 : 164,32,240
Combo3 : 128,128,255
Combo4 : 0,0,255
Combo5 : 128,255,255

[HitObjects]
256,192,22,12,0,2561,0:0:0:0:
384,192,3657,6,0,P|320:128|288:144,1,140
120,328,4580,2,0,B|208:312|232:264|232:256,1,140
256,8,5503,6,0,P|432:192|256:384,1,560
144,159,7811,5,0,0:0:0:0:
368,72,8272,2,0,P|440:80|456:152,1,140
360,272,9195,1,0,0:0:0:0:
104,272,9657,6,0,P|104:208|168:208,1,140
384,328,10580,1,0,0:0:0:0:
376,72,11042,6,0,L|232:72,1,140
232,328,11965,2,0,L|376:328,1,140
256,8,12888,6,0,P|80:192|256:384,1,560
352,312,14965,1,0,0:0:0:0:
440,216,15195,1,0,0:0:0:0:
352,120,15426,1,0,0:0:0:0:
256,191,15657,2,0,L|219:192,8,35
177,226,16811,5,0,0:0:0:0:
261,277,17042,2,0,P|299:277|320:242,1,70
335,189,17503,1,0,0:0:0:0:
323,144,17619,1,0,0:0:0:0:
292,107,17734,1,0,0:0:0:0:
248,81,17849,1,0,0:0:0:0:
202,72,17965,2,0,L|165:72,4,35
98,144,18657,5,0,0:0:0:0:
96,270,18888,2,0,L|170:305,1,70
287,316,19349,1,0,0:0:0:0:
319,313,19465,1,0,0:0:0:0:
353,308,19580,1,0,0:0:0:0:
385,293,19695,1,0,0:0:0:0:
412,271,19811,1,0,0:0:0:0:
433,243,19926,1,0,0:0:0:0:
446,210,20042,1,0,0:0:0:0:
451,176,20157,1,0,0:0:0:0:
446,141,20272,1,0,0:0:0:0:
320,131,20503,6,0,L|282:210,2,70
270,50,21195,2,0,L|270:71,4,17.5
213,80,21542,1,0,0:0:0:0:
180,133,21657,2,0,L|196:138,4,17.5
167,195,22003,1,0,0:0:0:0:
170,258,22119,2,0,B|221:225|221:225|231:278|231:278|275:236|275:236|282:293|282:293|319:261|319:261|320:262,1,280
317,262,23042,2,0,P|394:235|413:175,1,140
413,184,23503,2,0,P|388:98|336:72,1,140
97,46,24426,5,8,0:0:0:0:
183,283,24888,1,8,0:0:0:0:
275,48,25349,1,8,0:0:0:0:
365,283,25811,5,8,0:0:0:0:
455,48,26272,1,8,0:0:0:0:
255,203,26734,1,8,0:0:0:0:
60,43,27195,1,8,0:0:0:0:
60,295,27657,5,8,0:0:0:0:
60,43,28119,1,8,0:0:0:0:
311,43,28580,1,8,0:0:0:0:
510,191,29042,1,8,0:0:0:0:
258,193,29503,2,0,P|96:193|95:193,4,140
335,191,31811,2,0,L|409:191,2,70
246,69,33195,5,0,0:0:0:0:
224,191,33657,2,0,L|295:191,2,70
256,192,34580,1,0,0:0:0:0:
256,192,35042,12,0,36888,0:0:0:0:
155,91,37349,5,0,0:0:0:0:
109,113,37464,1,0,0:0:0:0:
72,149,37580,1,0,0:0:0:0:
49,196,37695,1,0,0:0:0:0:
50,248,37811,1,8,0:0:0:0:
69,297,37926,1,0,0:0:0:0:
106,333,38041,1,0,0:0:0:0:
154,352,38157,1,0,0:0:0:0:
206,351,38272,1,0,0:0:0:0:
258,348,38388,1,0,0:0:0:0:
308,340,38503,1,0,0:0:0:0:
356,322,38618,1,0,0:0:0:0:
399,296,38734,5,0,0:0:0:0:
399,107,38964,1,0,0:0:0:0:
399,296,39195,1,0,0:0:0:0:
343,115,39426,1,0,0:0:0:0:
394,286,39657,5,8,0:0:0:0:
350,311,39772,1,0,0:0:0:0:
303,331,39888,1,0,0:0:0:0:
250,346,40003,1,0,0:0:0:0:
198,341,40118,1,0,0:0:0:0:
146,325,40234,1,0,0:0:0:0:
102,296,40349,1,0,0:0:0:0:
79,249,40464,1,0,0:0:0:0:
92,197,40580,1,0,0:0:0:0:
165,123,40811,1,0,0:0:0:0:
297,250,41041,1,0,0:0:0:0:
422,122,41272,1,0,0:0:0:0:
293,47,41503,2,0,L|293:103,7,52.5000020027161
292,225,42426,1,0,0:0:0:0:
302,243,42484,5,0,0:0:0:0:
318,263,42541,1,0,0:0:0:0:
339,277,42599,1,0,0:0:0:0:
365,286,42657,1,0,0:0:0:0:
391,286,42714,1,0,0:0:0:0:
416,278,42772,1,0,0:0:0:0:
438,264,42830,1,0,0:0:0:0:
456,243,42888,2,0,L|456:187,3,52.5000020027161
458,258,43349,5,8,0:0:0:0:
458,283,43406,1,0,0:0:0:0:
451,307,43464,1,0,0:0:0:0:
437,331,43522,1,0,0:0:0:0:
417,348,43579,1,0,0:0:0:0:
393,358,43637,1,0,0:0:0:0:
367,361,43695,1,0,0:0:0:0:
341,356,43753,1,0,0:0:0:0:
316,340,43811,2,0,L|316:325,16,13.125000500679
266,319,44388,5,0,0:0:0:0:
229,283,44503,1,0,0:0:0:0:
201,240,44618,1,0,0:0:0:0:
187,189,44734,1,0,0:0:0:0:
192,137,44849,1,0,0:0:0:0:
214,90,44964,1,0,0:0:0:0:
249,50,45080,1,0,0:0:0:0:
296,30,45195,2,0,L|336:30,8,26.2500010013581
349,50,45772,5,0,0:0:0:0:
374,94,45888,1,0,0:0:0:0:
371,145,46003,1,0,0:0:0:0:
349,188,46118,1,0,0:0:0:0:
178,255,46349,1,0,0:0:0:0:
439,129,46580,1,0,0:0:0:0:
336,352,46811,1,0,0:0:0:0:
307,35,47041,1,8,0:0:0:0:
286,51,47157,5,0,0:0:0:0:
272,64,47273,1,0,0:0:0:0:
258,78,47388,1,0,0:0:0:0:
244,93,47503,1,0,0:0:0:0:
230,107,47619,1,0,0:0:0:0:
217,121,47734,1,0,0:0:0:0:
205,133,47849,1,0,0:0:0:0:
193,149,47964,5,8,0:0:0:0:
34,347,48195,1,8,0:0:0:0:
32,33,48426,1,8,0:0:0:0:
480,32,48657,1,8,0:0:0:0:
481,352,48888,1,8,0:0:0:0:
469,341,49003,1,8,0:0:0:0:
456,327,49118,1,8,0:0:0:0:
443,311,49234,1,8,0:0:0:0:
432,300,49349,1,8,0:0:0:0:
256,192,49811,5,8,0:0:0:0:
29,194,50041,1,8,0:0:0:0:
255,30,50272,1,8,0:0:0:0:
481,190,50503,1,8,0:0:0:0:
255,356,50734,1,8,0:0:0:0:
255,315,50964,1,8,0:0:0:0:
255,274,51195,1,8,0:0:0:0:
256,233,51426,1,8,0:0:0:0:
256,191,51657,6,0,P|195:183|187:192,1,52.5000020027161
256,192,51888,6,0,P|265:130|255:123,1,52.5000020027161
256,193,52118,6,0,P|317:201|325:192,1,52.5000020027161
255,192,52349,6,0,P|247:253|256:261,1,52.5000020027161
256,144,52580,1,8,0:0:0:0:
257,49,52695,1,8,0:0:0:0:
340,94,52811,1,8,0:0:0:0:
342,188,52926,1,8,0:0:0:0:
413,136,53041,2,0,L|413:282,1,105.000004005432,8|0,0:0|0:0,0:0:0:0:
239,318,53503,6,0,P|235:343|210:363,1,52.5000020027161
213,298,53618,2,0,P|197:317|165:322,1,52.5000020027161
193,268,53734,2,0,P|169:277|139:265,1,52.5000020027161
190,230,53849,2,0,P|165:226|145:201,1,52.5000020027161
280,72,54195,5,0,0:0:0:0:
464,112,54426,1,8,0:0:0:0:
456,168,54541,1,8,0:0:0:0:
432,224,54657,1,8,0:0:0:0:
400,272,54772,1,8,0:0:0:0:
344,304,54888,2,0,L|320:264,8,26.2500010013581
152,304,55580,5,0,0:0:0:0:
152,304,55695,1,0,0:0:0:0:
152,304,55811,1,0,0:0:0:0:
88,128,56041,1,0,0:0:0:0:
280,88,56272,1,8,0:0:0:0:
336,64,56388,1,8,0:0:0:0:
400,72,56503,1,8,0:0:0:0:
448,112,56618,1,8,0:0:0:0:
448,176,56734,2,0,L|488:184,4,26.2500010013581
432,232,57080,1,0,0:0:0:0:
354,272,57195,5,0,0:0:0:0:
307,263,57253,1,0,0:0:0:0:
268,231,57311,1,0,0:0:0:0:
252,184,57368,1,0,0:0:0:0:
268,134,57426,2,0,L|300:110,4,26.2500010013581
337,130,57772,1,0,0:0:0:0:
345,192,57888,1,0,0:0:0:0:
299,241,58003,1,0,0:0:0:0:
235,258,58118,2,0,B|229:226|238:221|238:220,1,26.2500010013581,8|0,0:0|0:0,0:0:0:0:
191,208,58234,2,0,B|201:177|212:177|213:176,1,26.2500010013581,8|0,0:0|0:0,0:0:0:0:
160,148,58349,2,0,B|184:127|193:132|194:132,1,26.2500010013581,8|0,0:0|0:0,0:0:0:0:
175,82,58464,2,0,B|206:76|211:85|212:85,1,26.2500010013581,8|0,0:0|0:0,0:0:0:0:
210,39,58580,2,0,L|223:55,16,13.125000500679
256,29,59041,6,0,L|260:64,8,35
358,84,59618,1,0,0:0:0:0:
358,197,59734,1,0,0:0:0:0:
258,274,59849,1,0,0:0:0:0:
256,192,59964,6,0,L|207:192,1,35,8|0,0:0|0:0,0:0:0:0:
256,143,60080,6,0,L|295:143,1,35,8|0,0:0|0:0,0:0:0:0:
255,97,60195,6,0,L|212:97,1,35,8|0,0:0|0:0,0:0:0:0:
254,49,60311,6,0,L|295:49,1,35,8|0,0:0|0:0,0:0:0:0:
222,56,60455,1,0,0:0:0:0:
192,70,60513,1,0,0:0:0:0:
162,87,60570,1,0,0:0:0:0:
136,112,60628,1,0,0:0:0:0:
118,141,60686,1,0,0:0:0:0:
105,173,60743,1,0,0:0:0:0:
101,208,60801,1,0,0:0:0:0:
104,244,60859,1,0,0:0:0:0:
114,275,60917,5,0,0:0:0:0:
379,278,61118,1,0,0:0:0:0:
118,141,61349,1,0,0:0:0:0:
370,56,61580,1,0,0:0:0:0:
226,280,61811,1,8,0:0:0:0:
277,317,61926,1,8,0:0:0:0:
340,313,62041,1,8,0:0:0:0:
397,284,62157,1,8,0:0:0:0:
434,237,62272,2,0,L|446:161,4,70
396,183,62849,5,0,0:0:0:0:
344,152,62964,1,0,0:0:0:0:
288,186,63080,1,0,0:0:0:0:
294,250,63195,1,0,0:0:0:0:
352,271,63311,1,0,0:0:0:0:
409,240,63426,1,0,0:0:0:0:
404,176,63541,1,0,0:0:0:0:
363,126,63657,5,8,0:0:0:0:
307,90,63772,1,0,0:0:0:0:
244,73,63888,1,0,0:0:0:0:
188,87,64003,1,0,0:0:0:0:
140,126,64118,1,0,0:0:0:0:
115,181,64234,1,0,0:0:0:0:
113,234,64349,1,0,0:0:0:0:
131,288,64464,1,0,0:0:0:0:
169,324,64580,5,0,0:0:0:0:
428,266,64811,1,0,0:0:0:0:
168,211,65041,1,0,0:0:0:0:
425,144,65272,1,0,0:0:0:0:
163,93,65503,1,0,0:0:0:0:
187,82,65618,1,0,0:0:0:0:
212,73,65734,1,0,0:0:0:0:
236,64,65849,1,0,0:0:0:0:
261,54,65964,2,0,L|389:54,4,70
222,318,66657,6,0,L|323:318,1,70
390,227,66888,2,0,L|390:116,1,70
290,69,67118,2,0,L|182:69,1,70
119,157,67349,2,0,P|85:186|119:259,1,70,8|0,0:0|0:0,0:0:0:0:
119,157,67464,2,0,P|90:122|17:157,1,70,8|0,0:0|0:0,0:0:0:0:
119,157,67580,2,0,P|153:128|119:55,1,70,8|0,0:0|0:0,0:0:0:0:
119,157,67695,2,0,P|148:191|221:157,1,70,8|0,0:0|0:0,0:0:0:0:
257,298,68041,1,0,0:0:0:0:
432,158,68272,5,0,0:0:0:0:
378,114,68388,1,0,0:0:0:0:
311,104,68503,1,0,0:0:0:0:
248,127,68618,1,0,0:0:0:0:
222,180,68734,2,0,P|193:222|208:265,1,70
250,230,68964,2,0,P|265:281|305:290,1,70
296,271,69195,1,0,0:0:0:0:
356,286,69311,1,0,0:0:0:0:
408,258,69426,1,0,0:0:0:0:
444,210,69541,1,0,0:0:0:0:
471,155,69657,2,0,L|468:132,16,17.5
266,92,70349,5,0,0:0:0:0:
189,90,70464,1,0,0:0:0:0:
129,140,70580,1,0,0:0:0:0:
259,340,70811,1,0,0:0:0:0:
366,196,71041,1,8,0:0:0:0:
386,152,71157,1,8,0:0:0:0:
381,99,71272,1,8,0:0:0:0:
335,87,71388,1,8,0:0:0:0:
286,111,71503,2,0,L|285:147,4,35
378,333,71964,5,0,0:0:0:0:
440,117,72195,1,0,0:0:0:0:
230,36,72426,1,0,0:0:0:0:
174,55,72541,2,0,L|102:76,2,70
237,45,72888,5,8,0:0:0:0:
300,59,73003,5,8,0:0:0:0:
349,107,73118,5,8,0:0:0:0:
389,157,73234,5,8,0:0:0:0:
405,218,73349,2,0,L|374:219,8,17.5
245,314,73811,1,0,0:0:0:0:
200,315,73868,1,0,0:0:0:0:
160,297,73926,1,0,0:0:0:0:
134,261,73984,1,0,0:0:0:0:
123,223,74041,2,0,P|117:201|134:182,4,35
237,29,74503,1,0,0:0:0:0:
441,120,74734,1,0,0:0:0:0:
465,173,74849,1,0,0:0:0:0:
479,230,74964,1,0,0:0:0:0:
475,287,75080,1,0,0:0:0:0:
452,339,75195,2,0,L|424:374,8,35
323,153,75888,5,0,0:0:0:0:
128,42,76118,1,0,0:0:0:0:
256,295,76349,1,0,0:0:0:0:
149,192,76580,1,8,0:0:0:0:
198,136,76696,1,8,0:0:0:0:
257,85,76811,1,8,0:0:0:0:
315,134,76926,1,8,0:0:0:0:
365,192,77042,1,0,0:0:0:0:
314,249,77157,1,0,0:0:0:0:
256,295,77273,1,0,0:0:0:0:
199,248,77388,1,0,0:0:0:0:
256,194,77503,5,0,0:0:0:0:
256,194,77618,2,0,L|177:194,1,70
256,194,77734,2,0,L|257:116,1,70
256,194,77849,2,0,L|343:194,1,70
256,194,77964,2,0,L|256:268,1,70
256,194,78080,6,0,L|193:257,1,70
256,194,78195,2,0,L|204:142,1,70
256,194,78311,2,0,L|312:138,1,70
256,194,78426,2,0,L|311:249,1,70
253,194,78888,2,0,P|253:314|352:314,1,210
393,244,79349,2,0,L|378:288,3,35
431,185,79580,2,0,L|452:233,3,35
391,129,79811,2,0,L|367:171,3,35
426,74,80041,2,0,L|447:122,3,35
396,47,80272,5,8,0:0:0:0:
357,30,80388,1,8,0:0:0:0:
312,17,80503,1,8,0:0:0:0:
271,25,80618,1,8,0:0:0:0:
233,46,80734,5,8,0:0:0:0:
205,76,80849,1,8,0:0:0:0:
195,112,80964,1,8,0:0:0:0:
192,151,81080,1,8,0:0:0:0:
202,190,81195,2,0,P|250:232|293:225,1,105
336,207,81657,1,0,0:0:0:0:
397,38,82118,2,0,P|312:34|281:69,1,105
265,80,82580,1,0,0:3:0:0:
92,315,83041,6,0,P|176:318|207:283,1,105,0|0,0:3|0:3,0:3:0:0:
226,266,83503,1,0,0:3:0:0:
433,232,83964,6,0,P|436:147|401:116,1,105
384,98,84426,1,0,0:0:0:0:
81,119,84888,6,0,P|77:203|112:234,1,105
130,253,85350,1,0,0:0:0:0:
342,338,85810,6,0,P|425:327|450:287,1,105
465,266,86272,1,0,0:0:0:0:
177,47,86733,6,0,P|92:43|61:78,1,105
43,96,87195,1,0,0:0:0:0:
246,219,87657,6,0,P|242:303|277:334,1,105
295,353,88119,1,0,0:0:0:0:
269,164,88580,6,0,P|272:79|237:48,1,105
220,30,89042,1,0,0:0:0:0:
