osu file format v14

[General]
AudioFilename: audio.mp3
AudioLeadIn: 0
PreviewTime: 44382
Countdown: 0
SampleSet: Normal
StackLeniency: 0
Mode: 1
LetterboxInBreaks: 0
WidescreenStoryboard: 0

[Editor]
DistanceSpacing: 0.3
BeatDivisor: 16
GridSize: 32
TimelineZoom: 2.999999

[Metadata]
Title:Foliage Estate (Overlook) [Secret Breakcore Event]
TitleUnicode:Foliage Estate (Overlook) [Secret Breakcore Event]
Artist:sauze
ArtistUnicode:sauze
Creator:koul
Version:Dream
Source:ゆめ2っき
Tags:video game videogame vgm ost original soundtrack instrumental rpgmaker 2000 yume nikki 2kki BGM326D remix 326 d 山奥エリア mountain area yuri yuri_marinesnow_s_slower moriwo yuri breakcore electronic urotsuki zth phob
BeatmapID:4103525
BeatmapSetID:1976811

[Difficulty]
HPDrainRate:6.5
CircleSize:7
OverallDifficulty:6
ApproachRate:10
SliderMultiplier:1.4
SliderTickRate:1

[Events]
//Background and Video events
0,0,"bg.png",0,90
//Break Periods
//Storyboard Layer 0 (Background)
//Storyboard Layer 1 (Fail)
//Storyboard Layer 2 (Pass)
//Storyboard Layer 3 (Foreground)
//Storyboard Layer 4 (Overlay)
//Storyboard Sound Samples

[TimingPoints]
91,348.837209302326,4,1,0,65,1,0
91,-166.666666666667,4,1,0,65,0,0
9487,-166.666666666667,4,1,0,65,0,0
9574,-157.92646172393,4,1,0,65,0,0
9662,-149.971379507728,4,1,0,65,0,0
9749,-142.857142857143,4,1,0,65,0,0
9836,-166.666666666667,4,1,0,65,0,0
10185,-166.666666666667,4,1,0,55,0,0
10883,-142.857142857143,4,1,0,55,0,0
10970,-153.91380826737,4,1,0,55,0,0
11057,-166.666666666667,4,1,0,55,0,0
11231,-125,4,1,0,65,0,0
21696,-66.6666666666667,4,1,0,45,0,0
22394,-100,4,1,0,30,0,0
22917,-111.099320882852,4,1,0,32,0,0
23441,-125,4,1,0,34,0,0
23789,-100,4,1,0,35,0,0
24313,-111.122903842072,4,1,0,37,0,0
24836,-125,4,1,0,39,0,0
25185,-100,4,1,0,40,0,0
25708,-111.111111111111,4,1,0,42,0,0
26231,-125,4,1,0,44,0,0
26580,-125,4,1,0,46,0,0
26755,-121.198957428323,4,1,0,46,0,0
26929,-117.642098161579,4,1,0,47,0,0
27103,-114.288055054891,4,1,0,48,0,0
27278,-111.102261866837,4,1,0,48,0,0
27452,-108.106013639182,4,1,0,49,0,0
27627,-105.251244907198,4,1,0,50,0,0
27714,-103.887399463807,4,1,0,50,0,0
27801,-102.558447287164,4,1,0,50,0,0
27859,-101.691208630996,4,1,0,51,0,0
27917,-100.838513806563,4,1,0,51,0,0
27975,-100,4,1,0,51,0,0
28324,-100,4,1,0,52,0,0
28499,-99.9449344048244,4,1,0,53,0,0
28848,-99.5096438303107,4,1,0,54,0,0
29022,-99.1350361019474,4,1,0,55,0,0
29109,-98.9098705117885,4,1,0,55,0,0
29284,-98.3832795722707,4,1,0,56,0,0
29371,-98.0861299612573,4,1,0,56,0,0
29545,-97.4248957013065,4,1,0,57,0,0
29720,-96.6750627525011,4,1,0,58,0,0
29894,-95.8519165947877,4,1,0,58,0,0
30069,-94.9532124929624,4,1,0,59,0,0
30243,-93.9966995801838,4,1,0,60,0,0
30417,-92.9850692109906,4,1,0,60,0,0
30505,-92.4549033603486,4,1,0,60,0,0
30592,-91.9198155377833,4,1,0,61,0,0
30679,-91.3748033633239,4,1,0,61,0,0
30766,-90.8208142672235,4,1,0,61,0,0
30941,-89.6830561944592,4,1,0,62,0,0
31115,-88.5268877815304,4,1,0,63,0,0
31289,-87.3529098729498,4,1,0,63,0,0
31377,-86.7545287645732,4,1,0,64,0,0
31464,-86.1609610427991,4,1,0,64,0,0
31638,-84.9709707897766,4,1,0,65,0,0
31813,-83.7751879612834,4,1,0,65,0,0
31900,-83.1828225614558,4,1,0,66,0,0
32074,-82.0054723453196,4,1,0,66,0,0
32162,-81.4149825530078,4,1,0,67,0,0
32336,-80.2599776814208,4,1,0,67,0,0
32510,-79.1249961577884,4,1,0,68,0,0
32685,-78.0073592138077,4,1,0,69,0,0
32772,-77.4616701233327,4,1,0,69,0,0
32859,-76.9230769230769,4,1,0,69,0,0
33034,-76.9230769230769,4,1,0,70,0,0
33513,-20,4,1,0,45,0,0
33906,-76.9230769230769,4,1,0,70,0,0
39133,-100,4,1,0,45,0,0
39220,-96.698717031403,4,1,0,45,0,0
39308,-93.4703450802261,4,1,0,45,0,0
39482,-87.4007722826407,4,1,0,45,0,0
39540,-85.4664656785903,4,1,0,45,0,0
39598,-83.5749681017459,4,1,0,45,0,0
39657,-81.6938034553668,4,1,0,45,0,0
39744,-78.9968598354957,4,1,0,45,0,0
39831,-76.3889499560201,4,1,0,70,0,0
39918,-73.867134561232,4,1,0,70,0,0
40005,-71.4285714285714,4,1,0,70,0,0
40098,-66.5557404326123,4,1,0,70,0,0
44371,-66.5557404326123,4,1,0,45,0,0
44742,-142.348754448399,4,1,0,72,0,1
44785,-151.30331619212,4,1,0,72,0,1
44872,-160.821171772396,4,1,0,72,0,1
44959,-170.937755636539,4,1,0,72,0,1
45047,-181.818181818182,4,1,0,72,0,1
45221,-142.348754448399,4,1,0,72,0,1
45308,-151.30331619212,4,1,0,72,0,1
45395,-160.821171772396,4,1,0,72,0,1
45482,-170.937755636539,4,1,0,72,0,1
45570,-181.818181818182,4,1,0,72,0,1
45744,-200,4,1,0,72,0,1
45831,-194.025295863652,4,1,0,72,0,1
46006,-142.857142857143,4,1,0,72,0,1
46093,-150.389514229914,4,1,0,72,0,1
46180,-158.319041932166,4,1,0,72,0,1
46267,-166.666666666667,4,1,0,72,0,1
46442,-142.857142857143,4,1,0,72,0,1
46529,-151.081074654994,4,1,0,72,0,1
46616,-159.778437832354,4,1,0,72,0,1
46703,-168.976486660857,4,1,0,72,0,1
46791,-178.819050674452,4,1,0,72,0,1
46878,-189.113220412774,4,1,0,72,0,1
46965,-200,4,1,0,72,0,1
47140,-142.857142857143,4,1,0,72,0,1
47227,-150.956993601596,4,1,0,72,0,1
47314,-159.516097420627,4,1,0,72,0,1
47401,-168.56049348374,4,1,0,72,0,1
47489,-178.117697354148,4,1,0,72,0,1
47576,-188.33613434511,4,1,0,72,0,1
47663,-199.014596390989,4,1,0,72,0,1
47750,-210.298516078132,4,1,0,72,0,1
47837,-222.222222222222,4,1,0,72,0,1
48012,-142.348754448399,4,1,0,72,0,1
48077,-151.30331619212,4,1,0,72,0,1
48164,-160.821171772396,4,1,0,72,0,1
48251,-170.937755636539,4,1,0,72,0,1
48339,-181.818181818182,4,1,0,72,0,1
48535,-250,4,1,0,72,0,1
48622,-235.547395096167,4,1,0,72,0,1
48797,-208.95734379231,4,1,0,72,0,1
48884,-196.877432065971,4,1,0,72,0,1
48971,-185.495865105449,4,1,0,72,0,1
49145,-164.668612965424,4,1,0,72,0,1
49320,-146.079798323266,4,1,0,72,0,1
49494,-129.678134649992,4,1,0,72,0,1
49581,-122.181387270942,4,1,0,72,0,1
49756,-108.388794257615,4,1,0,72,0,1
49843,-102.122792579982,4,1,0,72,0,1
49930,-96.2190310886442,4,1,0,72,0,1
50017,-90.656568526429,4,1,0,72,0,1
50105,-85.3572299126645,4,1,0,72,0,1
50192,-80.422692634211,4,1,0,72,0,1
50279,-76.3358778625954,4,1,0,45,0,1
50628,-111.111111111111,4,1,0,72,0,1
50802,-120.800690655722,4,1,0,72,0,1
50890,-126.01843151849,4,1,0,72,0,1
50977,-131.39838677126,4,1,0,72,0,1
51064,-137.00802206506,4,1,0,72,0,1
51151,-142.857142857143,4,1,0,72,0,1
51327,-200,4,1,0,72,0,1
51414,-187.302751640976,4,1,0,72,0,1
51588,-164.275380364991,4,1,0,72,0,1
51675,-153.846153846154,4,1,0,72,0,1
51849,-111.111111111111,4,1,0,72,0,1
51936,-116.870749176708,4,1,0,72,0,1
52023,-122.928948118125,4,1,0,72,0,1
52110,-129.30118435863,4,1,0,72,0,1
52198,-136.082763487954,4,1,0,72,0,1
52285,-143.136850669866,4,1,0,72,0,1
52372,-150.556598753237,4,1,0,72,0,1
52460,-158.36096240809,4,1,0,72,0,1
52566,-166.666666666667,4,1,0,72,0,1
52721,-153.846153846154,4,1,0,72,0,1
52808,-145.739348086005,4,1,0,72,0,1
52895,-138.05972427347,4,1,0,72,0,1
52983,-130.703420457426,4,1,0,72,0,1
53070,-123.816103385497,4,1,0,72,0,1
53244,-111.111111111111,4,1,0,72,0,1
53332,-116.870749176708,4,1,0,72,0,1
53420,-123.000377744123,4,1,0,72,0,1
53507,-129.376316663764,4,1,0,72,0,1
53594,-136.082763487954,4,1,0,72,0,1
53681,-143.136850669866,4,1,0,72,0,1
53768,-150.556598753237,4,1,0,72,0,1
53856,-158.452980313479,4,1,0,72,0,1
53943,-166.666666666667,4,1,0,72,0,1
54116,-200,4,1,0,72,0,1
54203,-181.818181818182,4,1,0,72,0,1
54378,-111.111111111111,4,1,0,72,0,1
54465,-115.542896853792,4,1,0,72,0,1
54552,-120.151449120294,4,1,0,72,0,1
54640,-125,4,1,0,72,0,1
54814,-111.111111111111,4,1,0,72,0,1
54901,-115.854645835836,4,1,0,72,0,1
54988,-120.800690655722,4,1,0,72,0,1
55076,-126.01843151849,4,1,0,72,0,1
55163,-131.39838677126,4,1,0,72,0,1
55250,-137.00802206506,4,1,0,72,0,1
55381,-142.857142857143,4,1,0,72,0,0
55534,-142.857142857143,4,1,0,30,0,0
56228,465.56741028128,4,1,0,55,1,8
56228,-91.324200913242,4,1,0,55,0,0
56423,-93.0712944106415,4,1,0,55,0,0
56656,-94.8945154129279,4,1,0,55,0,0
56889,-96.7905957030658,4,1,0,55,0,0
57005,-97.7631025217701,4,1,0,55,0,0
57122,-98.7639917128049,4,1,0,55,0,0
57355,-100.81953087429,4,1,0,55,0,0
57587,-102.953059338517,4,1,0,55,0,0
57704,-104.063641426531,4,1,0,55,0,0
57937,-106.348250069716,4,1,0,55,0,0
58053,-107.523467232478,4,1,0,55,0,0
58286,-109.964296539481,4,1,0,55,0,0
58519,-112.518515609502,4,1,0,55,0,0
58752,-115.194213691761,4,1,0,55,0,0
58868,-116.574337788071,4,1,0,55,0,0
58984,-117.98793300431,4,1,0,55,0,0
59217,-120.933484419018,4,1,0,55,0,0
59450,-124.029871951978,4,1,0,55,0,0
59567,-125.64528987585,4,1,0,55,0,0
59683,-127.288986096634,4,1,0,55,0,0
59799,-128.976258164899,4,1,0,55,0,0
59916,-130.724000851683,4,1,0,55,0,0
60149,-134.349551707264,4,1,0,55,0,0
60381,-138.165028939972,4,1,0,55,0,0
60614,-142.221475519171,4,1,0,55,0,0
60731,-144.349580735131,4,1,0,55,0,0
60847,-146.523316666863,4,1,0,55,0,0
61080,-151.093514634733,4,1,0,55,0,0
61313,-155.957988764437,4,1,0,55,0,0
61429,-158.498477285526,4,1,0,55,0,0
61662,-163.8599022765,4,1,0,55,0,0
61778,-166.666666666667,4,1,0,55,0,0
61893,-66.6666666666667,4,1,0,55,0,8
61951,-100,4,1,0,55,0,8
63292,-92.9954100977849,4,1,0,55,0,8
63408,-86.9565217391304,4,1,0,55,0,8
63466,-84.221941080788,4,1,0,55,0,8
63525,-81.6112084063047,4,1,0,55,0,8
63583,-79.1978246091094,4,1,0,55,0,8
63641,-76.9230769230769,4,1,0,65,0,8
63874,-90.9090909090909,4,1,0,65,0,8
64107,-92.1061926897156,4,1,0,65,0,8
64340,-93.3352423222851,4,1,0,65,0,8
64456,-93.9594413456133,4,1,0,65,0,8
64572,-94.5920455040121,4,1,0,65,0,8
64689,-95.23879092463,4,1,0,65,0,8
64805,-95.8887989997794,4,1,0,65,0,8
65038,-97.2216008232294,4,1,0,65,0,8
65154,-97.8990523960414,4,1,0,65,0,8
65387,-99.2887277822624,4,1,0,65,0,8
65504,-100.001534001135,4,1,0,65,0,8
65736,-101.445666889715,4,1,0,65,0,8
65969,-102.93862211625,4,1,0,65,0,8
66202,-104.476176739266,4,1,0,65,0,8
66319,-105.265707503754,4,1,0,65,0,8
66435,-106.060359554218,4,1,0,65,0,8
66551,-106.867100539335,4,1,0,65,0,8
66668,-107.693324302447,4,1,0,65,0,8
66901,-109.377359440278,4,1,0,65,0,8
67017,-110.23555472885,4,1,0,65,0,8
67133,-111.107323641198,4,1,0,65,0,8
67250,-112.000687226183,4,1,0,65,0,8
67366,-112.900711799241,4,1,0,65,0,8
67599,-114.752944075763,4,1,0,65,0,8
67832,-116.666964940852,4,1,0,65,0,8
68065,-118.645918645919,4,1,0,65,0,8
68181,-119.65639397221,4,1,0,65,0,8
68298,-120.693166459926,4,1,0,65,0,8
68414,-121.738968047956,4,1,0,65,0,8
68530,-122.803051709523,4,1,0,65,0,8
68763,-124.997603205952,4,1,0,65,0,8
68880,-126.129437941376,4,1,0,65,0,8
69113,-128.445609126554,4,1,0,65,0,8
69229,-129.630734355426,4,1,0,65,0,8
69462,-132.078529894443,4,1,0,65,0,8
69695,-134.620547237997,4,1,0,65,0,8
69927,-137.250773733078,4,1,0,65,0,8
70044,-138.616598269153,4,1,0,65,0,8
70160,-139.997852464297,4,1,0,65,0,8
70277,-141.419181291624,4,1,0,65,0,8
70393,-142.857142857143,4,1,0,65,0,8
70626,-100,4,1,0,65,0,8
70742,-93.0511182108626,4,1,0,65,0,8
70859,-86.9565217391304,4,1,0,65,0,8
70917,-84.221941080788,4,1,0,65,0,8
70975,-81.6541089889609,4,1,0,65,0,8
71033,-79.2382247917021,4,1,0,65,0,8
71092,-76.9230769230769,4,1,0,65,0,8
71324,-100,4,1,0,65,0,8
71557,-101.450177382212,4,1,0,65,0,8
71790,-102.943033977517,4,1,0,65,0,8
71906,-103.702761165543,4,1,0,65,0,8
72023,-104.480482020383,4,1,0,65,0,8
72139,-105.263157894737,4,1,0,65,0,8
72256,-106.064549713691,4,1,0,65,0,8
72489,-107.697390155269,4,1,0,65,0,8
72605,-108.529196351288,4,1,0,65,0,8
72838,-110.239415663465,4,1,0,65,0,8
72954,-111.111111111111,4,1,0,65,0,8
73187,-112.90434300755,4,1,0,65,0,8
73420,-114.756406646015,4,1,0,65,0,8
73653,-116.670245508553,4,1,0,65,0,8
73769,-117.647058823529,4,1,0,65,0,8
73885,-118.640366838926,4,1,0,65,0,8
74002,-119.659374541183,4,1,0,65,0,8
74118,-120.687102028728,4,1,0,65,0,8
74351,-122.805695773374,4,1,0,65,0,8
74468,-123.897841289146,4,1,0,65,0,8
74584,-125,4,1,0,65,0,8
74700,-126.12194367069,4,1,0,65,0,8
74817,-127.274146950886,4,1,0,65,0,8
75050,-129.632575155082,4,1,0,65,0,8
75282,-132.069356668287,4,1,0,65,0,8
75515,-134.610620199851,4,1,0,65,0,8
75632,-135.923949299533,4,1,0,65,0,8
75748,-137.251599865275,4,1,0,65,0,8
75865,-138.617229356238,4,1,0,65,0,8
75981,-139.998282229666,4,1,0,65,0,8
76214,-142.857142857143,4,1,0,65,0,8
76330,-144.324420046042,4,1,0,65,0,8
76563,-147.364614410994,4,1,0,65,0,8
76679,-148.926450433988,4,1,0,65,0,8
76912,-152.165795369679,4,1,0,65,0,8
77145,-155.549193625346,4,1,0,65,0,8
77378,-159.086472769861,4,1,0,65,0,8
77494,-160.908193484699,4,1,0,65,0,8
77611,-162.788375112354,4,1,0,65,0,8
77727,-164.696372638173,4,1,0,65,0,8
77844,-166.666666666667,4,1,0,65,0,8
78076,-100,4,1,0,65,0,8
78193,-92.9954100977849,4,1,0,65,0,8
78309,-86.9565217391304,4,1,0,65,0,8
78367,-84.221941080788,4,1,0,65,0,8
78426,-81.6112084063047,4,1,0,65,0,8
78484,-79.1978246091094,4,1,0,65,0,8
78542,-76.9230769230769,4,1,0,65,0,8
78775,-111.111111111111,4,1,0,65,0,8
79008,-112.450838335748,4,1,0,65,0,8
79241,-113.82326750825,4,1,0,65,0,8
79357,-114.519104084321,4,1,0,65,0,8
79473,-115.223500715839,4,1,0,65,0,8
79706,-116.664877053581,4,1,0,65,0,8
79939,-118.142771706627,4,1,0,65,0,8
80055,-118.892597253379,4,1,0,65,0,8
80288,-120.427843050321,4,1,0,65,0,8
80405,-121.213811569141,4,1,0,65,0,8
80638,-122.809992087713,4,1,0,65,0,8
80870,-124.441644714237,4,1,0,65,0,8
81103,-126.124557432236,4,1,0,65,0,8
81220,-126.986909770921,4,1,0,65,0,8
81336,-127.853612614733,4,1,0,65,0,8
81569,-129.630734355426,4,1,0,65,0,8
81802,-131.45795523291,4,1,0,65,0,8
81918,-132.386986718655,4,1,0,65,0,8
82035,-133.337424065779,4,1,0,65,0,8
82151,-134.293306964959,4,1,0,65,0,8
82267,-135.262994086523,4,1,0,65,0,8
82500,-137.253663466397,4,1,0,65,0,8
82733,-139.303801525739,4,1,0,65,0,8
82966,-141.416113497332,4,1,0,65,0,8
83082,-142.491803278689,4,1,0,65,0,8
83199,-143.593471221833,4,1,0,65,0,8
83431,-145.829138983961,4,1,0,65,0,8
83664,-148.14562312517,4,1,0,65,0,8
83781,-149.336815339152,4,1,0,65,0,8
84014,-151.767006565163,4,1,0,65,0,8
84130,-153.006618786087,4,1,0,65,0,8
84363,-155.558737203808,4,1,0,65,0,8
84596,-158.197437390798,4,1,0,65,0,8
84828,-160.91528436019,4,1,0,65,0,8
84945,-162.321655337267,4,1,0,65,0,8
85061,-163.740486775676,4,1,0,65,0,8
85294,-166.666666666667,4,1,0,65,0,8
85527,-100,4,1,0,65,0,8
85643,-93.0511182108626,4,1,0,65,0,8
85760,-86.9565217391304,4,1,0,65,0,8
85818,-84.221941080788,4,1,0,65,0,8
85876,-81.6541089889609,4,1,0,65,0,8
85934,-79.2382247917021,4,1,0,65,0,8
85937,-79.2382247917021,4,1,0,65,0,8
85993,-76.9230769230769,4,1,0,65,0,8
86225,-125,4,1,0,64,0,8
86458,-126.697887720798,4,1,0,63,0,8
86691,-128.442535755092,4,1,0,63,0,8
86924,-130.235902762519,4,1,0,62,0,8
87040,-131.147540983606,4,1,0,62,0,8
87157,-132.080058342112,4,1,0,61,0,8
87390,-133.977190999692,4,1,0,60,0,8
87506,-134.942152865451,4,1,0,60,0,8
87739,-136.923012306271,4,1,0,59,0,8
87855,-137.931034482759,4,1,0,59,0,8
88088,-140.001288355414,4,1,0,58,0,8
88321,-142.134635507499,4,1,0,57,0,8
88554,-144.334004825892,4,1,0,57,0,8
88787,-146.602509331295,4,1,0,56,0,8
88903,-147.758691021167,4,1,0,56,0,8
89019,-148.933254145918,4,1,0,55,0,8
89252,-151.349845632443,4,1,0,55,0,8
89369,-152.593147350683,4,1,0,54,0,8
89485,-153.846153846154,4,1,0,54,0,8
89601,-155.119908641035,4,1,0,53,0,8
89718,-156.426189390849,4,1,0,53,0,8
89951,-159.09423649407,4,1,0,52,0,8
90184,-161.854876747015,4,1,0,52,0,8
90416,-164.700533003259,4,1,0,51,0,8
90649,-167.660975108002,4,1,0,50,0,8
90766,-169.188053039936,4,1,0,50,0,8
90882,-170.72979130116,4,1,0,49,0,8
91115,-173.913043478261,4,1,0,49,0,8
91231,-175.54251251952,4,1,0,48,0,8
91464,-178.909529950882,4,1,0,48,0,8
91580,-180.634436902618,4,1,0,47,0,8
91813,-184.201604701096,4,1,0,46,0,8
92046,-187.912499639738,4,1,0,46,0,8
92279,-191.775986822754,4,1,0,45,0,8
92458,-196.078431372549,4,1,0,44,0,8
92745,-200,4,1,0,44,0,8
92977,-125,4,1,0,43,0,8
93094,-114.24368717823,4,1,0,42,0,8
93210,-105.263157894737,4,1,0,42,0,8
93327,-97.5303474257011,4,1,0,42,0,8
93443,-90.9090909090909,4,1,0,41,0,8
93681,-90.9090909090909,4,1,0,41,0,8
93909,-142.857142857143,4,1,0,40,0,8
94142,-145.948456001857,4,1,0,39,0,8
94607,-152.535792283426,4,1,0,38,0,8
94840,-156.065345846368,4,1,0,37,0,8
94957,-157.900025119317,4,1,0,37,0,8
95189,-161.668638444525,4,1,0,36,0,8
95306,-163.63825688551,4,1,0,35,0,8
95771,-171.964764458062,4,1,0,34,0,8
96004,-176.463982931896,4,1,0,33,0,8
96470,-186.207713727117,4,1,0,32,0,8
96703,-191.494547005423,4,1,0,31,0,8
96936,-197.09036182354,4,1,0,30,0,8
97052,-200,4,1,0,30,0,8
97168,-202.996835238649,4,1,0,30,0,8
97634,-215.998900419215,4,1,0,28,0,8
97867,-223.145189918353,4,1,0,27,0,8
98333,-238.956891963811,4,1,0,26,0,8
98565,-247.694853810387,4,1,0,25,0,8
98682,-252.34845443597,4,1,0,25,0,8
98915,-262.156977229127,4,1,0,24,0,8
99031,-267.330101216297,4,1,0,24,0,8
99497,-290.346420323326,4,1,0,22,0,8
99729,-303.349097577454,4,1,0,21,0,8
100195,-333.333333333333,4,1,0,20,0,8

[HitObjects]
139,66,91,5,0,0:0:0:0:
279,145,265,1,0,0:0:0:0:
279,145,439,1,8,0:0:0:0:
300,102,701,1,8,0:0:0:0:
297,127,788,1,0,0:0:0:0:
452,216,875,1,0,0:0:0:0:
389,120,963,1,8,0:0:0:0:
375,141,1137,1,8,0:0:0:0:
386,138,1486,1,0,0:0:0:0:
386,138,1573,1,0,0:0:0:0:
386,138,1660,1,8,0:0:0:0:
386,138,1835,1,8,0:0:0:0:
386,138,2009,1,0,0:0:0:0:
386,138,2096,1,8,0:0:0:0:
386,138,2271,1,8,0:0:0:0:
386,138,2358,1,8,0:0:0:0:
386,138,2445,1,0,0:0:0:0:
386,138,2532,1,8,0:0:0:0:
391,133,2881,1,0,0:0:0:0:
391,133,2968,1,0,0:0:0:0:
391,133,3056,1,8,0:0:0:0:
391,133,3230,1,8,0:0:0:0:
380,144,3404,1,0,0:0:0:0:
380,144,3492,1,8,0:0:0:0:
380,144,3666,1,8,0:0:0:0:
380,144,3753,1,0,0:0:0:0:
380,144,3841,1,0,0:0:0:0:
380,144,3928,1,8,0:0:0:0:
391,133,4277,1,0,0:0:0:0:
317,115,4451,1,0,0:0:0:0:
296,138,4625,1,8,0:0:0:0:
296,138,4800,1,0,0:0:0:0:
296,138,4887,1,8,0:0:0:0:
322,145,5061,1,8,0:0:0:0:
321,130,5149,1,0,0:0:0:0:
301,135,5323,1,8,0:0:0:0:
327,135,5497,1,8,0:0:0:0:
327,135,5585,1,8,0:0:0:0:
81,172,5672,1,0,0:0:0:0:
279,145,5846,1,0,0:0:0:0:
279,145,6021,1,8,0:0:0:0:
300,102,6282,1,8,0:0:0:0:
297,127,6370,1,0,0:0:0:0:
452,216,6457,1,0,0:0:0:0:
389,120,6544,1,8,0:0:0:0:
375,141,6718,1,8,0:0:0:0:
386,138,7067,1,0,0:0:0:0:
386,138,7154,1,0,0:0:0:0:
386,138,7242,1,8,0:0:0:0:
386,138,7416,1,8,0:0:0:0:
386,138,7591,1,0,0:0:0:0:
386,138,7678,1,8,0:0:0:0:
386,138,7852,1,8,0:0:0:0:
386,138,7939,1,8,0:0:0:0:
386,138,8027,1,0,0:0:0:0:
386,138,8114,1,8,0:0:0:0:
391,133,8463,1,0,0:0:0:0:
317,115,8637,1,0,0:0:0:0:
296,138,8811,1,8,0:0:0:0:
296,138,8986,1,0,0:0:0:0:
296,138,9073,1,8,0:0:0:0:
322,145,9247,1,8,0:0:0:0:
321,130,9335,1,0,0:0:0:0:
301,135,9509,1,8,0:0:0:0:
354,132,9596,1,8,0:0:0:0:
354,132,9684,1,8,0:0:0:0:
354,132,9771,1,8,0:0:0:0:
219,134,9858,1,4,0:0:0:0:
303,78,10904,1,8,0:0:0:0:
328,103,10992,1,0,0:0:0:0:
328,103,11079,1,8,0:0:0:0:
321,117,11253,1,0,0:0:0:0:
321,117,11428,1,0,0:0:0:0:
321,112,11602,1,8,0:0:0:0:
321,112,11777,1,8,0:0:0:0:
449,189,11951,1,8,0:0:0:0:
449,189,12038,1,8,0:0:0:0:
321,112,12125,1,0,0:0:0:0:
449,189,12213,1,0,0:0:0:0:
321,112,12300,1,8,0:0:0:0:
335,103,12649,1,0,0:0:0:0:
335,103,12823,1,0,0:0:0:0:
335,103,12997,1,8,0:0:0:0:
426,109,13172,1,0,0:0:0:0:
416,224,13259,1,0,0:0:0:0:
426,109,13346,1,8,0:0:0:0:
439,261,13434,1,8,0:0:0:0:
335,103,13521,1,0,0:0:0:0:
335,103,13695,1,8,0:0:0:0:
198,124,13870,1,8,0:0:0:0:
198,124,13957,1,8,0:0:0:0:
348,107,14044,1,0,0:0:0:0:
348,107,14218,1,0,0:0:0:0:
348,107,14393,1,8,0:0:0:0:
370,120,14567,1,8,0:0:0:0:
370,120,14654,1,0,0:0:0:0:
370,120,14742,1,8,0:0:0:0:
443,217,14829,1,8,0:0:0:0:
443,217,14916,1,0,0:0:0:0:
370,120,15091,1,8,0:0:0:0:
442,239,15265,1,8,0:0:0:0:
442,239,15352,1,8,0:0:0:0:
384,103,15439,1,0,0:0:0:0:
384,103,15614,1,0,0:0:0:0:
384,103,15788,1,8,0:0:0:0:
510,217,15963,1,0,0:0:0:0:
384,103,16050,1,8,0:0:0:0:
384,103,16137,1,0,0:0:0:0:
509,211,16224,1,8,0:0:0:0:
509,211,16311,1,8,0:0:0:0:
384,103,16486,1,8,0:0:0:0:
456,254,16660,1,8,0:0:0:0:
456,254,16747,1,8,0:0:0:0:
335,103,16835,1,0,0:0:0:0:
335,103,17009,1,0,0:0:0:0:
335,103,17184,1,8,0:0:0:0:
465,265,17358,1,8,0:0:0:0:
465,265,17445,1,0,0:0:0:0:
426,109,17532,1,8,0:0:0:0:
465,265,17620,1,8,0:0:0:0:
335,103,17707,1,0,0:0:0:0:
335,103,17881,1,8,0:0:0:0:
439,232,18056,1,8,0:0:0:0:
439,232,18143,1,8,0:0:0:0:
348,107,18230,1,0,0:0:0:0:
348,107,18404,1,0,0:0:0:0:
348,107,18579,1,8,0:0:0:0:
370,120,18753,1,8,0:0:0:0:
370,120,18841,1,0,0:0:0:0:
370,120,18928,1,8,0:0:0:0:
420,238,19015,1,0,0:0:0:0:
443,217,19102,1,0,0:0:0:0:
370,120,19277,1,8,0:0:0:0:
338,233,19451,1,8,0:0:0:0:
338,233,19538,1,8,0:0:0:0:
384,103,19625,1,0,0:0:0:0:
384,103,19800,1,0,0:0:0:0:
384,103,19974,1,8,0:0:0:0:
341,245,20149,1,8,0:0:0:0:
344,240,20236,1,0,0:0:0:0:
344,240,20323,1,8,0:0:0:0:
344,240,20410,1,8,0:0:0:0:
344,240,20497,1,0,0:0:0:0:
384,103,20672,1,8,0:0:0:0:
154,162,20846,1,8,0:0:0:0:
158,162,20934,1,8,0:0:0:0:
434,143,21021,1,0,0:0:0:0:
434,143,21195,1,0,0:0:0:0:
434,143,21370,1,8,0:0:0:0:
498,316,21544,1,0,0:0:0:0:
426,154,21718,1,12,0:0:0:0:
315,142,22416,5,0,0:0:0:0:
318,197,22939,1,0,0:0:0:0:
311,109,23463,1,0,0:0:0:0:
311,109,23811,1,0,0:0:0:0:
311,109,24335,1,0,0:0:0:0:
311,109,24858,1,0,0:0:0:0:
285,113,25207,1,0,0:0:0:0:
288,111,25730,1,0,0:0:0:0:
288,111,26253,1,0,0:0:0:0:
288,111,26602,1,8,0:0:0:0:
357,127,26777,1,0,0:0:0:0:
357,127,26951,1,8,0:0:0:0:
357,127,27125,1,0,0:0:0:0:
357,127,27300,1,0,0:0:0:0:
360,117,27474,1,8,0:0:0:0:
362,116,27649,1,0,0:0:0:0:
362,116,27736,1,0,0:0:0:0:
362,116,27823,1,8,0:0:0:0:
420,90,27881,1,8,0:0:0:0:
420,90,27939,1,8,0:0:0:0:
419,102,27997,1,0,0:0:0:0:
368,183,28346,1,8,0:0:0:0:
368,183,28521,1,0,0:0:0:0:
368,183,28870,1,8,0:0:0:0:
368,183,29044,1,0,0:0:0:0:
373,164,29131,1,8,0:0:0:0:
377,137,29306,1,8,0:0:0:0:
276,129,29393,1,0,0:0:0:0:
367,170,29567,1,0,0:0:0:0:
367,170,29742,1,8,0:0:0:0:
367,170,29916,1,0,0:0:0:0:
367,170,30091,1,0,0:0:0:0:
370,127,30265,1,8,0:0:0:0:
386,166,30439,1,0,0:0:0:0:
392,164,30527,1,0,0:0:0:0:
392,164,30614,1,8,0:0:0:0:
394,163,30701,1,8,0:0:0:0:
394,163,30788,1,0,0:0:0:0:
397,160,30963,1,0,0:0:0:0:
397,160,31137,1,8,0:0:0:0:
397,160,31311,1,0,0:0:0:0:
397,160,31399,1,0,0:0:0:0:
397,160,31486,1,0,0:0:0:0:
397,160,31660,1,8,0:0:0:0:
397,160,31835,1,0,0:0:0:0:
397,160,31922,1,8,0:0:0:0:
397,160,32096,1,8,0:0:0:0:
385,145,32184,1,0,0:0:0:0:
360,173,32358,1,0,0:0:0:0:
370,148,32532,1,8,0:0:0:0:
370,148,32707,1,0,0:0:0:0:
370,148,32794,1,0,0:0:0:0:
370,148,32881,1,0,0:0:0:0:
383,152,33056,1,8,0:0:0:0:
373,151,33928,1,8,0:0:0:0:
380,148,34102,1,0,0:0:0:0:
380,148,34189,1,8,0:0:0:0:
380,148,34277,1,0,0:0:0:0:
380,148,34364,1,0,0:0:0:0:
380,148,34451,1,8,0:0:0:0:
383,162,34625,1,0,0:0:0:0:
383,162,34713,1,8,0:0:0:0:
382,162,34887,1,8,0:0:0:0:
380,164,34974,1,0,0:0:0:0:
390,153,35149,1,0,0:0:0:0:
390,153,35236,1,0,0:0:0:0:
390,153,35323,1,8,0:0:0:0:
394,142,35497,1,0,0:0:0:0:
394,142,35585,1,0,0:0:0:0:
394,142,35672,1,0,0:0:0:0:
394,142,35846,1,8,0:0:0:0:
394,142,36021,1,8,0:0:0:0:
394,142,36108,1,8,0:0:0:0:
394,142,36195,1,8,0:0:0:0:
394,142,36282,1,8,0:0:0:0:
394,142,36370,1,0,0:0:0:0:
394,142,36544,1,0,0:0:0:0:
394,142,36718,1,8,0:0:0:0:
406,139,36893,1,0,0:0:0:0:
406,139,36980,1,0,0:0:0:0:
406,139,37067,1,8,0:0:0:0:
388,155,37154,1,0,0:0:0:0:
388,155,37242,1,8,0:0:0:0:
422,137,37416,1,8,0:0:0:0:
422,137,37503,1,0,0:0:0:0:
422,137,37678,1,8,0:0:0:0:
428,123,37765,1,0,0:0:0:0:
428,123,37939,1,0,0:0:0:0:
428,123,38114,1,8,0:0:0:0:
428,123,38288,1,0,0:0:0:0:
428,123,38375,1,0,0:0:0:0:
428,123,38463,1,0,0:0:0:0:
428,123,38550,1,0,0:0:0:0:
428,123,38637,1,8,0:0:0:0:
407,109,38811,1,8,0:0:0:0:
407,109,38899,1,0,0:0:0:0:
354,73,39160,1,8,0:0:0:0:
354,73,39247,1,0,0:0:0:0:
251,152,39335,1,8,0:0:0:0:
297,150,39509,1,8,0:0:0:0:
297,150,39567,1,8,0:0:0:0:
299,142,39625,1,8,0:0:0:0:
303,127,39684,1,0,0:0:0:0:
303,127,39771,1,0,0:0:0:0:
420,120,39858,1,8,0:0:0:0:
365,178,39945,1,0,0:0:0:0:
365,178,40032,1,8,0:0:0:0:
391,144,40207,1,0,0:0:0:0:
400,140,40294,1,8,0:0:0:0:
400,140,40468,1,8,0:0:0:0:
399,140,40556,1,0,0:0:0:0:
413,137,40730,1,0,0:0:0:0:
413,137,40904,1,8,0:0:0:0:
413,137,41079,1,0,0:0:0:0:
413,137,41166,1,0,0:0:0:0:
413,137,41253,1,8,0:0:0:0:
418,118,41428,1,8,0:0:0:0:
417,125,41602,1,8,0:0:0:0:
417,125,41689,1,0,0:0:0:0:
417,125,41777,1,8,0:0:0:0:
417,125,41864,1,8,0:0:0:0:
417,125,41951,1,0,0:0:0:0:
440,121,42125,1,0,0:0:0:0:
440,121,42300,1,8,0:0:0:0:
440,121,42474,1,8,0:0:0:0:
440,121,42561,1,8,0:0:0:0:
440,121,42649,1,0,0:0:0:0:
440,121,42736,1,0,0:0:0:0:
440,121,42823,1,8,0:0:0:0:
440,121,42997,1,8,0:0:0:0:
440,121,43085,1,0,0:0:0:0:
440,121,43259,1,8,0:0:0:0:
440,121,43346,1,0,0:0:0:0:
310,117,43521,1,0,0:0:0:0:
438,113,43695,1,8,0:0:0:0:
393,60,43870,1,0,0:0:0:0:
421,131,43957,1,0,0:0:0:0:
421,131,44044,1,0,0:0:0:0:
371,135,44131,1,0,0:0:0:0:
438,114,44218,1,8,0:0:0:0:
265,184,44742,5,0,0:0:0:0:
456,233,44829,1,8,0:0:0:0:
456,233,44916,1,8,0:0:0:0:
456,233,45003,1,0,0:0:0:0:
456,233,45091,1,8,0:0:0:0:
456,233,45265,1,0,0:0:0:0:
456,233,45352,1,0,0:0:0:0:
456,233,45439,1,8,0:0:0:0:
456,233,45527,1,0,0:0:0:0:
456,233,45614,1,8,0:0:0:0:
393,175,45788,1,0,0:0:0:0:
456,233,45875,1,8,0:0:0:0:
456,233,46050,1,8,0:0:0:0:
456,233,46137,1,0,0:0:0:0:
240,158,46224,1,0,0:0:0:0:
240,158,46311,1,8,0:0:0:0:
460,290,46486,1,8,0:0:0:0:
460,290,46573,1,8,0:0:0:0:
449,291,46660,1,0,0:0:0:0:
446,291,46747,1,0,0:0:0:0:
449,291,46835,1,8,0:0:0:0:
446,291,46922,1,0,0:0:0:0:
449,291,47009,1,8,0:0:0:0:
420,239,47184,5,0,0:0:0:0:
420,239,47271,1,8,0:0:0:0:
420,239,47358,1,8,0:0:0:0:
420,239,47445,1,8,0:0:0:0:
420,239,47532,1,0,0:0:0:0:
420,239,47620,1,8,0:0:0:0:
420,239,47707,1,0,0:0:0:0:
349,205,47794,1,0,0:0:0:0:
203,143,47881,1,8,0:0:0:0:
420,245,48056,1,0,0:0:0:0:
420,245,48143,1,0,0:0:0:0:
420,245,48230,1,8,0:0:0:0:
415,246,48317,1,0,0:0:0:0:
415,246,48404,1,8,0:0:0:0:
415,246,48579,1,0,0:0:0:0:
415,246,48666,1,8,0:0:0:0:
439,214,48841,1,8,0:0:0:0:
439,214,48928,1,0,0:0:0:0:
439,214,49015,1,8,0:0:0:0:
379,136,49189,1,0,0:0:0:0:
379,136,49364,1,8,0:0:0:0:
382,145,49538,1,0,0:0:0:0:
382,145,49625,1,8,0:0:0:0:
384,133,49800,1,8,0:0:0:0:
384,133,49887,1,8,0:0:0:0:
384,133,49974,1,0,0:0:0:0:
384,133,50061,1,8,0:0:0:0:
408,195,50149,1,0,0:0:0:0:
408,195,50236,1,0,0:0:0:0:
408,195,50323,1,12,0:0:0:0:
109,152,50672,1,8,0:0:0:0:
265,184,50846,5,0,0:0:0:0:
456,233,50934,1,8,0:0:0:0:
456,233,51021,1,8,0:0:0:0:
456,233,51108,1,0,0:0:0:0:
456,233,51195,1,8,0:0:0:0:
456,233,51370,1,0,0:0:0:0:
172,151,51457,1,8,0:0:0:0:
134,78,51631,1,8,0:0:0:0:
196,28,51718,1,0,0:0:0:0:
456,233,51893,1,8,0:0:0:0:
456,233,51980,1,0,0:0:0:0:
456,233,52067,1,8,0:0:0:0:
456,233,52154,1,8,0:0:0:0:
456,233,52242,1,0,0:0:0:0:
240,158,52329,1,0,0:0:0:0:
240,158,52416,1,8,0:0:0:0:
460,290,52503,1,0,0:0:0:0:
460,290,52591,1,8,0:0:0:0:
449,291,52765,1,0,0:0:0:0:
446,291,52852,1,8,0:0:0:0:
449,291,52939,1,8,0:0:0:0:
446,291,53027,1,8,0:0:0:0:
449,291,53114,1,0,0:0:0:0:
420,239,53288,5,0,0:0:0:0:
420,239,53375,1,0,0:0:0:0:
420,239,53463,1,8,0:0:0:0:
420,239,53550,1,8,0:0:0:0:
420,239,53637,1,0,0:0:0:0:
420,239,53724,1,0,0:0:0:0:
420,239,53811,1,8,0:0:0:0:
349,205,53899,1,0,0:0:0:0:
203,143,53986,1,8,0:0:0:0:
319,157,54160,1,0,0:0:0:0:
319,157,54247,1,8,0:0:0:0:
399,213,54422,1,8,0:0:0:0:
399,213,54509,1,0,0:0:0:0:
131,168,54596,1,0,0:0:0:0:
346,264,54684,1,8,0:0:0:0:
416,177,54858,1,8,0:0:0:0:
416,177,54945,1,8,0:0:0:0:
416,177,55032,1,0,0:0:0:0:
416,177,55120,1,0,0:0:0:0:
416,177,55207,1,8,0:0:0:0:
416,177,55294,1,0,0:0:0:0:
431,101,55381,5,8,0:0:0:0:
256,192,56228,5,0,0:0:0:0:
256,192,56460,1,0,0:0:0:0:
256,192,56693,1,8,0:0:0:0:
256,192,56926,1,8,0:0:0:0:
256,192,57042,1,0,0:0:0:0:
256,192,57159,1,0,0:0:0:0:
256,192,57391,1,8,0:0:0:0:
256,192,57624,1,8,0:0:0:0:
256,192,57741,1,0,0:0:0:0:
256,192,57973,1,8,0:0:0:0:
256,192,58090,1,0,0:0:0:0:
325,137,58323,1,0,0:0:0:0:
325,137,58555,1,8,0:0:0:0:
325,137,58788,1,0,0:0:0:0:
325,137,58905,1,0,0:0:0:0:
325,137,59021,1,8,0:0:0:0:
325,137,59254,1,0,0:0:0:0:
325,137,59486,1,8,0:0:0:0:
325,137,59603,1,8,0:0:0:0:
325,137,59719,1,8,0:0:0:0:
325,137,59836,1,8,0:0:0:0:
325,137,59952,1,0,0:0:0:0:
339,132,60185,1,0,0:0:0:0:
339,132,60418,1,8,0:0:0:0:
317,154,60650,1,0,0:0:0:0:
321,153,60767,1,0,0:0:0:0:
283,111,60883,1,8,0:0:0:0:
335,146,61116,1,8,0:0:0:0:
332,146,61349,1,0,0:0:0:0:
340,139,61465,1,8,0:0:0:0:
345,132,61698,1,8,0:0:0:0:
345,132,61814,1,0,0:0:0:0:
256,192,61931,12,0,62978,0:0:0:0:
279,162,63211,5,8,0:0:0:0:
284,161,63327,1,0,0:0:0:0:
207,135,63444,1,8,0:0:0:0:
351,94,63502,1,8,0:0:0:0:
351,94,63560,1,8,0:0:0:0:
261,102,63618,1,8,0:0:0:0:
344,190,63677,1,4,0:0:0:0:
288,104,63909,1,0,0:0:0:0:
288,104,64142,1,8,0:0:0:0:
288,104,64375,1,0,0:0:0:0:
288,104,64491,1,0,0:0:0:0:
288,104,64608,1,8,0:0:0:0:
286,129,64724,1,0,0:0:0:0:
288,104,64840,1,8,0:0:0:0:
288,104,65073,1,0,0:0:0:0:
288,104,65190,1,8,0:0:0:0:
308,108,65422,1,8,0:0:0:0:
308,108,65539,1,0,0:0:0:0:
308,108,65772,1,0,0:0:0:0:
308,108,66004,1,8,0:0:0:0:
308,108,66237,1,0,0:0:0:0:
308,108,66354,1,0,0:0:0:0:
308,108,66470,1,8,0:0:0:0:
286,129,66586,1,0,0:0:0:0:
308,108,66703,1,8,0:0:0:0:
337,119,66936,1,0,0:0:0:0:
308,108,67052,1,8,0:0:0:0:
308,108,67168,1,8,0:0:0:0:
308,108,67285,1,8,0:0:0:0:
308,108,67401,1,0,0:0:0:0:
331,90,67634,1,0,0:0:0:0:
331,90,67867,1,8,0:0:0:0:
333,99,68099,1,0,0:0:0:0:
333,99,68216,1,0,0:0:0:0:
333,99,68332,1,8,0:0:0:0:
287,129,68449,1,0,0:0:0:0:
333,99,68565,1,8,0:0:0:0:
333,99,68798,1,0,0:0:0:0:
333,99,68914,1,8,0:0:0:0:
333,99,69147,1,8,0:0:0:0:
333,99,69263,1,0,0:0:0:0:
328,100,69496,1,0,0:0:0:0:
328,100,69729,1,8,0:0:0:0:
328,100,69962,1,0,0:0:0:0:
328,100,70078,1,0,0:0:0:0:
328,100,70195,1,8,0:0:0:0:
287,129,70311,1,0,0:0:0:0:
328,100,70427,1,8,0:0:0:0:
328,100,70660,1,8,0:0:0:0:
328,100,70776,1,0,0:0:0:0:
326,55,70893,1,8,0:0:0:0:
326,55,70951,1,8,0:0:0:0:
326,55,71009,1,8,0:0:0:0:
326,55,71067,1,8,0:0:0:0:
344,190,71126,1,4,0:0:0:0:
275,116,71358,1,0,0:0:0:0:
275,116,71591,1,8,0:0:0:0:
321,124,71824,1,0,0:0:0:0:
321,124,71940,1,0,0:0:0:0:
321,124,72057,1,8,0:0:0:0:
347,150,72173,1,0,0:0:0:0:
321,124,72290,1,8,0:0:0:0:
335,89,72522,1,0,0:0:0:0:
335,89,72639,1,8,0:0:0:0:
335,89,72872,1,8,0:0:0:0:
335,89,72988,1,0,0:0:0:0:
277,142,73221,1,0,0:0:0:0:
277,142,73453,1,8,0:0:0:0:
277,142,73686,1,0,0:0:0:0:
277,142,73803,1,0,0:0:0:0:
277,142,73919,1,8,0:0:0:0:
347,150,74035,1,0,0:0:0:0:
277,142,74152,1,8,0:0:0:0:
277,142,74385,1,0,0:0:0:0:
277,142,74501,1,8,0:0:0:0:
277,142,74617,1,8,0:0:0:0:
277,142,74734,1,8,0:0:0:0:
277,142,74850,1,0,0:0:0:0:
311,135,75083,1,0,0:0:0:0:
311,135,75316,1,8,0:0:0:0:
311,135,75549,1,0,0:0:0:0:
311,135,75665,1,0,0:0:0:0:
311,135,75781,1,8,0:0:0:0:
263,87,75898,1,0,0:0:0:0:
311,135,76014,1,8,0:0:0:0:
311,135,76247,1,0,0:0:0:0:
311,135,76363,1,8,0:0:0:0:
311,135,76596,1,8,0:0:0:0:
299,115,76712,1,0,0:0:0:0:
337,153,76945,1,0,0:0:0:0:
332,149,77178,1,8,0:0:0:0:
334,136,77411,1,0,0:0:0:0:
336,136,77527,1,0,0:0:0:0:
348,144,77644,1,8,0:0:0:0:
337,148,77760,1,0,0:0:0:0:
358,142,77876,1,8,0:0:0:0:
356,154,78109,1,8,0:0:0:0:
356,154,78226,1,0,0:0:0:0:
396,98,78342,1,8,0:0:0:0:
396,98,78400,1,8,0:0:0:0:
396,98,78458,1,8,0:0:0:0:
396,98,78517,1,8,0:0:0:0:
344,190,78575,1,4,0:0:0:0:
380,118,78808,1,0,0:0:0:0:
380,118,79040,1,8,0:0:0:0:
391,122,79273,1,0,0:0:0:0:
305,129,79389,1,0,0:0:0:0:
390,126,79506,1,8,0:0:0:0:
391,116,79739,1,8,0:0:0:0:
362,127,79971,1,0,0:0:0:0:
362,127,80088,1,8,0:0:0:0:
350,84,80321,1,8,0:0:0:0:
376,139,80437,1,0,0:0:0:0:
382,140,80670,1,8,0:0:0:0:
382,140,80903,1,8,0:0:0:0:
371,150,81135,1,0,0:0:0:0:
371,150,81252,1,0,0:0:0:0:
371,150,81368,1,8,0:0:0:0:
371,150,81601,1,8,0:0:0:0:
349,156,81834,1,0,0:0:0:0:
359,138,81950,1,8,0:0:0:0:
359,137,82066,1,8,0:0:0:0:
359,137,82183,1,8,0:0:0:0:
242,104,82299,1,0,0:0:0:0:
382,137,82532,1,0,0:0:0:0:
386,135,82765,1,8,0:0:0:0:
332,141,82998,1,0,0:0:0:0:
338,138,83114,1,0,0:0:0:0:
338,138,83230,1,8,0:0:0:0:
338,138,83463,1,8,0:0:0:0:
351,125,83696,1,0,0:0:0:0:
351,125,83812,1,8,0:0:0:0:
351,125,84045,1,8,0:0:0:0:
351,125,84162,1,0,0:0:0:0:
362,116,84394,1,0,0:0:0:0:
362,116,84627,1,8,0:0:0:0:
362,116,84860,1,0,0:0:0:0:
362,116,84976,1,0,0:0:0:0:
362,116,85093,1,8,0:0:0:0:
355,95,85325,1,8,0:0:0:0:
408,121,85558,1,8,0:0:0:0:
408,121,85675,1,0,0:0:0:0:
406,102,85791,1,8,0:0:0:0:
406,102,85849,1,8,0:0:0:0:
406,102,85907,1,8,0:0:0:0:
406,102,85966,1,8,0:0:0:0:
344,190,86024,1,4,0:0:0:0:
391,103,86257,1,0,0:0:0:0:
391,103,86489,1,8,0:0:0:0:
410,101,86722,1,0,0:0:0:0:
404,91,86955,1,8,0:0:0:0:
385,96,87071,1,0,0:0:0:0:
402,93,87188,1,8,0:0:0:0:
405,93,87421,1,0,0:0:0:0:
405,93,87537,1,8,0:0:0:0:
404,93,87770,1,8,0:0:0:0:
399,96,87886,1,0,0:0:0:0:
399,103,88119,1,0,0:0:0:0:
410,98,88352,1,8,0:0:0:0:
404,93,88584,1,0,0:0:0:0:
404,93,88817,1,8,0:0:0:0:
384,69,88934,1,0,0:0:0:0:
384,69,89050,1,8,0:0:0:0:
391,77,89283,1,0,0:0:0:0:
391,77,89399,1,8,0:0:0:0:
391,77,89516,1,8,0:0:0:0:
391,77,89632,1,8,0:0:0:0:
391,77,89748,1,0,0:0:0:0:
354,108,89981,1,0,0:0:0:0:
391,101,90214,1,8,0:0:0:0:
404,104,90447,1,0,0:0:0:0:
404,104,90679,1,8,0:0:0:0:
404,104,90796,1,0,0:0:0:0:
404,104,90912,1,8,0:0:0:0:
414,94,91145,1,0,0:0:0:0:
414,94,91261,1,8,0:0:0:0:
318,141,91494,1,8,0:0:0:0:
318,141,91611,1,0,0:0:0:0:
373,135,91843,1,0,0:0:0:0:
373,135,92076,1,8,0:0:0:0:
299,104,92309,1,0,0:0:0:0:
387,229,92542,1,8,0:0:0:0:
348,124,92775,1,8,0:0:0:0:
326,156,93007,1,8,0:0:0:0:
307,159,93124,1,0,0:0:0:0:
326,156,93240,1,8,0:0:0:0:
326,156,93357,1,8,0:0:0:0:
344,190,93473,1,4,0:0:0:0:
256,192,93706,12,0,100224,0:0:0:0:
