osu file format v14

[General]
AudioFilename: audio.mp3
AudioLeadIn: 0
PreviewTime: 65825
Countdown: 0
SampleSet: Soft
StackLeniency: 0.7
Mode: 0
LetterboxInBreaks: 0
WidescreenStoryboard: 0

[Editor]
Bookmarks: 255794
DistanceSpacing: 0.9
BeatDivisor: 4
GridSize: 32
TimelineZoom: 1.9

[Metadata]
Title:Folded Wings
TitleUnicode:Folded Wings
Artist:satella feat. Aitsuki Nakuru
ArtistUnicode:satella feat. 藍月なくる
Creator:-Aqua
Version:Normal
Source:
Tags:ナコレクションスリー Nacollection-3- クラリムステラ Qulalimstella ナコレクション MISSILE228 Japanese Pop Jpop J-pop Full Version Three 3 -3-
BeatmapID:2961574
BeatmapSetID:1426680

[Difficulty]
HPDrainRate:4
CircleSize:3.3
OverallDifficulty:4
ApproachRate:5
SliderMultiplier:1.2
SliderTickRate:1

[Events]
//Background and Video events
0,0,"omg she has wings.jpg",0,0
//Break Periods
//Storyboard Layer 0 (Background)
//Storyboard Layer 1 (Fail)
//Storyboard Layer 2 (Pass)
//Storyboard Layer 3 (Foreground)
//Storyboard Layer 4 (Overlay)
//Storyboard Sound Samples

[TimingPoints]
-4332,365.853658536585,4,2,1,60,1,0
1155,-100,4,2,1,60,0,0
1521,-100,4,2,1,70,0,0
19082,-100,4,2,1,60,0,0
30789,-100,4,2,1,65,0,0
42497,-100,4,2,1,65,0,0
60058,-100,4,2,1,70,0,0
62985,-100,4,2,1,70,0,0
65911,-100,4,2,1,85,0,1
77527,-100,4,2,1,85,0,0
77619,-100,4,2,1,85,0,1
85424,-100,4,2,1,85,0,1
85667,-100,4,2,1,85,0,1
89326,-100,4,2,1,70,0,0
98107,-100,4,2,1,65,0,0
106887,-100,4,2,1,60,0,0
118594,-100,4,2,1,65,0,0
130302,-100,4,2,1,65,0,0
147863,-100,4,2,1,70,0,0
150789,-100,4,2,1,70,0,0
153716,-100,4,2,1,85,0,1
165332,-100,4,2,1,85,0,0
165424,-100,4,2,1,85,0,1
173229,-100,4,2,1,85,0,1
173472,-100,4,2,1,85,0,1
177131,-100,4,2,1,60,0,0
185911,-100,4,2,1,65,0,0
197619,-100,4,2,1,70,0,0
209326,-100,4,2,1,60,0,0
215546,-100,4,2,1,85,0,1
226796,-100,4,2,1,85,0,0
226887,-100,4,2,1,85,0,1
234692,-100,4,2,1,85,0,1
234935,-100,4,2,1,85,0,1
238594,-100,4,2,1,70,0,0
250210,-100,4,2,1,55,0,0
252131,-100,4,2,1,55,0,0
252405,-100,4,2,1,5,0,0
252497,-100,4,2,1,65,0,0
253137,-100,4,2,1,55,0,0
255789,-100,4,2,1,5,0,0

[Colours]
Combo1 : 255,255,125
Combo2 : 225,126,254
Combo3 : 190,190,190

[HitObjects]
64,352,1155,6,0,P|73:322|77:292,1,60,2|2,0:0|0:0,0:0:0:0:
124,267,1521,6,0,P|181:259|226:297,1,120,6|8,1:2|0:0,0:0:0:0:
309,366,2253,2,0,P|359:356|394:353,1,60,0|2,1:0|1:2,0:0:0:0:
399,312,2619,1,8,0:0:0:0:
399,312,2802,1,2,0:0:0:0:
448,216,3167,2,0,P|432:172|426:143,1,60,0|8,1:0|0:0,0:0:0:0:
378,139,3533,1,2,0:0:0:0:
378,139,3716,2,0,P|394:95|400:66,2,60,2|2|10,1:2|1:2|0:0,0:0:0:0:
330,164,4265,6,0,B|258:174|300:203|200:215,1,120,2|0,0:0|1:0,0:0:0:0:
173,188,4814,1,10,0:0:0:0:
105,272,5180,2,0,P|123:315|133:346,2,60,0|2|8,1:0|1:2|0:0,0:0:0:0:
51,268,5728,2,0,P|5:230|17:159,1,120,2|2,0:0|1:2,0:0:0:0:
54,148,6277,1,8,0:0:0:0:
54,148,6460,1,0,1:0:0:0:
126,68,6826,2,0,P|170:78|202:83,1,60,2|8,1:2|0:0,0:0:0:0:
201,132,7192,6,0,P|271:116|322:108,1,120,2|0,1:2|1:0,0:0:0:0:
351,65,7741,1,8,0:0:0:0:
443,9,8107,2,0,P|494:22|516:30,1,60,2|0,1:2|1:0,0:0:0:0:
507,78,8472,1,8,0:0:0:0:
507,78,8655,2,0,P|492:151|481:219,1,120,2|0,1:2|1:0,0:0:0:0:
437,222,9204,1,10,0:0:0:0:
334,188,9570,2,0,P|324:138|320:117,2,60,2|0|10,1:2|1:0|0:0,0:0:0:0:
297,228,10119,6,0,B|251:245|251:245|243:268|243:268|178:289,1,120,2|0,1:2|1:0,0:0:0:0:
152,254,10667,1,8,0:0:0:0:
56,301,11033,1,0,1:0:0:0:
57,301,11216,2,0,P|35:280|30:251,1,60,0|8,1:0|0:0,0:0:0:0:
58,205,11582,2,0,P|45:152|20:74,1,120,2|0,1:2|1:0,0:0:0:0:
64,51,12131,1,8,0:0:0:0:
161,98,12497,2,0,P|197:87|228:82,1,60,8|8,0:0|3:0,0:0:0:0:
245,35,12863,1,0,1:0:0:0:
245,35,13046,5,6,1:2:0:0:
256,192,13137,12,6,15972,0:0:0:0:
256,192,16064,12,0,18350,0:0:0:0:
245,35,19082,6,0,P|250:64|259:92,1,60,6|2,1:2|0:0,0:0:0:0:
231,139,19448,1,2,1:2:0:0:
231,139,19631,2,0,P|196:171|210:253,1,120,2|0,0:0|0:0,0:0:0:0:
247,263,20180,1,2,1:2:0:0:
312,349,20546,2,0,P|352:337|390:332,1,60,2|2,1:2|0:0,0:0:0:0:
388,283,20911,1,2,1:2:0:0:
489,332,21277,1,2,1:2:0:0:
489,332,21460,2,0,B|526:288|526:288|509:227,1,120,2|2,0:0|0:0,0:0:0:0:
477,183,22009,6,0,P|448:173|419:167,1,60,2|2,1:2|0:0,0:0:0:0:
374,198,22375,1,2,1:2:0:0:
374,198,22558,1,2,0:0:0:0:
286,134,22924,1,0,0:0:0:0:
286,134,23107,1,2,1:2:0:0:
197,195,23472,2,0,P|208:242|213:279,1,60,2|2,1:2|0:0,0:0:0:0:
258,277,23838,1,2,1:2:0:0:
188,359,24204,1,2,1:2:0:0:
188,359,24387,2,0,P|133:337|69:323,1,120,2|2,0:0|0:0,0:0:0:0:
41,280,24936,6,0,P|58:230|62:200,1,60,2|2,1:2|0:0,0:0:0:0:
110,206,25302,1,2,1:2:0:0:
110,206,25485,2,0,P|149:184|142:103,1,120,2|0,0:0|0:0,0:0:0:0:
106,84,26033,1,2,1:2:0:0:
190,16,26399,2,0,P|222:11|248:7,1,60,2|2,1:2|0:0,0:0:0:0:
289,44,26765,1,2,1:2:0:0:
372,113,27131,1,2,1:2:0:0:
372,113,27314,2,0,B|431:100|431:100|486:149,1,120,2|2,0:0|0:0,0:0:0:0:
489,191,27863,5,2,1:2:0:0:
426,278,28228,1,2,1:2:0:0:
426,278,28411,2,0,P|364:288|290:308,1,120,2|0,0:0|0:0,0:0:0:0:
261,274,28960,1,2,1:2:0:0:
312,179,29326,2,0,P|296:133|292:107,1,60,2|2,1:2|0:0,0:0:0:0:
249,91,29692,1,2,1:2:0:0:
158,32,30058,1,2,1:2:0:0:
158,32,30241,2,0,P|108:25|64:75,1,120,2|2,0:0|0:0,0:0:0:0:
37,119,30789,6,0,P|49:153|55:191,1,60,6|2,1:2|0:0,0:0:0:0:
95,219,31155,1,2,1:2:0:0:
95,219,31338,2,0,P|141:203|228:188,1,120,2|0,0:0|0:0,0:0:0:0:
252,154,31887,1,2,1:2:0:0:
319,69,32253,2,0,P|359:81|397:86,1,60,2|2,1:2|0:0,0:0:0:0:
407,129,32618,1,2,1:2:0:0:
481,214,32984,1,2,1:2:0:0:
481,214,33167,2,0,B|518:258|518:258|501:319,1,120,2|2,0:0|0:0,0:0:0:0:
456,349,33716,6,0,P|427:339|398:333,1,60,2|2,1:2|0:0,0:0:0:0:
371,292,34082,1,2,1:2:0:0:
371,292,34265,1,2,0:0:0:0:
296,370,34631,1,0,0:0:0:0:
296,370,34814,1,2,1:2:0:0:
195,330,35180,2,0,P|189:300|182:271,1,60,2|2,1:2|0:0,0:0:0:0:
220,232,35545,1,2,1:2:0:0:
294,154,35911,1,2,1:2:0:0:
294,154,36094,2,0,P|325:165|368:173,2,60,2|0|2,0:0|1:0|0:0,0:0:0:0:
277,102,36643,6,0,P|221:116|179:77,1,120,2|2,1:2|1:2,0:0:0:0:
140,116,37192,1,2,0:0:0:0:
60,189,37558,1,2,0:0:0:0:
60,189,37741,2,0,P|73:242|75:269,1,60,2|2,1:2|0:0,0:0:0:0:
117,278,38107,2,0,P|170:265|197:263,1,60,2|2,1:2|0:0,0:0:0:0:
207,220,38472,1,2,1:2:0:0:
275,310,38838,1,2,1:2:0:0:
275,310,39021,2,0,B|321:321|321:321|338:339|338:339|386:351,1,120,2|2,0:0|0:0,0:0:0:0:
417,307,39570,5,2,1:2:0:0:
480,221,39935,1,2,1:2:0:0:
480,221,40119,2,0,P|510:170|467:110,1,120,2|0,0:0|0:0,0:0:0:0:
436,96,40667,1,2,1:2:0:0:
359,19,41033,2,0,P|313:35|287:39,1,60,2|0,1:2|1:0,0:0:0:0:
262,74,41399,1,8,0:0:0:0:
216,172,41765,2,0,P|221:207|243:235,1,60,8|8,3:0|0:0,0:0:0:0:
280,257,42131,2,0,P|275:292|253:320,1,60,8|0,0:0|1:0,0:0:0:0:
218,344,42497,6,0,P|153:325|99:313,1,120,6|8,1:2|0:0,0:0:0:0:
18,244,43228,2,0,P|32:209|39:180,1,60,0|0,1:0|1:0,0:0:0:0:
90,175,43594,1,10,0:0:0:0:
55,72,43960,2,0,P|87:43|161:51,1,120,2|8,0:0|0:0,0:0:0:0:
186,97,44509,1,2,0:0:0:0:
277,37,44875,1,0,1:0:0:0:
277,37,45058,2,0,P|325:52|350:56,1,60,8|0,0:0|0:0,0:0:0:0:
331,108,45424,6,0,B|400:131|363:156|454:180,1,120,2|8,1:2|0:0,0:0:0:0:
473,140,45972,1,2,0:0:0:0:
502,243,46338,1,0,1:0:0:0:
502,243,46521,2,0,P|483:293|475:323,1,60,10|0,0:0|1:0,0:0:0:0:
440,335,46887,2,0,P|410:301|330:306,1,120,2|8,0:2|0:0,0:0:0:0:
295,332,47436,2,0,P|236:336|194:296,1,120,2|0,0:0|1:0,0:0:0:0:
192,242,47985,1,10,0:0:0:0:
279,179,48350,6,0,P|269:140|250:53,1,120,2|8,1:2|0:0,0:0:0:0:
202,39,48899,1,2,0:0:0:0:
117,105,49265,1,0,1:0:0:0:
117,105,49448,2,0,P|110:144|99:174,1,60,10|0,0:0|1:0,0:0:0:0:
55,188,49814,2,0,B|26:234|26:234|53:298,1,120,2|8,0:0|0:0,0:0:0:0:
104,307,50363,1,2,0:0:0:0:
188,374,50728,1,0,1:0:0:0:
188,374,50911,2,0,P|240:362|270:360,1,60,8|2,0:0|0:0,0:0:0:0:
274,314,51277,6,0,B|348:326|306:354|406:367,1,120,2|8,1:2|0:0,0:0:0:0:
478,315,52009,2,0,P|468:275|462:242,1,60,0|0,1:0|1:0,0:0:0:0:
412,241,52375,2,0,P|422:201|428:168,1,60,8|0,0:0|1:0,0:0:0:0:
473,157,52741,1,2,1:2:0:0:
473,157,52924,1,0,1:0:0:0:
424,60,53289,2,0,P|376:26|314:38,1,120,10|10,0:0|0:0,0:0:0:0:
276,69,53838,2,0,P|285:105|293:140,1,60,8|4,3:0|3:0,0:0:0:0:
328,165,54204,6,0,B|356:207|356:207|325:280,1,120,6|8,1:2|0:0,0:0:0:0:
242,336,54936,2,0,P|201:322|172:316,1,60,2|2,1:2|1:2,0:0:0:0:
163,274,55302,1,8,0:0:0:0:
163,274,55485,2,0,P|126:318|69:312,1,120,2|0,1:2|1:0,0:0:0:0:
30,275,56033,1,8,0:0:0:0:
30,275,56216,1,2,0:0:0:0:
66,173,56582,2,0,P|50:126|46:104,1,60,2|8,1:2|0:0,0:0:0:0:
5,82,56948,1,0,0:0:0:0:
5,82,57131,6,0,P|64:67|145:42,1,120,2|8,1:2|0:0,0:0:0:0:
164,82,57680,1,2,0:0:0:0:
212,178,58046,2,0,P|259:190|282:201,1,60,2|8,0:0|0:0,0:0:0:0:
322,186,58411,2,0,P|374:146|361:80,1,120,2|0,1:2|1:0,0:0:0:0:
341,51,58960,1,8,0:0:0:0:
443,17,59326,2,0,P|485:33|503:39,1,60,2|0,1:2|1:0,0:0:0:0:
508,91,59692,1,8,0:0:0:0:
510,199,60058,6,0,P|492:255|474:314,1,120,6|8,1:2|0:0,0:0:0:0:
380,362,60789,1,2,1:2:0:0:
380,362,60972,2,0,P|332:377|308:386,1,60,2|2,0:0|1:2,0:0:0:0:
271,364,61338,2,0,P|234:321|252:255,1,120,6|0,1:2|1:0,0:0:0:0:
291,232,61887,1,8,0:0:0:0:
361,149,62253,1,2,0:0:0:0:
361,149,62436,2,0,P|346:114|339:83,1,60,0|8,1:0|0:0,0:0:0:0:
298,58,62802,1,0,1:0:0:0:
298,58,62985,6,0,B|232:66|261:97|185:104,1,120,14|0,1:2|1:0,0:0:0:0:
158,147,63533,1,14,1:2:0:0:
88,230,63899,2,0,P|103:271|110:296,1,60,10|0,0:0|1:0,0:0:0:0:
150,319,64265,2,0,P|202:305|258:361,1,120,6|0,1:2|1:0,0:0:0:0:
299,315,64814,1,8,0:0:0:0:
299,315,64997,1,6,1:2:0:0:
394,366,65363,1,8,0:0:0:0:
394,366,65546,2,0,P|446:349|473:346,1,60,10|2,0:0|1:2,0:0:0:0:
484,306,65911,6,0,B|501:252|501:252|464:200,1,120,6|8,1:2|0:0,0:0:0:0:
386,124,66643,2,0,P|346:140|308:149,1,60,0|0,1:0|1:0,0:0:0:0:
306,193,67009,1,10,0:0:0:0:
306,193,67192,2,0,P|235:174|178:168,1,120,2|0,1:2|1:0,0:0:0:0:
147,133,67741,1,8,0:0:0:0:
39,146,68107,2,0,P|11:118|15:86,1,60,2|8,0:0|0:0,0:0:0:0:
31,49,68472,2,0,P|62:39|89:27,1,60,8|2,0:0|0:0,0:0:0:0:
137,47,68838,6,0,B|218:51|177:80|267:87,1,120,2|10,1:2|0:0,0:0:0:0:
342,30,69570,2,0,P|386:47|415:51,1,60,2|2,1:2|0:0,0:0:0:0:
433,91,69936,1,8,0:0:0:0:
433,91,70119,2,0,P|473:119|466:199,1,120,2|2,1:2|1:2,0:0:0:0:
436,222,70667,1,8,0:0:0:0:
436,222,70850,1,2,1:2:0:0:
486,317,71216,1,2,0:0:0:0:
486,317,71399,2,0,P|453:327|426:344,1,60,10|2,0:0|1:2,0:0:0:0:
382,315,71765,6,0,P|318:286|251:274,1,120,6|8,1:2|0:0,0:0:0:0:
230,312,72314,1,0,1:0:0:0:
230,312,72497,2,0,P|224:349|214:375,2,60,2|0|10,1:2|1:2|0:0,0:0:0:0:
187,278,73046,1,6,1:2:0:0:
144,178,73411,1,0,1:0:0:0:
144,178,73594,2,0,P|150:141|160:115,1,60,8|0,0:0|1:0,0:0:0:0:
207,97,73960,2,0,P|249:112|327:131,1,120,2|8,1:2|0:0,0:0:0:0:
338,182,74509,6,0,P|387:216|451:196,1,120,6|0,1:2|1:0,0:0:0:0:
482,166,75058,1,10,0:0:0:0:
502,59,75424,2,0,P|466:50|436:40,1,60,2|0,1:2|1:0,0:0:0:0:
401,76,75789,1,10,0:0:0:0:
401,76,75972,2,0,B|330:72|359:114|264:100,1,120,6|0,1:2|1:0,0:0:0:0:
251,60,76521,1,8,0:0:0:0:
251,60,76704,2,0,P|204:68|147:9,1,120,6|0,1:2|1:0,0:0:0:0:
116,65,77253,1,10,0:0:0:0:
38,140,77619,6,0,P|55:179|80:261,1,120,6|10,1:2|0:0,0:0:0:0:
131,278,78167,1,2,1:2:0:0:
131,278,78350,2,0,P|186:263|206:261,1,60,2|0,1:2|0:0,0:0:0:0:
222,220,78716,1,10,0:2:0:0:
311,160,79082,2,0,B|389:180|343:201|431:224,1,120,2|10,1:2|0:0,0:0:0:0:
442,270,79631,1,0,1:0:0:0:
442,270,79814,2,0,P|445:331|401:369,1,120,2|10,1:2|0:0,0:0:0:0:
312,309,80546,6,0,P|265:322|171:343,1,120,2|10,1:2|0:0,0:0:0:0:
166,384,81094,1,2,0:0:0:0:
166,384,81277,1,2,1:2:0:0:
65,360,81643,1,10,0:0:0:0:
65,360,81826,2,0,B|29:326|29:326|47:250,1,120,6|2,1:2|1:2,0:0:0:0:
78,214,82375,2,0,P|107:208|135:196,1,60,10|2,0:0|0:0,0:0:0:0:
177,230,82741,1,2,1:2:0:0:
274,275,83107,2,0,P|303:280|331:292,1,60,10|8,0:0|0:0,0:0:0:0:
382,276,83472,6,0,P|429:246|406:152,1,160,6|0,1:2|1:0,0:0:0:0:
354,97,84204,1,6,1:2:0:0:
200,141,84692,1,8,0:0:0:0:
152,76,84936,2,0,P|165:31|172:-6,2,80,6|8|0,1:2|0:0|1:0,0:0:0:0:
84,119,85667,2,0,P|102:204|116:301,1,160,6|8,1:2|0:0,0:0:0:0:
190,298,86399,5,6,1:2:0:0:
279,358,86765,2,0,P|310:349|356:347,1,60,8|2,0:0|1:2,0:0:0:0:
361,297,87131,2,0,P|392:305|438:307,1,60,0|2,1:0|1:2,0:0:0:0:
462,342,87497,1,8,0:0:0:0:
462,342,87680,2,0,B|497:302|497:302|470:227,1,120,6|0,1:2|1:0,0:0:0:0:
444,193,88228,1,8,0:0:0:0:
340,163,88594,2,0,P|311:178|272:189,1,60,8|8,0:0|3:0,0:0:0:0:
263,236,88960,1,6,1:2:0:0:
178,303,89326,6,0,P|149:288|110:277,1,60,14|2,0:2|1:2,0:0:0:0:
97,238,89692,1,2,1:2:0:0:
97,238,89875,2,0,P|58:205|70:128,1,120,14|2,0:2|0:0,0:0:0:0:
99,102,90424,1,2,1:2:0:0:
99,102,90607,1,14,0:2:0:0:
188,41,90972,2,0,P|243:52|274:54,1,60,2|10,1:2|0:0,0:0:0:0:
275,98,91338,2,0,B|347:121|300:143|394:175,1,120,6|0,1:2|1:0,0:0:0:0:
423,150,91887,1,10,0:0:0:0:
495,230,92253,6,0,P|485:272|482:302,1,60,6|2,1:2|0:0,0:0:0:0:
498,340,92619,1,10,0:0:0:0:
498,340,92802,2,0,P|453:301|390:321,1,120,2|2,0:0|1:2,0:0:0:0:
364,355,93350,1,10,0:0:0:0:
364,355,93533,2,0,P|314:364|242:380,1,120,2|0,1:2|1:0,0:0:0:0:
208,340,94082,1,10,0:0:0:0:
101,322,94448,2,0,P|82:262|63:203,1,120,2|10,1:2|0:0,0:0:0:0:
141,131,95180,6,0,P|181:125|216:109,1,60,14|2,0:0|1:2,0:0:0:0:
239,162,95546,1,2,1:2:0:0:
239,162,95728,2,0,P|290:168|368:188,1,120,14|2,0:0|1:2,0:0:0:0:
400,152,96277,1,2,1:2:0:0:
400,152,96460,1,14,0:0:0:0:
490,92,96826,2,0,P|480:56|473:26,1,60,2|10,1:2|0:0,0:0:0:0:
426,9,97192,2,0,P|393:-4|324:41,1,120,6|0,1:2|1:0,0:0:0:0:
310,88,97741,1,10,0:0:0:0:
225,155,98107,6,0,P|192:168|123:123,1,120,6|0,1:2|0:0,0:0:0:0:
100,85,98655,1,0,1:0:0:0:
100,85,98838,2,0,P|58:92|30:98,1,60,8|0,0:0|1:0,0:0:0:0:
11,199,99387,1,0,1:0:0:0:
11,199,99570,2,0,P|27:245|48:329,1,120,2|0,0:0|0:0,0:0:0:0:
144,357,100302,1,8,0:0:0:0:
144,357,100485,1,0,1:0:0:0:
218,279,100850,1,0,1:0:0:0:
218,279,101033,6,0,B|285:290|256:321|336:331,1,120,6|0,1:2|1:0,0:0:0:0:
423,373,101765,2,0,P|460:355|452:273,1,120,0|0,1:0|1:0,0:0:0:0:
400,194,102497,1,0,1:0:0:0:
478,120,102863,1,0,1:0:0:0:
405,40,103228,2,0,B|345:22|345:22|273:64,1,120,0|0,1:0|1:0,0:0:0:0:
230,137,103960,6,0,P|256:209|270:254,1,120,6|0,1:2|1:0,0:0:0:0:
354,316,104692,2,0,P|383:302|409:292,2,60,0|0|0,1:0|0:0|1:0,0:0:0:0:
330,364,105241,2,0,P|282:355|207:346,1,120,6|0,1:2|1:0,0:0:0:0:
180,301,105789,1,8,0:0:0:0:
81,346,106155,2,0,P|61:319|56:280,1,60,0|0,3:0|1:0,0:0:0:0:
68,241,106521,1,8,0:0:0:0:
141,162,106887,6,0,P|170:172|200:177,1,60,6|2,1:2|0:0,0:0:0:0:
230,220,107253,2,0,P|259:210|289:205,1,60,2|2,0:0|0:0,0:0:0:0:
309,155,107619,2,0,P|341:190|423:176,1,120,8|2,0:0|1:2,0:0:0:0:
451,220,108167,1,2,1:2:0:0:
501,124,108533,1,2,1:2:0:0:
453,27,108899,2,0,P|411:39|382:42,1,60,2|8,0:0|0:0,0:0:0:0:
360,83,109265,2,0,P|328:43|259:54,1,120,2|0,0:0|1:0,0:0:0:0:
236,95,109814,6,0,P|207:85|178:79,1,60,2|2,1:2|0:0,0:0:0:0:
148,33,110180,1,2,0:0:0:0:
148,33,110363,1,2,0:0:0:0:
72,110,110728,1,0,0:0:0:0:
72,110,110911,2,0,P|72:141|87:167,1,60,2|2,1:2|1:2,0:0:0:0:
131,194,111277,2,0,P|131:225|115:251,1,60,2|2,0:0|1:2,0:0:0:0:
71,279,111643,1,2,0:0:0:0:
140,368,112009,1,8,0:0:0:0:
140,368,112192,2,0,P|195:346|259:332,1,120,2|2,0:0|1:2,0:0:0:0:
284,287,112741,6,0,P|313:297|343:302,1,60,2|2,1:2|0:0,0:0:0:0:
365,350,113107,1,2,0:0:0:0:
470,326,113473,2,0,P|505:294|491:212,1,120,8|2,0:0|1:2,0:0:0:0:
460,191,114021,1,2,1:2:0:0:
358,227,114387,1,2,1:2:0:0:
280,151,114753,2,0,P|238:163|209:166,1,60,2|8,0:0|0:0,0:0:0:0:
193,211,115119,2,0,B|130:232|167:261|86:278,1,120,2|2,0:0|1:2,0:0:0:0:
45,255,115668,6,0,P|38:225|29:197,1,60,2|2,1:2|0:0,0:0:0:0:
59,154,116034,1,2,0:0:0:0:
59,154,116217,1,2,0:0:0:0:
134,76,116582,1,0,0:0:0:0:
134,76,116765,2,0,P|165:76|191:91,1,60,2|2,1:2|1:2,0:0:0:0:
226,130,117131,2,0,P|252:115|281:116,1,60,2|2,0:0|1:2,0:0:0:0:
318,75,117497,1,2,0:0:0:0:
409,142,117863,1,8,0:0:0:0:
409,142,118046,2,0,B|451:186|451:186|429:260,1,120,2|2,0:0|1:2,0:0:0:0:
394,279,118594,6,0,P|360:267|322:261,1,60,6|2,1:2|0:0,0:0:0:0:
309,221,118960,1,2,1:2:0:0:
309,221,119143,2,0,P|249:231|193:250,1,120,2|0,0:0|0:0,0:0:0:0:
167,298,119692,1,2,1:2:0:0:
61,276,120058,2,0,P|40:252|40:216,1,60,2|2,1:2|0:0,0:0:0:0:
64,178,120423,1,2,1:2:0:0:
11,89,120789,1,2,1:2:0:0:
11,89,120972,2,0,B|59:57|59:57|127:73,1,120,2|2,0:0|0:0,0:0:0:0:
157,110,121521,6,0,P|186:100|215:94,1,60,2|2,1:2|0:0,0:0:0:0:
243,49,121887,1,2,1:2:0:0:
243,49,122070,1,2,0:0:0:0:
330,121,122436,1,0,0:0:0:0:
330,121,122619,1,2,1:2:0:0:
410,49,122984,2,0,P|439:56|468:61,1,60,2|2,1:2|0:0,0:0:0:0:
496,108,123350,1,2,1:2:0:0:
470,216,123716,1,2,1:2:0:0:
470,216,123899,2,0,P|440:222|412:232,1,60,2|0,0:0|1:0,0:0:0:0:
367,202,124265,1,2,0:0:0:0:
367,202,124448,6,0,P|311:216|269:177,1,120,2|2,1:2|1:2,0:0:0:0:
236,220,124997,1,2,0:0:0:0:
143,175,125363,1,0,0:0:0:0:
143,175,125546,2,0,P|90:188|63:190,1,60,2|2,1:2|0:0,0:0:0:0:
47,228,125912,2,0,P|60:281|62:308,1,60,2|2,1:2|0:0,0:0:0:0:
110,307,126277,1,2,1:2:0:0:
209,260,126643,1,2,1:2:0:0:
209,260,126826,2,0,B|276:268|246:296|320:301,1,120,2|2,0:0|0:0,0:0:0:0:
351,344,127375,5,2,1:2:0:0:
461,333,127740,1,2,1:2:0:0:
461,333,127923,2,0,P|502:286|484:218,1,120,2|0,0:0|0:0,0:0:0:0:
456,193,128472,1,2,1:2:0:0:
391,106,128838,2,0,P|345:122|319:126,1,60,2|0,1:2|1:0,0:0:0:0:
299,165,129204,1,8,0:0:0:0:
228,247,129570,2,0,P|182:231|156:227,1,60,8|8,3:0|0:0,0:0:0:0:
136,187,129936,2,0,P|129:157|117:130,1,60,8|0,0:0|1:0,0:0:0:0:
146,84,130302,6,0,B|191:47|191:47|265:53,1,120,6|8,1:2|0:0,0:0:0:0:
331,125,131033,2,0,P|366:111|395:104,1,60,0|0,1:0|1:0,0:0:0:0:
408,55,131399,1,10,0:0:0:0:
494,119,131765,2,0,P|505:176|471:223,1,120,2|8,0:0|0:0,0:0:0:0:
418,232,132314,1,2,0:0:0:0:
352,318,132680,1,0,1:0:0:0:
352,318,132863,2,0,P|304:303|279:299,1,60,8|0,0:0|0:0,0:0:0:0:
263,256,133229,6,0,B|189:268|226:293|130:306,1,120,2|8,1:2|0:0,0:0:0:0:
138,353,133777,1,2,0:0:0:0:
47,305,134143,1,0,1:0:0:0:
47,305,134326,2,0,P|40:266|28:222,1,60,10|0,0:0|1:0,0:0:0:0:
88,233,134692,2,0,P|125:189|104:113,1,120,2|8,0:2|0:0,0:0:0:0:
63,132,135241,2,0,P|26:88|46:12,1,120,2|0,0:0|1:0,0:0:0:0:
82,6,135790,1,10,0:0:0:0:
183,41,136155,6,0,P|222:31|309:12,1,120,2|8,1:2|0:0,0:0:0:0:
342,47,136704,1,2,0:0:0:0:
439,104,137070,1,0,1:0:0:0:
439,104,137253,2,0,P|446:143|457:173,1,60,10|0,0:0|1:0,0:0:0:0:
419,205,137619,2,0,B|373:218|373:218|354:238|354:238|307:253,1,120,2|8,0:0|0:0,0:0:0:0:
268,218,138168,1,2,0:0:0:0:
195,146,138533,1,0,1:0:0:0:
195,146,138716,2,0,P|143:134|113:132,1,60,8|2,0:0|0:0,0:0:0:0:
92,165,139082,6,0,P|48:232|73:281,1,120,2|8,1:2|0:0,0:0:0:0:
115,356,139814,2,0,P|155:346|188:340,1,60,0|0,1:0|1:0,0:0:0:0:
208,301,140180,2,0,P|248:311|281:317,1,60,8|0,0:0|1:0,0:0:0:0:
306,359,140546,1,2,1:2:0:0:
306,359,140729,1,0,1:0:0:0:
409,329,141094,2,0,P|443:281|431:219,1,120,10|10,0:0|0:0,0:0:0:0:
388,194,141643,2,0,P|397:158|405:123,1,60,8|4,3:0|3:0,0:0:0:0:
364,96,142009,6,0,B|313:70|313:70|249:99,1,120,6|8,1:2|0:0,0:0:0:0:
211,194,142741,2,0,P|170:180|141:174,1,60,2|2,1:2|1:2,0:0:0:0:
132,132,143107,1,8,0:0:0:0:
132,132,143290,2,0,P|95:88|38:95,1,120,2|0,1:2|1:0,0:0:0:0:
23,149,143838,1,8,0:0:0:0:
23,149,144021,1,2,0:0:0:0:
78,241,144387,2,0,P|62:288|58:310,1,60,2|8,1:2|0:0,0:0:0:0:
21,336,144753,1,0,0:0:0:0:
21,336,144936,6,0,P|58:380|115:373,1,120,2|8,1:2|0:0,0:0:0:0:
148,329,145485,1,2,0:0:0:0:
245,283,145851,2,0,P|257:236|268:213,1,60,2|8,0:0|0:0,0:0:0:0:
211,205,146216,2,0,P|189:119|175:74,1,120,2|0,1:2|1:0,0:0:0:0:
219,52,146765,1,8,0:0:0:0:
318,13,147131,2,0,P|360:29|378:35,1,60,2|0,1:2|1:0,0:0:0:0:
385,86,147497,1,8,0:0:0:0:
493,86,147863,6,0,B|522:129|522:129|487:206,1,120,6|8,1:2|0:0,0:0:0:0:
399,236,148594,1,2,1:2:0:0:
399,236,148777,2,0,P|414:285|423:308,1,60,2|2,0:0|1:2,0:0:0:0:
379,332,149143,2,0,P|336:369|270:351,1,120,6|0,1:2|1:0,0:0:0:0:
244,314,149692,1,8,0:0:0:0:
157,259,150058,1,2,0:0:0:0:
157,259,150241,2,0,P|122:274|91:281,1,60,0|8,1:0|0:0,0:0:0:0:
63,318,150607,1,0,1:0:0:0:
63,318,150789,6,0,P|14:279|17:205,1,120,14|0,1:2|1:0,0:0:0:0:
46,186,151338,1,14,1:2:0:0:
82,84,151704,2,0,P|110:75|138:64,1,60,10|0,0:0|1:0,0:0:0:0:
161,113,152070,2,0,P|213:99|269:155,1,120,6|0,1:2|1:0,0:0:0:0:
283,191,152619,1,8,0:0:0:0:
283,191,152802,1,6,1:2:0:0:
223,281,153168,1,8,0:0:0:0:
223,281,153351,2,0,P|240:333|243:360,1,60,10|2,0:0|1:2,0:0:0:0:
285,368,153716,6,0,B|334:352|417:329,1,120,6|8,1:2|0:0,0:0:0:0:
463,246,154448,2,0,P|447:206|438:168,1,60,0|0,1:0|1:0,0:0:0:0:
460,141,154814,1,10,0:0:0:0:
460,141,154997,2,0,P|421:102|350:123,1,120,2|0,1:2|1:0,0:0:0:0:
320,147,155546,1,8,0:0:0:0:
230,206,155911,2,0,P|202:194|173:184,1,60,2|8,0:0|0:0,0:0:0:0:
149,136,156277,2,0,P|120:145|92:157,1,60,8|2,0:0|0:0,0:0:0:0:
55,195,156643,6,0,B|20:153|20:153|38:61,1,120,2|10,1:2|0:0,0:0:0:0:
115,18,157375,2,0,P|159:35|188:39,1,60,2|2,1:2|0:0,0:0:0:0:
217,75,157741,1,8,0:0:0:0:
217,75,157924,2,0,P|245:35|325:42,1,120,2|2,1:2|0:0,0:0:0:0:
347,80,158472,1,8,0:0:0:0:
347,80,158655,1,2,1:2:0:0:
437,152,159021,1,2,0:0:0:0:
437,152,159204,2,0,P|447:185|464:212,1,60,10|2,0:0|1:2,0:0:0:0:
436,255,159570,6,0,B|366:265|399:296|316:307,1,120,6|8,1:2|0:0,0:0:0:0:
234,253,160302,2,0,P|197:247|149:237,1,60,2|0,1:2|1:2,0:0:0:0:
137,281,160667,1,10,0:0:0:0:
137,281,160850,2,0,P|90:252|94:177,1,120,6|0,1:2|1:0,0:0:0:0:
127,158,161399,1,8,0:0:0:0:
213,92,161765,2,0,P|234:99|273:109,1,60,2|2,1:2|1:2,0:0:0:0:
307,155,162131,1,8,0:0:0:0:
307,155,162314,6,0,P|296:196|278:276,1,120,6|0,1:2|1:0,0:0:0:0:
232,300,162863,1,10,0:0:0:0:
317,365,163229,2,0,P|345:356|374:348,1,60,2|0,1:2|1:0,0:0:0:0:
430,368,163594,1,10,0:0:0:0:
430,368,163777,2,0,P|470:331|453:261,1,120,6|0,1:2|1:0,0:0:0:0:
418,247,164326,1,8,0:0:0:0:
418,247,164509,2,0,P|410:200|469:143,1,120,6|0,1:2|1:0,0:0:0:0:
507,150,165058,1,10,0:0:0:0:
482,44,165424,6,0,P|424:26|369:3,1,120,6|10,1:2|0:0,0:0:0:0:
338,48,165972,1,2,1:2:0:0:
338,48,166155,2,0,P|308:53|280:63,1,60,2|0,1:2|0:0,0:0:0:0:
232,37,166521,1,10,0:2:0:0:
153,111,166887,2,0,P|86:114|56:173,1,120,2|10,1:2|0:0,0:0:0:0:
49,207,167436,1,0,1:0:0:0:
49,207,167619,1,2,1:2:0:0:
142,260,167985,2,0,L|127:324,1,60,10|0,0:0|0:0,0:0:0:0:
172,350,168351,6,0,B|249:350|207:388|313:384,1,120,2|10,1:2|0:0,0:0:0:0:
332,356,168899,1,2,0:0:0:0:
332,356,169082,1,2,1:2:0:0:
305,251,169448,1,10,0:0:0:0:
305,251,169631,2,0,B|321:182|321:182|285:148,1,120,6|2,1:2|1:2,0:0:0:0:
234,128,170180,2,0,L|215:54,1,60,10|2,0:0|0:0,0:0:0:0:
260,34,170546,1,2,1:2:0:0:
363,2,170911,2,0,L|437:21,1,60,10|8,0:0|0:0,0:0:0:0:
444,65,171277,6,0,B|396:110|396:110|417:201,1,160,6|0,1:2|1:0,0:0:0:0:
479,252,172009,1,6,1:2:0:0:
343,336,172497,1,8,0:0:0:0:
268,305,172741,2,0,P|255:260|248:223,2,80,6|8|0,1:2|0:0|1:0,0:0:0:0:
241,380,173472,2,0,B|151:382|191:327|74:329,1,160,6|8,1:2|0:0,0:0:0:0:
44,265,174204,5,6,1:2:0:0:
127,195,174570,2,0,P|128:163|96:131,1,60,8|2,0:0|1:2,0:0:0:0:
63,118,174936,2,0,P|62:86|94:54,1,60,0|2,1:0|1:2,0:0:0:0:
124,37,175302,1,8,0:0:0:0:
124,37,175485,2,0,B|166:46|166:46|188:69|188:69|251:82,1,120,2|2,1:2|1:2,0:0:0:0:
262,123,176033,1,8,0:0:0:0:
352,63,176399,2,0,P|378:76|406:86,1,60,2|2,1:2|1:2,0:0:0:0:
422,138,176765,1,8,0:0:0:0:
479,229,177131,6,0,P|492:284|446:327,1,120,2|8,1:2|0:0,0:0:0:0:
347,357,177863,2,0,P|311:339|272:324,1,60,0|2,1:0|1:2,0:0:0:0:
261,294,178228,1,8,0:0:0:0:
261,294,178411,2,0,B|279:250|279:250|269:225|269:225|287:177,1,120,2|0,1:2|1:0,0:0:0:0:
338,171,178960,1,8,0:0:0:0:
338,171,179143,1,2,0:0:0:0:
280,79,179509,1,2,1:2:0:0:
280,79,179692,1,8,0:0:0:0:
194,146,180058,6,0,P|139:160|95:121,1,120,2|8,1:2|0:0,0:0:0:0:
3,178,180789,2,0,P|12:220|18:248,1,60,0|2,1:0|1:2,0:0:0:0:
58,270,181155,1,8,0:0:0:0:
58,270,181338,2,0,B|133:277|92:309|181:316,1,120,2|0,1:2|1:0,0:0:0:0:
208,280,181887,1,8,0:0:0:0:
301,226,182253,2,0,P|336:239|370:248,1,60,0|2,1:0|1:2,0:0:0:0:
372,297,182619,1,8,0:0:0:0:
478,276,182985,6,0,P|493:220|512:140,1,120,2|8,1:2|0:0,0:0:0:0:
419,97,183716,2,0,L|394:13,2,60,0|2|8,1:0|1:2|0:0,0:0:0:0:
385,139,184265,2,0,B|345:156|345:156|333:185|333:185|281:209,1,120,2|0,1:2|1:0,0:0:0:0:
250,169,184814,1,8,0:0:0:0:
250,169,184997,1,2,0:0:0:0:
190,85,185363,1,0,1:0:0:0:
190,85,185546,2,0,P|162:73|135:60,1,60,8|0,0:0|0:0,0:0:0:0:
87,85,185911,6,0,P|39:118|52:192,1,120,6|8,1:2|0:0,0:0:0:0:
87,199,186460,1,2,1:2:0:0:
139,299,186826,1,2,0:0:0:0:
139,299,187009,2,0,P|180:285|221:280,1,60,8|2,0:0|0:0,0:0:0:0:
229,238,187375,2,0,B|303:253|259:280|355:300,1,120,2|10,0:0|0:0,0:0:0:0:
376,263,187924,1,2,0:0:0:0:
470,326,188289,1,2,1:2:0:0:
470,326,188472,2,0,P|505:279|498:259,1,60,8|2,0:0|0:0,0:0:0:0:
492,233,188838,6,0,P|453:192|468:118,1,120,2|8,1:2|0:0,0:0:0:0:
502,101,189387,1,2,0:0:0:0:
414,37,189753,1,2,1:2:0:0:
414,37,189936,2,0,P|377:29|348:22,1,60,8|2,0:0|1:2,0:0:0:0:
310,54,190302,2,0,B|272:88|272:88|295:158,1,120,2|8,0:0|0:0,0:0:0:0:
341,189,190850,1,0,1:0:0:0:
341,189,191033,2,0,P|328:238|322:264,1,60,2|0,1:2|1:0,0:0:0:0:
273,259,191399,1,8,0:0:0:0:
195,334,191765,6,0,P|141:316|58:304,1,120,2|8,1:2|0:0,0:0:0:0:
55,256,192314,2,0,P|38:225|93:161,1,120,2|2,0:0|1:2,0:0:0:0:
123,128,192863,2,0,P|134:87|143:60,1,60,8|2,0:0|1:2,0:0:0:0:
96,38,193228,1,2,0:0:0:0:
210,13,193594,1,8,0:0:0:0:
210,13,193777,2,0,B|252:31|252:31|264:56|264:56|312:71,1,120,2|2,0:0|1:2,0:0:0:0:
343,111,194326,2,0,P|382:93|417:90,1,60,8|0,0:0|0:0,0:0:0:0:
429,45,194692,6,0,P|477:73|477:143,1,120,2|8,1:2|0:0,0:0:0:0:
447,174,195241,1,2,0:0:0:0:
376,255,195607,1,2,1:2:0:0:
376,255,195789,2,0,P|329:231|304:224,1,60,8|2,0:0|1:2,0:0:0:0:
299,179,196155,2,0,P|242:186|165:215,1,120,2|8,0:0|0:0,0:0:0:0:
162,256,196704,1,2,0:0:0:0:
69,309,197070,1,0,1:0:0:0:
70,309,197253,2,0,P|49:287|45:258,1,60,10|2,0:0|0:0,0:0:0:0:
66,208,197619,6,0,P|69:147|13:96,1,120,6|8,1:2|0:0,0:0:0:0:
114,32,198350,2,0,P|155:40|200:44,1,60,0|2,1:0|0:0,0:0:0:0:
190,93,198716,1,8,0:0:0:0:
292,59,199082,2,0,P|280:16|275:-9,2,60,2|2|8,0:0|1:2|0:0,0:0:0:0:
336,89,199631,2,0,B|373:126|373:126|346:200,1,120,2|2,0:0|0:0,0:0:0:0:
295,196,200180,1,10,0:0:0:0:
214,268,200546,6,0,P|206:284|251:369,1,120,2|8,1:2|0:0,0:0:0:0:
289,334,201094,1,0,1:0:0:0:
289,334,201277,2,0,P|320:342|359:349,1,60,0|2,1:0|1:2,0:0:0:0:
390,380,201643,1,8,0:0:0:0:
487,333,202009,2,0,P|481:294|468:205,1,120,2|8,0:0|0:0,0:0:0:0:
420,205,202558,1,2,0:0:0:0:
420,205,202741,2,0,P|426:166|439:77,1,120,0|10,1:0|0:0,0:0:0:0:
360,10,203472,6,0,B|306:-5|306:-5|240:20,1,120,6|8,1:2|0:0,0:0:0:0:
249,75,204021,1,0,1:0:0:0:
249,75,204204,2,0,B|173:83|213:118|129:117,1,120,2|8,1:2|0:0,0:0:0:0:
49,57,204936,2,0,P|60:10|64:-15,2,60,2|0|8,0:0|1:0|0:0,0:0:0:0:
4,88,205485,2,0,P|-6:145|28:192,1,120,0|2,1:0|1:2,0:0:0:0:
60,235,206033,2,0,P|107:220|138:215,1,60,8|2,0:0|0:0,0:0:0:0:
148,173,206399,5,2,1:2:0:0:
246,128,206765,1,8,0:0:0:0:
246,128,206948,2,0,P|280:139|313:152,1,60,2|2,1:2|1:2,0:0:0:0:
320,199,207314,1,2,1:2:0:0:
320,199,207497,2,0,P|354:187|387:175,1,60,8|2,0:0|1:2,0:0:0:0:
408,134,207863,2,0,P|457:154|459:225,1,120,2|8,0:0|0:0,0:0:0:0:
416,311,208594,2,0,L|432:375,2,60,2|0|10,0:0|1:0|0:0,0:0:0:0:
365,290,209143,1,2,0:0:0:0:
365,290,209326,6,0,P|320:305|227:328,1,120,6|2,1:2|1:2,0:0:0:0:
159,382,210058,2,0,P|100:367|43:348,1,120,2|2,1:2|1:2,0:0:0:0:
23,298,210607,1,2,0:0:0:0:
23,298,210789,2,0,P|11:257|63:205,1,120,2|2,1:2|1:2,0:0:0:0:
145,138,211521,1,2,1:2:0:0:
65,65,211887,1,2,1:2:0:0:
155,5,212253,6,0,B|196:12|196:12|217:33|217:33|275:43,1,120,6|2,1:2|1:2,0:0:0:0:
288,90,212802,1,8,0:0:0:0:
288,90,212985,2,0,P|344:76|369:71,2,60,2|0|2,1:2|1:0|1:2,0:0:0:0:
257,134,213533,1,10,0:0:0:0:
191,220,213899,1,2,1:2:0:0:
191,220,214082,2,0,P|203:257|212:299,1,60,10|6,0:0|1:2,0:0:0:0:
258,297,214448,2,0,P|295:284|337:275,1,60,2|10,0:0|0:0,0:0:0:0:
336,229,214814,2,0,P|373:241|415:250,1,60,10|0,0:0|1:2,0:0:0:0:
419,293,215180,5,0,1:2:0:0:
491,213,215546,1,12,0:0:0:0:
433,121,215912,2,0,P|449:81|458:43,1,60,0|0,1:0|1:0,0:0:0:0:
414,35,216278,1,10,0:0:0:0:
414,35,216461,2,0,P|371:-4|312:0,1,120,2|0,1:2|1:0,0:0:0:0:
275,38,217009,1,8,0:0:0:0:
195,111,217375,2,0,P|167:99|138:89,1,60,2|8,0:0|0:0,0:0:0:0:
121,37,217741,2,0,P|93:48|64:58,1,60,8|2,0:0|0:0,0:0:0:0:
41,107,218107,6,0,B|-2:149|-2:149|19:210,1,120,2|10,1:2|0:0,0:0:0:0:
106,266,218839,2,0,P|150:249|179:245,1,60,2|2,1:2|0:0,0:0:0:0:
175,196,219205,1,8,0:0:0:0:
175,196,219387,2,0,P|232:193|269:238,1,120,2|2,1:2|0:0,0:0:0:0:
269,296,219936,1,8,0:0:0:0:
269,296,220119,1,2,1:2:0:0:
369,347,220485,1,2,0:0:0:0:
369,347,220668,2,0,P|395:332|423:324,1,60,10|2,0:0|1:2,0:0:0:0:
453,278,221034,6,0,P|429:217|412:147,1,120,6|8,1:2|0:0,0:0:0:0:
445,120,221583,1,0,1:0:0:0:
445,120,221766,2,0,P|482:114|508:104,2,60,2|0|10,1:2|1:2|0:0,0:0:0:0:
398,92,222314,1,6,1:2:0:0:
328,16,222680,1,0,1:0:0:0:
328,16,222863,2,0,P|291:10|265:0,1,60,8|0,0:0|1:0,0:0:0:0:
223,31,223229,2,0,P|209:89|189:146,1,120,2|8,1:2|0:0,0:0:0:0:
234,177,223778,6,0,P|246:233|212:281,1,120,6|0,1:2|1:0,0:0:0:0:
164,306,224326,1,10,0:0:0:0:
80,375,224692,2,0,P|51:366|22:358,1,60,2|0,1:2|1:0,0:0:0:0:
5,307,225058,1,10,0:0:0:0:
5,307,225241,2,0,P|-7:250|26:202,1,120,6|0,1:2|1:0,0:0:0:0:
79,189,225790,1,8,0:0:0:0:
79,189,225972,2,0,P|93:131|113:74,1,120,6|0,1:2|1:0,0:0:0:0:
80,30,226522,1,10,0:0:0:0:
186,15,226887,6,0,B|247:13|247:13|307:57,1,120,6|10,1:2|0:0,0:0:0:0:
330,96,227436,1,2,1:2:0:0:
330,96,227619,2,0,P|385:81|405:79,1,60,2|0,1:2|0:0,0:0:0:0:
419,36,227985,1,10,0:2:0:0:
479,124,228350,2,0,P|495:191|515:258,1,120,2|10,1:2|0:0,0:0:0:0:
464,267,228900,1,0,1:2:0:0:
464,267,229083,2,0,P|403:270|365:226,1,120,2|10,1:2|0:0,0:0:0:0:
280,163,229814,6,0,B|196:172|241:191|139:197,1,120,2|10,1:2|0:0,0:0:0:0:
141,245,230363,1,2,0:0:0:0:
141,245,230546,1,2,1:2:0:0:
49,198,230912,1,10,0:0:0:0:
49,198,231095,2,0,B|13:232|13:232|31:308,1,120,6|2,1:2|1:2,0:0:0:0:
55,348,231644,2,0,P|84:354|112:366,1,60,10|2,0:0|0:0,0:0:0:0:
154,332,232009,1,2,1:2:0:0:
252,286,232375,2,0,P|281:281|309:269,1,60,10|8,0:0|0:0,0:0:0:0:
350,303,232741,6,0,P|380:350|474:327,1,160,6|0,1:2|1:0,0:0:0:0:
509,261,233473,1,6,1:2:0:0:
384,160,233960,1,8,0:0:0:0:
433,96,234205,2,0,P|472:88|510:76,2,80,6|8|0,1:2|0:0|1:0,0:0:0:0:
371,44,234936,2,0,B|297:20|297:20|211:75,1,160,6|8,1:2|0:0,0:0:0:0:
225,145,235668,5,6,1:2:0:0:
299,223,236034,2,0,P|290:254|288:300,1,60,8|2,0:0|1:2,0:0:0:0:
243,313,236400,2,0,P|212:305|166:303,1,60,0|2,1:0|1:2,0:0:0:0:
154,264,236766,1,8,0:0:0:0:
154,264,236948,2,0,P|113:297|39:272,1,120,6|0,1:2|1:0,0:0:0:0:
20,240,237497,1,8,0:0:0:0:
89,157,237863,2,0,P|74:128|63:89,1,60,8|0,0:0|1:0,0:0:0:0:
15,82,238228,2,0,P|30:53|41:14,1,60,2|2,1:2|0:0,0:0:0:0:
88,6,238594,6,0,P|145:-2|190:36,1,120,6|8,1:2|0:0,0:0:0:0:
267,112,239326,2,0,P|276:140|290:166,1,60,0|2,1:0|1:2,0:0:0:0:
266,217,239692,1,8,0:0:0:0:
266,217,239875,1,2,0:0:0:0:
192,295,240241,2,0,P|148:279|119:273,1,60,0|8,1:0|0:0,0:0:0:0:
110,233,240606,1,2,0:0:0:0:
110,233,240789,2,0,P|126:189|132:160,2,60,2|2|10,1:2|1:2|0:0,0:0:0:0:
56,242,241338,6,0,B|16:289|16:289|43:356,1,120,2|0,0:0|1:0,0:0:0:0:
84,371,241887,1,10,0:0:0:0:
191,380,242253,2,0,P|234:362|265:352,1,60,0|2,1:0|1:2,0:0:0:0:
258,304,242619,1,8,0:0:0:0:
258,304,242801,2,0,P|296:350|367:338,1,120,2|2,0:0|1:2,0:0:0:0:
399,319,243350,1,8,0:0:0:0:
399,319,243533,1,0,1:0:0:0:
492,265,243899,2,0,P|482:221|477:189,1,60,2|8,1:2|0:0,0:0:0:0:
446,163,244265,6,0,P|386:153|328:139,1,120,2|0,1:2|1:0,0:0:0:0:
297,184,244814,1,8,0:0:0:0:
216,256,245180,2,0,P|165:269|143:277,1,60,2|0,1:2|1:0,0:0:0:0:
112,242,245545,1,8,0:0:0:0:
112,242,245728,2,0,P|58:184|78:130,1,120,2|0,1:2|1:0,0:0:0:0:
105,114,246277,1,10,0:0:0:0:
197,58,246643,2,0,P|187:8|183:-13,2,60,2|0|10,1:2|1:0|0:0,0:0:0:0:
241,89,247192,6,0,B|318:102|276:131|376:139,1,120,2|0,1:2|1:0,0:0:0:0:
388,98,247740,1,8,0:0:0:0:
461,184,248106,1,0,1:0:0:0:
461,184,248289,2,0,P|455:213|433:233,1,60,0|8,1:0|0:0,0:0:0:0:
418,285,248655,2,0,P|365:298|287:323,1,120,2|0,1:2|1:0,0:0:0:0:
264,278,249204,1,8,0:0:0:0:
182,207,249570,2,0,P|152:201|124:192,1,60,8|8,0:0|3:0,0:0:0:0:
83,227,249936,1,0,1:0:0:0:
83,227,250119,5,6,1:2:0:0:
256,192,250210,12,2,253046,0:0:0:0:
256,192,253137,12,0,255789,0:0:0:0:
