osu file format v14

[General]
AudioFilename: audio 1.300x.mp3
AudioLeadIn: 0
PreviewTime: 22884
Countdown: 0
SampleSet: None
StackLeniency: 0.7
Mode: 3
LetterboxInBreaks: 0
SpecialStyle: 0
WidescreenStoryboard: 0

[Editor]
DistanceSpacing: 0.7
BeatDivisor: 4
GridSize: 8
TimelineZoom: 1

[Metadata]
Title:YABABAINA - Satapan P feat.Miku Hatsune, Teto Kasane, Zundamon
TitleUnicode:ヤババイナ - さたぱんP feat. 初音ミク・重音テト・ずんだもん
Artist:satapanpi
ArtistUnicode:さたぱんP
Creator:pashalka
Version:trippart 1.3
Source:ヤババイナ - さたぱんP feat. 初音ミク・重音テト・ずんだもん
Tags:japanese electronic vocaloid hatsune miku teto kasane stream chordjack jumpstream handstream tech ln hybrid osutrainer
BeatmapID:4542056
BeatmapSetID:2155037

[Difficulty]
HPDrainRate:5
CircleSize:4
OverallDifficulty:8
ApproachRate:10
SliderMultiplier:1.4
SliderTickRate:1

[Events]
//Background and Video events
0,0,"1f410e47bb550a9cd60100d8587b7dd1.jpg",0,0
//Break Periods
//Storyboard Layer 0 (Background)
//Storyboard Layer 1 (Fail)
//Storyboard Layer 2 (Pass)
//Storyboard Layer 3 (Foreground)
//Storyboard Layer 4 (Overlay)
//Storyboard Sound Samples

[TimingPoints]
38,230.769230769231,4,1,0,20,1,0
15730,230.769230769231,3,1,0,20,1,0
15730,-100,3,1,0,20,0,0
19423,-100,3,1,0,20,0,0
22884,329.67032967033,4,1,0,20,1,0
22884,-69.9300699300699,4,1,0,20,0,0
23212,262.026354610747,4,1,0,20,1,0
23212,-87.719298245614,4,1,0,20,0,0
31596,-87.719298245614,4,1,0,20,0,1
39996,230.769230769231,4,1,0,20,1,0
39996,-100,4,1,0,20,0,0
76920,256.410256410256,4,1,0,20,1,0
76920,-90.0900900900901,4,1,0,20,0,0
77958,266.785237883504,4,1,0,20,1,0
77958,-86.2068965517241,4,1,0,20,0,0
80627,230.769230769231,4,1,0,20,1,0
80627,-100,4,1,0,20,0,0
80850,262.237762237762,4,1,0,20,1,0
80850,-86.2068965517241,4,1,0,20,0,0
89504,-86.2068965517241,4,1,0,20,0,1
97896,-86.2068965517241,4,1,0,20,0,0
106289,230.769230769231,4,1,0,20,1,0
106289,-100,4,1,0,20,0,0

[HitObjects]
320,192,269,5,0,0:0:0:0:
192,192,384,1,0,0:0:0:0:
448,192,500,1,0,0:0:0:0:
320,192,730,1,0,0:0:0:0:
192,192,788,1,0,0:0:0:0:
64,192,846,1,0,0:0:0:0:
320,192,961,5,0,0:0:0:0:
448,192,961,1,0,0:0:0:0:
64,192,961,1,0,0:0:0:0:
320,192,1076,1,0,0:0:0:0:
320,192,1192,1,0,0:0:0:0:
320,192,1307,1,0,0:0:0:0:
320,192,1423,1,0,0:0:0:0:
320,192,1538,1,0,0:0:0:0:
320,192,1653,1,0,0:0:0:0:
320,192,1769,1,0,0:0:0:0:
320,192,1884,1,0,0:0:0:0:
320,192,2000,1,0,0:0:0:0:
320,192,2115,1,0,0:0:0:0:
320,192,2230,1,0,0:0:0:0:
320,192,2346,1,0,0:0:0:0:
192,192,2346,1,0,0:0:0:0:
448,192,2346,1,0,0:0:0:0:
192,192,2576,1,0,0:0:0:0:
64,192,2576,1,0,0:0:0:0:
448,192,2576,1,0,0:0:0:0:
320,192,2807,1,0,0:0:0:0:
448,192,2807,1,0,0:0:0:0:
192,192,2807,1,0,0:0:0:0:
320,192,2923,1,0,0:0:0:0:
320,192,3038,1,0,0:0:0:0:
320,192,3153,1,0,0:0:0:0:
320,192,3269,1,0,0:0:0:0:
320,192,3384,1,0,0:0:0:0:
320,192,3500,1,0,0:0:0:0:
320,192,3615,1,0,0:0:0:0:
320,192,3730,1,0,0:0:0:0:
192,192,3730,1,0,0:0:0:0:
448,192,3730,1,0,0:0:0:0:
192,192,3961,1,0,0:0:0:0:
64,192,3961,1,0,0:0:0:0:
320,192,3961,1,0,0:0:0:0:
64,192,4192,1,0,0:0:0:0:
448,192,4192,1,0,0:0:0:0:
320,192,4192,1,0,0:0:0:0:
320,192,4423,1,0,0:0:0:0:
448,192,4423,1,0,0:0:0:0:
192,192,4480,1,0,0:0:0:0:
64,192,4480,1,0,0:0:0:0:
320,192,4538,1,0,0:0:0:0:
448,192,4538,1,0,0:0:0:0:
192,192,4596,1,0,0:0:0:0:
64,192,4596,1,0,0:0:0:0:
320,192,4653,1,0,0:0:0:0:
448,192,4653,1,0,0:0:0:0:
192,192,4711,1,0,0:0:0:0:
64,192,4711,1,0,0:0:0:0:
320,192,4769,1,0,0:0:0:0:
448,192,4769,1,0,0:0:0:0:
192,192,4826,1,0,0:0:0:0:
64,192,4826,1,0,0:0:0:0:
320,192,4884,1,0,0:0:0:0:
448,192,4942,1,0,0:0:0:0:
192,192,5000,1,0,0:0:0:0:
320,192,5057,1,0,0:0:0:0:
64,192,5115,1,0,0:0:0:0:
320,192,5173,1,0,0:0:0:0:
192,192,5230,1,0,0:0:0:0:
320,192,5288,1,0,0:0:0:0:
448,192,5346,1,0,0:0:0:0:
320,192,5403,1,0,0:0:0:0:
64,192,5461,1,0,0:0:0:0:
320,192,5519,1,0,0:0:0:0:
192,192,5576,1,0,0:0:0:0:
320,192,5634,1,0,0:0:0:0:
448,192,5692,1,0,0:0:0:0:
320,192,5750,1,0,0:0:0:0:
192,192,5807,1,0,0:0:0:0:
320,192,5865,1,0,0:0:0:0:
64,192,5923,1,0,0:0:0:0:
320,192,5980,1,0,0:0:0:0:
448,192,6038,1,0,0:0:0:0:
192,192,6038,1,0,0:0:0:0:
64,192,6038,1,0,0:0:0:0:
320,192,6269,1,0,0:0:0:0:
448,192,6269,1,0,0:0:0:0:
64,192,6269,1,0,0:0:0:0:
192,192,6500,1,0,0:0:0:0:
320,192,6500,1,0,0:0:0:0:
64,192,6500,1,0,0:0:0:0:
448,192,6557,1,0,0:0:0:0:
320,192,6615,1,0,0:0:0:0:
64,192,6673,1,0,0:0:0:0:
320,192,6730,1,0,0:0:0:0:
192,192,6788,1,0,0:0:0:0:
320,192,6846,1,0,0:0:0:0:
448,192,6903,1,0,0:0:0:0:
320,192,6961,1,0,0:0:0:0:
64,192,7019,1,0,0:0:0:0:
320,192,7076,1,0,0:0:0:0:
448,192,7134,1,0,0:0:0:0:
320,192,7192,1,0,0:0:0:0:
192,192,7250,1,0,0:0:0:0:
320,192,7307,1,0,0:0:0:0:
448,192,7365,1,0,0:0:0:0:
320,192,7423,1,0,0:0:0:0:
192,192,7423,1,0,0:0:0:0:
64,192,7423,1,0,0:0:0:0:
192,192,7653,1,0,0:0:0:0:
320,192,7653,1,0,0:0:0:0:
448,192,7653,1,0,0:0:0:0:
64,192,7884,1,0,0:0:0:0:
192,192,7884,1,0,0:0:0:0:
320,192,7884,1,0,0:0:0:0:
64,192,8115,5,0,0:0:0:0:
192,192,8173,1,0,0:0:0:0:
64,192,8230,1,0,0:0:0:0:
192,192,8288,1,0,0:0:0:0:
320,192,8346,1,0,0:0:0:0:
448,192,8346,1,0,0:0:0:0:
192,192,8403,1,0,0:0:0:0:
64,192,8461,1,0,0:0:0:0:
320,192,8519,1,0,0:0:0:0:
448,192,8576,1,0,0:0:0:0:
192,192,8576,1,0,0:0:0:0:
64,192,8634,1,0,0:0:0:0:
320,192,8692,1,0,0:0:0:0:
448,192,8750,1,0,0:0:0:0:
192,192,8807,1,0,0:0:0:0:
64,192,8807,1,0,0:0:0:0:
320,192,8865,1,0,0:0:0:0:
448,192,8923,1,0,0:0:0:0:
192,192,8980,1,0,0:0:0:0:
64,192,8980,1,0,0:0:0:0:
320,192,9038,1,0,0:0:0:0:
448,192,9038,1,0,0:0:0:0:
192,192,9096,1,0,0:0:0:0:
64,192,9153,1,0,0:0:0:0:
320,192,9153,1,0,0:0:0:0:
448,192,9211,1,0,0:0:0:0:
192,192,9269,1,0,0:0:0:0:
64,192,9269,1,0,0:0:0:0:
320,192,9326,1,0,0:0:0:0:
448,192,9384,1,0,0:0:0:0:
64,192,9442,1,0,0:0:0:0:
192,192,9500,1,0,0:0:0:0:
320,192,9500,1,0,0:0:0:0:
448,192,9557,1,0,0:0:0:0:
320,192,9615,1,0,0:0:0:0:
192,192,9673,1,0,0:0:0:0:
64,192,9730,1,0,0:0:0:0:
448,192,9730,1,0,0:0:0:0:
320,192,9788,1,0,0:0:0:0:
448,192,9846,1,0,0:0:0:0:
64,192,9903,1,0,0:0:0:0:
192,192,9903,1,0,0:0:0:0:
320,192,9961,1,0,0:0:0:0:
448,192,9961,1,0,0:0:0:0:
192,192,10019,1,0,0:0:0:0:
64,192,10076,1,0,0:0:0:0:
320,192,10076,1,0,0:0:0:0:
448,192,10134,1,0,0:0:0:0:
192,192,10192,1,0,0:0:0:0:
64,192,10192,1,0,0:0:0:0:
320,192,10250,1,0,0:0:0:0:
448,192,10307,1,0,0:0:0:0:
64,192,10365,1,0,0:0:0:0:
192,192,10423,1,0,0:0:0:0:
320,192,10423,1,0,0:0:0:0:
448,192,10480,1,0,0:0:0:0:
320,192,10538,1,0,0:0:0:0:
192,192,10596,1,0,0:0:0:0:
64,192,10653,1,0,0:0:0:0:
320,192,10653,1,0,0:0:0:0:
448,192,10711,1,0,0:0:0:0:
64,192,10769,1,0,0:0:0:0:
192,192,10826,1,0,0:0:0:0:
320,192,10826,1,0,0:0:0:0:
448,192,10884,1,0,0:0:0:0:
64,192,10884,1,0,0:0:0:0:
320,192,10942,1,0,0:0:0:0:
192,192,11000,1,0,0:0:0:0:
64,192,11000,1,0,0:0:0:0:
320,192,11057,1,0,0:0:0:0:
448,192,11115,1,0,0:0:0:0:
192,192,11115,1,0,0:0:0:0:
64,192,11173,1,0,0:0:0:0:
320,192,11230,1,0,0:0:0:0:
448,192,11288,1,0,0:0:0:0:
64,192,11288,1,0,0:0:0:0:
192,192,11346,1,0,0:0:0:0:
320,192,11346,1,0,0:0:0:0:
448,192,11403,1,0,0:0:0:0:
64,192,11461,1,0,0:0:0:0:
192,192,11519,1,0,0:0:0:0:
320,192,11576,1,0,0:0:0:0:
448,192,11576,1,0,0:0:0:0:
192,192,11634,1,0,0:0:0:0:
64,192,11692,1,0,0:0:0:0:
448,192,11750,1,0,0:0:0:0:
320,192,11750,1,0,0:0:0:0:
192,192,11807,1,0,0:0:0:0:
64,192,11807,1,0,0:0:0:0:
320,192,11865,1,0,0:0:0:0:
448,192,11923,1,0,0:0:0:0:
64,192,11923,1,0,0:0:0:0:
192,192,11980,1,0,0:0:0:0:
320,192,12038,1,0,0:0:0:0:
448,192,12038,1,0,0:0:0:0:
64,192,12038,1,0,0:0:0:0:
192,192,12153,1,0,0:0:0:0:
320,192,12153,1,0,0:0:0:0:
448,192,12269,1,0,0:0:0:0:
64,192,12269,1,0,0:0:0:0:
320,192,12269,1,0,0:0:0:0:
192,192,12384,1,0,0:0:0:0:
64,192,12384,1,0,0:0:0:0:
192,192,12500,1,0,0:0:0:0:
320,192,12500,1,0,0:0:0:0:
448,192,12500,1,0,0:0:0:0:
448,192,12615,1,0,0:0:0:0:
320,192,12615,1,0,0:0:0:0:
192,192,12673,1,0,0:0:0:0:
64,192,12673,1,0,0:0:0:0:
320,192,12730,1,0,0:0:0:0:
448,192,12730,1,0,0:0:0:0:
192,192,12846,1,0,0:0:0:0:
64,192,12846,1,0,0:0:0:0:
320,192,12846,1,0,0:0:0:0:
320,192,12961,1,0,0:0:0:0:
192,192,12961,1,0,0:0:0:0:
448,192,12961,1,0,0:0:0:0:
448,192,13076,1,0,0:0:0:0:
64,192,13076,1,0,0:0:0:0:
192,192,13192,1,0,0:0:0:0:
320,192,13192,1,0,0:0:0:0:
448,192,13192,1,0,0:0:0:0:
192,192,13307,1,0,0:0:0:0:
64,192,13307,1,0,0:0:0:0:
64,192,13423,1,0,0:0:0:0:
192,192,13423,1,0,0:0:0:0:
448,192,13423,1,0,0:0:0:0:
320,192,13538,1,0,0:0:0:0:
448,192,13538,1,0,0:0:0:0:
192,192,13596,1,0,0:0:0:0:
64,192,13596,1,0,0:0:0:0:
320,192,13653,1,0,0:0:0:0:
448,192,13653,1,0,0:0:0:0:
64,192,13769,1,0,0:0:0:0:
192,192,13769,1,0,0:0:0:0:
320,192,13769,1,0,0:0:0:0:
192,192,13884,1,0,0:0:0:0:
320,192,13884,1,0,0:0:0:0:
448,192,13884,1,0,0:0:0:0:
192,192,14000,1,0,0:0:0:0:
64,192,14000,1,0,0:0:0:0:
320,192,14057,1,0,0:0:0:0:
448,192,14057,1,0,0:0:0:0:
192,192,14115,1,0,0:0:0:0:
64,192,14115,1,0,0:0:0:0:
320,192,14230,1,0,0:0:0:0:
448,192,14230,1,0,0:0:0:0:
64,192,14230,1,0,0:0:0:0:
320,192,14346,1,0,0:0:0:0:
192,192,14346,1,0,0:0:0:0:
64,192,14346,1,0,0:0:0:0:
320,192,14461,1,0,0:0:0:0:
448,192,14461,1,0,0:0:0:0:
192,192,14519,1,0,0:0:0:0:
64,192,14519,1,0,0:0:0:0:
320,192,14576,1,0,0:0:0:0:
448,192,14576,1,0,0:0:0:0:
192,192,14692,1,0,0:0:0:0:
64,192,14692,1,0,0:0:0:0:
448,192,14692,1,0,0:0:0:0:
320,192,14807,1,0,0:0:0:0:
448,192,14807,1,0,0:0:0:0:
192,192,14807,1,0,0:0:0:0:
192,192,14923,1,0,0:0:0:0:
320,192,14923,1,0,0:0:0:0:
64,192,14980,1,0,0:0:0:0:
448,192,14980,1,0,0:0:0:0:
320,192,15038,1,0,0:0:0:0:
192,192,15038,1,0,0:0:0:0:
320,192,15153,1,0,0:0:0:0:
448,192,15153,1,0,0:0:0:0:
64,192,15153,1,0,0:0:0:0:
192,192,15269,1,0,0:0:0:0:
64,192,15269,1,0,0:0:0:0:
448,192,15269,1,0,0:0:0:0:
320,192,15384,1,0,0:0:0:0:
448,192,15384,1,0,0:0:0:0:
192,192,15442,1,0,0:0:0:0:
64,192,15442,1,0,0:0:0:0:
320,192,15500,1,0,0:0:0:0:
448,192,15500,1,0,0:0:0:0:
192,192,15615,1,0,0:0:0:0:
64,192,15615,1,0,0:0:0:0:
320,192,15615,1,0,0:0:0:0:
320,192,15730,1,0,0:0:0:0:
448,192,15730,128,0,16192:0:0:0:0:
64,192,15961,1,0,0:0:0:0:
192,192,16192,128,0,16423:0:0:0:0:
320,192,16192,1,0,0:0:0:0:
64,192,16423,128,0,16653:0:0:0:0:
448,192,16423,1,0,0:0:0:0:
320,192,16653,128,0,16769:0:0:0:0:
448,192,16884,128,0,17000:0:0:0:0:
64,192,16884,1,0,0:0:0:0:
192,192,17115,128,0,17346:0:0:0:0:
320,192,17115,1,0,0:0:0:0:
448,192,17346,1,0,0:0:0:0:
64,192,17461,128,0,17519:0:0:0:0:
320,192,17576,128,0,17692:0:0:0:0:
192,192,17576,1,0,0:0:0:0:
448,192,17692,128,0,17807:0:0:0:0:
192,192,17807,128,0,17980:0:0:0:0:
64,192,17807,1,0,0:0:0:0:
64,192,18038,128,0,18153:0:0:0:0:
320,192,18038,1,0,0:0:0:0:
192,192,18269,128,0,18384:0:0:0:0:
448,192,18269,1,0,0:0:0:0:
320,192,18500,128,0,18615:0:0:0:0:
64,192,18500,1,0,0:0:0:0:
448,192,18615,128,0,18730:0:0:0:0:
192,192,18730,128,0,18846:0:0:0:0:
64,192,18961,128,0,19076:0:0:0:0:
448,192,18961,1,0,0:0:0:0:
192,192,19076,128,0,19192:0:0:0:0:
448,192,19192,128,0,19307:0:0:0:0:
64,192,19192,1,0,0:0:0:0:
320,192,19307,128,0,19423:0:0:0:0:
192,192,19423,1,0,0:0:0:0:
64,192,19423,1,0,0:0:0:0:
448,192,19480,1,0,0:0:0:0:
320,192,19538,1,0,0:0:0:0:
192,192,19596,1,0,0:0:0:0:
64,192,19653,1,0,0:0:0:0:
320,192,19653,1,0,0:0:0:0:
448,192,19711,1,0,0:0:0:0:
192,192,19769,1,0,0:0:0:0:
320,192,19826,1,0,0:0:0:0:
448,192,19884,1,0,0:0:0:0:
192,192,19884,1,0,0:0:0:0:
64,192,19942,1,0,0:0:0:0:
320,192,20000,1,0,0:0:0:0:
448,192,20057,1,0,0:0:0:0:
64,192,20115,1,0,0:0:0:0:
192,192,20115,1,0,0:0:0:0:
320,192,20173,1,0,0:0:0:0:
448,192,20230,1,0,0:0:0:0:
192,192,20288,1,0,0:0:0:0:
64,192,20346,1,0,0:0:0:0:
320,192,20346,1,0,0:0:0:0:
448,192,20403,1,0,0:0:0:0:
192,192,20461,1,0,0:0:0:0:
64,192,20519,1,0,0:0:0:0:
192,192,20576,1,0,0:0:0:0:
320,192,20576,1,0,0:0:0:0:
448,192,20634,1,0,0:0:0:0:
192,192,20692,1,0,0:0:0:0:
64,192,20750,1,0,0:0:0:0:
320,192,20807,1,0,0:0:0:0:
448,192,20807,1,0,0:0:0:0:
192,192,20865,1,0,0:0:0:0:
64,192,20923,1,0,0:0:0:0:
320,192,20980,1,0,0:0:0:0:
448,192,21038,1,0,0:0:0:0:
192,192,21038,1,0,0:0:0:0:
64,192,21096,1,0,0:0:0:0:
320,192,21153,1,0,0:0:0:0:
448,192,21153,1,0,0:0:0:0:
192,192,21211,1,0,0:0:0:0:
64,192,21269,1,0,0:0:0:0:
320,192,21269,1,0,0:0:0:0:
448,192,21326,1,0,0:0:0:0:
192,192,21384,1,0,0:0:0:0:
320,192,21384,1,0,0:0:0:0:
64,192,21442,1,0,0:0:0:0:
192,192,21500,1,0,0:0:0:0:
448,192,21500,1,0,0:0:0:0:
320,192,21557,1,0,0:0:0:0:
448,192,21615,1,0,0:0:0:0:
64,192,21673,1,0,0:0:0:0:
192,192,21730,1,0,0:0:0:0:
320,192,21730,1,0,0:0:0:0:
448,192,21788,1,0,0:0:0:0:
320,192,21846,1,0,0:0:0:0:
192,192,21903,1,0,0:0:0:0:
64,192,21961,1,0,0:0:0:0:
320,192,21961,1,0,0:0:0:0:
448,192,22019,1,0,0:0:0:0:
192,192,22076,1,0,0:0:0:0:
64,192,22076,1,0,0:0:0:0:
320,192,22134,1,0,0:0:0:0:
64,192,22192,1,0,0:0:0:0:
192,192,22250,1,0,0:0:0:0:
320,192,22307,1,0,0:0:0:0:
448,192,22307,1,0,0:0:0:0:
192,192,22365,1,0,0:0:0:0:
64,192,22423,1,0,0:0:0:0:
320,192,22423,1,0,0:0:0:0:
448,192,22480,1,0,0:0:0:0:
192,192,22538,1,0,0:0:0:0:
64,192,22538,1,0,0:0:0:0:
320,192,22596,1,0,0:0:0:0:
448,192,22653,1,0,0:0:0:0:
192,192,22653,1,0,0:0:0:0:
320,192,22884,128,0,22966:0:0:0:0:
448,192,22884,128,0,22966:0:0:0:0:
64,192,22884,128,0,22966:0:0:0:0:
192,192,22966,128,0,23049:0:0:0:0:
448,192,23049,128,0,23131:0:0:0:0:
64,192,23131,128,0,23213:0:0:0:0:
320,192,23212,128,0,23277:0:0:0:0:
192,192,23212,128,0,23277:0:0:0:0:
448,192,23277,1,0,0:0:0:0:
320,192,23343,1,0,0:0:0:0:
192,192,23408,1,0,0:0:0:0:
320,192,23473,1,0,0:0:0:0:
448,192,23473,128,0,23539:0:0:0:0:
64,192,23473,128,0,23539:0:0:0:0:
192,192,23539,1,0,0:0:0:0:
320,192,23604,1,0,0:0:0:0:
320,192,23670,1,0,0:0:0:0:
448,192,23736,1,0,0:0:0:0:
64,192,23736,128,0,23801:0:0:0:0:
192,192,23736,128,0,23801:0:0:0:0:
320,192,23801,1,0,0:0:0:0:
448,192,23866,1,0,0:0:0:0:
320,192,23932,1,0,0:0:0:0:
192,192,23997,1,0,0:0:0:0:
448,192,23997,128,0,24063:0:0:0:0:
64,192,23997,128,0,24063:0:0:0:0:
320,192,24063,1,0,0:0:0:0:
192,192,24129,1,0,0:0:0:0:
192,192,24194,1,0,0:0:0:0:
448,192,24260,1,0,0:0:0:0:
320,192,24260,128,0,24325:0:0:0:0:
64,192,24260,128,0,24325:0:0:0:0:
192,192,24325,1,0,0:0:0:0:
448,192,24390,1,0,0:0:0:0:
448,192,24456,1,0,0:0:0:0:
320,192,24522,1,0,0:0:0:0:
192,192,24522,128,0,24587:0:0:0:0:
64,192,24522,128,0,24587:0:0:0:0:
448,192,24587,1,0,0:0:0:0:
320,192,24653,1,0,0:0:0:0:
192,192,24718,1,0,0:0:0:0:
64,192,24783,1,0,0:0:0:0:
448,192,24783,128,0,24849:0:0:0:0:
320,192,24783,128,0,24849:0:0:0:0:
192,192,24849,1,0,0:0:0:0:
64,192,24915,1,0,0:0:0:0:
64,192,24980,1,0,0:0:0:0:
192,192,25046,1,0,0:0:0:0:
320,192,25046,128,0,25111:0:0:0:0:
448,192,25046,128,0,25111:0:0:0:0:
64,192,25111,1,0,0:0:0:0:
192,192,25176,1,0,0:0:0:0:
192,192,25242,1,0,0:0:0:0:
448,192,25308,1,0,0:0:0:0:
320,192,25340,1,0,0:0:0:0:
192,192,25373,1,0,0:0:0:0:
64,192,25406,1,0,0:0:0:0:
320,192,25439,1,0,0:0:0:0:
448,192,25504,1,0,0:0:0:0:
192,192,25570,1,0,0:0:0:0:
320,192,25570,128,0,25635:0:0:0:0:
64,192,25570,128,0,25635:0:0:0:0:
448,192,25635,1,0,0:0:0:0:
192,192,25701,1,0,0:0:0:0:
192,192,25766,1,0,0:0:0:0:
64,192,25832,1,0,0:0:0:0:
448,192,25832,128,0,25897:0:0:0:0:
320,192,25832,128,0,25897:0:0:0:0:
192,192,25897,1,0,0:0:0:0:
64,192,25963,1,0,0:0:0:0:
192,192,26028,1,0,0:0:0:0:
320,192,26093,1,0,0:0:0:0:
448,192,26093,128,0,26160:0:0:0:0:
64,192,26093,128,0,26160:0:0:0:0:
192,192,26160,1,0,0:0:0:0:
192,192,26225,1,0,0:0:0:0:
320,192,26290,1,0,0:0:0:0:
448,192,26356,1,0,0:0:0:0:
64,192,26356,128,0,26421:0:0:0:0:
192,192,26356,128,0,26421:0:0:0:0:
320,192,26421,1,0,0:0:0:0:
448,192,26486,1,0,0:0:0:0:
448,192,26553,1,0,0:0:0:0:
320,192,26618,1,0,0:0:0:0:
192,192,26618,128,0,26683:0:0:0:0:
64,192,26618,128,0,26683:0:0:0:0:
448,192,26683,1,0,0:0:0:0:
320,192,26749,1,0,0:0:0:0:
320,192,26814,1,0,0:0:0:0:
64,192,26880,1,0,0:0:0:0:
192,192,26946,1,0,0:0:0:0:
192,192,27011,1,0,0:0:0:0:
448,192,27011,1,0,0:0:0:0:
320,192,27076,1,0,0:0:0:0:
448,192,27142,1,0,0:0:0:0:
64,192,27142,1,0,0:0:0:0:
192,192,27207,1,0,0:0:0:0:
320,192,27207,1,0,0:0:0:0:
64,192,27273,1,0,0:0:0:0:
64,192,27338,1,0,0:0:0:0:
192,192,27404,1,0,0:0:0:0:
320,192,27447,1,0,0:0:0:0:
448,192,27491,1,0,0:0:0:0:
64,192,27535,1,0,0:0:0:0:
192,192,27579,1,0,0:0:0:0:
320,192,27666,1,0,0:0:0:0:
448,192,27666,1,0,0:0:0:0:
320,192,27731,1,0,0:0:0:0:
192,192,27797,1,0,0:0:0:0:
64,192,27797,128,0,27863:0:0:0:0:
320,192,27863,1,0,0:0:0:0:
448,192,27928,1,0,0:0:0:0:
192,192,27928,128,0,27993:0:0:0:0:
448,192,27993,1,0,0:0:0:0:
192,192,28059,1,0,0:0:0:0:
320,192,28059,128,0,28124:0:0:0:0:
64,192,28124,1,0,0:0:0:0:
192,192,28190,1,0,0:0:0:0:
448,192,28190,128,0,28256:0:0:0:0:
192,192,28256,1,0,0:0:0:0:
64,192,28321,1,0,0:0:0:0:
320,192,28321,128,0,28386:0:0:0:0:
448,192,28386,1,0,0:0:0:0:
64,192,28452,1,0,0:0:0:0:
192,192,28452,1,0,0:0:0:0:
64,192,28517,1,0,0:0:0:0:
320,192,28583,1,0,0:0:0:0:
448,192,28583,128,0,28649:0:0:0:0:
192,192,28649,1,0,0:0:0:0:
320,192,28714,1,0,0:0:0:0:
64,192,28714,128,0,28780:0:0:0:0:
320,192,28780,1,0,0:0:0:0:
192,192,28845,1,0,0:0:0:0:
448,192,28845,128,0,28910:0:0:0:0:
64,192,28910,1,0,0:0:0:0:
192,192,28976,1,0,0:0:0:0:
320,192,28976,1,0,0:0:0:0:
192,192,29042,1,0,0:0:0:0:
320,192,29107,1,0,0:0:0:0:
448,192,29107,128,0,29173:0:0:0:0:
192,192,29173,1,0,0:0:0:0:
64,192,29238,1,0,0:0:0:0:
320,192,29238,128,0,29303:0:0:0:0:
64,192,29303,1,0,0:0:0:0:
448,192,29369,1,0,0:0:0:0:
320,192,29369,1,0,0:0:0:0:
192,192,29435,1,0,0:0:0:0:
64,192,29435,1,0,0:0:0:0:
448,192,29500,1,0,0:0:0:0:
320,192,29500,128,0,29566:0:0:0:0:
192,192,29566,1,0,0:0:0:0:
448,192,29631,1,0,0:0:0:0:
64,192,29631,128,0,29696:0:0:0:0:
448,192,29696,1,0,0:0:0:0:
192,192,29762,1,0,0:0:0:0:
320,192,29762,128,0,29828:0:0:0:0:
64,192,29828,1,0,0:0:0:0:
192,192,29893,1,0,0:0:0:0:
448,192,29893,128,0,29959:0:0:0:0:
192,192,29959,1,0,0:0:0:0:
448,192,30024,1,0,0:0:0:0:
64,192,30024,128,0,30090:0:0:0:0:
192,192,30090,1,0,0:0:0:0:
320,192,30155,1,0,0:0:0:0:
448,192,30155,1,0,0:0:0:0:
320,192,30220,1,0,0:0:0:0:
64,192,30286,1,0,0:0:0:0:
192,192,30286,128,0,30352:0:0:0:0:
320,192,30352,1,0,0:0:0:0:
448,192,30417,1,0,0:0:0:0:
64,192,30417,128,0,30483:0:0:0:0:
448,192,30483,1,0,0:0:0:0:
192,192,30548,1,0,0:0:0:0:
320,192,30548,128,0,30613:0:0:0:0:
64,192,30613,1,0,0:0:0:0:
320,192,30680,1,0,0:0:0:0:
448,192,30680,1,0,0:0:0:0:
64,192,30745,1,0,0:0:0:0:
192,192,30745,1,0,0:0:0:0:
320,192,30810,1,0,0:0:0:0:
448,192,30810,1,0,0:0:0:0:
192,192,30876,1,0,0:0:0:0:
64,192,30941,1,0,0:0:0:0:
320,192,31006,1,0,0:0:0:0:
64,192,31073,1,0,0:0:0:0:
192,192,31073,1,0,0:0:0:0:
320,192,31138,1,0,0:0:0:0:
448,192,31138,1,0,0:0:0:0:
192,192,31203,1,0,0:0:0:0:
320,192,31269,1,0,0:0:0:0:
448,192,31269,1,0,0:0:0:0:
192,192,31334,1,0,0:0:0:0:
64,192,31334,1,0,0:0:0:0:
320,192,31400,1,0,0:0:0:0:
448,192,31400,1,0,0:0:0:0:
192,192,31465,1,0,0:0:0:0:
64,192,31531,1,0,0:0:0:0:
320,192,31596,5,0,0:0:0:0:
448,192,31596,1,0,0:0:0:0:
320,192,31662,1,0,0:0:0:0:
192,192,31727,1,0,0:0:0:0:
320,192,31793,1,0,0:0:0:0:
448,192,31793,128,0,31858:0:0:0:0:
64,192,31858,1,0,0:0:0:0:
192,192,31858,128,0,31924:0:0:0:0:
320,192,31924,1,0,0:0:0:0:
448,192,31990,1,0,0:0:0:0:
64,192,31990,128,0,32055:0:0:0:0:
448,192,32055,1,0,0:0:0:0:
320,192,32120,1,0,0:0:0:0:
192,192,32120,128,0,32186:0:0:0:0:
448,192,32186,1,0,0:0:0:0:
320,192,32251,1,0,0:0:0:0:
192,192,32317,1,0,0:0:0:0:
64,192,32317,128,0,32383:0:0:0:0:
320,192,32383,1,0,0:0:0:0:
448,192,32383,128,0,32448:0:0:0:0:
192,192,32448,1,0,0:0:0:0:
64,192,32513,1,0,0:0:0:0:
320,192,32513,128,0,32579:0:0:0:0:
64,192,32579,1,0,0:0:0:0:
320,192,32644,5,0,0:0:0:0:
448,192,32644,1,0,0:0:0:0:
192,192,32644,1,0,0:0:0:0:
192,192,32776,1,0,0:0:0:0:
64,192,32776,1,0,0:0:0:0:
320,192,32841,1,0,0:0:0:0:
448,192,32841,1,0,0:0:0:0:
192,192,32906,1,0,0:0:0:0:
64,192,32906,1,0,0:0:0:0:
320,192,33037,1,0,0:0:0:0:
192,192,33037,1,0,0:0:0:0:
448,192,33037,1,0,0:0:0:0:
192,192,33169,1,0,0:0:0:0:
64,192,33169,1,0,0:0:0:0:
448,192,33169,1,0,0:0:0:0:
320,192,33300,1,0,0:0:0:0:
448,192,33300,1,0,0:0:0:0:
192,192,33365,1,0,0:0:0:0:
64,192,33365,1,0,0:0:0:0:
320,192,33430,1,0,0:0:0:0:
448,192,33430,1,0,0:0:0:0:
192,192,33562,1,0,0:0:0:0:
64,192,33562,1,0,0:0:0:0:
320,192,33627,1,0,0:0:0:0:
448,192,33627,1,0,0:0:0:0:
192,192,33693,1,0,0:0:0:0:
64,192,33693,1,0,0:0:0:0:
192,192,33758,1,0,0:0:0:0:
64,192,33823,1,0,0:0:0:0:
320,192,33889,1,0,0:0:0:0:
448,192,33889,128,0,33955:0:0:0:0:
64,192,33955,1,0,0:0:0:0:
192,192,33955,128,0,34020:0:0:0:0:
320,192,34020,1,0,0:0:0:0:
448,192,34086,1,0,0:0:0:0:
64,192,34086,128,0,34151:0:0:0:0:
448,192,34151,1,0,0:0:0:0:
192,192,34216,1,0,0:0:0:0:
64,192,34216,128,0,34282:0:0:0:0:
320,192,34216,128,0,34282:0:0:0:0:
448,192,34282,1,0,0:0:0:0:
192,192,34347,1,0,0:0:0:0:
320,192,34413,1,0,0:0:0:0:
448,192,34413,128,0,34479:0:0:0:0:
64,192,34479,1,0,0:0:0:0:
192,192,34479,128,0,34544:0:0:0:0:
320,192,34544,1,0,0:0:0:0:
448,192,34610,128,0,34675:0:0:0:0:
64,192,34610,1,0,0:0:0:0:
192,192,34610,128,0,34675:0:0:0:0:
320,192,34675,1,0,0:0:0:0:
64,192,34740,1,0,0:0:0:0:
448,192,34740,128,0,34872:0:0:0:0:
320,192,34937,128,0,35003:0:0:0:0:
64,192,34937,1,0,0:0:0:0:
192,192,35003,128,0,35068:0:0:0:0:
448,192,35003,1,0,0:0:0:0:
320,192,35133,128,0,35200:0:0:0:0:
448,192,35133,1,0,0:0:0:0:
64,192,35200,128,0,35265:0:0:0:0:
192,192,35265,128,0,35330:0:0:0:0:
320,192,35265,1,0,0:0:0:0:
448,192,35330,1,0,0:0:0:0:
192,192,35396,128,0,35461:0:0:0:0:
320,192,35461,1,0,0:0:0:0:
448,192,35461,1,0,0:0:0:0:
192,192,35526,128,0,35723:0:0:0:0:
64,192,35526,1,0,0:0:0:0:
320,192,35592,1,0,0:0:0:0:
448,192,35592,1,0,0:0:0:0:
320,192,35789,128,0,35920:0:0:0:0:
192,192,35985,1,0,0:0:0:0:
64,192,35985,128,0,36051:0:0:0:0:
448,192,36051,1,0,0:0:0:0:
320,192,36051,128,0,36116:0:0:0:0:
192,192,36116,1,0,0:0:0:0:
64,192,36182,1,0,0:0:0:0:
448,192,36182,128,0,36247:0:0:0:0:
64,192,36247,1,0,0:0:0:0:
320,192,36313,1,0,0:0:0:0:
192,192,36313,128,0,36378:0:0:0:0:
448,192,36313,128,0,36378:0:0:0:0:
64,192,36378,1,0,0:0:0:0:
320,192,36444,1,0,0:0:0:0:
192,192,36510,1,0,0:0:0:0:
64,192,36510,128,0,36575:0:0:0:0:
448,192,36575,1,0,0:0:0:0:
320,192,36575,128,0,36640:0:0:0:0:
192,192,36640,1,0,0:0:0:0:
64,192,36706,1,0,0:0:0:0:
448,192,36706,128,0,36771:0:0:0:0:
64,192,36771,1,0,0:0:0:0:
320,192,36836,1,0,0:0:0:0:
448,192,36836,1,0,0:0:0:0:
192,192,36903,1,0,0:0:0:0:
64,192,36968,1,0,0:0:0:0:
320,192,37033,1,0,0:0:0:0:
448,192,37033,1,0,0:0:0:0:
192,192,37099,1,0,0:0:0:0:
64,192,37099,1,0,0:0:0:0:
320,192,37164,1,0,0:0:0:0:
448,192,37230,1,0,0:0:0:0:
64,192,37230,1,0,0:0:0:0:
192,192,37296,1,0,0:0:0:0:
320,192,37361,1,0,0:0:0:0:
448,192,37361,1,0,0:0:0:0:
192,192,37426,1,0,0:0:0:0:
64,192,37426,1,0,0:0:0:0:
448,192,37492,1,0,0:0:0:0:
320,192,37557,1,0,0:0:0:0:
192,192,37557,1,0,0:0:0:0:
64,192,37623,1,0,0:0:0:0:
448,192,37623,1,0,0:0:0:0:
320,192,37689,1,0,0:0:0:0:
192,192,37754,1,0,0:0:0:0:
64,192,37754,1,0,0:0:0:0:
320,192,37820,1,0,0:0:0:0:
64,192,37885,1,0,0:0:0:0:
448,192,37885,128,0,37950:0:0:0:0:
192,192,37885,128,0,37950:0:0:0:0:
320,192,37950,1,0,0:0:0:0:
64,192,38016,1,0,0:0:0:0:
320,192,38081,1,0,0:0:0:0:
448,192,38081,128,0,38147:0:0:0:0:
64,192,38147,1,0,0:0:0:0:
192,192,38147,128,0,38213:0:0:0:0:
320,192,38213,1,0,0:0:0:0:
192,192,38278,1,0,0:0:0:0:
448,192,38278,128,0,38343:0:0:0:0:
64,192,38278,128,0,38343:0:0:0:0:
320,192,38343,1,0,0:0:0:0:
192,192,38409,1,0,0:0:0:0:
64,192,38409,1,0,0:0:0:0:
192,192,38474,1,0,0:0:0:0:
320,192,38540,1,0,0:0:0:0:
64,192,38606,1,0,0:0:0:0:
192,192,38606,128,0,38671:0:0:0:0:
448,192,38671,1,0,0:0:0:0:
320,192,38671,128,0,38736:0:0:0:0:
64,192,38736,1,0,0:0:0:0:
448,192,38802,1,0,0:0:0:0:
192,192,38802,128,0,38867:0:0:0:0:
448,192,38867,1,0,0:0:0:0:
320,192,38933,128,0,38999:0:0:0:0:
64,192,38933,128,0,38999:0:0:0:0:
192,192,38999,1,0,0:0:0:0:
448,192,39064,1,0,0:0:0:0:
320,192,39064,128,0,39130:0:0:0:0:
192,192,39130,1,0,0:0:0:0:
64,192,39130,128,0,39195:0:0:0:0:
320,192,39195,1,0,0:0:0:0:
448,192,39195,128,0,39260:0:0:0:0:
192,192,39260,1,0,0:0:0:0:
320,192,39326,1,0,0:0:0:0:
64,192,39326,128,0,39392:0:0:0:0:
320,192,39392,1,0,0:0:0:0:
192,192,39457,1,0,0:0:0:0:
64,192,39457,1,0,0:0:0:0:
320,192,39523,1,0,0:0:0:0:
448,192,39523,1,0,0:0:0:0:
192,192,39588,1,0,0:0:0:0:
64,192,39588,1,0,0:0:0:0:
320,192,39653,1,0,0:0:0:0:
448,192,39653,1,0,0:0:0:0:
192,192,39719,1,0,0:0:0:0:
64,192,39719,1,0,0:0:0:0:
320,192,39785,1,0,0:0:0:0:
448,192,39785,1,0,0:0:0:0:
192,192,39850,1,0,0:0:0:0:
64,192,39850,1,0,0:0:0:0:
448,192,39916,1,0,0:0:0:0:
320,192,39916,1,0,0:0:0:0:
64,192,39996,1,0,0:0:0:0:
192,192,39996,128,0,40112:0:0:0:0:
320,192,40112,128,0,40170:0:0:0:0:
448,192,40170,128,0,40227:0:0:0:0:
192,192,40227,128,0,40343:0:0:0:0:
64,192,40227,1,0,0:0:0:0:
64,192,40343,128,0,40400:0:0:0:0:
320,192,40400,128,0,40458:0:0:0:0:
448,192,40458,128,0,40516:0:0:0:0:
192,192,40458,1,0,0:0:0:0:
64,192,40516,128,0,40573:0:0:0:0:
320,192,40631,128,0,40689:0:0:0:0:
192,192,40689,128,0,40746:0:0:0:0:
448,192,40689,1,0,0:0:0:0:
64,192,40746,128,0,40804:0:0:0:0:
320,192,40804,128,0,40862:0:0:0:0:
448,192,40862,128,0,40920:0:0:0:0:
192,192,40920,128,0,40977:0:0:0:0:
64,192,40920,1,0,0:0:0:0:
320,192,40977,128,0,41035:0:0:0:0:
64,192,41035,128,0,41093:0:0:0:0:
192,192,41093,128,0,41150:0:0:0:0:
448,192,41150,128,0,41266:0:0:0:0:
320,192,41150,1,0,0:0:0:0:
320,192,41266,128,0,41323:0:0:0:0:
192,192,41381,128,0,41439:0:0:0:0:
64,192,41381,1,0,0:0:0:0:
448,192,41439,128,0,41496:0:0:0:0:
320,192,41496,128,0,41612:0:0:0:0:
192,192,41612,128,0,41843:0:0:0:0:
64,192,41612,128,0,41843:0:0:0:0:
448,192,41843,1,0,0:0:0:0:
320,192,41843,1,0,0:0:0:0:
192,192,41900,128,0,41958:0:0:0:0:
320,192,41958,128,0,42073:0:0:0:0:
192,192,42073,128,0,42189:0:0:0:0:
448,192,42073,1,0,0:0:0:0:
320,192,42246,128,0,42304:0:0:0:0:
64,192,42304,128,0,42362:0:0:0:0:
448,192,42304,1,0,0:0:0:0:
192,192,42362,128,0,42420:0:0:0:0:
320,192,42477,128,0,42535:0:0:0:0:
448,192,42535,128,0,42593:0:0:0:0:
64,192,42535,1,0,0:0:0:0:
192,192,42708,128,0,42766:0:0:0:0:
320,192,42766,128,0,42881:0:0:0:0:
448,192,42766,1,0,0:0:0:0:
64,192,42881,128,0,42939:0:0:0:0:
448,192,42939,128,0,42996:0:0:0:0:
192,192,42939,1,0,0:0:0:0:
320,192,42996,128,0,43054:0:0:0:0:
64,192,42996,1,0,0:0:0:0:
448,192,43054,128,0,43112:0:0:0:0:
64,192,43112,128,0,43227:0:0:0:0:
192,192,43112,1,0,0:0:0:0:
320,192,43227,128,0,43343:0:0:0:0:
448,192,43227,1,0,0:0:0:0:
192,192,43343,128,0,43458:0:0:0:0:
448,192,43400,1,0,0:0:0:0:
64,192,43458,128,0,43516:0:0:0:0:
320,192,43458,1,0,0:0:0:0:
448,192,43516,128,0,43573:0:0:0:0:
192,192,43573,128,0,43631:0:0:0:0:
320,192,43573,1,0,0:0:0:0:
64,192,43631,128,0,43689:0:0:0:0:
448,192,43689,1,0,0:0:0:0:
192,192,43689,128,0,43746:0:0:0:0:
320,192,43746,1,0,0:0:0:0:
448,192,43804,128,0,43862:0:0:0:0:
64,192,43862,128,0,43920:0:0:0:0:
192,192,43920,128,0,43977:0:0:0:0:
448,192,43977,1,0,0:0:0:0:
320,192,44035,128,0,44093:0:0:0:0:
64,192,44035,128,0,44093:0:0:0:0:
448,192,44093,1,0,0:0:0:0:
192,192,44150,128,0,44208:0:0:0:0:
448,192,44208,128,0,44266:0:0:0:0:
320,192,44266,128,0,44323:0:0:0:0:
192,192,44323,1,0,0:0:0:0:
448,192,44381,128,0,44439:0:0:0:0:
64,192,44381,128,0,44439:0:0:0:0:
192,192,44439,1,0,0:0:0:0:
320,192,44496,128,0,44554:0:0:0:0:
64,192,44554,128,0,44612:0:0:0:0:
192,192,44612,128,0,44670:0:0:0:0:
448,192,44670,1,0,0:0:0:0:
320,192,44727,128,0,44785:0:0:0:0:
64,192,44727,128,0,44785:0:0:0:0:
192,192,44785,1,0,0:0:0:0:
448,192,44843,128,0,44900:0:0:0:0:
320,192,44900,128,0,45073:0:0:0:0:
192,192,44958,1,0,0:0:0:0:
448,192,45016,1,0,0:0:0:0:
192,192,45073,128,0,45131:0:0:0:0:
64,192,45073,1,0,0:0:0:0:
448,192,45131,128,0,45189:0:0:0:0:
192,192,45189,128,0,45246:0:0:0:0:
320,192,45189,1,0,0:0:0:0:
64,192,45246,1,0,0:0:0:0:
320,192,45304,128,0,45362:0:0:0:0:
448,192,45304,1,0,0:0:0:0:
192,192,45362,128,0,45420:0:0:0:0:
64,192,45420,1,0,0:0:0:0:
320,192,45477,1,0,0:0:0:0:
64,192,45535,128,0,45593:0:0:0:0:
320,192,45593,1,0,0:0:0:0:
192,192,45650,1,0,0:0:0:0:
192,192,45708,1,0,0:0:0:0:
64,192,45766,128,0,45823:0:0:0:0:
448,192,45881,1,0,0:0:0:0:
448,192,45939,1,0,0:0:0:0:
192,192,45996,128,0,46054:0:0:0:0:
64,192,46054,1,0,0:0:0:0:
448,192,46112,1,0,0:0:0:0:
448,192,46170,1,0,0:0:0:0:
320,192,46227,128,0,46285:0:0:0:0:
192,192,46285,1,0,0:0:0:0:
64,192,46343,1,0,0:0:0:0:
64,192,46400,1,0,0:0:0:0:
320,192,46458,1,0,0:0:0:0:
192,192,46458,128,0,46516:0:0:0:0:
448,192,46458,128,0,46516:0:0:0:0:
64,192,46516,1,0,0:0:0:0:
320,192,46573,1,0,0:0:0:0:
192,192,46631,1,0,0:0:0:0:
64,192,46631,128,0,46689:0:0:0:0:
320,192,46689,1,0,0:0:0:0:
448,192,46689,128,0,46746:0:0:0:0:
192,192,46746,1,0,0:0:0:0:
448,192,46804,1,0,0:0:0:0:
320,192,46804,128,0,46862:0:0:0:0:
64,192,46804,128,0,46862:0:0:0:0:
192,192,46862,1,0,0:0:0:0:
448,192,46920,1,0,0:0:0:0:
64,192,46920,128,0,46977:0:0:0:0:
448,192,46977,1,0,0:0:0:0:
320,192,47035,1,0,0:0:0:0:
64,192,47093,1,0,0:0:0:0:
192,192,47093,128,0,47150:0:0:0:0:
320,192,47150,1,0,0:0:0:0:
448,192,47150,128,0,47208:0:0:0:0:
64,192,47208,1,0,0:0:0:0:
192,192,47266,128,0,47323:0:0:0:0:
320,192,47266,128,0,47323:0:0:0:0:
448,192,47266,1,0,0:0:0:0:
192,192,47381,1,0,0:0:0:0:
64,192,47381,1,0,0:0:0:0:
448,192,47381,1,0,0:0:0:0:
320,192,47496,1,0,0:0:0:0:
320,192,47612,1,0,0:0:0:0:
320,192,47727,1,0,0:0:0:0:
320,192,47843,1,0,0:0:0:0:
320,192,47958,1,0,0:0:0:0:
320,192,48073,1,0,0:0:0:0:
320,192,48189,1,0,0:0:0:0:
320,192,48304,1,0,0:0:0:0:
320,192,48420,1,0,0:0:0:0:
320,192,48535,1,0,0:0:0:0:
320,192,48650,1,0,0:0:0:0:
192,192,48708,1,0,0:0:0:0:
64,192,48766,1,0,0:0:0:0:
320,192,48766,1,0,0:0:0:0:
448,192,48766,1,0,0:0:0:0:
320,192,48996,1,0,0:0:0:0:
192,192,48996,1,0,0:0:0:0:
64,192,48996,1,0,0:0:0:0:
64,192,49227,1,0,0:0:0:0:
448,192,49227,1,0,0:0:0:0:
192,192,49227,1,0,0:0:0:0:
320,192,49343,1,0,0:0:0:0:
320,192,49458,1,0,0:0:0:0:
320,192,49573,1,0,0:0:0:0:
320,192,49689,1,0,0:0:0:0:
320,192,49804,1,0,0:0:0:0:
320,192,49920,1,0,0:0:0:0:
320,192,50035,1,0,0:0:0:0:
448,192,50093,1,0,0:0:0:0:
320,192,50150,1,0,0:0:0:0:
64,192,50150,1,0,0:0:0:0:
192,192,50150,1,0,0:0:0:0:
448,192,50381,5,0,0:0:0:0:
192,192,50381,1,0,0:0:0:0:
64,192,50381,1,0,0:0:0:0:
448,192,50612,5,0,0:0:0:0:
192,192,50612,1,0,0:0:0:0:
320,192,50612,128,0,50670:0:0:0:0:
192,192,50785,128,0,50843:0:0:0:0:
320,192,50958,128,0,51016:0:0:0:0:
192,192,51016,128,0,51073:0:0:0:0:
448,192,51073,1,0,0:0:0:0:
320,192,51073,1,0,0:0:0:0:
64,192,51073,1,0,0:0:0:0:
192,192,51304,1,0,0:0:0:0:
64,192,51304,1,0,0:0:0:0:
320,192,51304,1,0,0:0:0:0:
320,192,51535,1,0,0:0:0:0:
448,192,51535,1,0,0:0:0:0:
64,192,51535,1,0,0:0:0:0:
192,192,51593,1,0,0:0:0:0:
320,192,51650,1,0,0:0:0:0:
448,192,51650,1,0,0:0:0:0:
192,192,51766,1,0,0:0:0:0:
64,192,51766,1,0,0:0:0:0:
320,192,51766,1,0,0:0:0:0:
448,192,51823,1,0,0:0:0:0:
320,192,51881,1,0,0:0:0:0:
192,192,51939,1,0,0:0:0:0:
64,192,51996,1,0,0:0:0:0:
320,192,51996,1,0,0:0:0:0:
448,192,51996,1,0,0:0:0:0:
192,192,52054,1,0,0:0:0:0:
320,192,52112,1,0,0:0:0:0:
448,192,52170,1,0,0:0:0:0:
320,192,52227,1,0,0:0:0:0:
192,192,52227,1,0,0:0:0:0:
64,192,52227,1,0,0:0:0:0:
448,192,52285,1,0,0:0:0:0:
320,192,52343,1,0,0:0:0:0:
192,192,52400,1,0,0:0:0:0:
64,192,52458,1,0,0:0:0:0:
320,192,52458,1,0,0:0:0:0:
448,192,52458,1,0,0:0:0:0:
192,192,52516,1,0,0:0:0:0:
320,192,52573,1,0,0:0:0:0:
192,192,52631,1,0,0:0:0:0:
64,192,52631,1,0,0:0:0:0:
320,192,52689,1,0,0:0:0:0:
448,192,52689,1,0,0:0:0:0:
192,192,52804,1,0,0:0:0:0:
64,192,52804,1,0,0:0:0:0:
448,192,52804,1,0,0:0:0:0:
320,192,52862,1,0,0:0:0:0:
192,192,52920,1,0,0:0:0:0:
64,192,52977,1,0,0:0:0:0:
448,192,53035,1,0,0:0:0:0:
320,192,53093,1,0,0:0:0:0:
192,192,53150,1,0,0:0:0:0:
64,192,53150,1,0,0:0:0:0:
448,192,53227,1,0,0:0:0:0:
320,192,53227,1,0,0:0:0:0:
192,192,53304,1,0,0:0:0:0:
64,192,53304,1,0,0:0:0:0:
320,192,53381,1,0,0:0:0:0:
448,192,53381,1,0,0:0:0:0:
192,192,53458,1,0,0:0:0:0:
64,192,53458,1,0,0:0:0:0:
320,192,53535,1,0,0:0:0:0:
448,192,53535,1,0,0:0:0:0:
192,192,53612,1,0,0:0:0:0:
64,192,53612,1,0,0:0:0:0:
320,192,53670,1,0,0:0:0:0:
448,192,53727,1,0,0:0:0:0:
64,192,53785,1,0,0:0:0:0:
320,192,53843,1,0,0:0:0:0:
448,192,53843,1,0,0:0:0:0:
192,192,53920,1,0,0:0:0:0:
64,192,53920,1,0,0:0:0:0:
320,192,53996,1,0,0:0:0:0:
448,192,53996,1,0,0:0:0:0:
192,192,54073,1,0,0:0:0:0:
64,192,54073,1,0,0:0:0:0:
320,192,54150,1,0,0:0:0:0:
448,192,54150,1,0,0:0:0:0:
192,192,54227,1,0,0:0:0:0:
64,192,54227,1,0,0:0:0:0:
320,192,54304,1,0,0:0:0:0:
448,192,54304,1,0,0:0:0:0:
192,192,54381,1,0,0:0:0:0:
64,192,54381,1,0,0:0:0:0:
320,192,54458,1,0,0:0:0:0:
448,192,54458,1,0,0:0:0:0:
192,192,54535,1,0,0:0:0:0:
64,192,54535,1,0,0:0:0:0:
320,192,54593,1,0,0:0:0:0:
448,192,54650,1,0,0:0:0:0:
64,192,54708,1,0,0:0:0:0:
192,192,54766,1,0,0:0:0:0:
448,192,54823,5,0,0:0:0:0:
320,192,54881,1,0,0:0:0:0:
192,192,54939,1,0,0:0:0:0:
64,192,54996,1,0,0:0:0:0:
320,192,55227,5,0,0:0:0:0:
448,192,55227,1,0,0:0:0:0:
192,192,55227,128,0,55343:0:0:0:0:
320,192,55343,128,0,55573:0:0:0:0:
64,192,55689,1,0,0:0:0:0:
192,192,55689,1,0,0:0:0:0:
448,192,55746,1,0,0:0:0:0:
320,192,55746,1,0,0:0:0:0:
192,192,55804,1,0,0:0:0:0:
64,192,55804,1,0,0:0:0:0:
320,192,55862,1,0,0:0:0:0:
448,192,55862,1,0,0:0:0:0:
192,192,56150,1,0,0:0:0:0:
64,192,56150,1,0,0:0:0:0:
320,192,56150,1,0,0:0:0:0:
448,192,56208,1,0,0:0:0:0:
320,192,56266,1,0,0:0:0:0:
64,192,56323,1,0,0:0:0:0:
192,192,56381,1,0,0:0:0:0:
448,192,56439,1,0,0:0:0:0:
320,192,56496,1,0,0:0:0:0:
64,192,56554,1,0,0:0:0:0:
192,192,56612,1,0,0:0:0:0:
320,192,56612,1,0,0:0:0:0:
448,192,56612,1,0,0:0:0:0:
64,192,56670,1,0,0:0:0:0:
192,192,56727,1,0,0:0:0:0:
320,192,56785,1,0,0:0:0:0:
448,192,56843,1,0,0:0:0:0:
192,192,56843,1,0,0:0:0:0:
64,192,56843,1,0,0:0:0:0:
320,192,56900,1,0,0:0:0:0:
192,192,56958,1,0,0:0:0:0:
64,192,57016,1,0,0:0:0:0:
320,192,57073,1,0,0:0:0:0:
448,192,57073,1,0,0:0:0:0:
192,192,57131,1,0,0:0:0:0:
320,192,57189,1,0,0:0:0:0:
192,192,57246,1,0,0:0:0:0:
64,192,57304,1,0,0:0:0:0:
320,192,57304,1,0,0:0:0:0:
448,192,57304,1,0,0:0:0:0:
192,192,57362,1,0,0:0:0:0:
320,192,57420,1,0,0:0:0:0:
448,192,57477,1,0,0:0:0:0:
192,192,57535,1,0,0:0:0:0:
64,192,57535,1,0,0:0:0:0:
320,192,57612,1,0,0:0:0:0:
448,192,57612,1,0,0:0:0:0:
192,192,57689,1,0,0:0:0:0:
64,192,57689,1,0,0:0:0:0:
320,192,57766,1,0,0:0:0:0:
448,192,57766,1,0,0:0:0:0:
192,192,57843,1,0,0:0:0:0:
64,192,57843,1,0,0:0:0:0:
320,192,57920,1,0,0:0:0:0:
448,192,57920,1,0,0:0:0:0:
192,192,57996,1,0,0:0:0:0:
64,192,57996,1,0,0:0:0:0:
320,192,58073,1,0,0:0:0:0:
448,192,58073,1,0,0:0:0:0:
192,192,58150,1,0,0:0:0:0:
64,192,58150,1,0,0:0:0:0:
320,192,58227,1,0,0:0:0:0:
448,192,58227,1,0,0:0:0:0:
192,192,58920,128,0,60189:0:0:0:0:
448,192,58920,128,0,60189:0:0:0:0:
64,192,58920,128,0,60189:0:0:0:0:
192,192,60304,128,0,61516:0:0:0:0:
448,192,60304,128,0,61516:0:0:0:0:
64,192,60304,128,0,61516:0:0:0:0:
320,192,61689,5,0,0:0:0:0:
192,192,61689,1,0,0:0:0:0:
64,192,61746,1,0,0:0:0:0:
448,192,61746,1,0,0:0:0:0:
320,192,61804,1,0,0:0:0:0:
192,192,61804,1,0,0:0:0:0:
64,192,61862,1,0,0:0:0:0:
320,192,61920,5,0,0:0:0:0:
448,192,61920,1,0,0:0:0:0:
192,192,61977,1,0,0:0:0:0:
64,192,61977,1,0,0:0:0:0:
320,192,62035,1,0,0:0:0:0:
448,192,62035,1,0,0:0:0:0:
192,192,62093,1,0,0:0:0:0:
64,192,62093,1,0,0:0:0:0:
320,192,62150,1,0,0:0:0:0:
448,192,62150,1,0,0:0:0:0:
192,192,62266,1,0,0:0:0:0:
64,192,62266,1,0,0:0:0:0:
192,192,62381,1,0,0:0:0:0:
320,192,62381,1,0,0:0:0:0:
64,192,62496,1,0,0:0:0:0:
320,192,62496,1,0,0:0:0:0:
448,192,62612,1,0,0:0:0:0:
64,192,62612,1,0,0:0:0:0:
320,192,62727,1,0,0:0:0:0:
448,192,62727,1,0,0:0:0:0:
320,192,62843,1,0,0:0:0:0:
192,192,62843,1,0,0:0:0:0:
192,192,62958,1,0,0:0:0:0:
64,192,62958,1,0,0:0:0:0:
64,192,63073,1,0,0:0:0:0:
320,192,63073,1,0,0:0:0:0:
448,192,63073,1,0,0:0:0:0:
320,192,63189,1,0,0:0:0:0:
192,192,63189,1,0,0:0:0:0:
64,192,63304,1,0,0:0:0:0:
448,192,63304,1,0,0:0:0:0:
192,192,63304,1,0,0:0:0:0:
320,192,63420,1,0,0:0:0:0:
448,192,63420,1,0,0:0:0:0:
192,192,63535,1,0,0:0:0:0:
64,192,63535,1,0,0:0:0:0:
320,192,63535,1,0,0:0:0:0:
448,192,63650,1,0,0:0:0:0:
64,192,63650,1,0,0:0:0:0:
320,192,63766,1,0,0:0:0:0:
448,192,63766,1,0,0:0:0:0:
192,192,63766,1,0,0:0:0:0:
192,192,63881,1,0,0:0:0:0:
64,192,63881,1,0,0:0:0:0:
64,192,63996,1,0,0:0:0:0:
320,192,63996,1,0,0:0:0:0:
448,192,63996,1,0,0:0:0:0:
320,192,64112,1,0,0:0:0:0:
192,192,64112,1,0,0:0:0:0:
192,192,64227,1,0,0:0:0:0:
64,192,64227,1,0,0:0:0:0:
448,192,64227,1,0,0:0:0:0:
320,192,64343,1,0,0:0:0:0:
448,192,64343,1,0,0:0:0:0:
320,192,64458,1,0,0:0:0:0:
192,192,64458,1,0,0:0:0:0:
64,192,64458,1,0,0:0:0:0:
448,192,64573,1,0,0:0:0:0:
64,192,64573,1,0,0:0:0:0:
320,192,64689,1,0,0:0:0:0:
448,192,64689,1,0,0:0:0:0:
192,192,64689,1,0,0:0:0:0:
320,192,64804,1,0,0:0:0:0:
192,192,64804,1,0,0:0:0:0:
192,192,64920,1,0,0:0:0:0:
64,192,64920,1,0,0:0:0:0:
448,192,64996,1,0,0:0:0:0:
320,192,64996,1,0,0:0:0:0:
192,192,65073,1,0,0:0:0:0:
64,192,65073,1,0,0:0:0:0:
320,192,65150,1,0,0:0:0:0:
448,192,65150,1,0,0:0:0:0:
192,192,65227,1,0,0:0:0:0:
64,192,65227,1,0,0:0:0:0:
320,192,65304,1,0,0:0:0:0:
448,192,65304,1,0,0:0:0:0:
192,192,65381,1,0,0:0:0:0:
64,192,65381,1,0,0:0:0:0:
320,192,65458,5,0,0:0:0:0:
448,192,65458,1,0,0:0:0:0:
192,192,65535,1,0,0:0:0:0:
64,192,65535,1,0,0:0:0:0:
320,192,65612,1,0,0:0:0:0:
448,192,65612,1,0,0:0:0:0:
192,192,65689,1,0,0:0:0:0:
64,192,65689,1,0,0:0:0:0:
320,192,65766,1,0,0:0:0:0:
448,192,65766,1,0,0:0:0:0:
64,192,65843,128,0,66016:0:0:0:0:
64,192,66189,128,0,66362:0:0:0:0:
64,192,66535,128,0,66708:0:0:0:0:
320,192,66766,1,0,0:0:0:0:
448,192,66766,1,0,0:0:0:0:
192,192,66823,128,0,66881:0:0:0:0:
64,192,66881,128,0,66939:0:0:0:0:
320,192,66939,128,0,66996:0:0:0:0:
448,192,66996,128,0,67054:0:0:0:0:
192,192,66996,1,0,0:0:0:0:
64,192,67054,128,0,67112:0:0:0:0:
320,192,67112,128,0,67227:0:0:0:0:
64,192,67227,128,0,67343:0:0:0:0:
448,192,67227,1,0,0:0:0:0:
192,192,67343,128,0,67458:0:0:0:0:
320,192,67458,128,0,67631:0:0:0:0:
448,192,67458,1,0,0:0:0:0:
192,192,67689,1,0,0:0:0:0:
448,192,67689,128,0,67746:0:0:0:0:
64,192,67689,128,0,67746:0:0:0:0:
320,192,67746,1,0,0:0:0:0:
192,192,67804,1,0,0:0:0:0:
192,192,67862,1,0,0:0:0:0:
64,192,67920,1,0,0:0:0:0:
320,192,67977,1,0,0:0:0:0:
448,192,68035,1,0,0:0:0:0:
64,192,68035,128,0,68093:0:0:0:0:
192,192,68035,128,0,68093:0:0:0:0:
320,192,68093,1,0,0:0:0:0:
448,192,68150,1,0,0:0:0:0:
448,192,68208,1,0,0:0:0:0:
320,192,68266,1,0,0:0:0:0:
192,192,68323,1,0,0:0:0:0:
320,192,68381,1,0,0:0:0:0:
448,192,68381,128,0,68439:0:0:0:0:
64,192,68381,128,0,68439:0:0:0:0:
192,192,68439,1,0,0:0:0:0:
320,192,68496,1,0,0:0:0:0:
64,192,68554,1,0,0:0:0:0:
192,192,68612,1,0,0:0:0:0:
448,192,68670,1,0,0:0:0:0:
64,192,68727,1,0,0:0:0:0:
64,192,68785,1,0,0:0:0:0:
320,192,68843,1,0,0:0:0:0:
192,192,68843,128,0,68900:0:0:0:0:
448,192,68900,1,0,0:0:0:0:
320,192,68958,1,0,0:0:0:0:
320,192,69016,1,0,0:0:0:0:
192,192,69073,1,0,0:0:0:0:
448,192,69073,128,0,69131:0:0:0:0:
64,192,69073,128,0,69131:0:0:0:0:
320,192,69131,1,0,0:0:0:0:
192,192,69189,1,0,0:0:0:0:
64,192,69246,1,0,0:0:0:0:
320,192,69304,1,0,0:0:0:0:
448,192,69304,1,0,0:0:0:0:
192,192,69362,1,0,0:0:0:0:
64,192,69362,1,0,0:0:0:0:
320,192,69420,1,0,0:0:0:0:
448,192,69420,1,0,0:0:0:0:
192,192,69477,1,0,0:0:0:0:
64,192,69477,1,0,0:0:0:0:
320,192,69535,1,0,0:0:0:0:
448,192,69535,1,0,0:0:0:0:
192,192,69593,1,0,0:0:0:0:
320,192,69650,1,0,0:0:0:0:
64,192,69708,1,0,0:0:0:0:
192,192,69766,1,0,0:0:0:0:
448,192,69766,1,0,0:0:0:0:
320,192,69823,1,0,0:0:0:0:
448,192,69881,1,0,0:0:0:0:
64,192,69939,1,0,0:0:0:0:
192,192,69996,1,0,0:0:0:0:
320,192,69996,1,0,0:0:0:0:
448,192,70054,1,0,0:0:0:0:
320,192,70112,1,0,0:0:0:0:
192,192,70170,1,0,0:0:0:0:
64,192,70170,1,0,0:0:0:0:
320,192,70227,1,0,0:0:0:0:
448,192,70227,1,0,0:0:0:0:
192,192,70285,1,0,0:0:0:0:
64,192,70343,1,0,0:0:0:0:
320,192,70343,1,0,0:0:0:0:
448,192,70400,1,0,0:0:0:0:
192,192,70458,1,0,0:0:0:0:
64,192,70458,1,0,0:0:0:0:
320,192,70516,1,0,0:0:0:0:
448,192,70573,1,0,0:0:0:0:
192,192,70631,1,0,0:0:0:0:
320,192,70689,1,0,0:0:0:0:
64,192,70689,1,0,0:0:0:0:
448,192,70746,1,0,0:0:0:0:
320,192,70804,1,0,0:0:0:0:
192,192,70862,1,0,0:0:0:0:
64,192,70920,1,0,0:0:0:0:
320,192,70920,1,0,0:0:0:0:
448,192,70977,1,0,0:0:0:0:
192,192,71035,1,0,0:0:0:0:
64,192,71093,1,0,0:0:0:0:
320,192,71093,1,0,0:0:0:0:
448,192,71150,1,0,0:0:0:0:
192,192,71150,1,0,0:0:0:0:
320,192,71208,1,0,0:0:0:0:
192,192,71266,1,0,0:0:0:0:
64,192,71266,1,0,0:0:0:0:
320,192,71323,1,0,0:0:0:0:
448,192,71381,1,0,0:0:0:0:
64,192,71381,1,0,0:0:0:0:
192,192,71439,1,0,0:0:0:0:
448,192,71496,1,0,0:0:0:0:
320,192,71554,1,0,0:0:0:0:
192,192,71612,1,0,0:0:0:0:
64,192,71612,1,0,0:0:0:0:
320,192,71670,1,0,0:0:0:0:
448,192,71727,1,0,0:0:0:0:
64,192,71785,1,0,0:0:0:0:
192,192,71843,1,0,0:0:0:0:
320,192,71843,1,0,0:0:0:0:
448,192,71900,1,0,0:0:0:0:
320,192,71958,1,0,0:0:0:0:
192,192,72016,1,0,0:0:0:0:
64,192,72016,1,0,0:0:0:0:
448,192,72073,1,0,0:0:0:0:
320,192,72073,1,0,0:0:0:0:
192,192,72131,1,0,0:0:0:0:
64,192,72189,1,0,0:0:0:0:
320,192,72189,1,0,0:0:0:0:
448,192,72246,1,0,0:0:0:0:
192,192,72304,1,0,0:0:0:0:
64,192,72304,1,0,0:0:0:0:
320,192,72362,1,0,0:0:0:0:
448,192,72420,1,0,0:0:0:0:
192,192,72477,1,0,0:0:0:0:
64,192,72477,1,0,0:0:0:0:
320,192,72535,1,0,0:0:0:0:
448,192,72535,1,0,0:0:0:0:
192,192,72593,1,0,0:0:0:0:
64,192,72650,1,0,0:0:0:0:
320,192,72650,1,0,0:0:0:0:
448,192,72708,1,0,0:0:0:0:
192,192,72766,1,0,0:0:0:0:
64,192,72766,1,0,0:0:0:0:
320,192,72823,5,0,0:0:0:0:
448,192,72881,1,0,0:0:0:0:
64,192,72939,1,0,0:0:0:0:
192,192,72939,1,0,0:0:0:0:
320,192,72996,1,0,0:0:0:0:
448,192,72996,1,0,0:0:0:0:
192,192,73054,1,0,0:0:0:0:
64,192,73112,1,0,0:0:0:0:
320,192,73112,1,0,0:0:0:0:
448,192,73170,1,0,0:0:0:0:
320,192,73227,5,0,0:0:0:0:
192,192,73227,1,0,0:0:0:0:
64,192,73343,1,0,0:0:0:0:
192,192,73343,1,0,0:0:0:0:
64,192,73458,1,0,0:0:0:0:
448,192,73458,1,0,0:0:0:0:
320,192,73573,128,0,73689:0:0:0:0:
448,192,73689,128,0,73746:0:0:0:0:
192,192,73746,128,0,73804:0:0:0:0:
320,192,73804,128,0,73920:0:0:0:0:
64,192,73920,128,0,73977:0:0:0:0:
192,192,73977,128,0,74035:0:0:0:0:
320,192,74035,128,0,74150:0:0:0:0:
192,192,74150,1,0,0:0:0:0:
64,192,74208,1,0,0:0:0:0:
448,192,74266,1,0,0:0:0:0:
320,192,74323,1,0,0:0:0:0:
64,192,74381,1,0,0:0:0:0:
320,192,74496,128,0,74612:0:0:0:0:
448,192,74612,128,0,74670:0:0:0:0:
192,192,74670,128,0,74727:0:0:0:0:
64,192,74727,1,0,0:0:0:0:
320,192,74727,1,0,0:0:0:0:
192,192,74843,1,0,0:0:0:0:
64,192,74843,1,0,0:0:0:0:
320,192,74900,1,0,0:0:0:0:
448,192,74900,1,0,0:0:0:0:
192,192,74958,1,0,0:0:0:0:
64,192,74958,1,0,0:0:0:0:
320,192,75016,1,0,0:0:0:0:
448,192,75016,1,0,0:0:0:0:
64,192,75073,1,0,0:0:0:0:
192,192,75073,128,0,75131:0:0:0:0:
320,192,75131,1,0,0:0:0:0:
64,192,75189,1,0,0:0:0:0:
320,192,75246,1,0,0:0:0:0:
448,192,75246,128,0,75304:0:0:0:0:
192,192,75304,1,0,0:0:0:0:
64,192,75304,128,0,75362:0:0:0:0:
320,192,75362,1,0,0:0:0:0:
64,192,75420,1,0,0:0:0:0:
192,192,75420,128,0,75477:0:0:0:0:
448,192,75420,128,0,75477:0:0:0:0:
320,192,75477,1,0,0:0:0:0:
192,192,75535,1,0,0:0:0:0:
64,192,75535,128,0,75593:0:0:0:0:
448,192,75593,1,0,0:0:0:0:
192,192,75650,1,0,0:0:0:0:
320,192,75708,1,0,0:0:0:0:
448,192,75708,128,0,75766:0:0:0:0:
64,192,75766,1,0,0:0:0:0:
192,192,75766,128,0,75823:0:0:0:0:
320,192,75823,1,0,0:0:0:0:
64,192,75881,1,0,0:0:0:0:
448,192,75881,128,0,75939:0:0:0:0:
192,192,75939,1,0,0:0:0:0:
64,192,75996,1,0,0:0:0:0:
448,192,75996,1,0,0:0:0:0:
320,192,75996,128,0,76054:0:0:0:0:
192,192,76054,1,0,0:0:0:0:
192,192,76112,1,0,0:0:0:0:
320,192,76170,1,0,0:0:0:0:
448,192,76170,128,0,76227:0:0:0:0:
192,192,76227,1,0,0:0:0:0:
64,192,76227,128,0,76285:0:0:0:0:
320,192,76285,1,0,0:0:0:0:
64,192,76343,1,0,0:0:0:0:
192,192,76343,128,0,76400:0:0:0:0:
448,192,76343,128,0,76400:0:0:0:0:
320,192,76400,1,0,0:0:0:0:
192,192,76458,1,0,0:0:0:0:
64,192,76458,128,0,76516:0:0:0:0:
448,192,76516,1,0,0:0:0:0:
192,192,76573,1,0,0:0:0:0:
320,192,76631,1,0,0:0:0:0:
448,192,76631,128,0,76689:0:0:0:0:
64,192,76689,1,0,0:0:0:0:
192,192,76689,128,0,76746:0:0:0:0:
320,192,76746,1,0,0:0:0:0:
192,192,76804,1,0,0:0:0:0:
64,192,76804,128,0,76862:0:0:0:0:
448,192,76804,128,0,76862:0:0:0:0:
320,192,76862,1,0,0:0:0:0:
192,192,76920,1,0,0:0:0:0:
448,192,77047,1,0,0:0:0:0:
192,192,77176,1,0,0:0:0:0:
320,192,77304,1,0,0:0:0:0:
64,192,77432,1,0,0:0:0:0:
448,192,77560,1,0,0:0:0:0:
320,192,77689,1,0,0:0:0:0:
192,192,77816,1,0,0:0:0:0:
320,192,77958,1,0,0:0:0:0:
448,192,77958,1,0,0:0:0:0:
192,192,78024,1,0,0:0:0:0:
64,192,78091,1,0,0:0:0:0:
448,192,78158,1,0,0:0:0:0:
192,192,78224,1,0,0:0:0:0:
64,192,78224,1,0,0:0:0:0:
320,192,78224,1,0,0:0:0:0:
192,192,78491,1,0,0:0:0:0:
320,192,78491,1,0,0:0:0:0:
448,192,78491,1,0,0:0:0:0:
64,192,78558,1,0,0:0:0:0:
192,192,78625,1,0,0:0:0:0:
448,192,78758,1,0,0:0:0:0:
320,192,78825,1,0,0:0:0:0:
192,192,78891,1,0,0:0:0:0:
64,192,78958,1,0,0:0:0:0:
320,192,79025,1,0,0:0:0:0:
448,192,79091,1,0,0:0:0:0:
64,192,79158,1,0,0:0:0:0:
192,192,79225,1,0,0:0:0:0:
448,192,79292,1,0,0:0:0:0:
320,192,79358,1,0,0:0:0:0:
192,192,79425,1,0,0:0:0:0:
64,192,79492,1,0,0:0:0:0:
320,192,79558,1,0,0:0:0:0:
448,192,79625,1,0,0:0:0:0:
192,192,79692,1,0,0:0:0:0:
320,192,79759,1,0,0:0:0:0:
448,192,79825,1,0,0:0:0:0:
64,192,79892,1,0,0:0:0:0:
192,192,79959,1,0,0:0:0:0:
320,192,80025,1,0,0:0:0:0:
64,192,80092,1,0,0:0:0:0:
448,192,80159,1,0,0:0:0:0:
320,192,80225,1,0,0:0:0:0:
192,192,80292,1,0,0:0:0:0:
64,192,80359,1,0,0:0:0:0:
320,192,80426,1,0,0:0:0:0:
448,192,80492,1,0,0:0:0:0:
64,192,80559,1,0,0:0:0:0:
192,192,80626,1,0,0:0:0:0:
320,192,80685,1,0,0:0:0:0:
448,192,80743,1,0,0:0:0:0:
64,192,80800,1,0,0:0:0:0:
192,192,80850,128,0,80916:0:0:0:0:
448,192,80850,128,0,80916:0:0:0:0:
320,192,80981,128,0,81046:0:0:0:0:
64,192,80981,128,0,81046:0:0:0:0:
64,192,81112,1,0,0:0:0:0:
192,192,81112,128,0,81178:0:0:0:0:
448,192,81112,128,0,81178:0:0:0:0:
320,192,81178,1,0,0:0:0:0:
64,192,81243,1,0,0:0:0:0:
320,192,81309,1,0,0:0:0:0:
192,192,81374,1,0,0:0:0:0:
64,192,81374,128,0,81440:0:0:0:0:
448,192,81374,128,0,81440:0:0:0:0:
320,192,81440,1,0,0:0:0:0:
192,192,81506,1,0,0:0:0:0:
192,192,81571,1,0,0:0:0:0:
64,192,81636,1,0,0:0:0:0:
448,192,81636,128,0,81702:0:0:0:0:
320,192,81636,128,0,81702:0:0:0:0:
192,192,81702,1,0,0:0:0:0:
64,192,81768,1,0,0:0:0:0:
192,192,81833,1,0,0:0:0:0:
320,192,81899,1,0,0:0:0:0:
64,192,81899,128,0,81964:0:0:0:0:
448,192,81899,128,0,81964:0:0:0:0:
192,192,81964,1,0,0:0:0:0:
320,192,82030,1,0,0:0:0:0:
320,192,82096,1,0,0:0:0:0:
64,192,82161,1,0,0:0:0:0:
192,192,82161,128,0,82226:0:0:0:0:
448,192,82161,128,0,82226:0:0:0:0:
320,192,82226,1,0,0:0:0:0:
64,192,82293,1,0,0:0:0:0:
64,192,82358,1,0,0:0:0:0:
192,192,82423,1,0,0:0:0:0:
320,192,82423,128,0,82489:0:0:0:0:
448,192,82423,128,0,82489:0:0:0:0:
64,192,82489,1,0,0:0:0:0:
192,192,82554,1,0,0:0:0:0:
320,192,82620,1,0,0:0:0:0:
448,192,82686,1,0,0:0:0:0:
64,192,82686,128,0,82751:0:0:0:0:
192,192,82686,128,0,82751:0:0:0:0:
320,192,82751,1,0,0:0:0:0:
448,192,82816,1,0,0:0:0:0:
448,192,82883,1,0,0:0:0:0:
320,192,82948,1,0,0:0:0:0:
192,192,82948,128,0,83013:0:0:0:0:
64,192,82948,128,0,83013:0:0:0:0:
448,192,83013,1,0,0:0:0:0:
320,192,83079,1,0,0:0:0:0:
320,192,83144,1,0,0:0:0:0:
64,192,83210,1,0,0:0:0:0:
192,192,83243,1,0,0:0:0:0:
320,192,83276,1,0,0:0:0:0:
448,192,83309,1,0,0:0:0:0:
192,192,83341,1,0,0:0:0:0:
64,192,83406,1,0,0:0:0:0:
320,192,83473,1,0,0:0:0:0:
192,192,83473,128,0,83538:0:0:0:0:
448,192,83473,128,0,83538:0:0:0:0:
64,192,83538,1,0,0:0:0:0:
320,192,83603,1,0,0:0:0:0:
320,192,83669,1,0,0:0:0:0:
448,192,83735,1,0,0:0:0:0:
64,192,83735,128,0,83800:0:0:0:0:
192,192,83735,128,0,83800:0:0:0:0:
320,192,83800,1,0,0:0:0:0:
448,192,83866,1,0,0:0:0:0:
320,192,83931,1,0,0:0:0:0:
192,192,83996,1,0,0:0:0:0:
64,192,83996,128,0,84063:0:0:0:0:
448,192,83996,128,0,84063:0:0:0:0:
320,192,84063,1,0,0:0:0:0:
320,192,84128,1,0,0:0:0:0:
192,192,84193,1,0,0:0:0:0:
64,192,84259,1,0,0:0:0:0:
448,192,84259,128,0,84325:0:0:0:0:
320,192,84259,128,0,84325:0:0:0:0:
192,192,84325,1,0,0:0:0:0:
64,192,84390,1,0,0:0:0:0:
64,192,84456,1,0,0:0:0:0:
192,192,84521,1,0,0:0:0:0:
320,192,84521,128,0,84586:0:0:0:0:
448,192,84521,128,0,84586:0:0:0:0:
64,192,84586,1,0,0:0:0:0:
192,192,84653,1,0,0:0:0:0:
192,192,84718,1,0,0:0:0:0:
448,192,84783,1,0,0:0:0:0:
320,192,84849,1,0,0:0:0:0:
320,192,84915,1,0,0:0:0:0:
64,192,84915,1,0,0:0:0:0:
192,192,84980,1,0,0:0:0:0:
64,192,85046,1,0,0:0:0:0:
448,192,85046,1,0,0:0:0:0:
320,192,85111,1,0,0:0:0:0:
192,192,85111,1,0,0:0:0:0:
448,192,85177,1,0,0:0:0:0:
448,192,85243,1,0,0:0:0:0:
320,192,85308,1,0,0:0:0:0:
192,192,85352,1,0,0:0:0:0:
64,192,85390,1,0,0:0:0:0:
448,192,85439,1,0,0:0:0:0:
320,192,85483,1,0,0:0:0:0:
192,192,85570,1,0,0:0:0:0:
64,192,85570,1,0,0:0:0:0:
192,192,85636,1,0,0:0:0:0:
320,192,85701,1,0,0:0:0:0:
448,192,85701,128,0,85767:0:0:0:0:
192,192,85767,1,0,0:0:0:0:
64,192,85833,1,0,0:0:0:0:
320,192,85833,128,0,85898:0:0:0:0:
64,192,85898,1,0,0:0:0:0:
320,192,85963,1,0,0:0:0:0:
192,192,85963,128,0,86029:0:0:0:0:
448,192,86029,1,0,0:0:0:0:
320,192,86095,1,0,0:0:0:0:
64,192,86095,128,0,86160:0:0:0:0:
320,192,86160,1,0,0:0:0:0:
448,192,86226,1,0,0:0:0:0:
192,192,86226,128,0,86291:0:0:0:0:
64,192,86291,1,0,0:0:0:0:
448,192,86357,1,0,0:0:0:0:
320,192,86357,1,0,0:0:0:0:
448,192,86423,1,0,0:0:0:0:
192,192,86488,1,0,0:0:0:0:
64,192,86488,128,0,86553:0:0:0:0:
320,192,86553,1,0,0:0:0:0:
192,192,86620,1,0,0:0:0:0:
448,192,86620,128,0,86685:0:0:0:0:
192,192,86685,1,0,0:0:0:0:
320,192,86750,1,0,0:0:0:0:
64,192,86750,128,0,86816:0:0:0:0:
448,192,86816,1,0,0:0:0:0:
320,192,86881,1,0,0:0:0:0:
192,192,86881,1,0,0:0:0:0:
320,192,86947,1,0,0:0:0:0:
192,192,87013,1,0,0:0:0:0:
64,192,87013,128,0,87078:0:0:0:0:
320,192,87078,1,0,0:0:0:0:
448,192,87143,1,0,0:0:0:0:
192,192,87143,128,0,87210:0:0:0:0:
448,192,87210,1,0,0:0:0:0:
64,192,87275,1,0,0:0:0:0:
192,192,87275,1,0,0:0:0:0:
320,192,87340,1,0,0:0:0:0:
448,192,87340,1,0,0:0:0:0:
64,192,87406,1,0,0:0:0:0:
192,192,87406,128,0,87471:0:0:0:0:
320,192,87471,1,0,0:0:0:0:
64,192,87537,1,0,0:0:0:0:
448,192,87537,128,0,87603:0:0:0:0:
64,192,87603,1,0,0:0:0:0:
320,192,87668,1,0,0:0:0:0:
192,192,87668,128,0,87733:0:0:0:0:
448,192,87733,1,0,0:0:0:0:
320,192,87800,1,0,0:0:0:0:
64,192,87800,128,0,87865:0:0:0:0:
320,192,87865,1,0,0:0:0:0:
64,192,87930,1,0,0:0:0:0:
448,192,87930,128,0,87996:0:0:0:0:
320,192,87996,1,0,0:0:0:0:
192,192,88062,1,0,0:0:0:0:
64,192,88062,1,0,0:0:0:0:
192,192,88127,1,0,0:0:0:0:
448,192,88193,1,0,0:0:0:0:
320,192,88193,128,0,88258:0:0:0:0:
192,192,88258,1,0,0:0:0:0:
64,192,88323,1,0,0:0:0:0:
448,192,88323,128,0,88390:0:0:0:0:
64,192,88390,1,0,0:0:0:0:
320,192,88455,1,0,0:0:0:0:
192,192,88455,128,0,88520:0:0:0:0:
448,192,88520,1,0,0:0:0:0:
192,192,88586,1,0,0:0:0:0:
64,192,88586,1,0,0:0:0:0:
448,192,88652,1,0,0:0:0:0:
320,192,88652,1,0,0:0:0:0:
192,192,88717,1,0,0:0:0:0:
64,192,88717,1,0,0:0:0:0:
320,192,88783,1,0,0:0:0:0:
448,192,88848,1,0,0:0:0:0:
192,192,88913,1,0,0:0:0:0:
448,192,88980,1,0,0:0:0:0:
320,192,88980,1,0,0:0:0:0:
192,192,89045,1,0,0:0:0:0:
64,192,89045,1,0,0:0:0:0:
320,192,89110,1,0,0:0:0:0:
192,192,89176,1,0,0:0:0:0:
64,192,89176,1,0,0:0:0:0:
320,192,89242,1,0,0:0:0:0:
448,192,89242,1,0,0:0:0:0:
192,192,89307,1,0,0:0:0:0:
64,192,89307,1,0,0:0:0:0:
320,192,89373,1,0,0:0:0:0:
448,192,89438,1,0,0:0:0:0:
192,192,89504,5,0,0:0:0:0:
64,192,89504,1,0,0:0:0:0:
192,192,89570,1,0,0:0:0:0:
320,192,89635,1,0,0:0:0:0:
192,192,89700,1,0,0:0:0:0:
64,192,89700,128,0,89766:0:0:0:0:
448,192,89766,1,0,0:0:0:0:
320,192,89766,128,0,89832:0:0:0:0:
192,192,89832,1,0,0:0:0:0:
64,192,89897,1,0,0:0:0:0:
448,192,89897,128,0,89963:0:0:0:0:
64,192,89963,1,0,0:0:0:0:
192,192,90028,1,0,0:0:0:0:
320,192,90028,128,0,90094:0:0:0:0:
64,192,90094,1,0,0:0:0:0:
192,192,90160,1,0,0:0:0:0:
320,192,90225,1,0,0:0:0:0:
448,192,90225,128,0,90290:0:0:0:0:
192,192,90290,1,0,0:0:0:0:
64,192,90290,128,0,90356:0:0:0:0:
320,192,90356,1,0,0:0:0:0:
448,192,90422,1,0,0:0:0:0:
192,192,90422,128,0,90487:0:0:0:0:
448,192,90487,1,0,0:0:0:0:
64,192,90553,5,0,0:0:0:0:
320,192,90553,1,0,0:0:0:0:
192,192,90553,1,0,0:0:0:0:
192,192,90684,1,0,0:0:0:0:
64,192,90684,1,0,0:0:0:0:
320,192,90750,1,0,0:0:0:0:
448,192,90750,1,0,0:0:0:0:
192,192,90815,1,0,0:0:0:0:
64,192,90815,1,0,0:0:0:0:
320,192,90946,1,0,0:0:0:0:
448,192,90946,1,0,0:0:0:0:
64,192,90946,1,0,0:0:0:0:
192,192,91077,1,0,0:0:0:0:
64,192,91077,1,0,0:0:0:0:
448,192,91077,1,0,0:0:0:0:
320,192,91208,1,0,0:0:0:0:
448,192,91208,1,0,0:0:0:0:
192,192,91274,1,0,0:0:0:0:
64,192,91274,1,0,0:0:0:0:
320,192,91340,1,0,0:0:0:0:
448,192,91340,1,0,0:0:0:0:
64,192,91470,1,0,0:0:0:0:
192,192,91470,1,0,0:0:0:0:
320,192,91536,1,0,0:0:0:0:
448,192,91536,1,0,0:0:0:0:
192,192,91602,1,0,0:0:0:0:
64,192,91602,1,0,0:0:0:0:
192,192,91667,1,0,0:0:0:0:
64,192,91733,1,0,0:0:0:0:
320,192,91798,1,0,0:0:0:0:
448,192,91798,128,0,91864:0:0:0:0:
64,192,91864,1,0,0:0:0:0:
192,192,91864,128,0,91930:0:0:0:0:
320,192,91930,1,0,0:0:0:0:
448,192,91995,1,0,0:0:0:0:
64,192,91995,128,0,92060:0:0:0:0:
448,192,92060,1,0,0:0:0:0:
192,192,92126,1,0,0:0:0:0:
64,192,92126,128,0,92192:0:0:0:0:
320,192,92126,128,0,92192:0:0:0:0:
448,192,92192,1,0,0:0:0:0:
192,192,92257,1,0,0:0:0:0:
320,192,92323,1,0,0:0:0:0:
448,192,92323,128,0,92389:0:0:0:0:
64,192,92389,1,0,0:0:0:0:
192,192,92389,128,0,92454:0:0:0:0:
320,192,92454,1,0,0:0:0:0:
448,192,92520,128,0,92585:0:0:0:0:
64,192,92520,1,0,0:0:0:0:
192,192,92520,128,0,92585:0:0:0:0:
320,192,92585,1,0,0:0:0:0:
64,192,92650,128,0,92782:0:0:0:0:
448,192,92650,1,0,0:0:0:0:
448,192,92847,128,0,92913:0:0:0:0:
192,192,92847,1,0,0:0:0:0:
320,192,92913,128,0,92979:0:0:0:0:
64,192,92913,1,0,0:0:0:0:
64,192,93044,1,0,0:0:0:0:
448,192,93044,1,0,0:0:0:0:
192,192,93110,128,0,93175:0:0:0:0:
320,192,93175,128,0,93240:0:0:0:0:
448,192,93175,1,0,0:0:0:0:
64,192,93240,1,0,0:0:0:0:
320,192,93306,128,0,93372:0:0:0:0:
192,192,93372,1,0,0:0:0:0:
64,192,93372,1,0,0:0:0:0:
320,192,93437,128,0,93634:0:0:0:0:
448,192,93437,1,0,0:0:0:0:
192,192,93503,1,0,0:0:0:0:
64,192,93503,1,0,0:0:0:0:
192,192,93700,128,0,93831:0:0:0:0:
320,192,93896,1,0,0:0:0:0:
448,192,93896,128,0,93962:0:0:0:0:
64,192,93962,1,0,0:0:0:0:
192,192,93962,128,0,94027:0:0:0:0:
320,192,94027,1,0,0:0:0:0:
448,192,94093,1,0,0:0:0:0:
64,192,94093,128,0,94159:0:0:0:0:
448,192,94159,1,0,0:0:0:0:
192,192,94224,1,0,0:0:0:0:
320,192,94224,128,0,94290:0:0:0:0:
64,192,94224,128,0,94290:0:0:0:0:
448,192,94290,1,0,0:0:0:0:
320,192,94355,1,0,0:0:0:0:
192,192,94421,1,0,0:0:0:0:
64,192,94421,128,0,94486:0:0:0:0:
448,192,94486,1,0,0:0:0:0:
320,192,94486,128,0,94552:0:0:0:0:
192,192,94552,1,0,0:0:0:0:
64,192,94617,1,0,0:0:0:0:
448,192,94617,128,0,94683:0:0:0:0:
64,192,94683,1,0,0:0:0:0:
448,192,94749,1,0,0:0:0:0:
320,192,94749,1,0,0:0:0:0:
192,192,94814,1,0,0:0:0:0:
64,192,94880,1,0,0:0:0:0:
320,192,94945,1,0,0:0:0:0:
448,192,94945,1,0,0:0:0:0:
192,192,95011,1,0,0:0:0:0:
64,192,95011,1,0,0:0:0:0:
320,192,95076,1,0,0:0:0:0:
448,192,95142,1,0,0:0:0:0:
64,192,95142,1,0,0:0:0:0:
192,192,95207,1,0,0:0:0:0:
320,192,95273,1,0,0:0:0:0:
448,192,95273,1,0,0:0:0:0:
192,192,95339,1,0,0:0:0:0:
64,192,95339,1,0,0:0:0:0:
320,192,95404,1,0,0:0:0:0:
448,192,95470,1,0,0:0:0:0:
64,192,95470,1,0,0:0:0:0:
192,192,95535,1,0,0:0:0:0:
320,192,95535,1,0,0:0:0:0:
448,192,95601,1,0,0:0:0:0:
192,192,95666,1,0,0:0:0:0:
64,192,95666,1,0,0:0:0:0:
320,192,95732,1,0,0:0:0:0:
64,192,95797,1,0,0:0:0:0:
448,192,95797,128,0,95863:0:0:0:0:
192,192,95797,128,0,95863:0:0:0:0:
320,192,95863,1,0,0:0:0:0:
64,192,95929,1,0,0:0:0:0:
320,192,95994,1,0,0:0:0:0:
448,192,95994,128,0,96060:0:0:0:0:
64,192,96060,1,0,0:0:0:0:
192,192,96060,128,0,96125:0:0:0:0:
320,192,96125,1,0,0:0:0:0:
192,192,96191,1,0,0:0:0:0:
448,192,96191,128,0,96256:0:0:0:0:
64,192,96191,128,0,96256:0:0:0:0:
320,192,96256,1,0,0:0:0:0:
192,192,96322,1,0,0:0:0:0:
64,192,96322,1,0,0:0:0:0:
192,192,96387,1,0,0:0:0:0:
320,192,96453,1,0,0:0:0:0:
64,192,96519,1,0,0:0:0:0:
192,192,96519,128,0,96584:0:0:0:0:
448,192,96584,1,0,0:0:0:0:
320,192,96584,128,0,96650:0:0:0:0:
64,192,96650,1,0,0:0:0:0:
448,192,96714,1,0,0:0:0:0:
192,192,96714,128,0,96780:0:0:0:0:
448,192,96780,1,0,0:0:0:0:
320,192,96846,128,0,96912:0:0:0:0:
64,192,96846,128,0,96912:0:0:0:0:
192,192,96912,1,0,0:0:0:0:
448,192,96977,1,0,0:0:0:0:
320,192,96977,128,0,97042:0:0:0:0:
192,192,97042,1,0,0:0:0:0:
64,192,97042,128,0,97107:0:0:0:0:
320,192,97107,1,0,0:0:0:0:
448,192,97107,128,0,97173:0:0:0:0:
192,192,97173,1,0,0:0:0:0:
320,192,97240,1,0,0:0:0:0:
64,192,97240,128,0,97304:0:0:0:0:
320,192,97304,1,0,0:0:0:0:
448,192,97371,1,0,0:0:0:0:
64,192,97371,1,0,0:0:0:0:
192,192,97436,1,0,0:0:0:0:
320,192,97436,1,0,0:0:0:0:
64,192,97502,1,0,0:0:0:0:
448,192,97502,1,0,0:0:0:0:
192,192,97567,1,0,0:0:0:0:
448,192,97633,1,0,0:0:0:0:
320,192,97633,1,0,0:0:0:0:
192,192,97699,1,0,0:0:0:0:
64,192,97699,1,0,0:0:0:0:
320,192,97764,1,0,0:0:0:0:
448,192,97764,1,0,0:0:0:0:
192,192,97830,1,0,0:0:0:0:
64,192,97830,1,0,0:0:0:0:
320,192,97896,1,0,0:0:0:0:
448,192,97896,1,0,0:0:0:0:
192,192,97961,1,0,0:0:0:0:
320,192,98026,1,0,0:0:0:0:
64,192,98092,1,0,0:0:0:0:
192,192,98158,1,0,0:0:0:0:
448,192,98158,1,0,0:0:0:0:
320,192,98223,1,0,0:0:0:0:
448,192,98289,1,0,0:0:0:0:
64,192,98354,1,0,0:0:0:0:
192,192,98420,1,0,0:0:0:0:
320,192,98420,1,0,0:0:0:0:
448,192,98486,1,0,0:0:0:0:
320,192,98551,1,0,0:0:0:0:
192,192,98616,1,0,0:0:0:0:
64,192,98616,1,0,0:0:0:0:
320,192,98682,1,0,0:0:0:0:
448,192,98682,1,0,0:0:0:0:
192,192,98748,1,0,0:0:0:0:
64,192,98813,1,0,0:0:0:0:
320,192,98813,1,0,0:0:0:0:
448,192,98879,1,0,0:0:0:0:
192,192,98944,1,0,0:0:0:0:
64,192,98944,1,0,0:0:0:0:
320,192,99010,1,0,0:0:0:0:
448,192,99076,1,0,0:0:0:0:
64,192,99076,1,0,0:0:0:0:
192,192,99141,1,0,0:0:0:0:
320,192,99206,1,0,0:0:0:0:
448,192,99206,1,0,0:0:0:0:
192,192,99272,1,0,0:0:0:0:
64,192,99338,1,0,0:0:0:0:
448,192,99403,1,0,0:0:0:0:
320,192,99469,1,0,0:0:0:0:
192,192,99469,1,0,0:0:0:0:
64,192,99534,1,0,0:0:0:0:
192,192,99600,1,0,0:0:0:0:
320,192,99666,1,0,0:0:0:0:
448,192,99666,1,0,0:0:0:0:
192,192,99731,1,0,0:0:0:0:
64,192,99731,1,0,0:0:0:0:
320,192,99796,1,0,0:0:0:0:
448,192,99862,1,0,0:0:0:0:
64,192,99862,1,0,0:0:0:0:
192,192,99928,1,0,0:0:0:0:
320,192,99993,128,0,100059:0:0:0:0:
448,192,99993,1,0,0:0:0:0:
64,192,100059,128,0,100124:0:0:0:0:
320,192,100124,128,0,100190:0:0:0:0:
192,192,100190,128,0,100256:0:0:0:0:
448,192,100256,1,0,0:0:0:0:
64,192,100256,1,0,0:0:0:0:
64,192,100386,128,0,100518:0:0:0:0:
192,192,100518,128,0,100583:0:0:0:0:
448,192,100518,1,0,0:0:0:0:
320,192,100583,128,0,100649:0:0:0:0:
448,192,100649,128,0,100714:0:0:0:0:
192,192,100714,128,0,100780:0:0:0:0:
64,192,100714,1,0,0:0:0:0:
320,192,100780,128,0,100846:0:0:0:0:
448,192,100780,1,0,0:0:0:0:
64,192,100846,128,0,100911:0:0:0:0:
320,192,100911,128,0,100976:0:0:0:0:
448,192,100911,1,0,0:0:0:0:
192,192,100976,128,0,101043:0:0:0:0:
64,192,101043,128,0,101173:0:0:0:0:
320,192,101043,1,0,0:0:0:0:
320,192,101173,128,0,101239:0:0:0:0:
448,192,101239,128,0,101304:0:0:0:0:
192,192,101239,1,0,0:0:0:0:
64,192,101304,1,0,0:0:0:0:
320,192,101304,1,0,0:0:0:0:
192,192,101370,128,0,101501:0:0:0:0:
320,192,101436,1,0,0:0:0:0:
448,192,101436,1,0,0:0:0:0:
320,192,101566,128,0,101633:0:0:0:0:
64,192,101566,1,0,0:0:0:0:
192,192,101698,128,0,101763:0:0:0:0:
448,192,101763,1,0,0:0:0:0:
320,192,101763,1,0,0:0:0:0:
64,192,101829,128,0,102026:0:0:0:0:
192,192,101829,1,0,0:0:0:0:
320,192,101960,1,0,0:0:0:0:
448,192,101960,1,0,0:0:0:0:
320,192,102091,1,0,0:0:0:0:
192,192,102091,1,0,0:0:0:0:
64,192,102223,1,0,0:0:0:0:
192,192,102223,1,0,0:0:0:0:
448,192,102353,1,0,0:0:0:0:
192,192,102353,1,0,0:0:0:0:
64,192,102353,1,0,0:0:0:0:
320,192,102485,1,0,0:0:0:0:
448,192,102485,1,0,0:0:0:0:
192,192,102616,1,0,0:0:0:0:
64,192,102616,1,0,0:0:0:0:
448,192,102616,1,0,0:0:0:0:
64,192,102746,1,0,0:0:0:0:
192,192,102746,1,0,0:0:0:0:
320,192,102813,1,0,0:0:0:0:
448,192,102813,1,0,0:0:0:0:
192,192,102878,1,0,0:0:0:0:
64,192,102878,1,0,0:0:0:0:
320,192,103009,1,0,0:0:0:0:
448,192,103009,1,0,0:0:0:0:
64,192,103009,1,0,0:0:0:0:
192,192,103140,1,0,0:0:0:0:
64,192,103140,1,0,0:0:0:0:
320,192,103140,1,0,0:0:0:0:
448,192,103271,1,0,0:0:0:0:
64,192,103271,1,0,0:0:0:0:
320,192,103403,1,0,0:0:0:0:
448,192,103403,1,0,0:0:0:0:
192,192,103403,1,0,0:0:0:0:
64,192,103533,1,0,0:0:0:0:
320,192,103533,1,0,0:0:0:0:
192,192,103665,1,0,0:0:0:0:
64,192,103665,1,0,0:0:0:0:
448,192,103665,1,0,0:0:0:0:
320,192,103796,1,0,0:0:0:0:
448,192,103796,1,0,0:0:0:0:
192,192,103861,1,0,0:0:0:0:
64,192,103861,1,0,0:0:0:0:
320,192,103927,1,0,0:0:0:0:
448,192,103927,1,0,0:0:0:0:
192,192,104058,1,0,0:0:0:0:
64,192,104058,1,0,0:0:0:0:
320,192,104058,1,0,0:0:0:0:
192,192,104189,1,0,0:0:0:0:
320,192,104189,128,0,104255:0:0:0:0:
64,192,104189,128,0,104255:0:0:0:0:
448,192,104255,1,0,0:0:0:0:
192,192,104320,1,0,0:0:0:0:
320,192,104386,1,0,0:0:0:0:
448,192,104386,128,0,104451:0:0:0:0:
64,192,104451,1,0,0:0:0:0:
192,192,104451,128,0,104517:0:0:0:0:
320,192,104517,1,0,0:0:0:0:
448,192,104583,128,0,104648:0:0:0:0:
192,192,104583,1,0,0:0:0:0:
64,192,104583,1,0,0:0:0:0:
320,192,104648,1,0,0:0:0:0:
64,192,104713,1,0,0:0:0:0:
192,192,104713,1,0,0:0:0:0:
64,192,104779,1,0,0:0:0:0:
192,192,104845,1,0,0:0:0:0:
320,192,104910,1,0,0:0:0:0:
448,192,104910,128,0,104976:0:0:0:0:
192,192,104976,1,0,0:0:0:0:
64,192,104976,128,0,105041:0:0:0:0:
320,192,105041,1,0,0:0:0:0:
64,192,105107,1,0,0:0:0:0:
448,192,105107,128,0,105173:0:0:0:0:
192,192,105107,128,0,105173:0:0:0:0:
320,192,105173,1,0,0:0:0:0:
192,192,105238,1,0,0:0:0:0:
64,192,105238,1,0,0:0:0:0:
192,192,105303,1,0,0:0:0:0:
64,192,105370,1,0,0:0:0:0:
320,192,105435,1,0,0:0:0:0:
448,192,105435,128,0,105500:0:0:0:0:
64,192,105500,1,0,0:0:0:0:
192,192,105500,128,0,105566:0:0:0:0:
320,192,105566,1,0,0:0:0:0:
192,192,105631,1,0,0:0:0:0:
64,192,105631,128,0,105697:0:0:0:0:
448,192,105631,128,0,105697:0:0:0:0:
320,192,105697,1,0,0:0:0:0:
64,192,105763,1,0,0:0:0:0:
192,192,105763,128,0,105828:0:0:0:0:
448,192,105828,1,0,0:0:0:0:
192,192,105893,1,0,0:0:0:0:
320,192,105960,1,0,0:0:0:0:
448,192,105960,128,0,106025:0:0:0:0:
192,192,106025,1,0,0:0:0:0:
64,192,106025,128,0,106090:0:0:0:0:
320,192,106090,1,0,0:0:0:0:
64,192,106156,1,0,0:0:0:0:
192,192,106156,128,0,106221:0:0:0:0:
448,192,106156,128,0,106221:0:0:0:0:
320,192,106221,1,0,0:0:0:0:
64,192,106289,1,0,0:0:0:0:
448,192,106289,1,0,0:0:0:0:
192,192,106289,1,0,0:0:0:0:
192,192,106750,1,0,0:0:0:0:
64,192,106750,1,0,0:0:0:0:
448,192,106750,1,0,0:0:0:0:
320,192,107212,1,0,0:0:0:0:
192,192,107212,1,0,0:0:0:0:
64,192,107212,1,0,0:0:0:0:
320,192,107673,1,0,0:0:0:0:
448,192,107673,1,0,0:0:0:0:
192,192,107731,1,0,0:0:0:0:
64,192,107731,1,0,0:0:0:0:
320,192,107789,1,0,0:0:0:0:
448,192,107789,1,0,0:0:0:0:
192,192,107846,1,0,0:0:0:0:
64,192,107846,1,0,0:0:0:0:
320,192,107904,1,0,0:0:0:0:
448,192,107904,1,0,0:0:0:0:
192,192,107962,1,0,0:0:0:0:
64,192,107962,1,0,0:0:0:0:
448,192,108020,1,0,0:0:0:0:
320,192,108020,1,0,0:0:0:0:
192,192,108077,1,0,0:0:0:0:
64,192,108077,1,0,0:0:0:0:
320,192,108135,1,0,0:0:0:0:
448,192,108135,1,0,0:0:0:0:
192,192,108596,1,0,0:0:0:0:
320,192,108596,1,0,0:0:0:0:
448,192,108596,1,0,0:0:0:0:
320,192,109058,1,0,0:0:0:0:
192,192,109058,1,0,0:0:0:0:
64,192,109058,1,0,0:0:0:0:
320,192,109289,1,0,0:0:0:0:
192,192,109520,1,0,0:0:0:0:
64,192,109520,1,0,0:0:0:0:
320,192,109577,1,0,0:0:0:0:
448,192,109577,1,0,0:0:0:0:
192,192,109635,1,0,0:0:0:0:
64,192,109635,1,0,0:0:0:0:
320,192,109693,1,0,0:0:0:0:
448,192,109693,1,0,0:0:0:0:
192,192,109750,1,0,0:0:0:0:
64,192,109750,1,0,0:0:0:0:
320,192,109808,1,0,0:0:0:0:
448,192,109808,1,0,0:0:0:0:
192,192,109866,1,0,0:0:0:0:
64,192,109866,1,0,0:0:0:0:
320,192,109923,1,0,0:0:0:0:
448,192,109923,1,0,0:0:0:0:
192,192,109981,1,0,0:0:0:0:
64,192,109981,1,0,0:0:0:0:
192,192,110443,1,0,0:0:0:0:
64,192,110443,1,0,0:0:0:0:
320,192,110443,1,0,0:0:0:0:
192,192,110904,1,0,0:0:0:0:
64,192,110904,1,0,0:0:0:0:
320,192,110904,1,0,0:0:0:0:
320,192,111366,1,0,0:0:0:0:
448,192,111366,1,0,0:0:0:0:
192,192,111423,1,0,0:0:0:0:
64,192,111423,1,0,0:0:0:0:
448,192,111481,1,0,0:0:0:0:
320,192,111481,1,0,0:0:0:0:
192,192,111539,1,0,0:0:0:0:
64,192,111539,1,0,0:0:0:0:
320,192,111596,1,0,0:0:0:0:
448,192,111596,1,0,0:0:0:0:
192,192,111654,1,0,0:0:0:0:
64,192,111654,1,0,0:0:0:0:
320,192,111712,1,0,0:0:0:0:
448,192,111712,1,0,0:0:0:0:
192,192,111770,1,0,0:0:0:0:
64,192,111770,1,0,0:0:0:0:
320,192,111827,1,0,0:0:0:0:
448,192,111827,1,0,0:0:0:0:
192,192,112289,1,0,0:0:0:0:
320,192,112289,1,0,0:0:0:0:
448,192,112289,1,0,0:0:0:0:
192,192,112750,1,0,0:0:0:0:
320,192,112750,1,0,0:0:0:0:
64,192,112750,1,0,0:0:0:0:
64,192,112981,1,0,0:0:0:0:
320,192,112981,1,0,0:0:0:0:
448,192,112981,1,0,0:0:0:0:
192,192,113212,1,0,0:0:0:0:
64,192,113212,1,0,0:0:0:0:
320,192,113443,1,0,0:0:0:0:
448,192,113443,1,0,0:0:0:0:
192,192,113500,1,0,0:0:0:0:
64,192,113500,1,0,0:0:0:0:
320,192,113558,1,0,0:0:0:0:
448,192,113558,1,0,0:0:0:0:
192,192,113616,1,0,0:0:0:0:
64,192,113616,1,0,0:0:0:0:
320,192,113673,1,0,0:0:0:0:
448,192,113673,1,0,0:0:0:0:
320,192,115520,1,0,0:0:0:0:
192,192,115520,1,0,0:0:0:0:
448,192,115520,1,0,0:0:0:0:
192,192,116904,1,0,0:0:0:0:
64,192,116904,1,0,0:0:0:0:
320,192,116962,1,0,0:0:0:0:
448,192,116962,1,0,0:0:0:0:
192,192,117020,1,0,0:0:0:0:
64,192,117020,1,0,0:0:0:0:
320,192,117077,1,0,0:0:0:0:
448,192,117077,1,0,0:0:0:0:
192,192,117135,1,0,0:0:0:0:
64,192,117135,1,0,0:0:0:0:
320,192,117193,1,0,0:0:0:0:
448,192,117193,1,0,0:0:0:0:
192,192,117250,1,0,0:0:0:0:
64,192,117250,1,0,0:0:0:0:
320,192,117308,1,0,0:0:0:0:
448,192,117308,1,0,0:0:0:0:
192,192,117366,1,0,0:0:0:0:
64,192,117423,1,0,0:0:0:0:
448,192,117596,1,0,0:0:0:0:
320,192,117654,1,0,0:0:0:0:
192,192,117712,1,0,0:0:0:0:
