osu file format v14

[General]
AudioFilename: audio 1.200x.mp3
AudioLeadIn: 0
PreviewTime: 24791
Countdown: 0
SampleSet: None
StackLeniency: 0.7
Mode: 3
LetterboxInBreaks: 0
SpecialStyle: 0
WidescreenStoryboard: 0

[Editor]
DistanceSpacing: 0.7
BeatDivisor: 4
GridSize: 8
TimelineZoom: 1

[Metadata]
Title:YABABAINA - Satapan P feat.Miku Hatsune, Teto Kasane, Zundamon
TitleUnicode:ヤババイナ - さたぱんP feat. 初音ミク・重音テト・ずんだもん
Artist:satapanpi
ArtistUnicode:さたぱんP
Creator:pashalka
Version:trippart 1.2
Source:ヤババイナ - さたぱんP feat. 初音ミク・重音テト・ずんだもん
Tags:japanese electronic vocaloid hatsune miku teto kasane stream chordjack jumpstream handstream tech ln hybrid osutrainer
BeatmapID:4542055
BeatmapSetID:2155037

[Difficulty]
HPDrainRate:5
CircleSize:4
OverallDifficulty:8
ApproachRate:10
SliderMultiplier:1.4
SliderTickRate:1

[Events]
//Background and Video events
0,0,"1f410e47bb550a9cd60100d8587b7dd1.jpg",0,0
//Break Periods
//Storyboard Layer 0 (Background)
//Storyboard Layer 1 (Fail)
//Storyboard Layer 2 (Pass)
//Storyboard Layer 3 (Foreground)
//Storyboard Layer 4 (Overlay)
//Storyboard Sound Samples

[TimingPoints]
41,250,4,1,0,20,1,0
17041,250,3,1,0,20,1,0
17041,-100,3,1,0,20,0,0
21041,-100,3,1,0,20,0,0
24791,357.142857142858,4,1,0,20,1,0
24791,-69.9300699300699,4,1,0,20,0,0
25146,283.861884161642,4,1,0,20,1,0
25146,-87.719298245614,4,1,0,20,0,0
34230,-87.719298245614,4,1,0,20,0,1
43330,250,4,1,0,20,1,0
43330,-100,4,1,0,20,0,0
83330,277.777777777777,4,1,0,20,1,0
83330,-90.0900900900901,4,1,0,20,0,0
84455,289.017341040463,4,1,0,20,1,0
84455,-86.2068965517241,4,1,0,20,0,0
87346,250,4,1,0,20,1,0
87346,-100,4,1,0,20,0,0
87588,284.090909090909,4,1,0,20,1,0
87588,-86.2068965517241,4,1,0,20,0,0
96963,-86.2068965517241,4,1,0,20,0,1
106054,-86.2068965517241,4,1,0,20,0,0
115146,250,4,1,0,20,1,0
115146,-100,4,1,0,20,0,0

[HitObjects]
320,192,291,5,0,0:0:0:0:
192,192,416,1,0,0:0:0:0:
448,192,541,1,0,0:0:0:0:
320,192,791,1,0,0:0:0:0:
192,192,854,1,0,0:0:0:0:
64,192,916,1,0,0:0:0:0:
320,192,1041,5,0,0:0:0:0:
448,192,1041,1,0,0:0:0:0:
64,192,1041,1,0,0:0:0:0:
320,192,1166,1,0,0:0:0:0:
320,192,1291,1,0,0:0:0:0:
320,192,1416,1,0,0:0:0:0:
320,192,1541,1,0,0:0:0:0:
320,192,1666,1,0,0:0:0:0:
320,192,1791,1,0,0:0:0:0:
320,192,1916,1,0,0:0:0:0:
320,192,2041,1,0,0:0:0:0:
320,192,2166,1,0,0:0:0:0:
320,192,2291,1,0,0:0:0:0:
320,192,2416,1,0,0:0:0:0:
320,192,2541,1,0,0:0:0:0:
192,192,2541,1,0,0:0:0:0:
448,192,2541,1,0,0:0:0:0:
192,192,2791,1,0,0:0:0:0:
64,192,2791,1,0,0:0:0:0:
448,192,2791,1,0,0:0:0:0:
320,192,3041,1,0,0:0:0:0:
448,192,3041,1,0,0:0:0:0:
192,192,3041,1,0,0:0:0:0:
320,192,3166,1,0,0:0:0:0:
320,192,3291,1,0,0:0:0:0:
320,192,3416,1,0,0:0:0:0:
320,192,3541,1,0,0:0:0:0:
320,192,3666,1,0,0:0:0:0:
320,192,3791,1,0,0:0:0:0:
320,192,3916,1,0,0:0:0:0:
320,192,4041,1,0,0:0:0:0:
192,192,4041,1,0,0:0:0:0:
448,192,4041,1,0,0:0:0:0:
192,192,4291,1,0,0:0:0:0:
64,192,4291,1,0,0:0:0:0:
320,192,4291,1,0,0:0:0:0:
64,192,4541,1,0,0:0:0:0:
448,192,4541,1,0,0:0:0:0:
320,192,4541,1,0,0:0:0:0:
320,192,4791,1,0,0:0:0:0:
448,192,4791,1,0,0:0:0:0:
192,192,4854,1,0,0:0:0:0:
64,192,4854,1,0,0:0:0:0:
320,192,4916,1,0,0:0:0:0:
448,192,4916,1,0,0:0:0:0:
192,192,4979,1,0,0:0:0:0:
64,192,4979,1,0,0:0:0:0:
320,192,5041,1,0,0:0:0:0:
448,192,5041,1,0,0:0:0:0:
192,192,5104,1,0,0:0:0:0:
64,192,5104,1,0,0:0:0:0:
320,192,5166,1,0,0:0:0:0:
448,192,5166,1,0,0:0:0:0:
192,192,5229,1,0,0:0:0:0:
64,192,5229,1,0,0:0:0:0:
320,192,5291,1,0,0:0:0:0:
448,192,5354,1,0,0:0:0:0:
192,192,5416,1,0,0:0:0:0:
320,192,5479,1,0,0:0:0:0:
64,192,5541,1,0,0:0:0:0:
320,192,5604,1,0,0:0:0:0:
192,192,5666,1,0,0:0:0:0:
320,192,5729,1,0,0:0:0:0:
448,192,5791,1,0,0:0:0:0:
320,192,5854,1,0,0:0:0:0:
64,192,5916,1,0,0:0:0:0:
320,192,5979,1,0,0:0:0:0:
192,192,6041,1,0,0:0:0:0:
320,192,6104,1,0,0:0:0:0:
448,192,6166,1,0,0:0:0:0:
320,192,6229,1,0,0:0:0:0:
192,192,6291,1,0,0:0:0:0:
320,192,6354,1,0,0:0:0:0:
64,192,6416,1,0,0:0:0:0:
320,192,6479,1,0,0:0:0:0:
448,192,6541,1,0,0:0:0:0:
192,192,6541,1,0,0:0:0:0:
64,192,6541,1,0,0:0:0:0:
320,192,6791,1,0,0:0:0:0:
448,192,6791,1,0,0:0:0:0:
64,192,6791,1,0,0:0:0:0:
192,192,7041,1,0,0:0:0:0:
320,192,7041,1,0,0:0:0:0:
64,192,7041,1,0,0:0:0:0:
448,192,7104,1,0,0:0:0:0:
320,192,7166,1,0,0:0:0:0:
64,192,7229,1,0,0:0:0:0:
320,192,7291,1,0,0:0:0:0:
192,192,7354,1,0,0:0:0:0:
320,192,7416,1,0,0:0:0:0:
448,192,7479,1,0,0:0:0:0:
320,192,7541,1,0,0:0:0:0:
64,192,7604,1,0,0:0:0:0:
320,192,7666,1,0,0:0:0:0:
448,192,7729,1,0,0:0:0:0:
320,192,7791,1,0,0:0:0:0:
192,192,7854,1,0,0:0:0:0:
320,192,7916,1,0,0:0:0:0:
448,192,7979,1,0,0:0:0:0:
320,192,8041,1,0,0:0:0:0:
192,192,8041,1,0,0:0:0:0:
64,192,8041,1,0,0:0:0:0:
192,192,8291,1,0,0:0:0:0:
320,192,8291,1,0,0:0:0:0:
448,192,8291,1,0,0:0:0:0:
64,192,8541,1,0,0:0:0:0:
192,192,8541,1,0,0:0:0:0:
320,192,8541,1,0,0:0:0:0:
64,192,8791,5,0,0:0:0:0:
192,192,8854,1,0,0:0:0:0:
64,192,8916,1,0,0:0:0:0:
192,192,8979,1,0,0:0:0:0:
320,192,9041,1,0,0:0:0:0:
448,192,9041,1,0,0:0:0:0:
192,192,9104,1,0,0:0:0:0:
64,192,9166,1,0,0:0:0:0:
320,192,9229,1,0,0:0:0:0:
448,192,9291,1,0,0:0:0:0:
192,192,9291,1,0,0:0:0:0:
64,192,9354,1,0,0:0:0:0:
320,192,9416,1,0,0:0:0:0:
448,192,9479,1,0,0:0:0:0:
192,192,9541,1,0,0:0:0:0:
64,192,9541,1,0,0:0:0:0:
320,192,9604,1,0,0:0:0:0:
448,192,9666,1,0,0:0:0:0:
192,192,9729,1,0,0:0:0:0:
64,192,9729,1,0,0:0:0:0:
320,192,9791,1,0,0:0:0:0:
448,192,9791,1,0,0:0:0:0:
192,192,9854,1,0,0:0:0:0:
64,192,9916,1,0,0:0:0:0:
320,192,9916,1,0,0:0:0:0:
448,192,9979,1,0,0:0:0:0:
192,192,10041,1,0,0:0:0:0:
64,192,10041,1,0,0:0:0:0:
320,192,10104,1,0,0:0:0:0:
448,192,10166,1,0,0:0:0:0:
64,192,10229,1,0,0:0:0:0:
192,192,10291,1,0,0:0:0:0:
320,192,10291,1,0,0:0:0:0:
448,192,10354,1,0,0:0:0:0:
320,192,10416,1,0,0:0:0:0:
192,192,10479,1,0,0:0:0:0:
64,192,10541,1,0,0:0:0:0:
448,192,10541,1,0,0:0:0:0:
320,192,10604,1,0,0:0:0:0:
448,192,10666,1,0,0:0:0:0:
64,192,10729,1,0,0:0:0:0:
192,192,10729,1,0,0:0:0:0:
320,192,10791,1,0,0:0:0:0:
448,192,10791,1,0,0:0:0:0:
192,192,10854,1,0,0:0:0:0:
64,192,10916,1,0,0:0:0:0:
320,192,10916,1,0,0:0:0:0:
448,192,10979,1,0,0:0:0:0:
192,192,11041,1,0,0:0:0:0:
64,192,11041,1,0,0:0:0:0:
320,192,11104,1,0,0:0:0:0:
448,192,11166,1,0,0:0:0:0:
64,192,11229,1,0,0:0:0:0:
192,192,11291,1,0,0:0:0:0:
320,192,11291,1,0,0:0:0:0:
448,192,11354,1,0,0:0:0:0:
320,192,11416,1,0,0:0:0:0:
192,192,11479,1,0,0:0:0:0:
64,192,11541,1,0,0:0:0:0:
320,192,11541,1,0,0:0:0:0:
448,192,11604,1,0,0:0:0:0:
64,192,11666,1,0,0:0:0:0:
192,192,11729,1,0,0:0:0:0:
320,192,11729,1,0,0:0:0:0:
448,192,11791,1,0,0:0:0:0:
64,192,11791,1,0,0:0:0:0:
320,192,11854,1,0,0:0:0:0:
192,192,11916,1,0,0:0:0:0:
64,192,11916,1,0,0:0:0:0:
320,192,11979,1,0,0:0:0:0:
448,192,12041,1,0,0:0:0:0:
192,192,12041,1,0,0:0:0:0:
64,192,12104,1,0,0:0:0:0:
320,192,12166,1,0,0:0:0:0:
448,192,12229,1,0,0:0:0:0:
64,192,12229,1,0,0:0:0:0:
192,192,12291,1,0,0:0:0:0:
320,192,12291,1,0,0:0:0:0:
448,192,12354,1,0,0:0:0:0:
64,192,12416,1,0,0:0:0:0:
192,192,12479,1,0,0:0:0:0:
320,192,12541,1,0,0:0:0:0:
448,192,12541,1,0,0:0:0:0:
192,192,12604,1,0,0:0:0:0:
64,192,12666,1,0,0:0:0:0:
448,192,12729,1,0,0:0:0:0:
320,192,12729,1,0,0:0:0:0:
192,192,12791,1,0,0:0:0:0:
64,192,12791,1,0,0:0:0:0:
320,192,12854,1,0,0:0:0:0:
448,192,12916,1,0,0:0:0:0:
64,192,12916,1,0,0:0:0:0:
192,192,12979,1,0,0:0:0:0:
320,192,13041,1,0,0:0:0:0:
448,192,13041,1,0,0:0:0:0:
64,192,13041,1,0,0:0:0:0:
192,192,13166,1,0,0:0:0:0:
320,192,13166,1,0,0:0:0:0:
448,192,13291,1,0,0:0:0:0:
64,192,13291,1,0,0:0:0:0:
320,192,13291,1,0,0:0:0:0:
192,192,13416,1,0,0:0:0:0:
64,192,13416,1,0,0:0:0:0:
192,192,13541,1,0,0:0:0:0:
320,192,13541,1,0,0:0:0:0:
448,192,13541,1,0,0:0:0:0:
448,192,13666,1,0,0:0:0:0:
320,192,13666,1,0,0:0:0:0:
192,192,13729,1,0,0:0:0:0:
64,192,13729,1,0,0:0:0:0:
320,192,13791,1,0,0:0:0:0:
448,192,13791,1,0,0:0:0:0:
192,192,13916,1,0,0:0:0:0:
64,192,13916,1,0,0:0:0:0:
320,192,13916,1,0,0:0:0:0:
320,192,14041,1,0,0:0:0:0:
192,192,14041,1,0,0:0:0:0:
448,192,14041,1,0,0:0:0:0:
448,192,14166,1,0,0:0:0:0:
64,192,14166,1,0,0:0:0:0:
192,192,14291,1,0,0:0:0:0:
320,192,14291,1,0,0:0:0:0:
448,192,14291,1,0,0:0:0:0:
192,192,14416,1,0,0:0:0:0:
64,192,14416,1,0,0:0:0:0:
64,192,14541,1,0,0:0:0:0:
192,192,14541,1,0,0:0:0:0:
448,192,14541,1,0,0:0:0:0:
320,192,14666,1,0,0:0:0:0:
448,192,14666,1,0,0:0:0:0:
192,192,14729,1,0,0:0:0:0:
64,192,14729,1,0,0:0:0:0:
320,192,14791,1,0,0:0:0:0:
448,192,14791,1,0,0:0:0:0:
64,192,14916,1,0,0:0:0:0:
192,192,14916,1,0,0:0:0:0:
320,192,14916,1,0,0:0:0:0:
192,192,15041,1,0,0:0:0:0:
320,192,15041,1,0,0:0:0:0:
448,192,15041,1,0,0:0:0:0:
192,192,15166,1,0,0:0:0:0:
64,192,15166,1,0,0:0:0:0:
320,192,15229,1,0,0:0:0:0:
448,192,15229,1,0,0:0:0:0:
192,192,15291,1,0,0:0:0:0:
64,192,15291,1,0,0:0:0:0:
320,192,15416,1,0,0:0:0:0:
448,192,15416,1,0,0:0:0:0:
64,192,15416,1,0,0:0:0:0:
320,192,15541,1,0,0:0:0:0:
192,192,15541,1,0,0:0:0:0:
64,192,15541,1,0,0:0:0:0:
320,192,15666,1,0,0:0:0:0:
448,192,15666,1,0,0:0:0:0:
192,192,15729,1,0,0:0:0:0:
64,192,15729,1,0,0:0:0:0:
320,192,15791,1,0,0:0:0:0:
448,192,15791,1,0,0:0:0:0:
192,192,15916,1,0,0:0:0:0:
64,192,15916,1,0,0:0:0:0:
448,192,15916,1,0,0:0:0:0:
320,192,16041,1,0,0:0:0:0:
448,192,16041,1,0,0:0:0:0:
192,192,16041,1,0,0:0:0:0:
192,192,16166,1,0,0:0:0:0:
320,192,16166,1,0,0:0:0:0:
64,192,16229,1,0,0:0:0:0:
448,192,16229,1,0,0:0:0:0:
320,192,16291,1,0,0:0:0:0:
192,192,16291,1,0,0:0:0:0:
320,192,16416,1,0,0:0:0:0:
448,192,16416,1,0,0:0:0:0:
64,192,16416,1,0,0:0:0:0:
192,192,16541,1,0,0:0:0:0:
64,192,16541,1,0,0:0:0:0:
448,192,16541,1,0,0:0:0:0:
320,192,16666,1,0,0:0:0:0:
448,192,16666,1,0,0:0:0:0:
192,192,16729,1,0,0:0:0:0:
64,192,16729,1,0,0:0:0:0:
320,192,16791,1,0,0:0:0:0:
448,192,16791,1,0,0:0:0:0:
192,192,16916,1,0,0:0:0:0:
64,192,16916,1,0,0:0:0:0:
320,192,16916,1,0,0:0:0:0:
320,192,17041,1,0,0:0:0:0:
448,192,17041,128,0,17541:0:0:0:0:
64,192,17291,1,0,0:0:0:0:
192,192,17541,128,0,17791:0:0:0:0:
320,192,17541,1,0,0:0:0:0:
64,192,17791,128,0,18041:0:0:0:0:
448,192,17791,1,0,0:0:0:0:
320,192,18041,128,0,18166:0:0:0:0:
448,192,18291,128,0,18416:0:0:0:0:
64,192,18291,1,0,0:0:0:0:
192,192,18541,128,0,18791:0:0:0:0:
320,192,18541,1,0,0:0:0:0:
448,192,18791,1,0,0:0:0:0:
64,192,18916,128,0,18979:0:0:0:0:
320,192,19041,128,0,19166:0:0:0:0:
192,192,19041,1,0,0:0:0:0:
448,192,19166,128,0,19291:0:0:0:0:
192,192,19291,128,0,19479:0:0:0:0:
64,192,19291,1,0,0:0:0:0:
64,192,19541,128,0,19666:0:0:0:0:
320,192,19541,1,0,0:0:0:0:
192,192,19791,128,0,19916:0:0:0:0:
448,192,19791,1,0,0:0:0:0:
320,192,20041,128,0,20166:0:0:0:0:
64,192,20041,1,0,0:0:0:0:
448,192,20166,128,0,20291:0:0:0:0:
192,192,20291,128,0,20416:0:0:0:0:
64,192,20541,128,0,20666:0:0:0:0:
448,192,20541,1,0,0:0:0:0:
192,192,20666,128,0,20791:0:0:0:0:
448,192,20791,128,0,20916:0:0:0:0:
64,192,20791,1,0,0:0:0:0:
320,192,20916,128,0,21041:0:0:0:0:
192,192,21041,1,0,0:0:0:0:
64,192,21041,1,0,0:0:0:0:
448,192,21104,1,0,0:0:0:0:
320,192,21166,1,0,0:0:0:0:
192,192,21229,1,0,0:0:0:0:
64,192,21291,1,0,0:0:0:0:
320,192,21291,1,0,0:0:0:0:
448,192,21354,1,0,0:0:0:0:
192,192,21416,1,0,0:0:0:0:
320,192,21479,1,0,0:0:0:0:
448,192,21541,1,0,0:0:0:0:
192,192,21541,1,0,0:0:0:0:
64,192,21604,1,0,0:0:0:0:
320,192,21666,1,0,0:0:0:0:
448,192,21729,1,0,0:0:0:0:
64,192,21791,1,0,0:0:0:0:
192,192,21791,1,0,0:0:0:0:
320,192,21854,1,0,0:0:0:0:
448,192,21916,1,0,0:0:0:0:
192,192,21979,1,0,0:0:0:0:
64,192,22041,1,0,0:0:0:0:
320,192,22041,1,0,0:0:0:0:
448,192,22104,1,0,0:0:0:0:
192,192,22166,1,0,0:0:0:0:
64,192,22229,1,0,0:0:0:0:
192,192,22291,1,0,0:0:0:0:
320,192,22291,1,0,0:0:0:0:
448,192,22354,1,0,0:0:0:0:
192,192,22416,1,0,0:0:0:0:
64,192,22479,1,0,0:0:0:0:
320,192,22541,1,0,0:0:0:0:
448,192,22541,1,0,0:0:0:0:
192,192,22604,1,0,0:0:0:0:
64,192,22666,1,0,0:0:0:0:
320,192,22729,1,0,0:0:0:0:
448,192,22791,1,0,0:0:0:0:
192,192,22791,1,0,0:0:0:0:
64,192,22854,1,0,0:0:0:0:
320,192,22916,1,0,0:0:0:0:
448,192,22916,1,0,0:0:0:0:
192,192,22979,1,0,0:0:0:0:
64,192,23041,1,0,0:0:0:0:
320,192,23041,1,0,0:0:0:0:
448,192,23104,1,0,0:0:0:0:
192,192,23166,1,0,0:0:0:0:
320,192,23166,1,0,0:0:0:0:
64,192,23229,1,0,0:0:0:0:
192,192,23291,1,0,0:0:0:0:
448,192,23291,1,0,0:0:0:0:
320,192,23354,1,0,0:0:0:0:
448,192,23416,1,0,0:0:0:0:
64,192,23479,1,0,0:0:0:0:
192,192,23541,1,0,0:0:0:0:
320,192,23541,1,0,0:0:0:0:
448,192,23604,1,0,0:0:0:0:
320,192,23666,1,0,0:0:0:0:
192,192,23729,1,0,0:0:0:0:
64,192,23791,1,0,0:0:0:0:
320,192,23791,1,0,0:0:0:0:
448,192,23854,1,0,0:0:0:0:
192,192,23916,1,0,0:0:0:0:
64,192,23916,1,0,0:0:0:0:
320,192,23979,1,0,0:0:0:0:
64,192,24041,1,0,0:0:0:0:
192,192,24104,1,0,0:0:0:0:
320,192,24166,1,0,0:0:0:0:
448,192,24166,1,0,0:0:0:0:
192,192,24229,1,0,0:0:0:0:
64,192,24291,1,0,0:0:0:0:
320,192,24291,1,0,0:0:0:0:
448,192,24354,1,0,0:0:0:0:
192,192,24416,1,0,0:0:0:0:
64,192,24416,1,0,0:0:0:0:
320,192,24479,1,0,0:0:0:0:
448,192,24541,1,0,0:0:0:0:
192,192,24541,1,0,0:0:0:0:
320,192,24791,128,0,24880:0:0:0:0:
448,192,24791,128,0,24880:0:0:0:0:
64,192,24791,128,0,24880:0:0:0:0:
192,192,24880,128,0,24970:0:0:0:0:
448,192,24970,128,0,25059:0:0:0:0:
64,192,25059,128,0,25148:0:0:0:0:
320,192,25146,128,0,25217:0:0:0:0:
192,192,25146,128,0,25217:0:0:0:0:
448,192,25217,1,0,0:0:0:0:
320,192,25288,1,0,0:0:0:0:
192,192,25359,1,0,0:0:0:0:
320,192,25430,1,0,0:0:0:0:
448,192,25430,128,0,25500:0:0:0:0:
64,192,25430,128,0,25500:0:0:0:0:
192,192,25500,1,0,0:0:0:0:
320,192,25571,1,0,0:0:0:0:
320,192,25643,1,0,0:0:0:0:
448,192,25714,1,0,0:0:0:0:
64,192,25714,128,0,25785:0:0:0:0:
192,192,25714,128,0,25785:0:0:0:0:
320,192,25785,1,0,0:0:0:0:
448,192,25855,1,0,0:0:0:0:
320,192,25926,1,0,0:0:0:0:
192,192,25997,1,0,0:0:0:0:
448,192,25997,128,0,26069:0:0:0:0:
64,192,25997,128,0,26069:0:0:0:0:
320,192,26069,1,0,0:0:0:0:
192,192,26140,1,0,0:0:0:0:
192,192,26210,1,0,0:0:0:0:
448,192,26281,1,0,0:0:0:0:
320,192,26281,128,0,26352:0:0:0:0:
64,192,26281,128,0,26352:0:0:0:0:
192,192,26352,1,0,0:0:0:0:
448,192,26423,1,0,0:0:0:0:
448,192,26495,1,0,0:0:0:0:
320,192,26565,1,0,0:0:0:0:
192,192,26565,128,0,26636:0:0:0:0:
64,192,26565,128,0,26636:0:0:0:0:
448,192,26636,1,0,0:0:0:0:
320,192,26707,1,0,0:0:0:0:
192,192,26778,1,0,0:0:0:0:
64,192,26849,1,0,0:0:0:0:
448,192,26849,128,0,26920:0:0:0:0:
320,192,26849,128,0,26920:0:0:0:0:
192,192,26920,1,0,0:0:0:0:
64,192,26991,1,0,0:0:0:0:
64,192,27062,1,0,0:0:0:0:
192,192,27133,1,0,0:0:0:0:
320,192,27133,128,0,27204:0:0:0:0:
448,192,27133,128,0,27204:0:0:0:0:
64,192,27204,1,0,0:0:0:0:
192,192,27275,1,0,0:0:0:0:
192,192,27345,1,0,0:0:0:0:
448,192,27417,1,0,0:0:0:0:
320,192,27452,1,0,0:0:0:0:
192,192,27488,1,0,0:0:0:0:
64,192,27523,1,0,0:0:0:0:
320,192,27559,1,0,0:0:0:0:
448,192,27630,1,0,0:0:0:0:
192,192,27700,1,0,0:0:0:0:
320,192,27700,128,0,27771:0:0:0:0:
64,192,27700,128,0,27771:0:0:0:0:
448,192,27771,1,0,0:0:0:0:
192,192,27843,1,0,0:0:0:0:
192,192,27914,1,0,0:0:0:0:
64,192,27985,1,0,0:0:0:0:
448,192,27985,128,0,28055:0:0:0:0:
320,192,27985,128,0,28055:0:0:0:0:
192,192,28055,1,0,0:0:0:0:
64,192,28126,1,0,0:0:0:0:
192,192,28197,1,0,0:0:0:0:
320,192,28268,1,0,0:0:0:0:
448,192,28268,128,0,28340:0:0:0:0:
64,192,28268,128,0,28340:0:0:0:0:
192,192,28340,1,0,0:0:0:0:
192,192,28410,1,0,0:0:0:0:
320,192,28481,1,0,0:0:0:0:
448,192,28552,1,0,0:0:0:0:
64,192,28552,128,0,28623:0:0:0:0:
192,192,28552,128,0,28623:0:0:0:0:
320,192,28623,1,0,0:0:0:0:
448,192,28694,1,0,0:0:0:0:
448,192,28765,1,0,0:0:0:0:
320,192,28836,1,0,0:0:0:0:
192,192,28836,128,0,28907:0:0:0:0:
64,192,28836,128,0,28907:0:0:0:0:
448,192,28907,1,0,0:0:0:0:
320,192,28978,1,0,0:0:0:0:
320,192,29049,1,0,0:0:0:0:
64,192,29120,1,0,0:0:0:0:
192,192,29191,1,0,0:0:0:0:
192,192,29262,1,0,0:0:0:0:
448,192,29262,1,0,0:0:0:0:
320,192,29333,1,0,0:0:0:0:
448,192,29404,1,0,0:0:0:0:
64,192,29404,1,0,0:0:0:0:
192,192,29475,1,0,0:0:0:0:
320,192,29475,1,0,0:0:0:0:
64,192,29545,1,0,0:0:0:0:
64,192,29616,1,0,0:0:0:0:
192,192,29688,1,0,0:0:0:0:
320,192,29735,1,0,0:0:0:0:
448,192,29782,1,0,0:0:0:0:
64,192,29830,1,0,0:0:0:0:
192,192,29877,1,0,0:0:0:0:
320,192,29971,1,0,0:0:0:0:
448,192,29971,1,0,0:0:0:0:
320,192,30042,1,0,0:0:0:0:
192,192,30114,1,0,0:0:0:0:
64,192,30114,128,0,30185:0:0:0:0:
320,192,30185,1,0,0:0:0:0:
448,192,30255,1,0,0:0:0:0:
192,192,30255,128,0,30326:0:0:0:0:
448,192,30326,1,0,0:0:0:0:
192,192,30397,1,0,0:0:0:0:
320,192,30397,128,0,30468:0:0:0:0:
64,192,30468,1,0,0:0:0:0:
192,192,30540,1,0,0:0:0:0:
448,192,30540,128,0,30610:0:0:0:0:
192,192,30610,1,0,0:0:0:0:
64,192,30681,1,0,0:0:0:0:
320,192,30681,128,0,30752:0:0:0:0:
448,192,30752,1,0,0:0:0:0:
64,192,30823,1,0,0:0:0:0:
192,192,30823,1,0,0:0:0:0:
64,192,30894,1,0,0:0:0:0:
320,192,30965,1,0,0:0:0:0:
448,192,30965,128,0,31036:0:0:0:0:
192,192,31036,1,0,0:0:0:0:
320,192,31107,1,0,0:0:0:0:
64,192,31107,128,0,31178:0:0:0:0:
320,192,31178,1,0,0:0:0:0:
192,192,31249,1,0,0:0:0:0:
448,192,31249,128,0,31320:0:0:0:0:
64,192,31320,1,0,0:0:0:0:
192,192,31390,1,0,0:0:0:0:
320,192,31390,1,0,0:0:0:0:
192,192,31462,1,0,0:0:0:0:
320,192,31533,1,0,0:0:0:0:
448,192,31533,128,0,31604:0:0:0:0:
192,192,31604,1,0,0:0:0:0:
64,192,31675,1,0,0:0:0:0:
320,192,31675,128,0,31745:0:0:0:0:
64,192,31745,1,0,0:0:0:0:
448,192,31816,1,0,0:0:0:0:
320,192,31816,1,0,0:0:0:0:
192,192,31888,1,0,0:0:0:0:
64,192,31888,1,0,0:0:0:0:
448,192,31959,1,0,0:0:0:0:
320,192,31959,128,0,32030:0:0:0:0:
192,192,32030,1,0,0:0:0:0:
448,192,32100,1,0,0:0:0:0:
64,192,32100,128,0,32171:0:0:0:0:
448,192,32171,1,0,0:0:0:0:
192,192,32242,1,0,0:0:0:0:
320,192,32242,128,0,32314:0:0:0:0:
64,192,32314,1,0,0:0:0:0:
192,192,32385,1,0,0:0:0:0:
448,192,32385,128,0,32455:0:0:0:0:
192,192,32455,1,0,0:0:0:0:
448,192,32526,1,0,0:0:0:0:
64,192,32526,128,0,32597:0:0:0:0:
192,192,32597,1,0,0:0:0:0:
320,192,32668,1,0,0:0:0:0:
448,192,32668,1,0,0:0:0:0:
320,192,32739,1,0,0:0:0:0:
64,192,32810,1,0,0:0:0:0:
192,192,32810,128,0,32881:0:0:0:0:
320,192,32881,1,0,0:0:0:0:
448,192,32952,1,0,0:0:0:0:
64,192,32952,128,0,33023:0:0:0:0:
448,192,33023,1,0,0:0:0:0:
192,192,33094,1,0,0:0:0:0:
320,192,33094,128,0,33165:0:0:0:0:
64,192,33165,1,0,0:0:0:0:
320,192,33236,1,0,0:0:0:0:
448,192,33236,1,0,0:0:0:0:
64,192,33307,1,0,0:0:0:0:
192,192,33307,1,0,0:0:0:0:
320,192,33378,1,0,0:0:0:0:
448,192,33378,1,0,0:0:0:0:
192,192,33449,1,0,0:0:0:0:
64,192,33520,1,0,0:0:0:0:
320,192,33590,1,0,0:0:0:0:
64,192,33662,1,0,0:0:0:0:
192,192,33662,1,0,0:0:0:0:
320,192,33733,1,0,0:0:0:0:
448,192,33733,1,0,0:0:0:0:
192,192,33804,1,0,0:0:0:0:
320,192,33875,1,0,0:0:0:0:
448,192,33875,1,0,0:0:0:0:
192,192,33945,1,0,0:0:0:0:
64,192,33945,1,0,0:0:0:0:
320,192,34016,1,0,0:0:0:0:
448,192,34016,1,0,0:0:0:0:
192,192,34087,1,0,0:0:0:0:
64,192,34159,1,0,0:0:0:0:
320,192,34230,5,0,0:0:0:0:
448,192,34230,1,0,0:0:0:0:
320,192,34300,1,0,0:0:0:0:
192,192,34371,1,0,0:0:0:0:
320,192,34442,1,0,0:0:0:0:
448,192,34442,128,0,34513:0:0:0:0:
64,192,34513,1,0,0:0:0:0:
192,192,34513,128,0,34585:0:0:0:0:
320,192,34585,1,0,0:0:0:0:
448,192,34655,1,0,0:0:0:0:
64,192,34655,128,0,34726:0:0:0:0:
448,192,34726,1,0,0:0:0:0:
320,192,34797,1,0,0:0:0:0:
192,192,34797,128,0,34868:0:0:0:0:
448,192,34868,1,0,0:0:0:0:
320,192,34939,1,0,0:0:0:0:
192,192,35010,1,0,0:0:0:0:
64,192,35010,128,0,35081:0:0:0:0:
320,192,35081,1,0,0:0:0:0:
448,192,35081,128,0,35152:0:0:0:0:
192,192,35152,1,0,0:0:0:0:
64,192,35223,1,0,0:0:0:0:
320,192,35223,128,0,35294:0:0:0:0:
64,192,35294,1,0,0:0:0:0:
320,192,35365,5,0,0:0:0:0:
448,192,35365,1,0,0:0:0:0:
192,192,35365,1,0,0:0:0:0:
192,192,35507,1,0,0:0:0:0:
64,192,35507,1,0,0:0:0:0:
320,192,35578,1,0,0:0:0:0:
448,192,35578,1,0,0:0:0:0:
192,192,35649,1,0,0:0:0:0:
64,192,35649,1,0,0:0:0:0:
320,192,35790,1,0,0:0:0:0:
192,192,35790,1,0,0:0:0:0:
448,192,35790,1,0,0:0:0:0:
192,192,35933,1,0,0:0:0:0:
64,192,35933,1,0,0:0:0:0:
448,192,35933,1,0,0:0:0:0:
320,192,36075,1,0,0:0:0:0:
448,192,36075,1,0,0:0:0:0:
192,192,36145,1,0,0:0:0:0:
64,192,36145,1,0,0:0:0:0:
320,192,36216,1,0,0:0:0:0:
448,192,36216,1,0,0:0:0:0:
192,192,36359,1,0,0:0:0:0:
64,192,36359,1,0,0:0:0:0:
320,192,36430,1,0,0:0:0:0:
448,192,36430,1,0,0:0:0:0:
192,192,36500,1,0,0:0:0:0:
64,192,36500,1,0,0:0:0:0:
192,192,36571,1,0,0:0:0:0:
64,192,36642,1,0,0:0:0:0:
320,192,36713,1,0,0:0:0:0:
448,192,36713,128,0,36785:0:0:0:0:
64,192,36785,1,0,0:0:0:0:
192,192,36785,128,0,36855:0:0:0:0:
320,192,36855,1,0,0:0:0:0:
448,192,36926,1,0,0:0:0:0:
64,192,36926,128,0,36997:0:0:0:0:
448,192,36997,1,0,0:0:0:0:
192,192,37068,1,0,0:0:0:0:
64,192,37068,128,0,37139:0:0:0:0:
320,192,37068,128,0,37139:0:0:0:0:
448,192,37139,1,0,0:0:0:0:
192,192,37210,1,0,0:0:0:0:
320,192,37281,1,0,0:0:0:0:
448,192,37281,128,0,37352:0:0:0:0:
64,192,37352,1,0,0:0:0:0:
192,192,37352,128,0,37423:0:0:0:0:
320,192,37423,1,0,0:0:0:0:
448,192,37494,128,0,37565:0:0:0:0:
64,192,37494,1,0,0:0:0:0:
192,192,37494,128,0,37565:0:0:0:0:
320,192,37565,1,0,0:0:0:0:
64,192,37635,1,0,0:0:0:0:
448,192,37635,128,0,37778:0:0:0:0:
320,192,37849,128,0,37920:0:0:0:0:
64,192,37849,1,0,0:0:0:0:
192,192,37920,128,0,37990:0:0:0:0:
448,192,37920,1,0,0:0:0:0:
320,192,38061,128,0,38133:0:0:0:0:
448,192,38061,1,0,0:0:0:0:
64,192,38133,128,0,38204:0:0:0:0:
192,192,38204,128,0,38275:0:0:0:0:
320,192,38204,1,0,0:0:0:0:
448,192,38275,1,0,0:0:0:0:
192,192,38345,128,0,38416:0:0:0:0:
320,192,38416,1,0,0:0:0:0:
448,192,38416,1,0,0:0:0:0:
192,192,38487,128,0,38700:0:0:0:0:
64,192,38487,1,0,0:0:0:0:
320,192,38558,1,0,0:0:0:0:
448,192,38558,1,0,0:0:0:0:
320,192,38771,128,0,38913:0:0:0:0:
192,192,38984,1,0,0:0:0:0:
64,192,38984,128,0,39055:0:0:0:0:
448,192,39055,1,0,0:0:0:0:
320,192,39055,128,0,39126:0:0:0:0:
192,192,39126,1,0,0:0:0:0:
64,192,39197,1,0,0:0:0:0:
448,192,39197,128,0,39268:0:0:0:0:
64,192,39268,1,0,0:0:0:0:
320,192,39339,1,0,0:0:0:0:
192,192,39339,128,0,39410:0:0:0:0:
448,192,39339,128,0,39410:0:0:0:0:
64,192,39410,1,0,0:0:0:0:
320,192,39481,1,0,0:0:0:0:
192,192,39552,1,0,0:0:0:0:
64,192,39552,128,0,39623:0:0:0:0:
448,192,39623,1,0,0:0:0:0:
320,192,39623,128,0,39694:0:0:0:0:
192,192,39694,1,0,0:0:0:0:
64,192,39765,1,0,0:0:0:0:
448,192,39765,128,0,39835:0:0:0:0:
64,192,39835,1,0,0:0:0:0:
320,192,39906,1,0,0:0:0:0:
448,192,39906,1,0,0:0:0:0:
192,192,39978,1,0,0:0:0:0:
64,192,40049,1,0,0:0:0:0:
320,192,40120,1,0,0:0:0:0:
448,192,40120,1,0,0:0:0:0:
192,192,40190,1,0,0:0:0:0:
64,192,40190,1,0,0:0:0:0:
320,192,40261,1,0,0:0:0:0:
448,192,40332,1,0,0:0:0:0:
64,192,40332,1,0,0:0:0:0:
192,192,40404,1,0,0:0:0:0:
320,192,40475,1,0,0:0:0:0:
448,192,40475,1,0,0:0:0:0:
192,192,40545,1,0,0:0:0:0:
64,192,40545,1,0,0:0:0:0:
448,192,40616,1,0,0:0:0:0:
320,192,40687,1,0,0:0:0:0:
192,192,40687,1,0,0:0:0:0:
64,192,40758,1,0,0:0:0:0:
448,192,40758,1,0,0:0:0:0:
320,192,40830,1,0,0:0:0:0:
192,192,40900,1,0,0:0:0:0:
64,192,40900,1,0,0:0:0:0:
320,192,40971,1,0,0:0:0:0:
64,192,41042,1,0,0:0:0:0:
448,192,41042,128,0,41113:0:0:0:0:
192,192,41042,128,0,41113:0:0:0:0:
320,192,41113,1,0,0:0:0:0:
64,192,41184,1,0,0:0:0:0:
320,192,41255,1,0,0:0:0:0:
448,192,41255,128,0,41326:0:0:0:0:
64,192,41326,1,0,0:0:0:0:
192,192,41326,128,0,41397:0:0:0:0:
320,192,41397,1,0,0:0:0:0:
192,192,41468,1,0,0:0:0:0:
448,192,41468,128,0,41539:0:0:0:0:
64,192,41468,128,0,41539:0:0:0:0:
320,192,41539,1,0,0:0:0:0:
192,192,41610,1,0,0:0:0:0:
64,192,41610,1,0,0:0:0:0:
192,192,41680,1,0,0:0:0:0:
320,192,41752,1,0,0:0:0:0:
64,192,41823,1,0,0:0:0:0:
192,192,41823,128,0,41894:0:0:0:0:
448,192,41894,1,0,0:0:0:0:
320,192,41894,128,0,41965:0:0:0:0:
64,192,41965,1,0,0:0:0:0:
448,192,42035,1,0,0:0:0:0:
192,192,42035,128,0,42106:0:0:0:0:
448,192,42106,1,0,0:0:0:0:
320,192,42178,128,0,42249:0:0:0:0:
64,192,42178,128,0,42249:0:0:0:0:
192,192,42249,1,0,0:0:0:0:
448,192,42320,1,0,0:0:0:0:
320,192,42320,128,0,42390:0:0:0:0:
192,192,42390,1,0,0:0:0:0:
64,192,42390,128,0,42461:0:0:0:0:
320,192,42461,1,0,0:0:0:0:
448,192,42461,128,0,42532:0:0:0:0:
192,192,42532,1,0,0:0:0:0:
320,192,42604,1,0,0:0:0:0:
64,192,42604,128,0,42675:0:0:0:0:
320,192,42675,1,0,0:0:0:0:
192,192,42745,1,0,0:0:0:0:
64,192,42745,1,0,0:0:0:0:
320,192,42816,1,0,0:0:0:0:
448,192,42816,1,0,0:0:0:0:
192,192,42887,1,0,0:0:0:0:
64,192,42887,1,0,0:0:0:0:
320,192,42958,1,0,0:0:0:0:
448,192,42958,1,0,0:0:0:0:
192,192,43029,1,0,0:0:0:0:
64,192,43029,1,0,0:0:0:0:
320,192,43100,1,0,0:0:0:0:
448,192,43100,1,0,0:0:0:0:
192,192,43171,1,0,0:0:0:0:
64,192,43171,1,0,0:0:0:0:
448,192,43242,1,0,0:0:0:0:
320,192,43242,1,0,0:0:0:0:
64,192,43330,1,0,0:0:0:0:
192,192,43330,128,0,43455:0:0:0:0:
320,192,43455,128,0,43517:0:0:0:0:
448,192,43517,128,0,43580:0:0:0:0:
192,192,43580,128,0,43705:0:0:0:0:
64,192,43580,1,0,0:0:0:0:
64,192,43705,128,0,43767:0:0:0:0:
320,192,43767,128,0,43830:0:0:0:0:
448,192,43830,128,0,43892:0:0:0:0:
192,192,43830,1,0,0:0:0:0:
64,192,43892,128,0,43955:0:0:0:0:
320,192,44017,128,0,44080:0:0:0:0:
192,192,44080,128,0,44142:0:0:0:0:
448,192,44080,1,0,0:0:0:0:
64,192,44142,128,0,44205:0:0:0:0:
320,192,44205,128,0,44267:0:0:0:0:
448,192,44267,128,0,44330:0:0:0:0:
192,192,44330,128,0,44392:0:0:0:0:
64,192,44330,1,0,0:0:0:0:
320,192,44392,128,0,44455:0:0:0:0:
64,192,44455,128,0,44517:0:0:0:0:
192,192,44517,128,0,44580:0:0:0:0:
448,192,44580,128,0,44705:0:0:0:0:
320,192,44580,1,0,0:0:0:0:
320,192,44705,128,0,44767:0:0:0:0:
192,192,44830,128,0,44892:0:0:0:0:
64,192,44830,1,0,0:0:0:0:
448,192,44892,128,0,44955:0:0:0:0:
320,192,44955,128,0,45080:0:0:0:0:
192,192,45080,128,0,45330:0:0:0:0:
64,192,45080,128,0,45330:0:0:0:0:
448,192,45330,1,0,0:0:0:0:
320,192,45330,1,0,0:0:0:0:
192,192,45392,128,0,45455:0:0:0:0:
320,192,45455,128,0,45580:0:0:0:0:
192,192,45580,128,0,45705:0:0:0:0:
448,192,45580,1,0,0:0:0:0:
320,192,45767,128,0,45830:0:0:0:0:
64,192,45830,128,0,45892:0:0:0:0:
448,192,45830,1,0,0:0:0:0:
192,192,45892,128,0,45955:0:0:0:0:
320,192,46017,128,0,46080:0:0:0:0:
448,192,46080,128,0,46142:0:0:0:0:
64,192,46080,1,0,0:0:0:0:
192,192,46267,128,0,46330:0:0:0:0:
320,192,46330,128,0,46455:0:0:0:0:
448,192,46330,1,0,0:0:0:0:
64,192,46455,128,0,46517:0:0:0:0:
448,192,46517,128,0,46580:0:0:0:0:
192,192,46517,1,0,0:0:0:0:
320,192,46580,128,0,46642:0:0:0:0:
64,192,46580,1,0,0:0:0:0:
448,192,46642,128,0,46705:0:0:0:0:
64,192,46705,128,0,46830:0:0:0:0:
192,192,46705,1,0,0:0:0:0:
320,192,46830,128,0,46955:0:0:0:0:
448,192,46830,1,0,0:0:0:0:
192,192,46955,128,0,47080:0:0:0:0:
448,192,47017,1,0,0:0:0:0:
64,192,47080,128,0,47142:0:0:0:0:
320,192,47080,1,0,0:0:0:0:
448,192,47142,128,0,47205:0:0:0:0:
192,192,47205,128,0,47267:0:0:0:0:
320,192,47205,1,0,0:0:0:0:
64,192,47267,128,0,47330:0:0:0:0:
448,192,47330,1,0,0:0:0:0:
192,192,47330,128,0,47392:0:0:0:0:
320,192,47392,1,0,0:0:0:0:
448,192,47455,128,0,47517:0:0:0:0:
64,192,47517,128,0,47580:0:0:0:0:
192,192,47580,128,0,47642:0:0:0:0:
448,192,47642,1,0,0:0:0:0:
320,192,47705,128,0,47767:0:0:0:0:
64,192,47705,128,0,47767:0:0:0:0:
448,192,47767,1,0,0:0:0:0:
192,192,47830,128,0,47892:0:0:0:0:
448,192,47892,128,0,47955:0:0:0:0:
320,192,47955,128,0,48017:0:0:0:0:
192,192,48017,1,0,0:0:0:0:
448,192,48080,128,0,48142:0:0:0:0:
64,192,48080,128,0,48142:0:0:0:0:
192,192,48142,1,0,0:0:0:0:
320,192,48205,128,0,48267:0:0:0:0:
64,192,48267,128,0,48330:0:0:0:0:
192,192,48330,128,0,48392:0:0:0:0:
448,192,48392,1,0,0:0:0:0:
320,192,48455,128,0,48517:0:0:0:0:
64,192,48455,128,0,48517:0:0:0:0:
192,192,48517,1,0,0:0:0:0:
448,192,48580,128,0,48642:0:0:0:0:
320,192,48642,128,0,48830:0:0:0:0:
192,192,48705,1,0,0:0:0:0:
448,192,48767,1,0,0:0:0:0:
192,192,48830,128,0,48892:0:0:0:0:
64,192,48830,1,0,0:0:0:0:
448,192,48892,128,0,48955:0:0:0:0:
192,192,48955,128,0,49017:0:0:0:0:
320,192,48955,1,0,0:0:0:0:
64,192,49017,1,0,0:0:0:0:
320,192,49080,128,0,49142:0:0:0:0:
448,192,49080,1,0,0:0:0:0:
192,192,49142,128,0,49205:0:0:0:0:
64,192,49205,1,0,0:0:0:0:
320,192,49267,1,0,0:0:0:0:
64,192,49330,128,0,49392:0:0:0:0:
320,192,49392,1,0,0:0:0:0:
192,192,49455,1,0,0:0:0:0:
192,192,49517,1,0,0:0:0:0:
64,192,49580,128,0,49642:0:0:0:0:
448,192,49705,1,0,0:0:0:0:
448,192,49767,1,0,0:0:0:0:
192,192,49830,128,0,49892:0:0:0:0:
64,192,49892,1,0,0:0:0:0:
448,192,49955,1,0,0:0:0:0:
448,192,50017,1,0,0:0:0:0:
320,192,50080,128,0,50142:0:0:0:0:
192,192,50142,1,0,0:0:0:0:
64,192,50205,1,0,0:0:0:0:
64,192,50267,1,0,0:0:0:0:
320,192,50330,1,0,0:0:0:0:
192,192,50330,128,0,50392:0:0:0:0:
448,192,50330,128,0,50392:0:0:0:0:
64,192,50392,1,0,0:0:0:0:
320,192,50455,1,0,0:0:0:0:
192,192,50517,1,0,0:0:0:0:
64,192,50517,128,0,50580:0:0:0:0:
320,192,50580,1,0,0:0:0:0:
448,192,50580,128,0,50642:0:0:0:0:
192,192,50642,1,0,0:0:0:0:
448,192,50705,1,0,0:0:0:0:
320,192,50705,128,0,50767:0:0:0:0:
64,192,50705,128,0,50767:0:0:0:0:
192,192,50767,1,0,0:0:0:0:
448,192,50830,1,0,0:0:0:0:
64,192,50830,128,0,50892:0:0:0:0:
448,192,50892,1,0,0:0:0:0:
320,192,50955,1,0,0:0:0:0:
64,192,51017,1,0,0:0:0:0:
192,192,51017,128,0,51080:0:0:0:0:
320,192,51080,1,0,0:0:0:0:
448,192,51080,128,0,51142:0:0:0:0:
64,192,51142,1,0,0:0:0:0:
192,192,51205,128,0,51267:0:0:0:0:
320,192,51205,128,0,51267:0:0:0:0:
448,192,51205,1,0,0:0:0:0:
192,192,51330,1,0,0:0:0:0:
64,192,51330,1,0,0:0:0:0:
448,192,51330,1,0,0:0:0:0:
320,192,51455,1,0,0:0:0:0:
320,192,51580,1,0,0:0:0:0:
320,192,51705,1,0,0:0:0:0:
320,192,51830,1,0,0:0:0:0:
320,192,51955,1,0,0:0:0:0:
320,192,52080,1,0,0:0:0:0:
320,192,52205,1,0,0:0:0:0:
320,192,52330,1,0,0:0:0:0:
320,192,52455,1,0,0:0:0:0:
320,192,52580,1,0,0:0:0:0:
320,192,52705,1,0,0:0:0:0:
192,192,52767,1,0,0:0:0:0:
64,192,52830,1,0,0:0:0:0:
320,192,52830,1,0,0:0:0:0:
448,192,52830,1,0,0:0:0:0:
320,192,53080,1,0,0:0:0:0:
192,192,53080,1,0,0:0:0:0:
64,192,53080,1,0,0:0:0:0:
64,192,53330,1,0,0:0:0:0:
448,192,53330,1,0,0:0:0:0:
192,192,53330,1,0,0:0:0:0:
320,192,53455,1,0,0:0:0:0:
320,192,53580,1,0,0:0:0:0:
320,192,53705,1,0,0:0:0:0:
320,192,53830,1,0,0:0:0:0:
320,192,53955,1,0,0:0:0:0:
320,192,54080,1,0,0:0:0:0:
320,192,54205,1,0,0:0:0:0:
448,192,54267,1,0,0:0:0:0:
320,192,54330,1,0,0:0:0:0:
64,192,54330,1,0,0:0:0:0:
192,192,54330,1,0,0:0:0:0:
448,192,54580,5,0,0:0:0:0:
192,192,54580,1,0,0:0:0:0:
64,192,54580,1,0,0:0:0:0:
448,192,54830,5,0,0:0:0:0:
192,192,54830,1,0,0:0:0:0:
320,192,54830,128,0,54892:0:0:0:0:
192,192,55017,128,0,55080:0:0:0:0:
320,192,55205,128,0,55267:0:0:0:0:
192,192,55267,128,0,55330:0:0:0:0:
448,192,55330,1,0,0:0:0:0:
320,192,55330,1,0,0:0:0:0:
64,192,55330,1,0,0:0:0:0:
192,192,55580,1,0,0:0:0:0:
64,192,55580,1,0,0:0:0:0:
320,192,55580,1,0,0:0:0:0:
320,192,55830,1,0,0:0:0:0:
448,192,55830,1,0,0:0:0:0:
64,192,55830,1,0,0:0:0:0:
192,192,55892,1,0,0:0:0:0:
320,192,55955,1,0,0:0:0:0:
448,192,55955,1,0,0:0:0:0:
192,192,56080,1,0,0:0:0:0:
64,192,56080,1,0,0:0:0:0:
320,192,56080,1,0,0:0:0:0:
448,192,56142,1,0,0:0:0:0:
320,192,56205,1,0,0:0:0:0:
192,192,56267,1,0,0:0:0:0:
64,192,56330,1,0,0:0:0:0:
320,192,56330,1,0,0:0:0:0:
448,192,56330,1,0,0:0:0:0:
192,192,56392,1,0,0:0:0:0:
320,192,56455,1,0,0:0:0:0:
448,192,56517,1,0,0:0:0:0:
320,192,56580,1,0,0:0:0:0:
192,192,56580,1,0,0:0:0:0:
64,192,56580,1,0,0:0:0:0:
448,192,56642,1,0,0:0:0:0:
320,192,56705,1,0,0:0:0:0:
192,192,56767,1,0,0:0:0:0:
64,192,56830,1,0,0:0:0:0:
320,192,56830,1,0,0:0:0:0:
448,192,56830,1,0,0:0:0:0:
192,192,56892,1,0,0:0:0:0:
320,192,56955,1,0,0:0:0:0:
192,192,57017,1,0,0:0:0:0:
64,192,57017,1,0,0:0:0:0:
320,192,57080,1,0,0:0:0:0:
448,192,57080,1,0,0:0:0:0:
192,192,57205,1,0,0:0:0:0:
64,192,57205,1,0,0:0:0:0:
448,192,57205,1,0,0:0:0:0:
320,192,57267,1,0,0:0:0:0:
192,192,57330,1,0,0:0:0:0:
64,192,57392,1,0,0:0:0:0:
448,192,57455,1,0,0:0:0:0:
320,192,57517,1,0,0:0:0:0:
192,192,57580,1,0,0:0:0:0:
64,192,57580,1,0,0:0:0:0:
448,192,57663,1,0,0:0:0:0:
320,192,57663,1,0,0:0:0:0:
192,192,57746,1,0,0:0:0:0:
64,192,57746,1,0,0:0:0:0:
320,192,57830,1,0,0:0:0:0:
448,192,57830,1,0,0:0:0:0:
192,192,57913,1,0,0:0:0:0:
64,192,57913,1,0,0:0:0:0:
320,192,57996,1,0,0:0:0:0:
448,192,57996,1,0,0:0:0:0:
192,192,58080,1,0,0:0:0:0:
64,192,58080,1,0,0:0:0:0:
320,192,58142,1,0,0:0:0:0:
448,192,58205,1,0,0:0:0:0:
64,192,58267,1,0,0:0:0:0:
320,192,58330,1,0,0:0:0:0:
448,192,58330,1,0,0:0:0:0:
192,192,58413,1,0,0:0:0:0:
64,192,58413,1,0,0:0:0:0:
320,192,58496,1,0,0:0:0:0:
448,192,58496,1,0,0:0:0:0:
192,192,58580,1,0,0:0:0:0:
64,192,58580,1,0,0:0:0:0:
320,192,58663,1,0,0:0:0:0:
448,192,58663,1,0,0:0:0:0:
192,192,58746,1,0,0:0:0:0:
64,192,58746,1,0,0:0:0:0:
320,192,58830,1,0,0:0:0:0:
448,192,58830,1,0,0:0:0:0:
192,192,58913,1,0,0:0:0:0:
64,192,58913,1,0,0:0:0:0:
320,192,58996,1,0,0:0:0:0:
448,192,58996,1,0,0:0:0:0:
192,192,59080,1,0,0:0:0:0:
64,192,59080,1,0,0:0:0:0:
320,192,59142,1,0,0:0:0:0:
448,192,59205,1,0,0:0:0:0:
64,192,59267,1,0,0:0:0:0:
192,192,59330,1,0,0:0:0:0:
448,192,59392,5,0,0:0:0:0:
320,192,59455,1,0,0:0:0:0:
192,192,59517,1,0,0:0:0:0:
64,192,59580,1,0,0:0:0:0:
320,192,59830,5,0,0:0:0:0:
448,192,59830,1,0,0:0:0:0:
192,192,59830,128,0,59955:0:0:0:0:
320,192,59955,128,0,60205:0:0:0:0:
64,192,60330,1,0,0:0:0:0:
192,192,60330,1,0,0:0:0:0:
448,192,60392,1,0,0:0:0:0:
320,192,60392,1,0,0:0:0:0:
192,192,60455,1,0,0:0:0:0:
64,192,60455,1,0,0:0:0:0:
320,192,60517,1,0,0:0:0:0:
448,192,60517,1,0,0:0:0:0:
192,192,60830,1,0,0:0:0:0:
64,192,60830,1,0,0:0:0:0:
320,192,60830,1,0,0:0:0:0:
448,192,60892,1,0,0:0:0:0:
320,192,60955,1,0,0:0:0:0:
64,192,61017,1,0,0:0:0:0:
192,192,61080,1,0,0:0:0:0:
448,192,61142,1,0,0:0:0:0:
320,192,61205,1,0,0:0:0:0:
64,192,61267,1,0,0:0:0:0:
192,192,61330,1,0,0:0:0:0:
320,192,61330,1,0,0:0:0:0:
448,192,61330,1,0,0:0:0:0:
64,192,61392,1,0,0:0:0:0:
192,192,61455,1,0,0:0:0:0:
320,192,61517,1,0,0:0:0:0:
448,192,61580,1,0,0:0:0:0:
192,192,61580,1,0,0:0:0:0:
64,192,61580,1,0,0:0:0:0:
320,192,61642,1,0,0:0:0:0:
192,192,61705,1,0,0:0:0:0:
64,192,61767,1,0,0:0:0:0:
320,192,61830,1,0,0:0:0:0:
448,192,61830,1,0,0:0:0:0:
192,192,61892,1,0,0:0:0:0:
320,192,61955,1,0,0:0:0:0:
192,192,62017,1,0,0:0:0:0:
64,192,62080,1,0,0:0:0:0:
320,192,62080,1,0,0:0:0:0:
448,192,62080,1,0,0:0:0:0:
192,192,62142,1,0,0:0:0:0:
320,192,62205,1,0,0:0:0:0:
448,192,62267,1,0,0:0:0:0:
192,192,62330,1,0,0:0:0:0:
64,192,62330,1,0,0:0:0:0:
320,192,62413,1,0,0:0:0:0:
448,192,62413,1,0,0:0:0:0:
192,192,62496,1,0,0:0:0:0:
64,192,62496,1,0,0:0:0:0:
320,192,62580,1,0,0:0:0:0:
448,192,62580,1,0,0:0:0:0:
192,192,62663,1,0,0:0:0:0:
64,192,62663,1,0,0:0:0:0:
320,192,62746,1,0,0:0:0:0:
448,192,62746,1,0,0:0:0:0:
192,192,62830,1,0,0:0:0:0:
64,192,62830,1,0,0:0:0:0:
320,192,62913,1,0,0:0:0:0:
448,192,62913,1,0,0:0:0:0:
192,192,62996,1,0,0:0:0:0:
64,192,62996,1,0,0:0:0:0:
320,192,63080,1,0,0:0:0:0:
448,192,63080,1,0,0:0:0:0:
192,192,63830,128,0,65205:0:0:0:0:
448,192,63830,128,0,65205:0:0:0:0:
64,192,63830,128,0,65205:0:0:0:0:
192,192,65330,128,0,66642:0:0:0:0:
448,192,65330,128,0,66642:0:0:0:0:
64,192,65330,128,0,66642:0:0:0:0:
320,192,66830,5,0,0:0:0:0:
192,192,66830,1,0,0:0:0:0:
64,192,66892,1,0,0:0:0:0:
448,192,66892,1,0,0:0:0:0:
320,192,66955,1,0,0:0:0:0:
192,192,66955,1,0,0:0:0:0:
64,192,67017,1,0,0:0:0:0:
320,192,67080,5,0,0:0:0:0:
448,192,67080,1,0,0:0:0:0:
192,192,67142,1,0,0:0:0:0:
64,192,67142,1,0,0:0:0:0:
320,192,67205,1,0,0:0:0:0:
448,192,67205,1,0,0:0:0:0:
192,192,67267,1,0,0:0:0:0:
64,192,67267,1,0,0:0:0:0:
320,192,67330,1,0,0:0:0:0:
448,192,67330,1,0,0:0:0:0:
192,192,67455,1,0,0:0:0:0:
64,192,67455,1,0,0:0:0:0:
192,192,67580,1,0,0:0:0:0:
320,192,67580,1,0,0:0:0:0:
64,192,67705,1,0,0:0:0:0:
320,192,67705,1,0,0:0:0:0:
448,192,67830,1,0,0:0:0:0:
64,192,67830,1,0,0:0:0:0:
320,192,67955,1,0,0:0:0:0:
448,192,67955,1,0,0:0:0:0:
320,192,68080,1,0,0:0:0:0:
192,192,68080,1,0,0:0:0:0:
192,192,68205,1,0,0:0:0:0:
64,192,68205,1,0,0:0:0:0:
64,192,68330,1,0,0:0:0:0:
320,192,68330,1,0,0:0:0:0:
448,192,68330,1,0,0:0:0:0:
320,192,68455,1,0,0:0:0:0:
192,192,68455,1,0,0:0:0:0:
64,192,68580,1,0,0:0:0:0:
448,192,68580,1,0,0:0:0:0:
192,192,68580,1,0,0:0:0:0:
320,192,68705,1,0,0:0:0:0:
448,192,68705,1,0,0:0:0:0:
192,192,68830,1,0,0:0:0:0:
64,192,68830,1,0,0:0:0:0:
320,192,68830,1,0,0:0:0:0:
448,192,68955,1,0,0:0:0:0:
64,192,68955,1,0,0:0:0:0:
320,192,69080,1,0,0:0:0:0:
448,192,69080,1,0,0:0:0:0:
192,192,69080,1,0,0:0:0:0:
192,192,69205,1,0,0:0:0:0:
64,192,69205,1,0,0:0:0:0:
64,192,69330,1,0,0:0:0:0:
320,192,69330,1,0,0:0:0:0:
448,192,69330,1,0,0:0:0:0:
320,192,69455,1,0,0:0:0:0:
192,192,69455,1,0,0:0:0:0:
192,192,69580,1,0,0:0:0:0:
64,192,69580,1,0,0:0:0:0:
448,192,69580,1,0,0:0:0:0:
320,192,69705,1,0,0:0:0:0:
448,192,69705,1,0,0:0:0:0:
320,192,69830,1,0,0:0:0:0:
192,192,69830,1,0,0:0:0:0:
64,192,69830,1,0,0:0:0:0:
448,192,69955,1,0,0:0:0:0:
64,192,69955,1,0,0:0:0:0:
320,192,70080,1,0,0:0:0:0:
448,192,70080,1,0,0:0:0:0:
192,192,70080,1,0,0:0:0:0:
320,192,70205,1,0,0:0:0:0:
192,192,70205,1,0,0:0:0:0:
192,192,70330,1,0,0:0:0:0:
64,192,70330,1,0,0:0:0:0:
448,192,70413,1,0,0:0:0:0:
320,192,70413,1,0,0:0:0:0:
192,192,70496,1,0,0:0:0:0:
64,192,70496,1,0,0:0:0:0:
320,192,70580,1,0,0:0:0:0:
448,192,70580,1,0,0:0:0:0:
192,192,70663,1,0,0:0:0:0:
64,192,70663,1,0,0:0:0:0:
320,192,70746,1,0,0:0:0:0:
448,192,70746,1,0,0:0:0:0:
192,192,70830,1,0,0:0:0:0:
64,192,70830,1,0,0:0:0:0:
320,192,70913,5,0,0:0:0:0:
448,192,70913,1,0,0:0:0:0:
192,192,70996,1,0,0:0:0:0:
64,192,70996,1,0,0:0:0:0:
320,192,71080,1,0,0:0:0:0:
448,192,71080,1,0,0:0:0:0:
192,192,71163,1,0,0:0:0:0:
64,192,71163,1,0,0:0:0:0:
320,192,71246,1,0,0:0:0:0:
448,192,71246,1,0,0:0:0:0:
64,192,71330,128,0,71517:0:0:0:0:
64,192,71705,128,0,71892:0:0:0:0:
64,192,72080,128,0,72267:0:0:0:0:
320,192,72330,1,0,0:0:0:0:
448,192,72330,1,0,0:0:0:0:
192,192,72392,128,0,72455:0:0:0:0:
64,192,72455,128,0,72517:0:0:0:0:
320,192,72517,128,0,72580:0:0:0:0:
448,192,72580,128,0,72642:0:0:0:0:
192,192,72580,1,0,0:0:0:0:
64,192,72642,128,0,72705:0:0:0:0:
320,192,72705,128,0,72830:0:0:0:0:
64,192,72830,128,0,72955:0:0:0:0:
448,192,72830,1,0,0:0:0:0:
192,192,72955,128,0,73080:0:0:0:0:
320,192,73080,128,0,73267:0:0:0:0:
448,192,73080,1,0,0:0:0:0:
192,192,73330,1,0,0:0:0:0:
448,192,73330,128,0,73392:0:0:0:0:
64,192,73330,128,0,73392:0:0:0:0:
320,192,73392,1,0,0:0:0:0:
192,192,73455,1,0,0:0:0:0:
192,192,73517,1,0,0:0:0:0:
64,192,73580,1,0,0:0:0:0:
320,192,73642,1,0,0:0:0:0:
448,192,73705,1,0,0:0:0:0:
64,192,73705,128,0,73767:0:0:0:0:
192,192,73705,128,0,73767:0:0:0:0:
320,192,73767,1,0,0:0:0:0:
448,192,73830,1,0,0:0:0:0:
448,192,73892,1,0,0:0:0:0:
320,192,73955,1,0,0:0:0:0:
192,192,74017,1,0,0:0:0:0:
320,192,74080,1,0,0:0:0:0:
448,192,74080,128,0,74142:0:0:0:0:
64,192,74080,128,0,74142:0:0:0:0:
192,192,74142,1,0,0:0:0:0:
320,192,74205,1,0,0:0:0:0:
64,192,74267,1,0,0:0:0:0:
192,192,74330,1,0,0:0:0:0:
448,192,74392,1,0,0:0:0:0:
64,192,74455,1,0,0:0:0:0:
64,192,74517,1,0,0:0:0:0:
320,192,74580,1,0,0:0:0:0:
192,192,74580,128,0,74642:0:0:0:0:
448,192,74642,1,0,0:0:0:0:
320,192,74705,1,0,0:0:0:0:
320,192,74767,1,0,0:0:0:0:
192,192,74830,1,0,0:0:0:0:
448,192,74830,128,0,74892:0:0:0:0:
64,192,74830,128,0,74892:0:0:0:0:
320,192,74892,1,0,0:0:0:0:
192,192,74955,1,0,0:0:0:0:
64,192,75017,1,0,0:0:0:0:
320,192,75080,1,0,0:0:0:0:
448,192,75080,1,0,0:0:0:0:
192,192,75142,1,0,0:0:0:0:
64,192,75142,1,0,0:0:0:0:
320,192,75205,1,0,0:0:0:0:
448,192,75205,1,0,0:0:0:0:
192,192,75267,1,0,0:0:0:0:
64,192,75267,1,0,0:0:0:0:
320,192,75330,1,0,0:0:0:0:
448,192,75330,1,0,0:0:0:0:
192,192,75392,1,0,0:0:0:0:
320,192,75455,1,0,0:0:0:0:
64,192,75517,1,0,0:0:0:0:
192,192,75580,1,0,0:0:0:0:
448,192,75580,1,0,0:0:0:0:
320,192,75642,1,0,0:0:0:0:
448,192,75705,1,0,0:0:0:0:
64,192,75767,1,0,0:0:0:0:
192,192,75830,1,0,0:0:0:0:
320,192,75830,1,0,0:0:0:0:
448,192,75892,1,0,0:0:0:0:
320,192,75955,1,0,0:0:0:0:
192,192,76017,1,0,0:0:0:0:
64,192,76017,1,0,0:0:0:0:
320,192,76080,1,0,0:0:0:0:
448,192,76080,1,0,0:0:0:0:
192,192,76142,1,0,0:0:0:0:
64,192,76205,1,0,0:0:0:0:
320,192,76205,1,0,0:0:0:0:
448,192,76267,1,0,0:0:0:0:
192,192,76330,1,0,0:0:0:0:
64,192,76330,1,0,0:0:0:0:
320,192,76392,1,0,0:0:0:0:
448,192,76455,1,0,0:0:0:0:
192,192,76517,1,0,0:0:0:0:
320,192,76580,1,0,0:0:0:0:
64,192,76580,1,0,0:0:0:0:
448,192,76642,1,0,0:0:0:0:
320,192,76705,1,0,0:0:0:0:
192,192,76767,1,0,0:0:0:0:
64,192,76830,1,0,0:0:0:0:
320,192,76830,1,0,0:0:0:0:
448,192,76892,1,0,0:0:0:0:
192,192,76955,1,0,0:0:0:0:
64,192,77017,1,0,0:0:0:0:
320,192,77017,1,0,0:0:0:0:
448,192,77080,1,0,0:0:0:0:
192,192,77080,1,0,0:0:0:0:
320,192,77142,1,0,0:0:0:0:
192,192,77205,1,0,0:0:0:0:
64,192,77205,1,0,0:0:0:0:
320,192,77267,1,0,0:0:0:0:
448,192,77330,1,0,0:0:0:0:
64,192,77330,1,0,0:0:0:0:
192,192,77392,1,0,0:0:0:0:
448,192,77455,1,0,0:0:0:0:
320,192,77517,1,0,0:0:0:0:
192,192,77580,1,0,0:0:0:0:
64,192,77580,1,0,0:0:0:0:
320,192,77642,1,0,0:0:0:0:
448,192,77705,1,0,0:0:0:0:
64,192,77767,1,0,0:0:0:0:
192,192,77830,1,0,0:0:0:0:
320,192,77830,1,0,0:0:0:0:
448,192,77892,1,0,0:0:0:0:
320,192,77955,1,0,0:0:0:0:
192,192,78017,1,0,0:0:0:0:
64,192,78017,1,0,0:0:0:0:
448,192,78080,1,0,0:0:0:0:
320,192,78080,1,0,0:0:0:0:
192,192,78142,1,0,0:0:0:0:
64,192,78205,1,0,0:0:0:0:
320,192,78205,1,0,0:0:0:0:
448,192,78267,1,0,0:0:0:0:
192,192,78330,1,0,0:0:0:0:
64,192,78330,1,0,0:0:0:0:
320,192,78392,1,0,0:0:0:0:
448,192,78455,1,0,0:0:0:0:
192,192,78517,1,0,0:0:0:0:
64,192,78517,1,0,0:0:0:0:
320,192,78580,1,0,0:0:0:0:
448,192,78580,1,0,0:0:0:0:
192,192,78642,1,0,0:0:0:0:
64,192,78705,1,0,0:0:0:0:
320,192,78705,1,0,0:0:0:0:
448,192,78767,1,0,0:0:0:0:
192,192,78830,1,0,0:0:0:0:
64,192,78830,1,0,0:0:0:0:
320,192,78892,5,0,0:0:0:0:
448,192,78955,1,0,0:0:0:0:
64,192,79017,1,0,0:0:0:0:
192,192,79017,1,0,0:0:0:0:
320,192,79080,1,0,0:0:0:0:
448,192,79080,1,0,0:0:0:0:
192,192,79142,1,0,0:0:0:0:
64,192,79205,1,0,0:0:0:0:
320,192,79205,1,0,0:0:0:0:
448,192,79267,1,0,0:0:0:0:
320,192,79330,5,0,0:0:0:0:
192,192,79330,1,0,0:0:0:0:
64,192,79455,1,0,0:0:0:0:
192,192,79455,1,0,0:0:0:0:
64,192,79580,1,0,0:0:0:0:
448,192,79580,1,0,0:0:0:0:
320,192,79705,128,0,79830:0:0:0:0:
448,192,79830,128,0,79892:0:0:0:0:
192,192,79892,128,0,79955:0:0:0:0:
320,192,79955,128,0,80080:0:0:0:0:
64,192,80080,128,0,80142:0:0:0:0:
192,192,80142,128,0,80205:0:0:0:0:
320,192,80205,128,0,80330:0:0:0:0:
192,192,80330,1,0,0:0:0:0:
64,192,80392,1,0,0:0:0:0:
448,192,80455,1,0,0:0:0:0:
320,192,80517,1,0,0:0:0:0:
64,192,80580,1,0,0:0:0:0:
320,192,80705,128,0,80830:0:0:0:0:
448,192,80830,128,0,80892:0:0:0:0:
192,192,80892,128,0,80955:0:0:0:0:
64,192,80955,1,0,0:0:0:0:
320,192,80955,1,0,0:0:0:0:
192,192,81080,1,0,0:0:0:0:
64,192,81080,1,0,0:0:0:0:
320,192,81142,1,0,0:0:0:0:
448,192,81142,1,0,0:0:0:0:
192,192,81205,1,0,0:0:0:0:
64,192,81205,1,0,0:0:0:0:
320,192,81267,1,0,0:0:0:0:
448,192,81267,1,0,0:0:0:0:
64,192,81330,1,0,0:0:0:0:
192,192,81330,128,0,81392:0:0:0:0:
320,192,81392,1,0,0:0:0:0:
64,192,81455,1,0,0:0:0:0:
320,192,81517,1,0,0:0:0:0:
448,192,81517,128,0,81580:0:0:0:0:
192,192,81580,1,0,0:0:0:0:
64,192,81580,128,0,81642:0:0:0:0:
320,192,81642,1,0,0:0:0:0:
64,192,81705,1,0,0:0:0:0:
192,192,81705,128,0,81767:0:0:0:0:
448,192,81705,128,0,81767:0:0:0:0:
320,192,81767,1,0,0:0:0:0:
192,192,81830,1,0,0:0:0:0:
64,192,81830,128,0,81892:0:0:0:0:
448,192,81892,1,0,0:0:0:0:
192,192,81955,1,0,0:0:0:0:
320,192,82017,1,0,0:0:0:0:
448,192,82017,128,0,82080:0:0:0:0:
64,192,82080,1,0,0:0:0:0:
192,192,82080,128,0,82142:0:0:0:0:
320,192,82142,1,0,0:0:0:0:
64,192,82205,1,0,0:0:0:0:
448,192,82205,128,0,82267:0:0:0:0:
192,192,82267,1,0,0:0:0:0:
64,192,82330,1,0,0:0:0:0:
448,192,82330,1,0,0:0:0:0:
320,192,82330,128,0,82392:0:0:0:0:
192,192,82392,1,0,0:0:0:0:
192,192,82455,1,0,0:0:0:0:
320,192,82517,1,0,0:0:0:0:
448,192,82517,128,0,82580:0:0:0:0:
192,192,82580,1,0,0:0:0:0:
64,192,82580,128,0,82642:0:0:0:0:
320,192,82642,1,0,0:0:0:0:
64,192,82705,1,0,0:0:0:0:
192,192,82705,128,0,82767:0:0:0:0:
448,192,82705,128,0,82767:0:0:0:0:
320,192,82767,1,0,0:0:0:0:
192,192,82830,1,0,0:0:0:0:
64,192,82830,128,0,82892:0:0:0:0:
448,192,82892,1,0,0:0:0:0:
192,192,82955,1,0,0:0:0:0:
320,192,83017,1,0,0:0:0:0:
448,192,83017,128,0,83080:0:0:0:0:
64,192,83080,1,0,0:0:0:0:
192,192,83080,128,0,83142:0:0:0:0:
320,192,83142,1,0,0:0:0:0:
192,192,83205,1,0,0:0:0:0:
64,192,83205,128,0,83267:0:0:0:0:
448,192,83205,128,0,83267:0:0:0:0:
320,192,83267,1,0,0:0:0:0:
192,192,83330,1,0,0:0:0:0:
448,192,83468,1,0,0:0:0:0:
192,192,83607,1,0,0:0:0:0:
320,192,83746,1,0,0:0:0:0:
64,192,83885,1,0,0:0:0:0:
448,192,84024,1,0,0:0:0:0:
320,192,84163,1,0,0:0:0:0:
192,192,84301,1,0,0:0:0:0:
320,192,84455,1,0,0:0:0:0:
448,192,84455,1,0,0:0:0:0:
192,192,84526,1,0,0:0:0:0:
64,192,84599,1,0,0:0:0:0:
448,192,84671,1,0,0:0:0:0:
192,192,84743,1,0,0:0:0:0:
64,192,84743,1,0,0:0:0:0:
320,192,84743,1,0,0:0:0:0:
192,192,85032,1,0,0:0:0:0:
320,192,85032,1,0,0:0:0:0:
448,192,85032,1,0,0:0:0:0:
64,192,85105,1,0,0:0:0:0:
192,192,85177,1,0,0:0:0:0:
448,192,85321,1,0,0:0:0:0:
320,192,85394,1,0,0:0:0:0:
192,192,85465,1,0,0:0:0:0:
64,192,85538,1,0,0:0:0:0:
320,192,85610,1,0,0:0:0:0:
448,192,85682,1,0,0:0:0:0:
64,192,85755,1,0,0:0:0:0:
192,192,85827,1,0,0:0:0:0:
448,192,85900,1,0,0:0:0:0:
320,192,85971,1,0,0:0:0:0:
192,192,86044,1,0,0:0:0:0:
64,192,86116,1,0,0:0:0:0:
320,192,86188,1,0,0:0:0:0:
448,192,86260,1,0,0:0:0:0:
192,192,86333,1,0,0:0:0:0:
320,192,86405,1,0,0:0:0:0:
448,192,86477,1,0,0:0:0:0:
64,192,86550,1,0,0:0:0:0:
192,192,86622,1,0,0:0:0:0:
320,192,86694,1,0,0:0:0:0:
64,192,86766,1,0,0:0:0:0:
448,192,86839,1,0,0:0:0:0:
320,192,86910,1,0,0:0:0:0:
192,192,86983,1,0,0:0:0:0:
64,192,87055,1,0,0:0:0:0:
320,192,87128,1,0,0:0:0:0:
448,192,87200,1,0,0:0:0:0:
64,192,87272,1,0,0:0:0:0:
192,192,87345,1,0,0:0:0:0:
320,192,87409,1,0,0:0:0:0:
448,192,87471,1,0,0:0:0:0:
64,192,87534,1,0,0:0:0:0:
192,192,87588,128,0,87659:0:0:0:0:
448,192,87588,128,0,87659:0:0:0:0:
320,192,87730,128,0,87800:0:0:0:0:
64,192,87730,128,0,87800:0:0:0:0:
64,192,87871,1,0,0:0:0:0:
192,192,87871,128,0,87943:0:0:0:0:
448,192,87871,128,0,87943:0:0:0:0:
320,192,87943,1,0,0:0:0:0:
64,192,88014,1,0,0:0:0:0:
320,192,88085,1,0,0:0:0:0:
192,192,88155,1,0,0:0:0:0:
64,192,88155,128,0,88227:0:0:0:0:
448,192,88155,128,0,88227:0:0:0:0:
320,192,88227,1,0,0:0:0:0:
192,192,88298,1,0,0:0:0:0:
192,192,88369,1,0,0:0:0:0:
64,192,88440,1,0,0:0:0:0:
448,192,88440,128,0,88510:0:0:0:0:
320,192,88440,128,0,88510:0:0:0:0:
192,192,88510,1,0,0:0:0:0:
64,192,88582,1,0,0:0:0:0:
192,192,88653,1,0,0:0:0:0:
320,192,88724,1,0,0:0:0:0:
64,192,88724,128,0,88795:0:0:0:0:
448,192,88724,128,0,88795:0:0:0:0:
192,192,88795,1,0,0:0:0:0:
320,192,88866,1,0,0:0:0:0:
320,192,88937,1,0,0:0:0:0:
64,192,89008,1,0,0:0:0:0:
192,192,89008,128,0,89079:0:0:0:0:
448,192,89008,128,0,89079:0:0:0:0:
320,192,89079,1,0,0:0:0:0:
64,192,89150,1,0,0:0:0:0:
64,192,89221,1,0,0:0:0:0:
192,192,89292,1,0,0:0:0:0:
320,192,89292,128,0,89363:0:0:0:0:
448,192,89292,128,0,89363:0:0:0:0:
64,192,89363,1,0,0:0:0:0:
192,192,89434,1,0,0:0:0:0:
320,192,89505,1,0,0:0:0:0:
448,192,89576,1,0,0:0:0:0:
64,192,89576,128,0,89647:0:0:0:0:
192,192,89576,128,0,89647:0:0:0:0:
320,192,89647,1,0,0:0:0:0:
448,192,89718,1,0,0:0:0:0:
448,192,89790,1,0,0:0:0:0:
320,192,89860,1,0,0:0:0:0:
192,192,89860,128,0,89931:0:0:0:0:
64,192,89860,128,0,89931:0:0:0:0:
448,192,89931,1,0,0:0:0:0:
320,192,90002,1,0,0:0:0:0:
320,192,90073,1,0,0:0:0:0:
64,192,90145,1,0,0:0:0:0:
192,192,90180,1,0,0:0:0:0:
320,192,90215,1,0,0:0:0:0:
448,192,90251,1,0,0:0:0:0:
192,192,90286,1,0,0:0:0:0:
64,192,90357,1,0,0:0:0:0:
320,192,90429,1,0,0:0:0:0:
192,192,90429,128,0,90500:0:0:0:0:
448,192,90429,128,0,90500:0:0:0:0:
64,192,90500,1,0,0:0:0:0:
320,192,90570,1,0,0:0:0:0:
320,192,90641,1,0,0:0:0:0:
448,192,90713,1,0,0:0:0:0:
64,192,90713,128,0,90784:0:0:0:0:
192,192,90713,128,0,90784:0:0:0:0:
320,192,90784,1,0,0:0:0:0:
448,192,90855,1,0,0:0:0:0:
320,192,90925,1,0,0:0:0:0:
192,192,90996,1,0,0:0:0:0:
64,192,90996,128,0,91068:0:0:0:0:
448,192,90996,128,0,91068:0:0:0:0:
320,192,91068,1,0,0:0:0:0:
320,192,91139,1,0,0:0:0:0:
192,192,91210,1,0,0:0:0:0:
64,192,91280,1,0,0:0:0:0:
448,192,91280,128,0,91352:0:0:0:0:
320,192,91280,128,0,91352:0:0:0:0:
192,192,91352,1,0,0:0:0:0:
64,192,91423,1,0,0:0:0:0:
64,192,91494,1,0,0:0:0:0:
192,192,91565,1,0,0:0:0:0:
320,192,91565,128,0,91635:0:0:0:0:
448,192,91565,128,0,91635:0:0:0:0:
64,192,91635,1,0,0:0:0:0:
192,192,91707,1,0,0:0:0:0:
192,192,91778,1,0,0:0:0:0:
448,192,91849,1,0,0:0:0:0:
320,192,91920,1,0,0:0:0:0:
320,192,91991,1,0,0:0:0:0:
64,192,91991,1,0,0:0:0:0:
192,192,92062,1,0,0:0:0:0:
64,192,92133,1,0,0:0:0:0:
448,192,92133,1,0,0:0:0:0:
320,192,92204,1,0,0:0:0:0:
192,192,92204,1,0,0:0:0:0:
448,192,92275,1,0,0:0:0:0:
448,192,92346,1,0,0:0:0:0:
320,192,92417,1,0,0:0:0:0:
192,192,92465,1,0,0:0:0:0:
64,192,92505,1,0,0:0:0:0:
448,192,92559,1,0,0:0:0:0:
320,192,92606,1,0,0:0:0:0:
192,192,92701,1,0,0:0:0:0:
64,192,92701,1,0,0:0:0:0:
192,192,92772,1,0,0:0:0:0:
320,192,92843,1,0,0:0:0:0:
448,192,92843,128,0,92915:0:0:0:0:
192,192,92915,1,0,0:0:0:0:
64,192,92985,1,0,0:0:0:0:
320,192,92985,128,0,93056:0:0:0:0:
64,192,93056,1,0,0:0:0:0:
320,192,93127,1,0,0:0:0:0:
192,192,93127,128,0,93198:0:0:0:0:
448,192,93198,1,0,0:0:0:0:
320,192,93270,1,0,0:0:0:0:
64,192,93270,128,0,93340:0:0:0:0:
320,192,93340,1,0,0:0:0:0:
448,192,93411,1,0,0:0:0:0:
192,192,93411,128,0,93482:0:0:0:0:
64,192,93482,1,0,0:0:0:0:
448,192,93554,1,0,0:0:0:0:
320,192,93554,1,0,0:0:0:0:
448,192,93625,1,0,0:0:0:0:
192,192,93695,1,0,0:0:0:0:
64,192,93695,128,0,93766:0:0:0:0:
320,192,93766,1,0,0:0:0:0:
192,192,93838,1,0,0:0:0:0:
448,192,93838,128,0,93909:0:0:0:0:
192,192,93909,1,0,0:0:0:0:
320,192,93980,1,0,0:0:0:0:
64,192,93980,128,0,94050:0:0:0:0:
448,192,94050,1,0,0:0:0:0:
320,192,94121,1,0,0:0:0:0:
192,192,94121,1,0,0:0:0:0:
320,192,94193,1,0,0:0:0:0:
192,192,94264,1,0,0:0:0:0:
64,192,94264,128,0,94335:0:0:0:0:
320,192,94335,1,0,0:0:0:0:
448,192,94405,1,0,0:0:0:0:
192,192,94405,128,0,94477:0:0:0:0:
448,192,94477,1,0,0:0:0:0:
64,192,94548,1,0,0:0:0:0:
192,192,94548,1,0,0:0:0:0:
320,192,94619,1,0,0:0:0:0:
448,192,94619,1,0,0:0:0:0:
64,192,94690,1,0,0:0:0:0:
192,192,94690,128,0,94760:0:0:0:0:
320,192,94760,1,0,0:0:0:0:
64,192,94832,1,0,0:0:0:0:
448,192,94832,128,0,94903:0:0:0:0:
64,192,94903,1,0,0:0:0:0:
320,192,94974,1,0,0:0:0:0:
192,192,94974,128,0,95045:0:0:0:0:
448,192,95045,1,0,0:0:0:0:
320,192,95116,1,0,0:0:0:0:
64,192,95116,128,0,95187:0:0:0:0:
320,192,95187,1,0,0:0:0:0:
64,192,95258,1,0,0:0:0:0:
448,192,95258,128,0,95329:0:0:0:0:
320,192,95329,1,0,0:0:0:0:
192,192,95400,1,0,0:0:0:0:
64,192,95400,1,0,0:0:0:0:
192,192,95471,1,0,0:0:0:0:
448,192,95542,1,0,0:0:0:0:
320,192,95542,128,0,95613:0:0:0:0:
192,192,95613,1,0,0:0:0:0:
64,192,95684,1,0,0:0:0:0:
448,192,95684,128,0,95755:0:0:0:0:
64,192,95755,1,0,0:0:0:0:
320,192,95826,1,0,0:0:0:0:
192,192,95826,128,0,95897:0:0:0:0:
448,192,95897,1,0,0:0:0:0:
192,192,95968,1,0,0:0:0:0:
64,192,95968,1,0,0:0:0:0:
448,192,96040,1,0,0:0:0:0:
320,192,96040,1,0,0:0:0:0:
192,192,96110,1,0,0:0:0:0:
64,192,96110,1,0,0:0:0:0:
320,192,96181,1,0,0:0:0:0:
448,192,96252,1,0,0:0:0:0:
192,192,96323,1,0,0:0:0:0:
448,192,96395,1,0,0:0:0:0:
320,192,96395,1,0,0:0:0:0:
192,192,96465,1,0,0:0:0:0:
64,192,96465,1,0,0:0:0:0:
320,192,96536,1,0,0:0:0:0:
192,192,96607,1,0,0:0:0:0:
64,192,96607,1,0,0:0:0:0:
320,192,96679,1,0,0:0:0:0:
448,192,96679,1,0,0:0:0:0:
192,192,96750,1,0,0:0:0:0:
64,192,96750,1,0,0:0:0:0:
320,192,96820,1,0,0:0:0:0:
448,192,96891,1,0,0:0:0:0:
192,192,96963,5,0,0:0:0:0:
64,192,96963,1,0,0:0:0:0:
192,192,97034,1,0,0:0:0:0:
320,192,97105,1,0,0:0:0:0:
192,192,97175,1,0,0:0:0:0:
64,192,97175,128,0,97246:0:0:0:0:
448,192,97246,1,0,0:0:0:0:
320,192,97246,128,0,97318:0:0:0:0:
192,192,97318,1,0,0:0:0:0:
64,192,97389,1,0,0:0:0:0:
448,192,97389,128,0,97460:0:0:0:0:
64,192,97460,1,0,0:0:0:0:
192,192,97530,1,0,0:0:0:0:
320,192,97530,128,0,97602:0:0:0:0:
64,192,97602,1,0,0:0:0:0:
192,192,97673,1,0,0:0:0:0:
320,192,97744,1,0,0:0:0:0:
448,192,97744,128,0,97815:0:0:0:0:
192,192,97815,1,0,0:0:0:0:
64,192,97815,128,0,97885:0:0:0:0:
320,192,97885,1,0,0:0:0:0:
448,192,97957,1,0,0:0:0:0:
192,192,97957,128,0,98028:0:0:0:0:
448,192,98028,1,0,0:0:0:0:
64,192,98099,5,0,0:0:0:0:
320,192,98099,1,0,0:0:0:0:
192,192,98099,1,0,0:0:0:0:
192,192,98241,1,0,0:0:0:0:
64,192,98241,1,0,0:0:0:0:
320,192,98312,1,0,0:0:0:0:
448,192,98312,1,0,0:0:0:0:
192,192,98383,1,0,0:0:0:0:
64,192,98383,1,0,0:0:0:0:
320,192,98525,1,0,0:0:0:0:
448,192,98525,1,0,0:0:0:0:
64,192,98525,1,0,0:0:0:0:
192,192,98667,1,0,0:0:0:0:
64,192,98667,1,0,0:0:0:0:
448,192,98667,1,0,0:0:0:0:
320,192,98809,1,0,0:0:0:0:
448,192,98809,1,0,0:0:0:0:
192,192,98880,1,0,0:0:0:0:
64,192,98880,1,0,0:0:0:0:
320,192,98951,1,0,0:0:0:0:
448,192,98951,1,0,0:0:0:0:
64,192,99093,1,0,0:0:0:0:
192,192,99093,1,0,0:0:0:0:
320,192,99165,1,0,0:0:0:0:
448,192,99165,1,0,0:0:0:0:
192,192,99235,1,0,0:0:0:0:
64,192,99235,1,0,0:0:0:0:
192,192,99306,1,0,0:0:0:0:
64,192,99377,1,0,0:0:0:0:
320,192,99448,1,0,0:0:0:0:
448,192,99448,128,0,99520:0:0:0:0:
64,192,99520,1,0,0:0:0:0:
192,192,99520,128,0,99590:0:0:0:0:
320,192,99590,1,0,0:0:0:0:
448,192,99661,1,0,0:0:0:0:
64,192,99661,128,0,99732:0:0:0:0:
448,192,99732,1,0,0:0:0:0:
192,192,99804,1,0,0:0:0:0:
64,192,99804,128,0,99875:0:0:0:0:
320,192,99804,128,0,99875:0:0:0:0:
448,192,99875,1,0,0:0:0:0:
192,192,99945,1,0,0:0:0:0:
320,192,100016,1,0,0:0:0:0:
448,192,100016,128,0,100088:0:0:0:0:
64,192,100088,1,0,0:0:0:0:
192,192,100088,128,0,100159:0:0:0:0:
320,192,100159,1,0,0:0:0:0:
448,192,100230,128,0,100300:0:0:0:0:
64,192,100230,1,0,0:0:0:0:
192,192,100230,128,0,100300:0:0:0:0:
320,192,100300,1,0,0:0:0:0:
64,192,100371,128,0,100514:0:0:0:0:
448,192,100371,1,0,0:0:0:0:
448,192,100585,128,0,100655:0:0:0:0:
192,192,100585,1,0,0:0:0:0:
320,192,100655,128,0,100727:0:0:0:0:
64,192,100655,1,0,0:0:0:0:
64,192,100798,1,0,0:0:0:0:
448,192,100798,1,0,0:0:0:0:
192,192,100869,128,0,100940:0:0:0:0:
320,192,100940,128,0,101010:0:0:0:0:
448,192,100940,1,0,0:0:0:0:
64,192,101010,1,0,0:0:0:0:
320,192,101082,128,0,101153:0:0:0:0:
192,192,101153,1,0,0:0:0:0:
64,192,101153,1,0,0:0:0:0:
320,192,101224,128,0,101437:0:0:0:0:
448,192,101224,1,0,0:0:0:0:
192,192,101295,1,0,0:0:0:0:
64,192,101295,1,0,0:0:0:0:
192,192,101508,128,0,101650:0:0:0:0:
320,192,101721,1,0,0:0:0:0:
448,192,101721,128,0,101792:0:0:0:0:
64,192,101792,1,0,0:0:0:0:
192,192,101792,128,0,101863:0:0:0:0:
320,192,101863,1,0,0:0:0:0:
448,192,101934,1,0,0:0:0:0:
64,192,101934,128,0,102005:0:0:0:0:
448,192,102005,1,0,0:0:0:0:
192,192,102076,1,0,0:0:0:0:
320,192,102076,128,0,102147:0:0:0:0:
64,192,102076,128,0,102147:0:0:0:0:
448,192,102147,1,0,0:0:0:0:
320,192,102218,1,0,0:0:0:0:
192,192,102290,1,0,0:0:0:0:
64,192,102290,128,0,102360:0:0:0:0:
448,192,102360,1,0,0:0:0:0:
320,192,102360,128,0,102431:0:0:0:0:
192,192,102431,1,0,0:0:0:0:
64,192,102502,1,0,0:0:0:0:
448,192,102502,128,0,102573:0:0:0:0:
64,192,102573,1,0,0:0:0:0:
448,192,102645,1,0,0:0:0:0:
320,192,102645,1,0,0:0:0:0:
192,192,102715,1,0,0:0:0:0:
64,192,102786,1,0,0:0:0:0:
320,192,102857,1,0,0:0:0:0:
448,192,102857,1,0,0:0:0:0:
192,192,102929,1,0,0:0:0:0:
64,192,102929,1,0,0:0:0:0:
320,192,103000,1,0,0:0:0:0:
448,192,103070,1,0,0:0:0:0:
64,192,103070,1,0,0:0:0:0:
192,192,103141,1,0,0:0:0:0:
320,192,103213,1,0,0:0:0:0:
448,192,103213,1,0,0:0:0:0:
192,192,103284,1,0,0:0:0:0:
64,192,103284,1,0,0:0:0:0:
320,192,103355,1,0,0:0:0:0:
448,192,103425,1,0,0:0:0:0:
64,192,103425,1,0,0:0:0:0:
192,192,103496,1,0,0:0:0:0:
320,192,103496,1,0,0:0:0:0:
448,192,103568,1,0,0:0:0:0:
192,192,103639,1,0,0:0:0:0:
64,192,103639,1,0,0:0:0:0:
320,192,103710,1,0,0:0:0:0:
64,192,103780,1,0,0:0:0:0:
448,192,103780,128,0,103852:0:0:0:0:
192,192,103780,128,0,103852:0:0:0:0:
320,192,103852,1,0,0:0:0:0:
64,192,103923,1,0,0:0:0:0:
320,192,103994,1,0,0:0:0:0:
448,192,103994,128,0,104065:0:0:0:0:
64,192,104065,1,0,0:0:0:0:
192,192,104065,128,0,104135:0:0:0:0:
320,192,104135,1,0,0:0:0:0:
192,192,104207,1,0,0:0:0:0:
448,192,104207,128,0,104278:0:0:0:0:
64,192,104207,128,0,104278:0:0:0:0:
320,192,104278,1,0,0:0:0:0:
192,192,104349,1,0,0:0:0:0:
64,192,104349,1,0,0:0:0:0:
192,192,104420,1,0,0:0:0:0:
320,192,104491,1,0,0:0:0:0:
64,192,104562,1,0,0:0:0:0:
192,192,104562,128,0,104633:0:0:0:0:
448,192,104633,1,0,0:0:0:0:
320,192,104633,128,0,104704:0:0:0:0:
64,192,104704,1,0,0:0:0:0:
448,192,104774,1,0,0:0:0:0:
192,192,104774,128,0,104845:0:0:0:0:
448,192,104845,1,0,0:0:0:0:
320,192,104917,128,0,104988:0:0:0:0:
64,192,104917,128,0,104988:0:0:0:0:
192,192,104988,1,0,0:0:0:0:
448,192,105059,1,0,0:0:0:0:
320,192,105059,128,0,105129:0:0:0:0:
192,192,105129,1,0,0:0:0:0:
64,192,105129,128,0,105200:0:0:0:0:
320,192,105200,1,0,0:0:0:0:
448,192,105200,128,0,105270:0:0:0:0:
192,192,105270,1,0,0:0:0:0:
320,192,105343,1,0,0:0:0:0:
64,192,105343,128,0,105413:0:0:0:0:
320,192,105413,1,0,0:0:0:0:
448,192,105485,1,0,0:0:0:0:
64,192,105485,1,0,0:0:0:0:
192,192,105556,1,0,0:0:0:0:
320,192,105556,1,0,0:0:0:0:
64,192,105627,1,0,0:0:0:0:
448,192,105627,1,0,0:0:0:0:
192,192,105698,1,0,0:0:0:0:
448,192,105770,1,0,0:0:0:0:
320,192,105770,1,0,0:0:0:0:
192,192,105840,1,0,0:0:0:0:
64,192,105840,1,0,0:0:0:0:
320,192,105911,1,0,0:0:0:0:
448,192,105911,1,0,0:0:0:0:
192,192,105982,1,0,0:0:0:0:
64,192,105982,1,0,0:0:0:0:
320,192,106054,1,0,0:0:0:0:
448,192,106054,1,0,0:0:0:0:
192,192,106125,1,0,0:0:0:0:
320,192,106195,1,0,0:0:0:0:
64,192,106266,1,0,0:0:0:0:
192,192,106338,1,0,0:0:0:0:
448,192,106338,1,0,0:0:0:0:
320,192,106409,1,0,0:0:0:0:
448,192,106480,1,0,0:0:0:0:
64,192,106550,1,0,0:0:0:0:
192,192,106621,1,0,0:0:0:0:
320,192,106621,1,0,0:0:0:0:
448,192,106693,1,0,0:0:0:0:
320,192,106764,1,0,0:0:0:0:
192,192,106835,1,0,0:0:0:0:
64,192,106835,1,0,0:0:0:0:
320,192,106905,1,0,0:0:0:0:
448,192,106905,1,0,0:0:0:0:
192,192,106977,1,0,0:0:0:0:
64,192,107048,1,0,0:0:0:0:
320,192,107048,1,0,0:0:0:0:
448,192,107119,1,0,0:0:0:0:
192,192,107190,1,0,0:0:0:0:
64,192,107190,1,0,0:0:0:0:
320,192,107260,1,0,0:0:0:0:
448,192,107332,1,0,0:0:0:0:
64,192,107332,1,0,0:0:0:0:
192,192,107403,1,0,0:0:0:0:
320,192,107474,1,0,0:0:0:0:
448,192,107474,1,0,0:0:0:0:
192,192,107545,1,0,0:0:0:0:
64,192,107616,1,0,0:0:0:0:
448,192,107687,1,0,0:0:0:0:
320,192,107758,1,0,0:0:0:0:
192,192,107758,1,0,0:0:0:0:
64,192,107829,1,0,0:0:0:0:
192,192,107900,1,0,0:0:0:0:
320,192,107971,1,0,0:0:0:0:
448,192,107971,1,0,0:0:0:0:
192,192,108042,1,0,0:0:0:0:
64,192,108042,1,0,0:0:0:0:
320,192,108113,1,0,0:0:0:0:
448,192,108184,1,0,0:0:0:0:
64,192,108184,1,0,0:0:0:0:
192,192,108255,1,0,0:0:0:0:
320,192,108326,128,0,108397:0:0:0:0:
448,192,108326,1,0,0:0:0:0:
64,192,108397,128,0,108468:0:0:0:0:
320,192,108468,128,0,108540:0:0:0:0:
192,192,108540,128,0,108610:0:0:0:0:
448,192,108610,1,0,0:0:0:0:
64,192,108610,1,0,0:0:0:0:
64,192,108752,128,0,108895:0:0:0:0:
192,192,108895,128,0,108965:0:0:0:0:
448,192,108895,1,0,0:0:0:0:
320,192,108965,128,0,109036:0:0:0:0:
448,192,109036,128,0,109107:0:0:0:0:
192,192,109107,128,0,109179:0:0:0:0:
64,192,109107,1,0,0:0:0:0:
320,192,109179,128,0,109250:0:0:0:0:
448,192,109179,1,0,0:0:0:0:
64,192,109250,128,0,109320:0:0:0:0:
320,192,109320,128,0,109391:0:0:0:0:
448,192,109320,1,0,0:0:0:0:
192,192,109391,128,0,109463:0:0:0:0:
64,192,109463,128,0,109605:0:0:0:0:
320,192,109463,1,0,0:0:0:0:
320,192,109605,128,0,109675:0:0:0:0:
448,192,109675,128,0,109746:0:0:0:0:
192,192,109675,1,0,0:0:0:0:
64,192,109746,1,0,0:0:0:0:
320,192,109746,1,0,0:0:0:0:
192,192,109818,128,0,109960:0:0:0:0:
320,192,109889,1,0,0:0:0:0:
448,192,109889,1,0,0:0:0:0:
320,192,110030,128,0,110102:0:0:0:0:
64,192,110030,1,0,0:0:0:0:
192,192,110173,128,0,110244:0:0:0:0:
448,192,110244,1,0,0:0:0:0:
320,192,110244,1,0,0:0:0:0:
64,192,110315,128,0,110528:0:0:0:0:
192,192,110315,1,0,0:0:0:0:
320,192,110457,1,0,0:0:0:0:
448,192,110457,1,0,0:0:0:0:
320,192,110599,1,0,0:0:0:0:
192,192,110599,1,0,0:0:0:0:
64,192,110741,1,0,0:0:0:0:
192,192,110741,1,0,0:0:0:0:
448,192,110883,1,0,0:0:0:0:
192,192,110883,1,0,0:0:0:0:
64,192,110883,1,0,0:0:0:0:
320,192,111025,1,0,0:0:0:0:
448,192,111025,1,0,0:0:0:0:
192,192,111167,1,0,0:0:0:0:
64,192,111167,1,0,0:0:0:0:
448,192,111167,1,0,0:0:0:0:
64,192,111309,1,0,0:0:0:0:
192,192,111309,1,0,0:0:0:0:
320,192,111380,1,0,0:0:0:0:
448,192,111380,1,0,0:0:0:0:
192,192,111451,1,0,0:0:0:0:
64,192,111451,1,0,0:0:0:0:
320,192,111593,1,0,0:0:0:0:
448,192,111593,1,0,0:0:0:0:
64,192,111593,1,0,0:0:0:0:
192,192,111735,1,0,0:0:0:0:
64,192,111735,1,0,0:0:0:0:
320,192,111735,1,0,0:0:0:0:
448,192,111877,1,0,0:0:0:0:
64,192,111877,1,0,0:0:0:0:
320,192,112020,1,0,0:0:0:0:
448,192,112020,1,0,0:0:0:0:
192,192,112020,1,0,0:0:0:0:
64,192,112161,1,0,0:0:0:0:
320,192,112161,1,0,0:0:0:0:
192,192,112304,1,0,0:0:0:0:
64,192,112304,1,0,0:0:0:0:
448,192,112304,1,0,0:0:0:0:
320,192,112445,1,0,0:0:0:0:
448,192,112445,1,0,0:0:0:0:
192,192,112516,1,0,0:0:0:0:
64,192,112516,1,0,0:0:0:0:
320,192,112588,1,0,0:0:0:0:
448,192,112588,1,0,0:0:0:0:
192,192,112730,1,0,0:0:0:0:
64,192,112730,1,0,0:0:0:0:
320,192,112730,1,0,0:0:0:0:
192,192,112871,1,0,0:0:0:0:
320,192,112871,128,0,112943:0:0:0:0:
64,192,112871,128,0,112943:0:0:0:0:
448,192,112943,1,0,0:0:0:0:
192,192,113014,1,0,0:0:0:0:
320,192,113085,1,0,0:0:0:0:
448,192,113085,128,0,113155:0:0:0:0:
64,192,113155,1,0,0:0:0:0:
192,192,113155,128,0,113227:0:0:0:0:
320,192,113227,1,0,0:0:0:0:
448,192,113298,128,0,113369:0:0:0:0:
192,192,113298,1,0,0:0:0:0:
64,192,113298,1,0,0:0:0:0:
320,192,113369,1,0,0:0:0:0:
64,192,113440,1,0,0:0:0:0:
192,192,113440,1,0,0:0:0:0:
64,192,113510,1,0,0:0:0:0:
192,192,113582,1,0,0:0:0:0:
320,192,113653,1,0,0:0:0:0:
448,192,113653,128,0,113724:0:0:0:0:
192,192,113724,1,0,0:0:0:0:
64,192,113724,128,0,113795:0:0:0:0:
320,192,113795,1,0,0:0:0:0:
64,192,113866,1,0,0:0:0:0:
448,192,113866,128,0,113937:0:0:0:0:
192,192,113866,128,0,113937:0:0:0:0:
320,192,113937,1,0,0:0:0:0:
192,192,114008,1,0,0:0:0:0:
64,192,114008,1,0,0:0:0:0:
192,192,114079,1,0,0:0:0:0:
64,192,114150,1,0,0:0:0:0:
320,192,114221,1,0,0:0:0:0:
448,192,114221,128,0,114292:0:0:0:0:
64,192,114292,1,0,0:0:0:0:
192,192,114292,128,0,114363:0:0:0:0:
320,192,114363,1,0,0:0:0:0:
192,192,114434,1,0,0:0:0:0:
64,192,114434,128,0,114505:0:0:0:0:
448,192,114434,128,0,114505:0:0:0:0:
320,192,114505,1,0,0:0:0:0:
64,192,114576,1,0,0:0:0:0:
192,192,114576,128,0,114647:0:0:0:0:
448,192,114647,1,0,0:0:0:0:
192,192,114718,1,0,0:0:0:0:
320,192,114790,1,0,0:0:0:0:
448,192,114790,128,0,114860:0:0:0:0:
192,192,114860,1,0,0:0:0:0:
64,192,114860,128,0,114931:0:0:0:0:
320,192,114931,1,0,0:0:0:0:
64,192,115002,1,0,0:0:0:0:
192,192,115002,128,0,115073:0:0:0:0:
448,192,115002,128,0,115073:0:0:0:0:
320,192,115073,1,0,0:0:0:0:
64,192,115146,1,0,0:0:0:0:
448,192,115146,1,0,0:0:0:0:
192,192,115146,1,0,0:0:0:0:
192,192,115646,1,0,0:0:0:0:
64,192,115646,1,0,0:0:0:0:
448,192,115646,1,0,0:0:0:0:
320,192,116146,1,0,0:0:0:0:
192,192,116146,1,0,0:0:0:0:
64,192,116146,1,0,0:0:0:0:
320,192,116646,1,0,0:0:0:0:
448,192,116646,1,0,0:0:0:0:
192,192,116709,1,0,0:0:0:0:
64,192,116709,1,0,0:0:0:0:
320,192,116771,1,0,0:0:0:0:
448,192,116771,1,0,0:0:0:0:
192,192,116834,1,0,0:0:0:0:
64,192,116834,1,0,0:0:0:0:
320,192,116896,1,0,0:0:0:0:
448,192,116896,1,0,0:0:0:0:
192,192,116959,1,0,0:0:0:0:
64,192,116959,1,0,0:0:0:0:
448,192,117021,1,0,0:0:0:0:
320,192,117021,1,0,0:0:0:0:
192,192,117084,1,0,0:0:0:0:
64,192,117084,1,0,0:0:0:0:
320,192,117146,1,0,0:0:0:0:
448,192,117146,1,0,0:0:0:0:
192,192,117646,1,0,0:0:0:0:
320,192,117646,1,0,0:0:0:0:
448,192,117646,1,0,0:0:0:0:
320,192,118146,1,0,0:0:0:0:
192,192,118146,1,0,0:0:0:0:
64,192,118146,1,0,0:0:0:0:
320,192,118396,1,0,0:0:0:0:
192,192,118646,1,0,0:0:0:0:
64,192,118646,1,0,0:0:0:0:
320,192,118709,1,0,0:0:0:0:
448,192,118709,1,0,0:0:0:0:
192,192,118771,1,0,0:0:0:0:
64,192,118771,1,0,0:0:0:0:
320,192,118834,1,0,0:0:0:0:
448,192,118834,1,0,0:0:0:0:
192,192,118896,1,0,0:0:0:0:
64,192,118896,1,0,0:0:0:0:
320,192,118959,1,0,0:0:0:0:
448,192,118959,1,0,0:0:0:0:
192,192,119021,1,0,0:0:0:0:
64,192,119021,1,0,0:0:0:0:
320,192,119084,1,0,0:0:0:0:
448,192,119084,1,0,0:0:0:0:
192,192,119146,1,0,0:0:0:0:
64,192,119146,1,0,0:0:0:0:
192,192,119646,1,0,0:0:0:0:
64,192,119646,1,0,0:0:0:0:
320,192,119646,1,0,0:0:0:0:
192,192,120146,1,0,0:0:0:0:
64,192,120146,1,0,0:0:0:0:
320,192,120146,1,0,0:0:0:0:
320,192,120646,1,0,0:0:0:0:
448,192,120646,1,0,0:0:0:0:
192,192,120709,1,0,0:0:0:0:
64,192,120709,1,0,0:0:0:0:
448,192,120771,1,0,0:0:0:0:
320,192,120771,1,0,0:0:0:0:
192,192,120834,1,0,0:0:0:0:
64,192,120834,1,0,0:0:0:0:
320,192,120896,1,0,0:0:0:0:
448,192,120896,1,0,0:0:0:0:
192,192,120959,1,0,0:0:0:0:
64,192,120959,1,0,0:0:0:0:
320,192,121021,1,0,0:0:0:0:
448,192,121021,1,0,0:0:0:0:
192,192,121084,1,0,0:0:0:0:
64,192,121084,1,0,0:0:0:0:
320,192,121146,1,0,0:0:0:0:
448,192,121146,1,0,0:0:0:0:
192,192,121646,1,0,0:0:0:0:
320,192,121646,1,0,0:0:0:0:
448,192,121646,1,0,0:0:0:0:
192,192,122146,1,0,0:0:0:0:
320,192,122146,1,0,0:0:0:0:
64,192,122146,1,0,0:0:0:0:
64,192,122396,1,0,0:0:0:0:
320,192,122396,1,0,0:0:0:0:
448,192,122396,1,0,0:0:0:0:
192,192,122646,1,0,0:0:0:0:
64,192,122646,1,0,0:0:0:0:
320,192,122896,1,0,0:0:0:0:
448,192,122896,1,0,0:0:0:0:
192,192,122959,1,0,0:0:0:0:
64,192,122959,1,0,0:0:0:0:
320,192,123021,1,0,0:0:0:0:
448,192,123021,1,0,0:0:0:0:
192,192,123084,1,0,0:0:0:0:
64,192,123084,1,0,0:0:0:0:
320,192,123146,1,0,0:0:0:0:
448,192,123146,1,0,0:0:0:0:
320,192,125146,1,0,0:0:0:0:
192,192,125146,1,0,0:0:0:0:
448,192,125146,1,0,0:0:0:0:
192,192,126646,1,0,0:0:0:0:
64,192,126646,1,0,0:0:0:0:
320,192,126709,1,0,0:0:0:0:
448,192,126709,1,0,0:0:0:0:
192,192,126771,1,0,0:0:0:0:
64,192,126771,1,0,0:0:0:0:
320,192,126834,1,0,0:0:0:0:
448,192,126834,1,0,0:0:0:0:
192,192,126896,1,0,0:0:0:0:
64,192,126896,1,0,0:0:0:0:
320,192,126959,1,0,0:0:0:0:
448,192,126959,1,0,0:0:0:0:
192,192,127021,1,0,0:0:0:0:
64,192,127021,1,0,0:0:0:0:
320,192,127084,1,0,0:0:0:0:
448,192,127084,1,0,0:0:0:0:
192,192,127146,1,0,0:0:0:0:
64,192,127209,1,0,0:0:0:0:
448,192,127396,1,0,0:0:0:0:
320,192,127459,1,0,0:0:0:0:
192,192,127521,1,0,0:0:0:0:
