osu file format v14

[General]
AudioFilename: audio 1.100x.mp3
AudioLeadIn: 0
PreviewTime: 27045
Countdown: 0
SampleSet: None
StackLeniency: 0.7
Mode: 3
LetterboxInBreaks: 0
SpecialStyle: 0
WidescreenStoryboard: 0

[Editor]
DistanceSpacing: 0.7
BeatDivisor: 4
GridSize: 8
TimelineZoom: 1

[Metadata]
Title:YABABAINA - Satapan P feat.Miku Hatsune, Teto Kasane, Zundamon
TitleUnicode:ヤババイナ - さたぱんP feat. 初音ミク・重音テト・ずんだもん
Artist:satapanpi
ArtistUnicode:さたぱんP
Creator:pashalka
Version:trippart 1.1
Source:ヤババイナ - さたぱんP feat. 初音ミク・重音テト・ずんだもん
Tags:japanese electronic vocaloid hatsune miku teto kasane stream chordjack jumpstream handstream tech ln hybrid osutrainer
BeatmapID:4542054
BeatmapSetID:2155037

[Difficulty]
HPDrainRate:5
CircleSize:4
OverallDifficulty:8
ApproachRate:10
SliderMultiplier:1.4
SliderTickRate:1

[Events]
//Background and Video events
0,0,"1f410e47bb550a9cd60100d8587b7dd1.jpg",0,0
//Break Periods
//Storyboard Layer 0 (Background)
//Storyboard Layer 1 (Fail)
//Storyboard Layer 2 (Pass)
//Storyboard Layer 3 (Foreground)
//Storyboard Layer 4 (Overlay)
//Storyboard Sound Samples

[TimingPoints]
45,272.727272727273,4,1,0,20,1,0
18590,272.727272727273,3,1,0,20,1,0
18590,-100,3,1,0,20,0,0
22954,-100,3,1,0,20,0,0
27045,389.61038961039,4,1,0,20,1,0
27045,-69.9300699300699,4,1,0,20,0,0
27432,309.667509994519,4,1,0,20,1,0
27432,-87.719298245614,4,1,0,20,0,0
37341,-87.719298245614,4,1,0,20,0,1
47269,272.727272727273,4,1,0,20,1,0
47269,-100,4,1,0,20,0,0
90905,303.030303030303,4,1,0,20,1,0
90905,-90.0900900900901,4,1,0,20,0,0
92132,315.291644771414,4,1,0,20,1,0
92132,-86.2068965517241,4,1,0,20,0,0
95287,272.727272727273,4,1,0,20,1,0
95287,-100,4,1,0,20,0,0
95550,309.917355371901,4,1,0,20,1,0
95550,-86.2068965517241,4,1,0,20,0,0
105778,-86.2068965517241,4,1,0,20,0,1
115695,-86.2068965517241,4,1,0,20,0,0
125614,272.727272727273,4,1,0,20,1,0
125614,-100,4,1,0,20,0,0

[HitObjects]
320,192,318,5,0,0:0:0:0:
192,192,454,1,0,0:0:0:0:
448,192,590,1,0,0:0:0:0:
320,192,863,1,0,0:0:0:0:
192,192,931,1,0,0:0:0:0:
64,192,1000,1,0,0:0:0:0:
320,192,1136,5,0,0:0:0:0:
448,192,1136,1,0,0:0:0:0:
64,192,1136,1,0,0:0:0:0:
320,192,1272,1,0,0:0:0:0:
320,192,1409,1,0,0:0:0:0:
320,192,1545,1,0,0:0:0:0:
320,192,1681,1,0,0:0:0:0:
320,192,1818,1,0,0:0:0:0:
320,192,1954,1,0,0:0:0:0:
320,192,2090,1,0,0:0:0:0:
320,192,2227,1,0,0:0:0:0:
320,192,2363,1,0,0:0:0:0:
320,192,2500,1,0,0:0:0:0:
320,192,2636,1,0,0:0:0:0:
320,192,2772,1,0,0:0:0:0:
192,192,2772,1,0,0:0:0:0:
448,192,2772,1,0,0:0:0:0:
192,192,3045,1,0,0:0:0:0:
64,192,3045,1,0,0:0:0:0:
448,192,3045,1,0,0:0:0:0:
320,192,3318,1,0,0:0:0:0:
448,192,3318,1,0,0:0:0:0:
192,192,3318,1,0,0:0:0:0:
320,192,3454,1,0,0:0:0:0:
320,192,3590,1,0,0:0:0:0:
320,192,3727,1,0,0:0:0:0:
320,192,3863,1,0,0:0:0:0:
320,192,4000,1,0,0:0:0:0:
320,192,4136,1,0,0:0:0:0:
320,192,4272,1,0,0:0:0:0:
320,192,4409,1,0,0:0:0:0:
192,192,4409,1,0,0:0:0:0:
448,192,4409,1,0,0:0:0:0:
192,192,4681,1,0,0:0:0:0:
64,192,4681,1,0,0:0:0:0:
320,192,4681,1,0,0:0:0:0:
64,192,4954,1,0,0:0:0:0:
448,192,4954,1,0,0:0:0:0:
320,192,4954,1,0,0:0:0:0:
320,192,5227,1,0,0:0:0:0:
448,192,5227,1,0,0:0:0:0:
192,192,5295,1,0,0:0:0:0:
64,192,5295,1,0,0:0:0:0:
320,192,5363,1,0,0:0:0:0:
448,192,5363,1,0,0:0:0:0:
192,192,5431,1,0,0:0:0:0:
64,192,5431,1,0,0:0:0:0:
320,192,5500,1,0,0:0:0:0:
448,192,5500,1,0,0:0:0:0:
192,192,5568,1,0,0:0:0:0:
64,192,5568,1,0,0:0:0:0:
320,192,5636,1,0,0:0:0:0:
448,192,5636,1,0,0:0:0:0:
192,192,5704,1,0,0:0:0:0:
64,192,5704,1,0,0:0:0:0:
320,192,5772,1,0,0:0:0:0:
448,192,5840,1,0,0:0:0:0:
192,192,5909,1,0,0:0:0:0:
320,192,5977,1,0,0:0:0:0:
64,192,6045,1,0,0:0:0:0:
320,192,6113,1,0,0:0:0:0:
192,192,6181,1,0,0:0:0:0:
320,192,6250,1,0,0:0:0:0:
448,192,6318,1,0,0:0:0:0:
320,192,6386,1,0,0:0:0:0:
64,192,6454,1,0,0:0:0:0:
320,192,6522,1,0,0:0:0:0:
192,192,6590,1,0,0:0:0:0:
320,192,6659,1,0,0:0:0:0:
448,192,6727,1,0,0:0:0:0:
320,192,6795,1,0,0:0:0:0:
192,192,6863,1,0,0:0:0:0:
320,192,6931,1,0,0:0:0:0:
64,192,7000,1,0,0:0:0:0:
320,192,7068,1,0,0:0:0:0:
448,192,7136,1,0,0:0:0:0:
192,192,7136,1,0,0:0:0:0:
64,192,7136,1,0,0:0:0:0:
320,192,7409,1,0,0:0:0:0:
448,192,7409,1,0,0:0:0:0:
64,192,7409,1,0,0:0:0:0:
192,192,7681,1,0,0:0:0:0:
320,192,7681,1,0,0:0:0:0:
64,192,7681,1,0,0:0:0:0:
448,192,7750,1,0,0:0:0:0:
320,192,7818,1,0,0:0:0:0:
64,192,7886,1,0,0:0:0:0:
320,192,7954,1,0,0:0:0:0:
192,192,8022,1,0,0:0:0:0:
320,192,8090,1,0,0:0:0:0:
448,192,8159,1,0,0:0:0:0:
320,192,8227,1,0,0:0:0:0:
64,192,8295,1,0,0:0:0:0:
320,192,8363,1,0,0:0:0:0:
448,192,8431,1,0,0:0:0:0:
320,192,8500,1,0,0:0:0:0:
192,192,8568,1,0,0:0:0:0:
320,192,8636,1,0,0:0:0:0:
448,192,8704,1,0,0:0:0:0:
320,192,8772,1,0,0:0:0:0:
192,192,8772,1,0,0:0:0:0:
64,192,8772,1,0,0:0:0:0:
192,192,9045,1,0,0:0:0:0:
320,192,9045,1,0,0:0:0:0:
448,192,9045,1,0,0:0:0:0:
64,192,9318,1,0,0:0:0:0:
192,192,9318,1,0,0:0:0:0:
320,192,9318,1,0,0:0:0:0:
64,192,9590,5,0,0:0:0:0:
192,192,9659,1,0,0:0:0:0:
64,192,9727,1,0,0:0:0:0:
192,192,9795,1,0,0:0:0:0:
320,192,9863,1,0,0:0:0:0:
448,192,9863,1,0,0:0:0:0:
192,192,9931,1,0,0:0:0:0:
64,192,10000,1,0,0:0:0:0:
320,192,10068,1,0,0:0:0:0:
448,192,10136,1,0,0:0:0:0:
192,192,10136,1,0,0:0:0:0:
64,192,10204,1,0,0:0:0:0:
320,192,10272,1,0,0:0:0:0:
448,192,10340,1,0,0:0:0:0:
192,192,10409,1,0,0:0:0:0:
64,192,10409,1,0,0:0:0:0:
320,192,10477,1,0,0:0:0:0:
448,192,10545,1,0,0:0:0:0:
192,192,10613,1,0,0:0:0:0:
64,192,10613,1,0,0:0:0:0:
320,192,10681,1,0,0:0:0:0:
448,192,10681,1,0,0:0:0:0:
192,192,10750,1,0,0:0:0:0:
64,192,10818,1,0,0:0:0:0:
320,192,10818,1,0,0:0:0:0:
448,192,10886,1,0,0:0:0:0:
192,192,10954,1,0,0:0:0:0:
64,192,10954,1,0,0:0:0:0:
320,192,11022,1,0,0:0:0:0:
448,192,11090,1,0,0:0:0:0:
64,192,11159,1,0,0:0:0:0:
192,192,11227,1,0,0:0:0:0:
320,192,11227,1,0,0:0:0:0:
448,192,11295,1,0,0:0:0:0:
320,192,11363,1,0,0:0:0:0:
192,192,11431,1,0,0:0:0:0:
64,192,11500,1,0,0:0:0:0:
448,192,11500,1,0,0:0:0:0:
320,192,11568,1,0,0:0:0:0:
448,192,11636,1,0,0:0:0:0:
64,192,11704,1,0,0:0:0:0:
192,192,11704,1,0,0:0:0:0:
320,192,11772,1,0,0:0:0:0:
448,192,11772,1,0,0:0:0:0:
192,192,11840,1,0,0:0:0:0:
64,192,11909,1,0,0:0:0:0:
320,192,11909,1,0,0:0:0:0:
448,192,11977,1,0,0:0:0:0:
192,192,12045,1,0,0:0:0:0:
64,192,12045,1,0,0:0:0:0:
320,192,12113,1,0,0:0:0:0:
448,192,12181,1,0,0:0:0:0:
64,192,12250,1,0,0:0:0:0:
192,192,12318,1,0,0:0:0:0:
320,192,12318,1,0,0:0:0:0:
448,192,12386,1,0,0:0:0:0:
320,192,12454,1,0,0:0:0:0:
192,192,12522,1,0,0:0:0:0:
64,192,12590,1,0,0:0:0:0:
320,192,12590,1,0,0:0:0:0:
448,192,12659,1,0,0:0:0:0:
64,192,12727,1,0,0:0:0:0:
192,192,12795,1,0,0:0:0:0:
320,192,12795,1,0,0:0:0:0:
448,192,12863,1,0,0:0:0:0:
64,192,12863,1,0,0:0:0:0:
320,192,12931,1,0,0:0:0:0:
192,192,13000,1,0,0:0:0:0:
64,192,13000,1,0,0:0:0:0:
320,192,13068,1,0,0:0:0:0:
448,192,13136,1,0,0:0:0:0:
192,192,13136,1,0,0:0:0:0:
64,192,13204,1,0,0:0:0:0:
320,192,13272,1,0,0:0:0:0:
448,192,13340,1,0,0:0:0:0:
64,192,13340,1,0,0:0:0:0:
192,192,13409,1,0,0:0:0:0:
320,192,13409,1,0,0:0:0:0:
448,192,13477,1,0,0:0:0:0:
64,192,13545,1,0,0:0:0:0:
192,192,13613,1,0,0:0:0:0:
320,192,13681,1,0,0:0:0:0:
448,192,13681,1,0,0:0:0:0:
192,192,13750,1,0,0:0:0:0:
64,192,13818,1,0,0:0:0:0:
448,192,13886,1,0,0:0:0:0:
320,192,13886,1,0,0:0:0:0:
192,192,13954,1,0,0:0:0:0:
64,192,13954,1,0,0:0:0:0:
320,192,14022,1,0,0:0:0:0:
448,192,14090,1,0,0:0:0:0:
64,192,14090,1,0,0:0:0:0:
192,192,14159,1,0,0:0:0:0:
320,192,14227,1,0,0:0:0:0:
448,192,14227,1,0,0:0:0:0:
64,192,14227,1,0,0:0:0:0:
192,192,14363,1,0,0:0:0:0:
320,192,14363,1,0,0:0:0:0:
448,192,14500,1,0,0:0:0:0:
64,192,14500,1,0,0:0:0:0:
320,192,14500,1,0,0:0:0:0:
192,192,14636,1,0,0:0:0:0:
64,192,14636,1,0,0:0:0:0:
192,192,14772,1,0,0:0:0:0:
320,192,14772,1,0,0:0:0:0:
448,192,14772,1,0,0:0:0:0:
448,192,14909,1,0,0:0:0:0:
320,192,14909,1,0,0:0:0:0:
192,192,14977,1,0,0:0:0:0:
64,192,14977,1,0,0:0:0:0:
320,192,15045,1,0,0:0:0:0:
448,192,15045,1,0,0:0:0:0:
192,192,15181,1,0,0:0:0:0:
64,192,15181,1,0,0:0:0:0:
320,192,15181,1,0,0:0:0:0:
320,192,15318,1,0,0:0:0:0:
192,192,15318,1,0,0:0:0:0:
448,192,15318,1,0,0:0:0:0:
448,192,15454,1,0,0:0:0:0:
64,192,15454,1,0,0:0:0:0:
192,192,15590,1,0,0:0:0:0:
320,192,15590,1,0,0:0:0:0:
448,192,15590,1,0,0:0:0:0:
192,192,15727,1,0,0:0:0:0:
64,192,15727,1,0,0:0:0:0:
64,192,15863,1,0,0:0:0:0:
192,192,15863,1,0,0:0:0:0:
448,192,15863,1,0,0:0:0:0:
320,192,16000,1,0,0:0:0:0:
448,192,16000,1,0,0:0:0:0:
192,192,16068,1,0,0:0:0:0:
64,192,16068,1,0,0:0:0:0:
320,192,16136,1,0,0:0:0:0:
448,192,16136,1,0,0:0:0:0:
64,192,16272,1,0,0:0:0:0:
192,192,16272,1,0,0:0:0:0:
320,192,16272,1,0,0:0:0:0:
192,192,16409,1,0,0:0:0:0:
320,192,16409,1,0,0:0:0:0:
448,192,16409,1,0,0:0:0:0:
192,192,16545,1,0,0:0:0:0:
64,192,16545,1,0,0:0:0:0:
320,192,16613,1,0,0:0:0:0:
448,192,16613,1,0,0:0:0:0:
192,192,16681,1,0,0:0:0:0:
64,192,16681,1,0,0:0:0:0:
320,192,16818,1,0,0:0:0:0:
448,192,16818,1,0,0:0:0:0:
64,192,16818,1,0,0:0:0:0:
320,192,16954,1,0,0:0:0:0:
192,192,16954,1,0,0:0:0:0:
64,192,16954,1,0,0:0:0:0:
320,192,17090,1,0,0:0:0:0:
448,192,17090,1,0,0:0:0:0:
192,192,17159,1,0,0:0:0:0:
64,192,17159,1,0,0:0:0:0:
320,192,17227,1,0,0:0:0:0:
448,192,17227,1,0,0:0:0:0:
192,192,17363,1,0,0:0:0:0:
64,192,17363,1,0,0:0:0:0:
448,192,17363,1,0,0:0:0:0:
320,192,17500,1,0,0:0:0:0:
448,192,17500,1,0,0:0:0:0:
192,192,17500,1,0,0:0:0:0:
192,192,17636,1,0,0:0:0:0:
320,192,17636,1,0,0:0:0:0:
64,192,17704,1,0,0:0:0:0:
448,192,17704,1,0,0:0:0:0:
320,192,17772,1,0,0:0:0:0:
192,192,17772,1,0,0:0:0:0:
320,192,17909,1,0,0:0:0:0:
448,192,17909,1,0,0:0:0:0:
64,192,17909,1,0,0:0:0:0:
192,192,18045,1,0,0:0:0:0:
64,192,18045,1,0,0:0:0:0:
448,192,18045,1,0,0:0:0:0:
320,192,18181,1,0,0:0:0:0:
448,192,18181,1,0,0:0:0:0:
192,192,18250,1,0,0:0:0:0:
64,192,18250,1,0,0:0:0:0:
320,192,18318,1,0,0:0:0:0:
448,192,18318,1,0,0:0:0:0:
192,192,18454,1,0,0:0:0:0:
64,192,18454,1,0,0:0:0:0:
320,192,18454,1,0,0:0:0:0:
320,192,18590,1,0,0:0:0:0:
448,192,18590,128,0,19136:0:0:0:0:
64,192,18863,1,0,0:0:0:0:
192,192,19136,128,0,19409:0:0:0:0:
320,192,19136,1,0,0:0:0:0:
64,192,19409,128,0,19681:0:0:0:0:
448,192,19409,1,0,0:0:0:0:
320,192,19681,128,0,19818:0:0:0:0:
448,192,19954,128,0,20090:0:0:0:0:
64,192,19954,1,0,0:0:0:0:
192,192,20227,128,0,20500:0:0:0:0:
320,192,20227,1,0,0:0:0:0:
448,192,20500,1,0,0:0:0:0:
64,192,20636,128,0,20704:0:0:0:0:
320,192,20772,128,0,20909:0:0:0:0:
192,192,20772,1,0,0:0:0:0:
448,192,20909,128,0,21045:0:0:0:0:
192,192,21045,128,0,21250:0:0:0:0:
64,192,21045,1,0,0:0:0:0:
64,192,21318,128,0,21454:0:0:0:0:
320,192,21318,1,0,0:0:0:0:
192,192,21590,128,0,21727:0:0:0:0:
448,192,21590,1,0,0:0:0:0:
320,192,21863,128,0,22000:0:0:0:0:
64,192,21863,1,0,0:0:0:0:
448,192,22000,128,0,22136:0:0:0:0:
192,192,22136,128,0,22272:0:0:0:0:
64,192,22409,128,0,22545:0:0:0:0:
448,192,22409,1,0,0:0:0:0:
192,192,22545,128,0,22681:0:0:0:0:
448,192,22681,128,0,22818:0:0:0:0:
64,192,22681,1,0,0:0:0:0:
320,192,22818,128,0,22954:0:0:0:0:
192,192,22954,1,0,0:0:0:0:
64,192,22954,1,0,0:0:0:0:
448,192,23022,1,0,0:0:0:0:
320,192,23090,1,0,0:0:0:0:
192,192,23159,1,0,0:0:0:0:
64,192,23227,1,0,0:0:0:0:
320,192,23227,1,0,0:0:0:0:
448,192,23295,1,0,0:0:0:0:
192,192,23363,1,0,0:0:0:0:
320,192,23431,1,0,0:0:0:0:
448,192,23500,1,0,0:0:0:0:
192,192,23500,1,0,0:0:0:0:
64,192,23568,1,0,0:0:0:0:
320,192,23636,1,0,0:0:0:0:
448,192,23704,1,0,0:0:0:0:
64,192,23772,1,0,0:0:0:0:
192,192,23772,1,0,0:0:0:0:
320,192,23840,1,0,0:0:0:0:
448,192,23909,1,0,0:0:0:0:
192,192,23977,1,0,0:0:0:0:
64,192,24045,1,0,0:0:0:0:
320,192,24045,1,0,0:0:0:0:
448,192,24113,1,0,0:0:0:0:
192,192,24181,1,0,0:0:0:0:
64,192,24250,1,0,0:0:0:0:
192,192,24318,1,0,0:0:0:0:
320,192,24318,1,0,0:0:0:0:
448,192,24386,1,0,0:0:0:0:
192,192,24454,1,0,0:0:0:0:
64,192,24522,1,0,0:0:0:0:
320,192,24590,1,0,0:0:0:0:
448,192,24590,1,0,0:0:0:0:
192,192,24659,1,0,0:0:0:0:
64,192,24727,1,0,0:0:0:0:
320,192,24795,1,0,0:0:0:0:
448,192,24863,1,0,0:0:0:0:
192,192,24863,1,0,0:0:0:0:
64,192,24931,1,0,0:0:0:0:
320,192,25000,1,0,0:0:0:0:
448,192,25000,1,0,0:0:0:0:
192,192,25068,1,0,0:0:0:0:
64,192,25136,1,0,0:0:0:0:
320,192,25136,1,0,0:0:0:0:
448,192,25204,1,0,0:0:0:0:
192,192,25272,1,0,0:0:0:0:
320,192,25272,1,0,0:0:0:0:
64,192,25340,1,0,0:0:0:0:
192,192,25409,1,0,0:0:0:0:
448,192,25409,1,0,0:0:0:0:
320,192,25477,1,0,0:0:0:0:
448,192,25545,1,0,0:0:0:0:
64,192,25613,1,0,0:0:0:0:
192,192,25681,1,0,0:0:0:0:
320,192,25681,1,0,0:0:0:0:
448,192,25750,1,0,0:0:0:0:
320,192,25818,1,0,0:0:0:0:
192,192,25886,1,0,0:0:0:0:
64,192,25954,1,0,0:0:0:0:
320,192,25954,1,0,0:0:0:0:
448,192,26022,1,0,0:0:0:0:
192,192,26090,1,0,0:0:0:0:
64,192,26090,1,0,0:0:0:0:
320,192,26159,1,0,0:0:0:0:
64,192,26227,1,0,0:0:0:0:
192,192,26295,1,0,0:0:0:0:
320,192,26363,1,0,0:0:0:0:
448,192,26363,1,0,0:0:0:0:
192,192,26431,1,0,0:0:0:0:
64,192,26500,1,0,0:0:0:0:
320,192,26500,1,0,0:0:0:0:
448,192,26568,1,0,0:0:0:0:
192,192,26636,1,0,0:0:0:0:
64,192,26636,1,0,0:0:0:0:
320,192,26704,1,0,0:0:0:0:
448,192,26772,1,0,0:0:0:0:
192,192,26772,1,0,0:0:0:0:
320,192,27045,128,0,27142:0:0:0:0:
448,192,27045,128,0,27142:0:0:0:0:
64,192,27045,128,0,27142:0:0:0:0:
192,192,27142,128,0,27240:0:0:0:0:
448,192,27240,128,0,27337:0:0:0:0:
64,192,27337,128,0,27434:0:0:0:0:
320,192,27432,128,0,27510:0:0:0:0:
192,192,27432,128,0,27510:0:0:0:0:
448,192,27510,1,0,0:0:0:0:
320,192,27587,1,0,0:0:0:0:
192,192,27664,1,0,0:0:0:0:
320,192,27741,1,0,0:0:0:0:
448,192,27741,128,0,27819:0:0:0:0:
64,192,27741,128,0,27819:0:0:0:0:
192,192,27819,1,0,0:0:0:0:
320,192,27896,1,0,0:0:0:0:
320,192,27974,1,0,0:0:0:0:
448,192,28051,1,0,0:0:0:0:
64,192,28051,128,0,28129:0:0:0:0:
192,192,28051,128,0,28129:0:0:0:0:
320,192,28129,1,0,0:0:0:0:
448,192,28206,1,0,0:0:0:0:
320,192,28283,1,0,0:0:0:0:
192,192,28360,1,0,0:0:0:0:
448,192,28360,128,0,28439:0:0:0:0:
64,192,28360,128,0,28439:0:0:0:0:
320,192,28439,1,0,0:0:0:0:
192,192,28516,1,0,0:0:0:0:
192,192,28593,1,0,0:0:0:0:
448,192,28670,1,0,0:0:0:0:
320,192,28670,128,0,28748:0:0:0:0:
64,192,28670,128,0,28748:0:0:0:0:
192,192,28748,1,0,0:0:0:0:
448,192,28825,1,0,0:0:0:0:
448,192,28903,1,0,0:0:0:0:
320,192,28980,1,0,0:0:0:0:
192,192,28980,128,0,29058:0:0:0:0:
64,192,28980,128,0,29058:0:0:0:0:
448,192,29058,1,0,0:0:0:0:
320,192,29135,1,0,0:0:0:0:
192,192,29212,1,0,0:0:0:0:
64,192,29290,1,0,0:0:0:0:
448,192,29290,128,0,29367:0:0:0:0:
320,192,29290,128,0,29367:0:0:0:0:
192,192,29367,1,0,0:0:0:0:
64,192,29445,1,0,0:0:0:0:
64,192,29522,1,0,0:0:0:0:
192,192,29600,1,0,0:0:0:0:
320,192,29600,128,0,29677:0:0:0:0:
448,192,29600,128,0,29677:0:0:0:0:
64,192,29677,1,0,0:0:0:0:
192,192,29754,1,0,0:0:0:0:
192,192,29831,1,0,0:0:0:0:
448,192,29910,1,0,0:0:0:0:
320,192,29948,1,0,0:0:0:0:
192,192,29987,1,0,0:0:0:0:
64,192,30025,1,0,0:0:0:0:
320,192,30064,1,0,0:0:0:0:
448,192,30141,1,0,0:0:0:0:
192,192,30219,1,0,0:0:0:0:
320,192,30219,128,0,30296:0:0:0:0:
64,192,30219,128,0,30296:0:0:0:0:
448,192,30296,1,0,0:0:0:0:
192,192,30374,1,0,0:0:0:0:
192,192,30451,1,0,0:0:0:0:
64,192,30529,1,0,0:0:0:0:
448,192,30529,128,0,30606:0:0:0:0:
320,192,30529,128,0,30606:0:0:0:0:
192,192,30606,1,0,0:0:0:0:
64,192,30683,1,0,0:0:0:0:
192,192,30760,1,0,0:0:0:0:
320,192,30838,1,0,0:0:0:0:
448,192,30838,128,0,30916:0:0:0:0:
64,192,30838,128,0,30916:0:0:0:0:
192,192,30916,1,0,0:0:0:0:
192,192,30993,1,0,0:0:0:0:
320,192,31070,1,0,0:0:0:0:
448,192,31148,1,0,0:0:0:0:
64,192,31148,128,0,31225:0:0:0:0:
192,192,31148,128,0,31225:0:0:0:0:
320,192,31225,1,0,0:0:0:0:
448,192,31302,1,0,0:0:0:0:
448,192,31380,1,0,0:0:0:0:
320,192,31458,1,0,0:0:0:0:
192,192,31458,128,0,31535:0:0:0:0:
64,192,31458,128,0,31535:0:0:0:0:
448,192,31535,1,0,0:0:0:0:
320,192,31612,1,0,0:0:0:0:
320,192,31690,1,0,0:0:0:0:
64,192,31767,1,0,0:0:0:0:
192,192,31845,1,0,0:0:0:0:
192,192,31922,1,0,0:0:0:0:
448,192,31922,1,0,0:0:0:0:
320,192,32000,1,0,0:0:0:0:
448,192,32077,1,0,0:0:0:0:
64,192,32077,1,0,0:0:0:0:
192,192,32154,1,0,0:0:0:0:
320,192,32154,1,0,0:0:0:0:
64,192,32231,1,0,0:0:0:0:
64,192,32309,1,0,0:0:0:0:
192,192,32387,1,0,0:0:0:0:
320,192,32438,1,0,0:0:0:0:
448,192,32490,1,0,0:0:0:0:
64,192,32541,1,0,0:0:0:0:
192,192,32593,1,0,0:0:0:0:
320,192,32696,1,0,0:0:0:0:
448,192,32696,1,0,0:0:0:0:
320,192,32773,1,0,0:0:0:0:
192,192,32851,1,0,0:0:0:0:
64,192,32851,128,0,32929:0:0:0:0:
320,192,32929,1,0,0:0:0:0:
448,192,33006,1,0,0:0:0:0:
192,192,33006,128,0,33083:0:0:0:0:
448,192,33083,1,0,0:0:0:0:
192,192,33160,1,0,0:0:0:0:
320,192,33160,128,0,33238:0:0:0:0:
64,192,33238,1,0,0:0:0:0:
192,192,33316,1,0,0:0:0:0:
448,192,33316,128,0,33393:0:0:0:0:
192,192,33393,1,0,0:0:0:0:
64,192,33470,1,0,0:0:0:0:
320,192,33470,128,0,33548:0:0:0:0:
448,192,33548,1,0,0:0:0:0:
64,192,33625,1,0,0:0:0:0:
192,192,33625,1,0,0:0:0:0:
64,192,33702,1,0,0:0:0:0:
320,192,33780,1,0,0:0:0:0:
448,192,33780,128,0,33858:0:0:0:0:
192,192,33858,1,0,0:0:0:0:
320,192,33935,1,0,0:0:0:0:
64,192,33935,128,0,34012:0:0:0:0:
320,192,34012,1,0,0:0:0:0:
192,192,34090,1,0,0:0:0:0:
448,192,34090,128,0,34167:0:0:0:0:
64,192,34167,1,0,0:0:0:0:
192,192,34244,1,0,0:0:0:0:
320,192,34244,1,0,0:0:0:0:
192,192,34322,1,0,0:0:0:0:
320,192,34400,1,0,0:0:0:0:
448,192,34400,128,0,34477:0:0:0:0:
192,192,34477,1,0,0:0:0:0:
64,192,34554,1,0,0:0:0:0:
320,192,34554,128,0,34631:0:0:0:0:
64,192,34631,1,0,0:0:0:0:
448,192,34709,1,0,0:0:0:0:
320,192,34709,1,0,0:0:0:0:
192,192,34787,1,0,0:0:0:0:
64,192,34787,1,0,0:0:0:0:
448,192,34864,1,0,0:0:0:0:
320,192,34864,128,0,34941:0:0:0:0:
192,192,34941,1,0,0:0:0:0:
448,192,35019,1,0,0:0:0:0:
64,192,35019,128,0,35096:0:0:0:0:
448,192,35096,1,0,0:0:0:0:
192,192,35173,1,0,0:0:0:0:
320,192,35173,128,0,35251:0:0:0:0:
64,192,35251,1,0,0:0:0:0:
192,192,35329,1,0,0:0:0:0:
448,192,35329,128,0,35406:0:0:0:0:
192,192,35406,1,0,0:0:0:0:
448,192,35483,1,0,0:0:0:0:
64,192,35483,128,0,35560:0:0:0:0:
192,192,35560,1,0,0:0:0:0:
320,192,35638,1,0,0:0:0:0:
448,192,35638,1,0,0:0:0:0:
320,192,35715,1,0,0:0:0:0:
64,192,35793,1,0,0:0:0:0:
192,192,35793,128,0,35870:0:0:0:0:
320,192,35870,1,0,0:0:0:0:
448,192,35948,1,0,0:0:0:0:
64,192,35948,128,0,36025:0:0:0:0:
448,192,36025,1,0,0:0:0:0:
192,192,36102,1,0,0:0:0:0:
320,192,36102,128,0,36180:0:0:0:0:
64,192,36180,1,0,0:0:0:0:
320,192,36258,1,0,0:0:0:0:
448,192,36258,1,0,0:0:0:0:
64,192,36335,1,0,0:0:0:0:
192,192,36335,1,0,0:0:0:0:
320,192,36412,1,0,0:0:0:0:
448,192,36412,1,0,0:0:0:0:
192,192,36490,1,0,0:0:0:0:
64,192,36567,1,0,0:0:0:0:
320,192,36644,1,0,0:0:0:0:
64,192,36722,1,0,0:0:0:0:
192,192,36722,1,0,0:0:0:0:
320,192,36800,1,0,0:0:0:0:
448,192,36800,1,0,0:0:0:0:
192,192,36877,1,0,0:0:0:0:
320,192,36954,1,0,0:0:0:0:
448,192,36954,1,0,0:0:0:0:
192,192,37031,1,0,0:0:0:0:
64,192,37031,1,0,0:0:0:0:
320,192,37109,1,0,0:0:0:0:
448,192,37109,1,0,0:0:0:0:
192,192,37186,1,0,0:0:0:0:
64,192,37264,1,0,0:0:0:0:
320,192,37341,5,0,0:0:0:0:
448,192,37341,1,0,0:0:0:0:
320,192,37419,1,0,0:0:0:0:
192,192,37496,1,0,0:0:0:0:
320,192,37573,1,0,0:0:0:0:
448,192,37573,128,0,37650:0:0:0:0:
64,192,37650,1,0,0:0:0:0:
192,192,37650,128,0,37729:0:0:0:0:
320,192,37729,1,0,0:0:0:0:
448,192,37806,1,0,0:0:0:0:
64,192,37806,128,0,37883:0:0:0:0:
448,192,37883,1,0,0:0:0:0:
320,192,37960,1,0,0:0:0:0:
192,192,37960,128,0,38038:0:0:0:0:
448,192,38038,1,0,0:0:0:0:
320,192,38115,1,0,0:0:0:0:
192,192,38193,1,0,0:0:0:0:
64,192,38193,128,0,38270:0:0:0:0:
320,192,38270,1,0,0:0:0:0:
448,192,38270,128,0,38348:0:0:0:0:
192,192,38348,1,0,0:0:0:0:
64,192,38425,1,0,0:0:0:0:
320,192,38425,128,0,38502:0:0:0:0:
64,192,38502,1,0,0:0:0:0:
320,192,38580,5,0,0:0:0:0:
448,192,38580,1,0,0:0:0:0:
192,192,38580,1,0,0:0:0:0:
192,192,38735,1,0,0:0:0:0:
64,192,38735,1,0,0:0:0:0:
320,192,38812,1,0,0:0:0:0:
448,192,38812,1,0,0:0:0:0:
192,192,38890,1,0,0:0:0:0:
64,192,38890,1,0,0:0:0:0:
320,192,39044,1,0,0:0:0:0:
192,192,39044,1,0,0:0:0:0:
448,192,39044,1,0,0:0:0:0:
192,192,39200,1,0,0:0:0:0:
64,192,39200,1,0,0:0:0:0:
448,192,39200,1,0,0:0:0:0:
320,192,39354,1,0,0:0:0:0:
448,192,39354,1,0,0:0:0:0:
192,192,39431,1,0,0:0:0:0:
64,192,39431,1,0,0:0:0:0:
320,192,39509,1,0,0:0:0:0:
448,192,39509,1,0,0:0:0:0:
192,192,39664,1,0,0:0:0:0:
64,192,39664,1,0,0:0:0:0:
320,192,39741,1,0,0:0:0:0:
448,192,39741,1,0,0:0:0:0:
192,192,39819,1,0,0:0:0:0:
64,192,39819,1,0,0:0:0:0:
192,192,39896,1,0,0:0:0:0:
64,192,39973,1,0,0:0:0:0:
320,192,40050,1,0,0:0:0:0:
448,192,40050,128,0,40129:0:0:0:0:
64,192,40129,1,0,0:0:0:0:
192,192,40129,128,0,40206:0:0:0:0:
320,192,40206,1,0,0:0:0:0:
448,192,40283,1,0,0:0:0:0:
64,192,40283,128,0,40360:0:0:0:0:
448,192,40360,1,0,0:0:0:0:
192,192,40438,1,0,0:0:0:0:
64,192,40438,128,0,40515:0:0:0:0:
320,192,40438,128,0,40515:0:0:0:0:
448,192,40515,1,0,0:0:0:0:
192,192,40592,1,0,0:0:0:0:
320,192,40670,1,0,0:0:0:0:
448,192,40670,128,0,40748:0:0:0:0:
64,192,40748,1,0,0:0:0:0:
192,192,40748,128,0,40825:0:0:0:0:
320,192,40825,1,0,0:0:0:0:
448,192,40902,128,0,40980:0:0:0:0:
64,192,40902,1,0,0:0:0:0:
192,192,40902,128,0,40980:0:0:0:0:
320,192,40980,1,0,0:0:0:0:
64,192,41057,1,0,0:0:0:0:
448,192,41057,128,0,41212:0:0:0:0:
320,192,41290,128,0,41367:0:0:0:0:
64,192,41290,1,0,0:0:0:0:
192,192,41367,128,0,41444:0:0:0:0:
448,192,41367,1,0,0:0:0:0:
320,192,41521,128,0,41600:0:0:0:0:
448,192,41521,1,0,0:0:0:0:
64,192,41600,128,0,41677:0:0:0:0:
192,192,41677,128,0,41754:0:0:0:0:
320,192,41677,1,0,0:0:0:0:
448,192,41754,1,0,0:0:0:0:
192,192,41831,128,0,41909:0:0:0:0:
320,192,41909,1,0,0:0:0:0:
448,192,41909,1,0,0:0:0:0:
192,192,41986,128,0,42219:0:0:0:0:
64,192,41986,1,0,0:0:0:0:
320,192,42063,1,0,0:0:0:0:
448,192,42063,1,0,0:0:0:0:
320,192,42296,128,0,42450:0:0:0:0:
192,192,42528,1,0,0:0:0:0:
64,192,42528,128,0,42606:0:0:0:0:
448,192,42606,1,0,0:0:0:0:
320,192,42606,128,0,42683:0:0:0:0:
192,192,42683,1,0,0:0:0:0:
64,192,42760,1,0,0:0:0:0:
448,192,42760,128,0,42838:0:0:0:0:
64,192,42838,1,0,0:0:0:0:
320,192,42915,1,0,0:0:0:0:
192,192,42915,128,0,42992:0:0:0:0:
448,192,42915,128,0,42992:0:0:0:0:
64,192,42992,1,0,0:0:0:0:
320,192,43070,1,0,0:0:0:0:
192,192,43148,1,0,0:0:0:0:
64,192,43148,128,0,43225:0:0:0:0:
448,192,43225,1,0,0:0:0:0:
320,192,43225,128,0,43302:0:0:0:0:
192,192,43302,1,0,0:0:0:0:
64,192,43380,1,0,0:0:0:0:
448,192,43380,128,0,43457:0:0:0:0:
64,192,43457,1,0,0:0:0:0:
320,192,43534,1,0,0:0:0:0:
448,192,43534,1,0,0:0:0:0:
192,192,43612,1,0,0:0:0:0:
64,192,43690,1,0,0:0:0:0:
320,192,43767,1,0,0:0:0:0:
448,192,43767,1,0,0:0:0:0:
192,192,43844,1,0,0:0:0:0:
64,192,43844,1,0,0:0:0:0:
320,192,43921,1,0,0:0:0:0:
448,192,43999,1,0,0:0:0:0:
64,192,43999,1,0,0:0:0:0:
192,192,44077,1,0,0:0:0:0:
320,192,44154,1,0,0:0:0:0:
448,192,44154,1,0,0:0:0:0:
192,192,44231,1,0,0:0:0:0:
64,192,44231,1,0,0:0:0:0:
448,192,44309,1,0,0:0:0:0:
320,192,44386,1,0,0:0:0:0:
192,192,44386,1,0,0:0:0:0:
64,192,44463,1,0,0:0:0:0:
448,192,44463,1,0,0:0:0:0:
320,192,44541,1,0,0:0:0:0:
192,192,44619,1,0,0:0:0:0:
64,192,44619,1,0,0:0:0:0:
320,192,44696,1,0,0:0:0:0:
64,192,44773,1,0,0:0:0:0:
448,192,44773,128,0,44850:0:0:0:0:
192,192,44773,128,0,44850:0:0:0:0:
320,192,44850,1,0,0:0:0:0:
64,192,44928,1,0,0:0:0:0:
320,192,45005,1,0,0:0:0:0:
448,192,45005,128,0,45083:0:0:0:0:
64,192,45083,1,0,0:0:0:0:
192,192,45083,128,0,45160:0:0:0:0:
320,192,45160,1,0,0:0:0:0:
192,192,45238,1,0,0:0:0:0:
448,192,45238,128,0,45315:0:0:0:0:
64,192,45238,128,0,45315:0:0:0:0:
320,192,45315,1,0,0:0:0:0:
192,192,45392,1,0,0:0:0:0:
64,192,45392,1,0,0:0:0:0:
192,192,45470,1,0,0:0:0:0:
320,192,45548,1,0,0:0:0:0:
64,192,45625,1,0,0:0:0:0:
192,192,45625,128,0,45702:0:0:0:0:
448,192,45702,1,0,0:0:0:0:
320,192,45702,128,0,45780:0:0:0:0:
64,192,45780,1,0,0:0:0:0:
448,192,45857,1,0,0:0:0:0:
192,192,45857,128,0,45934:0:0:0:0:
448,192,45934,1,0,0:0:0:0:
320,192,46012,128,0,46090:0:0:0:0:
64,192,46012,128,0,46090:0:0:0:0:
192,192,46090,1,0,0:0:0:0:
448,192,46167,1,0,0:0:0:0:
320,192,46167,128,0,46244:0:0:0:0:
192,192,46244,1,0,0:0:0:0:
64,192,46244,128,0,46321:0:0:0:0:
320,192,46321,1,0,0:0:0:0:
448,192,46321,128,0,46399:0:0:0:0:
192,192,46399,1,0,0:0:0:0:
320,192,46477,1,0,0:0:0:0:
64,192,46477,128,0,46554:0:0:0:0:
320,192,46554,1,0,0:0:0:0:
192,192,46631,1,0,0:0:0:0:
64,192,46631,1,0,0:0:0:0:
320,192,46709,1,0,0:0:0:0:
448,192,46709,1,0,0:0:0:0:
192,192,46786,1,0,0:0:0:0:
64,192,46786,1,0,0:0:0:0:
320,192,46863,1,0,0:0:0:0:
448,192,46863,1,0,0:0:0:0:
192,192,46940,1,0,0:0:0:0:
64,192,46940,1,0,0:0:0:0:
320,192,47019,1,0,0:0:0:0:
448,192,47019,1,0,0:0:0:0:
192,192,47096,1,0,0:0:0:0:
64,192,47096,1,0,0:0:0:0:
448,192,47173,1,0,0:0:0:0:
320,192,47173,1,0,0:0:0:0:
64,192,47269,1,0,0:0:0:0:
192,192,47269,128,0,47405:0:0:0:0:
320,192,47405,128,0,47473:0:0:0:0:
448,192,47473,128,0,47541:0:0:0:0:
192,192,47541,128,0,47678:0:0:0:0:
64,192,47541,1,0,0:0:0:0:
64,192,47678,128,0,47746:0:0:0:0:
320,192,47746,128,0,47814:0:0:0:0:
448,192,47814,128,0,47882:0:0:0:0:
192,192,47814,1,0,0:0:0:0:
64,192,47882,128,0,47950:0:0:0:0:
320,192,48019,128,0,48087:0:0:0:0:
192,192,48087,128,0,48155:0:0:0:0:
448,192,48087,1,0,0:0:0:0:
64,192,48155,128,0,48223:0:0:0:0:
320,192,48223,128,0,48291:0:0:0:0:
448,192,48291,128,0,48360:0:0:0:0:
192,192,48360,128,0,48428:0:0:0:0:
64,192,48360,1,0,0:0:0:0:
320,192,48428,128,0,48496:0:0:0:0:
64,192,48496,128,0,48564:0:0:0:0:
192,192,48564,128,0,48632:0:0:0:0:
448,192,48632,128,0,48769:0:0:0:0:
320,192,48632,1,0,0:0:0:0:
320,192,48769,128,0,48837:0:0:0:0:
192,192,48905,128,0,48973:0:0:0:0:
64,192,48905,1,0,0:0:0:0:
448,192,48973,128,0,49041:0:0:0:0:
320,192,49041,128,0,49178:0:0:0:0:
192,192,49178,128,0,49450:0:0:0:0:
64,192,49178,128,0,49450:0:0:0:0:
448,192,49450,1,0,0:0:0:0:
320,192,49450,1,0,0:0:0:0:
192,192,49519,128,0,49587:0:0:0:0:
320,192,49587,128,0,49723:0:0:0:0:
192,192,49723,128,0,49860:0:0:0:0:
448,192,49723,1,0,0:0:0:0:
320,192,49928,128,0,49996:0:0:0:0:
64,192,49996,128,0,50064:0:0:0:0:
448,192,49996,1,0,0:0:0:0:
192,192,50064,128,0,50132:0:0:0:0:
320,192,50200,128,0,50269:0:0:0:0:
448,192,50269,128,0,50337:0:0:0:0:
64,192,50269,1,0,0:0:0:0:
192,192,50473,128,0,50541:0:0:0:0:
320,192,50541,128,0,50678:0:0:0:0:
448,192,50541,1,0,0:0:0:0:
64,192,50678,128,0,50746:0:0:0:0:
448,192,50746,128,0,50814:0:0:0:0:
192,192,50746,1,0,0:0:0:0:
320,192,50814,128,0,50882:0:0:0:0:
64,192,50814,1,0,0:0:0:0:
448,192,50882,128,0,50950:0:0:0:0:
64,192,50950,128,0,51087:0:0:0:0:
192,192,50950,1,0,0:0:0:0:
320,192,51087,128,0,51223:0:0:0:0:
448,192,51087,1,0,0:0:0:0:
192,192,51223,128,0,51360:0:0:0:0:
448,192,51291,1,0,0:0:0:0:
64,192,51360,128,0,51428:0:0:0:0:
320,192,51360,1,0,0:0:0:0:
448,192,51428,128,0,51496:0:0:0:0:
192,192,51496,128,0,51564:0:0:0:0:
320,192,51496,1,0,0:0:0:0:
64,192,51564,128,0,51632:0:0:0:0:
448,192,51632,1,0,0:0:0:0:
192,192,51632,128,0,51700:0:0:0:0:
320,192,51700,1,0,0:0:0:0:
448,192,51769,128,0,51837:0:0:0:0:
64,192,51837,128,0,51905:0:0:0:0:
192,192,51905,128,0,51973:0:0:0:0:
448,192,51973,1,0,0:0:0:0:
320,192,52041,128,0,52110:0:0:0:0:
64,192,52041,128,0,52110:0:0:0:0:
448,192,52110,1,0,0:0:0:0:
192,192,52178,128,0,52246:0:0:0:0:
448,192,52246,128,0,52314:0:0:0:0:
320,192,52314,128,0,52382:0:0:0:0:
192,192,52382,1,0,0:0:0:0:
448,192,52450,128,0,52519:0:0:0:0:
64,192,52450,128,0,52519:0:0:0:0:
192,192,52519,1,0,0:0:0:0:
320,192,52587,128,0,52655:0:0:0:0:
64,192,52655,128,0,52723:0:0:0:0:
192,192,52723,128,0,52791:0:0:0:0:
448,192,52791,1,0,0:0:0:0:
320,192,52860,128,0,52928:0:0:0:0:
64,192,52860,128,0,52928:0:0:0:0:
192,192,52928,1,0,0:0:0:0:
448,192,52996,128,0,53064:0:0:0:0:
320,192,53064,128,0,53269:0:0:0:0:
192,192,53132,1,0,0:0:0:0:
448,192,53200,1,0,0:0:0:0:
192,192,53269,128,0,53337:0:0:0:0:
64,192,53269,1,0,0:0:0:0:
448,192,53337,128,0,53405:0:0:0:0:
192,192,53405,128,0,53473:0:0:0:0:
320,192,53405,1,0,0:0:0:0:
64,192,53473,1,0,0:0:0:0:
320,192,53541,128,0,53610:0:0:0:0:
448,192,53541,1,0,0:0:0:0:
192,192,53610,128,0,53678:0:0:0:0:
64,192,53678,1,0,0:0:0:0:
320,192,53746,1,0,0:0:0:0:
64,192,53814,128,0,53882:0:0:0:0:
320,192,53882,1,0,0:0:0:0:
192,192,53950,1,0,0:0:0:0:
192,192,54019,1,0,0:0:0:0:
64,192,54087,128,0,54155:0:0:0:0:
448,192,54223,1,0,0:0:0:0:
448,192,54291,1,0,0:0:0:0:
192,192,54360,128,0,54428:0:0:0:0:
64,192,54428,1,0,0:0:0:0:
448,192,54496,1,0,0:0:0:0:
448,192,54564,1,0,0:0:0:0:
320,192,54632,128,0,54700:0:0:0:0:
192,192,54700,1,0,0:0:0:0:
64,192,54769,1,0,0:0:0:0:
64,192,54837,1,0,0:0:0:0:
320,192,54905,1,0,0:0:0:0:
192,192,54905,128,0,54973:0:0:0:0:
448,192,54905,128,0,54973:0:0:0:0:
64,192,54973,1,0,0:0:0:0:
320,192,55041,1,0,0:0:0:0:
192,192,55110,1,0,0:0:0:0:
64,192,55110,128,0,55178:0:0:0:0:
320,192,55178,1,0,0:0:0:0:
448,192,55178,128,0,55246:0:0:0:0:
192,192,55246,1,0,0:0:0:0:
448,192,55314,1,0,0:0:0:0:
320,192,55314,128,0,55382:0:0:0:0:
64,192,55314,128,0,55382:0:0:0:0:
192,192,55382,1,0,0:0:0:0:
448,192,55450,1,0,0:0:0:0:
64,192,55450,128,0,55519:0:0:0:0:
448,192,55519,1,0,0:0:0:0:
320,192,55587,1,0,0:0:0:0:
64,192,55655,1,0,0:0:0:0:
192,192,55655,128,0,55723:0:0:0:0:
320,192,55723,1,0,0:0:0:0:
448,192,55723,128,0,55791:0:0:0:0:
64,192,55791,1,0,0:0:0:0:
192,192,55860,128,0,55928:0:0:0:0:
320,192,55860,128,0,55928:0:0:0:0:
448,192,55860,1,0,0:0:0:0:
192,192,55996,1,0,0:0:0:0:
64,192,55996,1,0,0:0:0:0:
448,192,55996,1,0,0:0:0:0:
320,192,56132,1,0,0:0:0:0:
320,192,56269,1,0,0:0:0:0:
320,192,56405,1,0,0:0:0:0:
320,192,56541,1,0,0:0:0:0:
320,192,56678,1,0,0:0:0:0:
320,192,56814,1,0,0:0:0:0:
320,192,56950,1,0,0:0:0:0:
320,192,57087,1,0,0:0:0:0:
320,192,57223,1,0,0:0:0:0:
320,192,57360,1,0,0:0:0:0:
320,192,57496,1,0,0:0:0:0:
192,192,57564,1,0,0:0:0:0:
64,192,57632,1,0,0:0:0:0:
320,192,57632,1,0,0:0:0:0:
448,192,57632,1,0,0:0:0:0:
320,192,57905,1,0,0:0:0:0:
192,192,57905,1,0,0:0:0:0:
64,192,57905,1,0,0:0:0:0:
64,192,58178,1,0,0:0:0:0:
448,192,58178,1,0,0:0:0:0:
192,192,58178,1,0,0:0:0:0:
320,192,58314,1,0,0:0:0:0:
320,192,58450,1,0,0:0:0:0:
320,192,58587,1,0,0:0:0:0:
320,192,58723,1,0,0:0:0:0:
320,192,58860,1,0,0:0:0:0:
320,192,58996,1,0,0:0:0:0:
320,192,59132,1,0,0:0:0:0:
448,192,59200,1,0,0:0:0:0:
320,192,59269,1,0,0:0:0:0:
64,192,59269,1,0,0:0:0:0:
192,192,59269,1,0,0:0:0:0:
448,192,59541,5,0,0:0:0:0:
192,192,59541,1,0,0:0:0:0:
64,192,59541,1,0,0:0:0:0:
448,192,59814,5,0,0:0:0:0:
192,192,59814,1,0,0:0:0:0:
320,192,59814,128,0,59882:0:0:0:0:
192,192,60019,128,0,60087:0:0:0:0:
320,192,60223,128,0,60291:0:0:0:0:
192,192,60291,128,0,60360:0:0:0:0:
448,192,60360,1,0,0:0:0:0:
320,192,60360,1,0,0:0:0:0:
64,192,60360,1,0,0:0:0:0:
192,192,60632,1,0,0:0:0:0:
64,192,60632,1,0,0:0:0:0:
320,192,60632,1,0,0:0:0:0:
320,192,60905,1,0,0:0:0:0:
448,192,60905,1,0,0:0:0:0:
64,192,60905,1,0,0:0:0:0:
192,192,60973,1,0,0:0:0:0:
320,192,61041,1,0,0:0:0:0:
448,192,61041,1,0,0:0:0:0:
192,192,61178,1,0,0:0:0:0:
64,192,61178,1,0,0:0:0:0:
320,192,61178,1,0,0:0:0:0:
448,192,61246,1,0,0:0:0:0:
320,192,61314,1,0,0:0:0:0:
192,192,61382,1,0,0:0:0:0:
64,192,61450,1,0,0:0:0:0:
320,192,61450,1,0,0:0:0:0:
448,192,61450,1,0,0:0:0:0:
192,192,61519,1,0,0:0:0:0:
320,192,61587,1,0,0:0:0:0:
448,192,61655,1,0,0:0:0:0:
320,192,61723,1,0,0:0:0:0:
192,192,61723,1,0,0:0:0:0:
64,192,61723,1,0,0:0:0:0:
448,192,61791,1,0,0:0:0:0:
320,192,61860,1,0,0:0:0:0:
192,192,61928,1,0,0:0:0:0:
64,192,61996,1,0,0:0:0:0:
320,192,61996,1,0,0:0:0:0:
448,192,61996,1,0,0:0:0:0:
192,192,62064,1,0,0:0:0:0:
320,192,62132,1,0,0:0:0:0:
192,192,62200,1,0,0:0:0:0:
64,192,62200,1,0,0:0:0:0:
320,192,62269,1,0,0:0:0:0:
448,192,62269,1,0,0:0:0:0:
192,192,62405,1,0,0:0:0:0:
64,192,62405,1,0,0:0:0:0:
448,192,62405,1,0,0:0:0:0:
320,192,62473,1,0,0:0:0:0:
192,192,62541,1,0,0:0:0:0:
64,192,62610,1,0,0:0:0:0:
448,192,62678,1,0,0:0:0:0:
320,192,62746,1,0,0:0:0:0:
192,192,62814,1,0,0:0:0:0:
64,192,62814,1,0,0:0:0:0:
448,192,62905,1,0,0:0:0:0:
320,192,62905,1,0,0:0:0:0:
192,192,62996,1,0,0:0:0:0:
64,192,62996,1,0,0:0:0:0:
320,192,63087,1,0,0:0:0:0:
448,192,63087,1,0,0:0:0:0:
192,192,63178,1,0,0:0:0:0:
64,192,63178,1,0,0:0:0:0:
320,192,63269,1,0,0:0:0:0:
448,192,63269,1,0,0:0:0:0:
192,192,63360,1,0,0:0:0:0:
64,192,63360,1,0,0:0:0:0:
320,192,63428,1,0,0:0:0:0:
448,192,63496,1,0,0:0:0:0:
64,192,63564,1,0,0:0:0:0:
320,192,63632,1,0,0:0:0:0:
448,192,63632,1,0,0:0:0:0:
192,192,63723,1,0,0:0:0:0:
64,192,63723,1,0,0:0:0:0:
320,192,63814,1,0,0:0:0:0:
448,192,63814,1,0,0:0:0:0:
192,192,63905,1,0,0:0:0:0:
64,192,63905,1,0,0:0:0:0:
320,192,63996,1,0,0:0:0:0:
448,192,63996,1,0,0:0:0:0:
192,192,64087,1,0,0:0:0:0:
64,192,64087,1,0,0:0:0:0:
320,192,64178,1,0,0:0:0:0:
448,192,64178,1,0,0:0:0:0:
192,192,64269,1,0,0:0:0:0:
64,192,64269,1,0,0:0:0:0:
320,192,64360,1,0,0:0:0:0:
448,192,64360,1,0,0:0:0:0:
192,192,64450,1,0,0:0:0:0:
64,192,64450,1,0,0:0:0:0:
320,192,64519,1,0,0:0:0:0:
448,192,64587,1,0,0:0:0:0:
64,192,64655,1,0,0:0:0:0:
192,192,64723,1,0,0:0:0:0:
448,192,64791,5,0,0:0:0:0:
320,192,64860,1,0,0:0:0:0:
192,192,64928,1,0,0:0:0:0:
64,192,64996,1,0,0:0:0:0:
320,192,65269,5,0,0:0:0:0:
448,192,65269,1,0,0:0:0:0:
192,192,65269,128,0,65405:0:0:0:0:
320,192,65405,128,0,65678:0:0:0:0:
64,192,65814,1,0,0:0:0:0:
192,192,65814,1,0,0:0:0:0:
448,192,65882,1,0,0:0:0:0:
320,192,65882,1,0,0:0:0:0:
192,192,65950,1,0,0:0:0:0:
64,192,65950,1,0,0:0:0:0:
320,192,66019,1,0,0:0:0:0:
448,192,66019,1,0,0:0:0:0:
192,192,66360,1,0,0:0:0:0:
64,192,66360,1,0,0:0:0:0:
320,192,66360,1,0,0:0:0:0:
448,192,66428,1,0,0:0:0:0:
320,192,66496,1,0,0:0:0:0:
64,192,66564,1,0,0:0:0:0:
192,192,66632,1,0,0:0:0:0:
448,192,66700,1,0,0:0:0:0:
320,192,66769,1,0,0:0:0:0:
64,192,66837,1,0,0:0:0:0:
192,192,66905,1,0,0:0:0:0:
320,192,66905,1,0,0:0:0:0:
448,192,66905,1,0,0:0:0:0:
64,192,66973,1,0,0:0:0:0:
192,192,67041,1,0,0:0:0:0:
320,192,67110,1,0,0:0:0:0:
448,192,67178,1,0,0:0:0:0:
192,192,67178,1,0,0:0:0:0:
64,192,67178,1,0,0:0:0:0:
320,192,67246,1,0,0:0:0:0:
192,192,67314,1,0,0:0:0:0:
64,192,67382,1,0,0:0:0:0:
320,192,67450,1,0,0:0:0:0:
448,192,67450,1,0,0:0:0:0:
192,192,67519,1,0,0:0:0:0:
320,192,67587,1,0,0:0:0:0:
192,192,67655,1,0,0:0:0:0:
64,192,67723,1,0,0:0:0:0:
320,192,67723,1,0,0:0:0:0:
448,192,67723,1,0,0:0:0:0:
192,192,67791,1,0,0:0:0:0:
320,192,67860,1,0,0:0:0:0:
448,192,67928,1,0,0:0:0:0:
192,192,67996,1,0,0:0:0:0:
64,192,67996,1,0,0:0:0:0:
320,192,68087,1,0,0:0:0:0:
448,192,68087,1,0,0:0:0:0:
192,192,68178,1,0,0:0:0:0:
64,192,68178,1,0,0:0:0:0:
320,192,68269,1,0,0:0:0:0:
448,192,68269,1,0,0:0:0:0:
192,192,68360,1,0,0:0:0:0:
64,192,68360,1,0,0:0:0:0:
320,192,68450,1,0,0:0:0:0:
448,192,68450,1,0,0:0:0:0:
192,192,68541,1,0,0:0:0:0:
64,192,68541,1,0,0:0:0:0:
320,192,68632,1,0,0:0:0:0:
448,192,68632,1,0,0:0:0:0:
192,192,68723,1,0,0:0:0:0:
64,192,68723,1,0,0:0:0:0:
320,192,68814,1,0,0:0:0:0:
448,192,68814,1,0,0:0:0:0:
192,192,69632,128,0,71132:0:0:0:0:
448,192,69632,128,0,71132:0:0:0:0:
64,192,69632,128,0,71132:0:0:0:0:
192,192,71269,128,0,72700:0:0:0:0:
448,192,71269,128,0,72700:0:0:0:0:
64,192,71269,128,0,72700:0:0:0:0:
320,192,72905,5,0,0:0:0:0:
192,192,72905,1,0,0:0:0:0:
64,192,72973,1,0,0:0:0:0:
448,192,72973,1,0,0:0:0:0:
320,192,73041,1,0,0:0:0:0:
192,192,73041,1,0,0:0:0:0:
64,192,73110,1,0,0:0:0:0:
320,192,73178,5,0,0:0:0:0:
448,192,73178,1,0,0:0:0:0:
192,192,73246,1,0,0:0:0:0:
64,192,73246,1,0,0:0:0:0:
320,192,73314,1,0,0:0:0:0:
448,192,73314,1,0,0:0:0:0:
192,192,73382,1,0,0:0:0:0:
64,192,73382,1,0,0:0:0:0:
320,192,73450,1,0,0:0:0:0:
448,192,73450,1,0,0:0:0:0:
192,192,73587,1,0,0:0:0:0:
64,192,73587,1,0,0:0:0:0:
192,192,73723,1,0,0:0:0:0:
320,192,73723,1,0,0:0:0:0:
64,192,73860,1,0,0:0:0:0:
320,192,73860,1,0,0:0:0:0:
448,192,73996,1,0,0:0:0:0:
64,192,73996,1,0,0:0:0:0:
320,192,74132,1,0,0:0:0:0:
448,192,74132,1,0,0:0:0:0:
320,192,74269,1,0,0:0:0:0:
192,192,74269,1,0,0:0:0:0:
192,192,74405,1,0,0:0:0:0:
64,192,74405,1,0,0:0:0:0:
64,192,74541,1,0,0:0:0:0:
320,192,74541,1,0,0:0:0:0:
448,192,74541,1,0,0:0:0:0:
320,192,74678,1,0,0:0:0:0:
192,192,74678,1,0,0:0:0:0:
64,192,74814,1,0,0:0:0:0:
448,192,74814,1,0,0:0:0:0:
192,192,74814,1,0,0:0:0:0:
320,192,74950,1,0,0:0:0:0:
448,192,74950,1,0,0:0:0:0:
192,192,75087,1,0,0:0:0:0:
64,192,75087,1,0,0:0:0:0:
320,192,75087,1,0,0:0:0:0:
448,192,75223,1,0,0:0:0:0:
64,192,75223,1,0,0:0:0:0:
320,192,75360,1,0,0:0:0:0:
448,192,75360,1,0,0:0:0:0:
192,192,75360,1,0,0:0:0:0:
192,192,75496,1,0,0:0:0:0:
64,192,75496,1,0,0:0:0:0:
64,192,75632,1,0,0:0:0:0:
320,192,75632,1,0,0:0:0:0:
448,192,75632,1,0,0:0:0:0:
320,192,75769,1,0,0:0:0:0:
192,192,75769,1,0,0:0:0:0:
192,192,75905,1,0,0:0:0:0:
64,192,75905,1,0,0:0:0:0:
448,192,75905,1,0,0:0:0:0:
320,192,76041,1,0,0:0:0:0:
448,192,76041,1,0,0:0:0:0:
320,192,76178,1,0,0:0:0:0:
192,192,76178,1,0,0:0:0:0:
64,192,76178,1,0,0:0:0:0:
448,192,76314,1,0,0:0:0:0:
64,192,76314,1,0,0:0:0:0:
320,192,76450,1,0,0:0:0:0:
448,192,76450,1,0,0:0:0:0:
192,192,76450,1,0,0:0:0:0:
320,192,76587,1,0,0:0:0:0:
192,192,76587,1,0,0:0:0:0:
192,192,76723,1,0,0:0:0:0:
64,192,76723,1,0,0:0:0:0:
448,192,76814,1,0,0:0:0:0:
320,192,76814,1,0,0:0:0:0:
192,192,76905,1,0,0:0:0:0:
64,192,76905,1,0,0:0:0:0:
320,192,76996,1,0,0:0:0:0:
448,192,76996,1,0,0:0:0:0:
192,192,77087,1,0,0:0:0:0:
64,192,77087,1,0,0:0:0:0:
320,192,77178,1,0,0:0:0:0:
448,192,77178,1,0,0:0:0:0:
192,192,77269,1,0,0:0:0:0:
64,192,77269,1,0,0:0:0:0:
320,192,77360,5,0,0:0:0:0:
448,192,77360,1,0,0:0:0:0:
192,192,77450,1,0,0:0:0:0:
64,192,77450,1,0,0:0:0:0:
320,192,77541,1,0,0:0:0:0:
448,192,77541,1,0,0:0:0:0:
192,192,77632,1,0,0:0:0:0:
64,192,77632,1,0,0:0:0:0:
320,192,77723,1,0,0:0:0:0:
448,192,77723,1,0,0:0:0:0:
64,192,77814,128,0,78019:0:0:0:0:
64,192,78223,128,0,78428:0:0:0:0:
64,192,78632,128,0,78837:0:0:0:0:
320,192,78905,1,0,0:0:0:0:
448,192,78905,1,0,0:0:0:0:
192,192,78973,128,0,79041:0:0:0:0:
64,192,79041,128,0,79110:0:0:0:0:
320,192,79110,128,0,79178:0:0:0:0:
448,192,79178,128,0,79246:0:0:0:0:
192,192,79178,1,0,0:0:0:0:
64,192,79246,128,0,79314:0:0:0:0:
320,192,79314,128,0,79450:0:0:0:0:
64,192,79450,128,0,79587:0:0:0:0:
448,192,79450,1,0,0:0:0:0:
192,192,79587,128,0,79723:0:0:0:0:
320,192,79723,128,0,79928:0:0:0:0:
448,192,79723,1,0,0:0:0:0:
192,192,79996,1,0,0:0:0:0:
448,192,79996,128,0,80064:0:0:0:0:
64,192,79996,128,0,80064:0:0:0:0:
320,192,80064,1,0,0:0:0:0:
192,192,80132,1,0,0:0:0:0:
192,192,80200,1,0,0:0:0:0:
64,192,80269,1,0,0:0:0:0:
320,192,80337,1,0,0:0:0:0:
448,192,80405,1,0,0:0:0:0:
64,192,80405,128,0,80473:0:0:0:0:
192,192,80405,128,0,80473:0:0:0:0:
320,192,80473,1,0,0:0:0:0:
448,192,80541,1,0,0:0:0:0:
448,192,80610,1,0,0:0:0:0:
320,192,80678,1,0,0:0:0:0:
192,192,80746,1,0,0:0:0:0:
320,192,80814,1,0,0:0:0:0:
448,192,80814,128,0,80882:0:0:0:0:
64,192,80814,128,0,80882:0:0:0:0:
192,192,80882,1,0,0:0:0:0:
320,192,80950,1,0,0:0:0:0:
64,192,81019,1,0,0:0:0:0:
192,192,81087,1,0,0:0:0:0:
448,192,81155,1,0,0:0:0:0:
64,192,81223,1,0,0:0:0:0:
64,192,81291,1,0,0:0:0:0:
320,192,81360,1,0,0:0:0:0:
192,192,81360,128,0,81428:0:0:0:0:
448,192,81428,1,0,0:0:0:0:
320,192,81496,1,0,0:0:0:0:
320,192,81564,1,0,0:0:0:0:
192,192,81632,1,0,0:0:0:0:
448,192,81632,128,0,81700:0:0:0:0:
64,192,81632,128,0,81700:0:0:0:0:
320,192,81700,1,0,0:0:0:0:
192,192,81769,1,0,0:0:0:0:
64,192,81837,1,0,0:0:0:0:
320,192,81905,1,0,0:0:0:0:
448,192,81905,1,0,0:0:0:0:
192,192,81973,1,0,0:0:0:0:
64,192,81973,1,0,0:0:0:0:
320,192,82041,1,0,0:0:0:0:
448,192,82041,1,0,0:0:0:0:
192,192,82110,1,0,0:0:0:0:
64,192,82110,1,0,0:0:0:0:
320,192,82178,1,0,0:0:0:0:
448,192,82178,1,0,0:0:0:0:
192,192,82246,1,0,0:0:0:0:
320,192,82314,1,0,0:0:0:0:
64,192,82382,1,0,0:0:0:0:
192,192,82450,1,0,0:0:0:0:
448,192,82450,1,0,0:0:0:0:
320,192,82519,1,0,0:0:0:0:
448,192,82587,1,0,0:0:0:0:
64,192,82655,1,0,0:0:0:0:
192,192,82723,1,0,0:0:0:0:
320,192,82723,1,0,0:0:0:0:
448,192,82791,1,0,0:0:0:0:
320,192,82860,1,0,0:0:0:0:
192,192,82928,1,0,0:0:0:0:
64,192,82928,1,0,0:0:0:0:
320,192,82996,1,0,0:0:0:0:
448,192,82996,1,0,0:0:0:0:
192,192,83064,1,0,0:0:0:0:
64,192,83132,1,0,0:0:0:0:
320,192,83132,1,0,0:0:0:0:
448,192,83200,1,0,0:0:0:0:
192,192,83269,1,0,0:0:0:0:
64,192,83269,1,0,0:0:0:0:
320,192,83337,1,0,0:0:0:0:
448,192,83405,1,0,0:0:0:0:
192,192,83473,1,0,0:0:0:0:
320,192,83541,1,0,0:0:0:0:
64,192,83541,1,0,0:0:0:0:
448,192,83610,1,0,0:0:0:0:
320,192,83678,1,0,0:0:0:0:
192,192,83746,1,0,0:0:0:0:
64,192,83814,1,0,0:0:0:0:
320,192,83814,1,0,0:0:0:0:
448,192,83882,1,0,0:0:0:0:
192,192,83950,1,0,0:0:0:0:
64,192,84019,1,0,0:0:0:0:
320,192,84019,1,0,0:0:0:0:
448,192,84087,1,0,0:0:0:0:
192,192,84087,1,0,0:0:0:0:
320,192,84155,1,0,0:0:0:0:
192,192,84223,1,0,0:0:0:0:
64,192,84223,1,0,0:0:0:0:
320,192,84291,1,0,0:0:0:0:
448,192,84360,1,0,0:0:0:0:
64,192,84360,1,0,0:0:0:0:
192,192,84428,1,0,0:0:0:0:
448,192,84496,1,0,0:0:0:0:
320,192,84564,1,0,0:0:0:0:
192,192,84632,1,0,0:0:0:0:
64,192,84632,1,0,0:0:0:0:
320,192,84700,1,0,0:0:0:0:
448,192,84769,1,0,0:0:0:0:
64,192,84837,1,0,0:0:0:0:
192,192,84905,1,0,0:0:0:0:
320,192,84905,1,0,0:0:0:0:
448,192,84973,1,0,0:0:0:0:
320,192,85041,1,0,0:0:0:0:
192,192,85110,1,0,0:0:0:0:
64,192,85110,1,0,0:0:0:0:
448,192,85178,1,0,0:0:0:0:
320,192,85178,1,0,0:0:0:0:
192,192,85246,1,0,0:0:0:0:
64,192,85314,1,0,0:0:0:0:
320,192,85314,1,0,0:0:0:0:
448,192,85382,1,0,0:0:0:0:
192,192,85450,1,0,0:0:0:0:
64,192,85450,1,0,0:0:0:0:
320,192,85519,1,0,0:0:0:0:
448,192,85587,1,0,0:0:0:0:
192,192,85655,1,0,0:0:0:0:
64,192,85655,1,0,0:0:0:0:
320,192,85723,1,0,0:0:0:0:
448,192,85723,1,0,0:0:0:0:
192,192,85791,1,0,0:0:0:0:
64,192,85860,1,0,0:0:0:0:
320,192,85860,1,0,0:0:0:0:
448,192,85928,1,0,0:0:0:0:
192,192,85996,1,0,0:0:0:0:
64,192,85996,1,0,0:0:0:0:
320,192,86064,5,0,0:0:0:0:
448,192,86132,1,0,0:0:0:0:
64,192,86200,1,0,0:0:0:0:
192,192,86200,1,0,0:0:0:0:
320,192,86269,1,0,0:0:0:0:
448,192,86269,1,0,0:0:0:0:
192,192,86337,1,0,0:0:0:0:
64,192,86405,1,0,0:0:0:0:
320,192,86405,1,0,0:0:0:0:
448,192,86473,1,0,0:0:0:0:
320,192,86541,5,0,0:0:0:0:
192,192,86541,1,0,0:0:0:0:
64,192,86678,1,0,0:0:0:0:
192,192,86678,1,0,0:0:0:0:
64,192,86814,1,0,0:0:0:0:
448,192,86814,1,0,0:0:0:0:
320,192,86950,128,0,87087:0:0:0:0:
448,192,87087,128,0,87155:0:0:0:0:
192,192,87155,128,0,87223:0:0:0:0:
320,192,87223,128,0,87360:0:0:0:0:
64,192,87360,128,0,87428:0:0:0:0:
192,192,87428,128,0,87496:0:0:0:0:
320,192,87496,128,0,87632:0:0:0:0:
192,192,87632,1,0,0:0:0:0:
64,192,87700,1,0,0:0:0:0:
448,192,87769,1,0,0:0:0:0:
320,192,87837,1,0,0:0:0:0:
64,192,87905,1,0,0:0:0:0:
320,192,88041,128,0,88178:0:0:0:0:
448,192,88178,128,0,88246:0:0:0:0:
192,192,88246,128,0,88314:0:0:0:0:
64,192,88314,1,0,0:0:0:0:
320,192,88314,1,0,0:0:0:0:
192,192,88450,1,0,0:0:0:0:
64,192,88450,1,0,0:0:0:0:
320,192,88519,1,0,0:0:0:0:
448,192,88519,1,0,0:0:0:0:
192,192,88587,1,0,0:0:0:0:
64,192,88587,1,0,0:0:0:0:
320,192,88655,1,0,0:0:0:0:
448,192,88655,1,0,0:0:0:0:
64,192,88723,1,0,0:0:0:0:
192,192,88723,128,0,88791:0:0:0:0:
320,192,88791,1,0,0:0:0:0:
64,192,88860,1,0,0:0:0:0:
320,192,88928,1,0,0:0:0:0:
448,192,88928,128,0,88996:0:0:0:0:
192,192,88996,1,0,0:0:0:0:
64,192,88996,128,0,89064:0:0:0:0:
320,192,89064,1,0,0:0:0:0:
64,192,89132,1,0,0:0:0:0:
192,192,89132,128,0,89200:0:0:0:0:
448,192,89132,128,0,89200:0:0:0:0:
320,192,89200,1,0,0:0:0:0:
192,192,89269,1,0,0:0:0:0:
64,192,89269,128,0,89337:0:0:0:0:
448,192,89337,1,0,0:0:0:0:
192,192,89405,1,0,0:0:0:0:
320,192,89473,1,0,0:0:0:0:
448,192,89473,128,0,89541:0:0:0:0:
64,192,89541,1,0,0:0:0:0:
192,192,89541,128,0,89610:0:0:0:0:
320,192,89610,1,0,0:0:0:0:
64,192,89678,1,0,0:0:0:0:
448,192,89678,128,0,89746:0:0:0:0:
192,192,89746,1,0,0:0:0:0:
64,192,89814,1,0,0:0:0:0:
448,192,89814,1,0,0:0:0:0:
320,192,89814,128,0,89882:0:0:0:0:
192,192,89882,1,0,0:0:0:0:
192,192,89950,1,0,0:0:0:0:
320,192,90019,1,0,0:0:0:0:
448,192,90019,128,0,90087:0:0:0:0:
192,192,90087,1,0,0:0:0:0:
64,192,90087,128,0,90155:0:0:0:0:
320,192,90155,1,0,0:0:0:0:
64,192,90223,1,0,0:0:0:0:
192,192,90223,128,0,90291:0:0:0:0:
448,192,90223,128,0,90291:0:0:0:0:
320,192,90291,1,0,0:0:0:0:
192,192,90360,1,0,0:0:0:0:
64,192,90360,128,0,90428:0:0:0:0:
448,192,90428,1,0,0:0:0:0:
192,192,90496,1,0,0:0:0:0:
320,192,90564,1,0,0:0:0:0:
448,192,90564,128,0,90632:0:0:0:0:
64,192,90632,1,0,0:0:0:0:
192,192,90632,128,0,90700:0:0:0:0:
320,192,90700,1,0,0:0:0:0:
192,192,90769,1,0,0:0:0:0:
64,192,90769,128,0,90837:0:0:0:0:
448,192,90769,128,0,90837:0:0:0:0:
320,192,90837,1,0,0:0:0:0:
192,192,90905,1,0,0:0:0:0:
448,192,91056,1,0,0:0:0:0:
192,192,91208,1,0,0:0:0:0:
320,192,91360,1,0,0:0:0:0:
64,192,91510,1,0,0:0:0:0:
448,192,91662,1,0,0:0:0:0:
320,192,91814,1,0,0:0:0:0:
192,192,91965,1,0,0:0:0:0:
320,192,92132,1,0,0:0:0:0:
448,192,92132,1,0,0:0:0:0:
192,192,92210,1,0,0:0:0:0:
64,192,92290,1,0,0:0:0:0:
448,192,92369,1,0,0:0:0:0:
192,192,92447,1,0,0:0:0:0:
64,192,92447,1,0,0:0:0:0:
320,192,92447,1,0,0:0:0:0:
192,192,92762,1,0,0:0:0:0:
320,192,92762,1,0,0:0:0:0:
448,192,92762,1,0,0:0:0:0:
64,192,92841,1,0,0:0:0:0:
192,192,92920,1,0,0:0:0:0:
448,192,93078,1,0,0:0:0:0:
320,192,93157,1,0,0:0:0:0:
192,192,93235,1,0,0:0:0:0:
64,192,93314,1,0,0:0:0:0:
320,192,93393,1,0,0:0:0:0:
448,192,93471,1,0,0:0:0:0:
64,192,93550,1,0,0:0:0:0:
192,192,93630,1,0,0:0:0:0:
448,192,93709,1,0,0:0:0:0:
320,192,93787,1,0,0:0:0:0:
192,192,93866,1,0,0:0:0:0:
64,192,93945,1,0,0:0:0:0:
320,192,94023,1,0,0:0:0:0:
448,192,94102,1,0,0:0:0:0:
192,192,94181,1,0,0:0:0:0:
320,192,94260,1,0,0:0:0:0:
448,192,94339,1,0,0:0:0:0:
64,192,94418,1,0,0:0:0:0:
192,192,94497,1,0,0:0:0:0:
320,192,94575,1,0,0:0:0:0:
64,192,94654,1,0,0:0:0:0:
448,192,94733,1,0,0:0:0:0:
320,192,94811,1,0,0:0:0:0:
192,192,94890,1,0,0:0:0:0:
64,192,94970,1,0,0:0:0:0:
320,192,95049,1,0,0:0:0:0:
448,192,95127,1,0,0:0:0:0:
64,192,95206,1,0,0:0:0:0:
192,192,95285,1,0,0:0:0:0:
320,192,95355,1,0,0:0:0:0:
448,192,95423,1,0,0:0:0:0:
64,192,95491,1,0,0:0:0:0:
192,192,95550,128,0,95628:0:0:0:0:
448,192,95550,128,0,95628:0:0:0:0:
320,192,95705,128,0,95782:0:0:0:0:
64,192,95705,128,0,95782:0:0:0:0:
64,192,95860,1,0,0:0:0:0:
192,192,95860,128,0,95938:0:0:0:0:
448,192,95860,128,0,95938:0:0:0:0:
320,192,95938,1,0,0:0:0:0:
64,192,96015,1,0,0:0:0:0:
320,192,96092,1,0,0:0:0:0:
192,192,96170,1,0,0:0:0:0:
64,192,96170,128,0,96248:0:0:0:0:
448,192,96170,128,0,96248:0:0:0:0:
320,192,96248,1,0,0:0:0:0:
192,192,96325,1,0,0:0:0:0:
192,192,96402,1,0,0:0:0:0:
64,192,96480,1,0,0:0:0:0:
448,192,96480,128,0,96557:0:0:0:0:
320,192,96480,128,0,96557:0:0:0:0:
192,192,96557,1,0,0:0:0:0:
64,192,96635,1,0,0:0:0:0:
192,192,96712,1,0,0:0:0:0:
320,192,96790,1,0,0:0:0:0:
64,192,96790,128,0,96867:0:0:0:0:
448,192,96790,128,0,96867:0:0:0:0:
192,192,96867,1,0,0:0:0:0:
320,192,96945,1,0,0:0:0:0:
320,192,97022,1,0,0:0:0:0:
64,192,97100,1,0,0:0:0:0:
192,192,97100,128,0,97177:0:0:0:0:
448,192,97100,128,0,97177:0:0:0:0:
320,192,97177,1,0,0:0:0:0:
64,192,97255,1,0,0:0:0:0:
64,192,97332,1,0,0:0:0:0:
192,192,97410,1,0,0:0:0:0:
320,192,97410,128,0,97487:0:0:0:0:
448,192,97410,128,0,97487:0:0:0:0:
64,192,97487,1,0,0:0:0:0:
192,192,97564,1,0,0:0:0:0:
320,192,97642,1,0,0:0:0:0:
448,192,97720,1,0,0:0:0:0:
64,192,97720,128,0,97797:0:0:0:0:
192,192,97720,128,0,97797:0:0:0:0:
320,192,97797,1,0,0:0:0:0:
448,192,97874,1,0,0:0:0:0:
448,192,97952,1,0,0:0:0:0:
320,192,98030,1,0,0:0:0:0:
192,192,98030,128,0,98107:0:0:0:0:
64,192,98030,128,0,98107:0:0:0:0:
448,192,98107,1,0,0:0:0:0:
320,192,98184,1,0,0:0:0:0:
320,192,98261,1,0,0:0:0:0:
64,192,98340,1,0,0:0:0:0:
192,192,98378,1,0,0:0:0:0:
320,192,98417,1,0,0:0:0:0:
448,192,98456,1,0,0:0:0:0:
192,192,98494,1,0,0:0:0:0:
64,192,98571,1,0,0:0:0:0:
320,192,98650,1,0,0:0:0:0:
192,192,98650,128,0,98727:0:0:0:0:
448,192,98650,128,0,98727:0:0:0:0:
64,192,98727,1,0,0:0:0:0:
320,192,98804,1,0,0:0:0:0:
320,192,98881,1,0,0:0:0:0:
448,192,98960,1,0,0:0:0:0:
64,192,98960,128,0,99037:0:0:0:0:
192,192,98960,128,0,99037:0:0:0:0:
320,192,99037,1,0,0:0:0:0:
448,192,99114,1,0,0:0:0:0:
320,192,99191,1,0,0:0:0:0:
192,192,99269,1,0,0:0:0:0:
64,192,99269,128,0,99347:0:0:0:0:
448,192,99269,128,0,99347:0:0:0:0:
320,192,99347,1,0,0:0:0:0:
320,192,99424,1,0,0:0:0:0:
192,192,99501,1,0,0:0:0:0:
64,192,99579,1,0,0:0:0:0:
448,192,99579,128,0,99657:0:0:0:0:
320,192,99579,128,0,99657:0:0:0:0:
192,192,99657,1,0,0:0:0:0:
64,192,99734,1,0,0:0:0:0:
64,192,99811,1,0,0:0:0:0:
192,192,99889,1,0,0:0:0:0:
320,192,99889,128,0,99966:0:0:0:0:
448,192,99889,128,0,99966:0:0:0:0:
64,192,99966,1,0,0:0:0:0:
192,192,100044,1,0,0:0:0:0:
192,192,100121,1,0,0:0:0:0:
448,192,100199,1,0,0:0:0:0:
320,192,100276,1,0,0:0:0:0:
320,192,100354,1,0,0:0:0:0:
64,192,100354,1,0,0:0:0:0:
192,192,100431,1,0,0:0:0:0:
64,192,100509,1,0,0:0:0:0:
448,192,100509,1,0,0:0:0:0:
320,192,100586,1,0,0:0:0:0:
192,192,100586,1,0,0:0:0:0:
448,192,100664,1,0,0:0:0:0:
448,192,100741,1,0,0:0:0:0:
320,192,100819,1,0,0:0:0:0:
192,192,100870,1,0,0:0:0:0:
64,192,100915,1,0,0:0:0:0:
448,192,100973,1,0,0:0:0:0:
320,192,101025,1,0,0:0:0:0:
192,192,101129,1,0,0:0:0:0:
64,192,101129,1,0,0:0:0:0:
192,192,101206,1,0,0:0:0:0:
320,192,101283,1,0,0:0:0:0:
448,192,101283,128,0,101361:0:0:0:0:
192,192,101361,1,0,0:0:0:0:
64,192,101439,1,0,0:0:0:0:
320,192,101439,128,0,101516:0:0:0:0:
64,192,101516,1,0,0:0:0:0:
320,192,101593,1,0,0:0:0:0:
192,192,101593,128,0,101670:0:0:0:0:
448,192,101670,1,0,0:0:0:0:
320,192,101749,1,0,0:0:0:0:
64,192,101749,128,0,101826:0:0:0:0:
320,192,101826,1,0,0:0:0:0:
448,192,101903,1,0,0:0:0:0:
192,192,101903,128,0,101980:0:0:0:0:
64,192,101980,1,0,0:0:0:0:
448,192,102059,1,0,0:0:0:0:
320,192,102059,1,0,0:0:0:0:
448,192,102136,1,0,0:0:0:0:
192,192,102213,1,0,0:0:0:0:
64,192,102213,128,0,102290:0:0:0:0:
320,192,102290,1,0,0:0:0:0:
192,192,102369,1,0,0:0:0:0:
448,192,102369,128,0,102446:0:0:0:0:
192,192,102446,1,0,0:0:0:0:
320,192,102523,1,0,0:0:0:0:
64,192,102523,128,0,102600:0:0:0:0:
448,192,102600,1,0,0:0:0:0:
320,192,102678,1,0,0:0:0:0:
192,192,102678,1,0,0:0:0:0:
320,192,102756,1,0,0:0:0:0:
192,192,102833,1,0,0:0:0:0:
64,192,102833,128,0,102910:0:0:0:0:
320,192,102910,1,0,0:0:0:0:
448,192,102988,1,0,0:0:0:0:
192,192,102988,128,0,103066:0:0:0:0:
448,192,103066,1,0,0:0:0:0:
64,192,103143,1,0,0:0:0:0:
192,192,103143,1,0,0:0:0:0:
320,192,103220,1,0,0:0:0:0:
448,192,103220,1,0,0:0:0:0:
64,192,103298,1,0,0:0:0:0:
192,192,103298,128,0,103375:0:0:0:0:
320,192,103375,1,0,0:0:0:0:
64,192,103453,1,0,0:0:0:0:
448,192,103453,128,0,103530:0:0:0:0:
64,192,103530,1,0,0:0:0:0:
320,192,103608,1,0,0:0:0:0:
192,192,103608,128,0,103685:0:0:0:0:
448,192,103685,1,0,0:0:0:0:
320,192,103763,1,0,0:0:0:0:
64,192,103763,128,0,103840:0:0:0:0:
320,192,103840,1,0,0:0:0:0:
64,192,103918,1,0,0:0:0:0:
448,192,103918,128,0,103995:0:0:0:0:
320,192,103995,1,0,0:0:0:0:
192,192,104073,1,0,0:0:0:0:
64,192,104073,1,0,0:0:0:0:
192,192,104150,1,0,0:0:0:0:
448,192,104228,1,0,0:0:0:0:
320,192,104228,128,0,104305:0:0:0:0:
192,192,104305,1,0,0:0:0:0:
64,192,104382,1,0,0:0:0:0:
448,192,104382,128,0,104460:0:0:0:0:
64,192,104460,1,0,0:0:0:0:
320,192,104538,1,0,0:0:0:0:
192,192,104538,128,0,104615:0:0:0:0:
448,192,104615,1,0,0:0:0:0:
192,192,104692,1,0,0:0:0:0:
64,192,104692,1,0,0:0:0:0:
448,192,104770,1,0,0:0:0:0:
320,192,104770,1,0,0:0:0:0:
192,192,104848,1,0,0:0:0:0:
64,192,104848,1,0,0:0:0:0:
320,192,104925,1,0,0:0:0:0:
448,192,105002,1,0,0:0:0:0:
192,192,105080,1,0,0:0:0:0:
448,192,105158,1,0,0:0:0:0:
320,192,105158,1,0,0:0:0:0:
192,192,105235,1,0,0:0:0:0:
64,192,105235,1,0,0:0:0:0:
320,192,105312,1,0,0:0:0:0:
192,192,105390,1,0,0:0:0:0:
64,192,105390,1,0,0:0:0:0:
320,192,105468,1,0,0:0:0:0:
448,192,105468,1,0,0:0:0:0:
192,192,105545,1,0,0:0:0:0:
64,192,105545,1,0,0:0:0:0:
320,192,105622,1,0,0:0:0:0:
448,192,105700,1,0,0:0:0:0:
192,192,105778,5,0,0:0:0:0:
64,192,105778,1,0,0:0:0:0:
192,192,105855,1,0,0:0:0:0:
320,192,105932,1,0,0:0:0:0:
192,192,106010,1,0,0:0:0:0:
64,192,106010,128,0,106087:0:0:0:0:
448,192,106087,1,0,0:0:0:0:
320,192,106087,128,0,106165:0:0:0:0:
192,192,106165,1,0,0:0:0:0:
64,192,106242,1,0,0:0:0:0:
448,192,106242,128,0,106320:0:0:0:0:
64,192,106320,1,0,0:0:0:0:
192,192,106397,1,0,0:0:0:0:
320,192,106397,128,0,106475:0:0:0:0:
64,192,106475,1,0,0:0:0:0:
192,192,106552,1,0,0:0:0:0:
320,192,106630,1,0,0:0:0:0:
448,192,106630,128,0,106707:0:0:0:0:
192,192,106707,1,0,0:0:0:0:
64,192,106707,128,0,106784:0:0:0:0:
320,192,106784,1,0,0:0:0:0:
448,192,106862,1,0,0:0:0:0:
192,192,106862,128,0,106940:0:0:0:0:
448,192,106940,1,0,0:0:0:0:
64,192,107017,5,0,0:0:0:0:
320,192,107017,1,0,0:0:0:0:
192,192,107017,1,0,0:0:0:0:
192,192,107172,1,0,0:0:0:0:
64,192,107172,1,0,0:0:0:0:
320,192,107250,1,0,0:0:0:0:
448,192,107250,1,0,0:0:0:0:
192,192,107327,1,0,0:0:0:0:
64,192,107327,1,0,0:0:0:0:
320,192,107482,1,0,0:0:0:0:
448,192,107482,1,0,0:0:0:0:
64,192,107482,1,0,0:0:0:0:
192,192,107637,1,0,0:0:0:0:
64,192,107637,1,0,0:0:0:0:
448,192,107637,1,0,0:0:0:0:
320,192,107791,1,0,0:0:0:0:
448,192,107791,1,0,0:0:0:0:
192,192,107870,1,0,0:0:0:0:
64,192,107870,1,0,0:0:0:0:
320,192,107947,1,0,0:0:0:0:
448,192,107947,1,0,0:0:0:0:
64,192,108101,1,0,0:0:0:0:
192,192,108101,1,0,0:0:0:0:
320,192,108180,1,0,0:0:0:0:
448,192,108180,1,0,0:0:0:0:
192,192,108257,1,0,0:0:0:0:
64,192,108257,1,0,0:0:0:0:
192,192,108334,1,0,0:0:0:0:
64,192,108411,1,0,0:0:0:0:
320,192,108489,1,0,0:0:0:0:
448,192,108489,128,0,108567:0:0:0:0:
64,192,108567,1,0,0:0:0:0:
192,192,108567,128,0,108644:0:0:0:0:
320,192,108644,1,0,0:0:0:0:
448,192,108721,1,0,0:0:0:0:
64,192,108721,128,0,108799:0:0:0:0:
448,192,108799,1,0,0:0:0:0:
192,192,108877,1,0,0:0:0:0:
64,192,108877,128,0,108954:0:0:0:0:
320,192,108877,128,0,108954:0:0:0:0:
448,192,108954,1,0,0:0:0:0:
192,192,109031,1,0,0:0:0:0:
320,192,109109,1,0,0:0:0:0:
448,192,109109,128,0,109187:0:0:0:0:
64,192,109187,1,0,0:0:0:0:
192,192,109187,128,0,109264:0:0:0:0:
320,192,109264,1,0,0:0:0:0:
448,192,109341,128,0,109419:0:0:0:0:
64,192,109341,1,0,0:0:0:0:
192,192,109341,128,0,109419:0:0:0:0:
320,192,109419,1,0,0:0:0:0:
64,192,109496,128,0,109651:0:0:0:0:
448,192,109496,1,0,0:0:0:0:
448,192,109729,128,0,109806:0:0:0:0:
192,192,109729,1,0,0:0:0:0:
320,192,109806,128,0,109884:0:0:0:0:
64,192,109806,1,0,0:0:0:0:
64,192,109961,1,0,0:0:0:0:
448,192,109961,1,0,0:0:0:0:
192,192,110039,128,0,110116:0:0:0:0:
320,192,110116,128,0,110193:0:0:0:0:
448,192,110116,1,0,0:0:0:0:
64,192,110193,1,0,0:0:0:0:
320,192,110271,128,0,110349:0:0:0:0:
192,192,110349,1,0,0:0:0:0:
64,192,110349,1,0,0:0:0:0:
320,192,110426,128,0,110659:0:0:0:0:
448,192,110426,1,0,0:0:0:0:
192,192,110503,1,0,0:0:0:0:
64,192,110503,1,0,0:0:0:0:
192,192,110736,128,0,110891:0:0:0:0:
320,192,110969,1,0,0:0:0:0:
448,192,110969,128,0,111046:0:0:0:0:
64,192,111046,1,0,0:0:0:0:
192,192,111046,128,0,111123:0:0:0:0:
320,192,111123,1,0,0:0:0:0:
448,192,111200,1,0,0:0:0:0:
64,192,111200,128,0,111279:0:0:0:0:
448,192,111279,1,0,0:0:0:0:
192,192,111356,1,0,0:0:0:0:
320,192,111356,128,0,111433:0:0:0:0:
64,192,111356,128,0,111433:0:0:0:0:
448,192,111433,1,0,0:0:0:0:
320,192,111510,1,0,0:0:0:0:
192,192,111589,1,0,0:0:0:0:
64,192,111589,128,0,111666:0:0:0:0:
448,192,111666,1,0,0:0:0:0:
320,192,111666,128,0,111743:0:0:0:0:
192,192,111743,1,0,0:0:0:0:
64,192,111820,1,0,0:0:0:0:
448,192,111820,128,0,111898:0:0:0:0:
64,192,111898,1,0,0:0:0:0:
448,192,111976,1,0,0:0:0:0:
320,192,111976,1,0,0:0:0:0:
192,192,112053,1,0,0:0:0:0:
64,192,112130,1,0,0:0:0:0:
320,192,112208,1,0,0:0:0:0:
448,192,112208,1,0,0:0:0:0:
192,192,112286,1,0,0:0:0:0:
64,192,112286,1,0,0:0:0:0:
320,192,112363,1,0,0:0:0:0:
448,192,112440,1,0,0:0:0:0:
64,192,112440,1,0,0:0:0:0:
192,192,112518,1,0,0:0:0:0:
320,192,112596,1,0,0:0:0:0:
448,192,112596,1,0,0:0:0:0:
192,192,112673,1,0,0:0:0:0:
64,192,112673,1,0,0:0:0:0:
320,192,112750,1,0,0:0:0:0:
448,192,112828,1,0,0:0:0:0:
64,192,112828,1,0,0:0:0:0:
192,192,112905,1,0,0:0:0:0:
320,192,112905,1,0,0:0:0:0:
448,192,112983,1,0,0:0:0:0:
192,192,113060,1,0,0:0:0:0:
64,192,113060,1,0,0:0:0:0:
320,192,113138,1,0,0:0:0:0:
64,192,113215,1,0,0:0:0:0:
448,192,113215,128,0,113293:0:0:0:0:
192,192,113215,128,0,113293:0:0:0:0:
320,192,113293,1,0,0:0:0:0:
64,192,113370,1,0,0:0:0:0:
320,192,113448,1,0,0:0:0:0:
448,192,113448,128,0,113525:0:0:0:0:
64,192,113525,1,0,0:0:0:0:
192,192,113525,128,0,113602:0:0:0:0:
320,192,113602,1,0,0:0:0:0:
192,192,113680,1,0,0:0:0:0:
448,192,113680,128,0,113758:0:0:0:0:
64,192,113680,128,0,113758:0:0:0:0:
320,192,113758,1,0,0:0:0:0:
192,192,113835,1,0,0:0:0:0:
64,192,113835,1,0,0:0:0:0:
192,192,113912,1,0,0:0:0:0:
320,192,113990,1,0,0:0:0:0:
64,192,114068,1,0,0:0:0:0:
192,192,114068,128,0,114145:0:0:0:0:
448,192,114145,1,0,0:0:0:0:
320,192,114145,128,0,114222:0:0:0:0:
64,192,114222,1,0,0:0:0:0:
448,192,114299,1,0,0:0:0:0:
192,192,114299,128,0,114376:0:0:0:0:
448,192,114376,1,0,0:0:0:0:
320,192,114455,128,0,114532:0:0:0:0:
64,192,114455,128,0,114532:0:0:0:0:
192,192,114532,1,0,0:0:0:0:
448,192,114610,1,0,0:0:0:0:
320,192,114610,128,0,114686:0:0:0:0:
192,192,114686,1,0,0:0:0:0:
64,192,114686,128,0,114763:0:0:0:0:
320,192,114763,1,0,0:0:0:0:
448,192,114763,128,0,114840:0:0:0:0:
192,192,114840,1,0,0:0:0:0:
320,192,114920,1,0,0:0:0:0:
64,192,114920,128,0,114996:0:0:0:0:
320,192,114996,1,0,0:0:0:0:
448,192,115075,1,0,0:0:0:0:
64,192,115075,1,0,0:0:0:0:
192,192,115152,1,0,0:0:0:0:
320,192,115152,1,0,0:0:0:0:
64,192,115230,1,0,0:0:0:0:
448,192,115230,1,0,0:0:0:0:
192,192,115307,1,0,0:0:0:0:
448,192,115385,1,0,0:0:0:0:
320,192,115385,1,0,0:0:0:0:
192,192,115462,1,0,0:0:0:0:
64,192,115462,1,0,0:0:0:0:
320,192,115540,1,0,0:0:0:0:
448,192,115540,1,0,0:0:0:0:
192,192,115617,1,0,0:0:0:0:
64,192,115617,1,0,0:0:0:0:
320,192,115695,1,0,0:0:0:0:
448,192,115695,1,0,0:0:0:0:
192,192,115772,1,0,0:0:0:0:
320,192,115850,1,0,0:0:0:0:
64,192,115927,1,0,0:0:0:0:
192,192,116005,1,0,0:0:0:0:
448,192,116005,1,0,0:0:0:0:
320,192,116082,1,0,0:0:0:0:
448,192,116160,1,0,0:0:0:0:
64,192,116237,1,0,0:0:0:0:
192,192,116314,1,0,0:0:0:0:
320,192,116314,1,0,0:0:0:0:
448,192,116392,1,0,0:0:0:0:
320,192,116470,1,0,0:0:0:0:
192,192,116547,1,0,0:0:0:0:
64,192,116547,1,0,0:0:0:0:
320,192,116624,1,0,0:0:0:0:
448,192,116624,1,0,0:0:0:0:
192,192,116702,1,0,0:0:0:0:
64,192,116780,1,0,0:0:0:0:
320,192,116780,1,0,0:0:0:0:
448,192,116857,1,0,0:0:0:0:
192,192,116934,1,0,0:0:0:0:
64,192,116934,1,0,0:0:0:0:
320,192,117011,1,0,0:0:0:0:
448,192,117090,1,0,0:0:0:0:
64,192,117090,1,0,0:0:0:0:
192,192,117167,1,0,0:0:0:0:
320,192,117244,1,0,0:0:0:0:
448,192,117244,1,0,0:0:0:0:
192,192,117321,1,0,0:0:0:0:
64,192,117400,1,0,0:0:0:0:
448,192,117477,1,0,0:0:0:0:
320,192,117554,1,0,0:0:0:0:
192,192,117554,1,0,0:0:0:0:
64,192,117631,1,0,0:0:0:0:
192,192,117710,1,0,0:0:0:0:
320,192,117787,1,0,0:0:0:0:
448,192,117787,1,0,0:0:0:0:
192,192,117864,1,0,0:0:0:0:
64,192,117864,1,0,0:0:0:0:
320,192,117941,1,0,0:0:0:0:
448,192,118019,1,0,0:0:0:0:
64,192,118019,1,0,0:0:0:0:
192,192,118097,1,0,0:0:0:0:
320,192,118174,128,0,118251:0:0:0:0:
448,192,118174,1,0,0:0:0:0:
64,192,118251,128,0,118329:0:0:0:0:
320,192,118329,128,0,118407:0:0:0:0:
192,192,118407,128,0,118484:0:0:0:0:
448,192,118484,1,0,0:0:0:0:
64,192,118484,1,0,0:0:0:0:
64,192,118639,128,0,118794:0:0:0:0:
192,192,118794,128,0,118871:0:0:0:0:
448,192,118794,1,0,0:0:0:0:
320,192,118871,128,0,118949:0:0:0:0:
448,192,118949,128,0,119026:0:0:0:0:
192,192,119026,128,0,119104:0:0:0:0:
64,192,119026,1,0,0:0:0:0:
320,192,119104,128,0,119181:0:0:0:0:
448,192,119104,1,0,0:0:0:0:
64,192,119181,128,0,119259:0:0:0:0:
320,192,119259,128,0,119336:0:0:0:0:
448,192,119259,1,0,0:0:0:0:
192,192,119336,128,0,119414:0:0:0:0:
64,192,119414,128,0,119569:0:0:0:0:
320,192,119414,1,0,0:0:0:0:
320,192,119569,128,0,119646:0:0:0:0:
448,192,119646,128,0,119723:0:0:0:0:
192,192,119646,1,0,0:0:0:0:
64,192,119723,1,0,0:0:0:0:
320,192,119723,1,0,0:0:0:0:
192,192,119801,128,0,119956:0:0:0:0:
320,192,119879,1,0,0:0:0:0:
448,192,119879,1,0,0:0:0:0:
320,192,120033,128,0,120111:0:0:0:0:
64,192,120033,1,0,0:0:0:0:
192,192,120189,128,0,120266:0:0:0:0:
448,192,120266,1,0,0:0:0:0:
320,192,120266,1,0,0:0:0:0:
64,192,120343,128,0,120576:0:0:0:0:
192,192,120343,1,0,0:0:0:0:
320,192,120499,1,0,0:0:0:0:
448,192,120499,1,0,0:0:0:0:
320,192,120653,1,0,0:0:0:0:
192,192,120653,1,0,0:0:0:0:
64,192,120809,1,0,0:0:0:0:
192,192,120809,1,0,0:0:0:0:
448,192,120963,1,0,0:0:0:0:
192,192,120963,1,0,0:0:0:0:
64,192,120963,1,0,0:0:0:0:
320,192,121119,1,0,0:0:0:0:
448,192,121119,1,0,0:0:0:0:
192,192,121273,1,0,0:0:0:0:
64,192,121273,1,0,0:0:0:0:
448,192,121273,1,0,0:0:0:0:
64,192,121428,1,0,0:0:0:0:
192,192,121428,1,0,0:0:0:0:
320,192,121506,1,0,0:0:0:0:
448,192,121506,1,0,0:0:0:0:
192,192,121583,1,0,0:0:0:0:
64,192,121583,1,0,0:0:0:0:
320,192,121738,1,0,0:0:0:0:
448,192,121738,1,0,0:0:0:0:
64,192,121738,1,0,0:0:0:0:
192,192,121893,1,0,0:0:0:0:
64,192,121893,1,0,0:0:0:0:
320,192,121893,1,0,0:0:0:0:
448,192,122048,1,0,0:0:0:0:
64,192,122048,1,0,0:0:0:0:
320,192,122203,1,0,0:0:0:0:
448,192,122203,1,0,0:0:0:0:
192,192,122203,1,0,0:0:0:0:
64,192,122358,1,0,0:0:0:0:
320,192,122358,1,0,0:0:0:0:
192,192,122513,1,0,0:0:0:0:
64,192,122513,1,0,0:0:0:0:
448,192,122513,1,0,0:0:0:0:
320,192,122668,1,0,0:0:0:0:
448,192,122668,1,0,0:0:0:0:
192,192,122745,1,0,0:0:0:0:
64,192,122745,1,0,0:0:0:0:
320,192,122823,1,0,0:0:0:0:
448,192,122823,1,0,0:0:0:0:
192,192,122978,1,0,0:0:0:0:
64,192,122978,1,0,0:0:0:0:
320,192,122978,1,0,0:0:0:0:
192,192,123132,1,0,0:0:0:0:
320,192,123132,128,0,123210:0:0:0:0:
64,192,123132,128,0,123210:0:0:0:0:
448,192,123210,1,0,0:0:0:0:
192,192,123288,1,0,0:0:0:0:
320,192,123365,1,0,0:0:0:0:
448,192,123365,128,0,123442:0:0:0:0:
64,192,123442,1,0,0:0:0:0:
192,192,123442,128,0,123520:0:0:0:0:
320,192,123520,1,0,0:0:0:0:
448,192,123598,128,0,123675:0:0:0:0:
192,192,123598,1,0,0:0:0:0:
64,192,123598,1,0,0:0:0:0:
320,192,123675,1,0,0:0:0:0:
64,192,123752,1,0,0:0:0:0:
192,192,123752,1,0,0:0:0:0:
64,192,123830,1,0,0:0:0:0:
192,192,123908,1,0,0:0:0:0:
320,192,123985,1,0,0:0:0:0:
448,192,123985,128,0,124062:0:0:0:0:
192,192,124062,1,0,0:0:0:0:
64,192,124062,128,0,124140:0:0:0:0:
320,192,124140,1,0,0:0:0:0:
64,192,124218,1,0,0:0:0:0:
448,192,124218,128,0,124295:0:0:0:0:
192,192,124218,128,0,124295:0:0:0:0:
320,192,124295,1,0,0:0:0:0:
192,192,124372,1,0,0:0:0:0:
64,192,124372,1,0,0:0:0:0:
192,192,124450,1,0,0:0:0:0:
64,192,124528,1,0,0:0:0:0:
320,192,124605,1,0,0:0:0:0:
448,192,124605,128,0,124682:0:0:0:0:
64,192,124682,1,0,0:0:0:0:
192,192,124682,128,0,124760:0:0:0:0:
320,192,124760,1,0,0:0:0:0:
192,192,124837,1,0,0:0:0:0:
64,192,124837,128,0,124915:0:0:0:0:
448,192,124837,128,0,124915:0:0:0:0:
320,192,124915,1,0,0:0:0:0:
64,192,124992,1,0,0:0:0:0:
192,192,124992,128,0,125070:0:0:0:0:
448,192,125070,1,0,0:0:0:0:
192,192,125147,1,0,0:0:0:0:
320,192,125225,1,0,0:0:0:0:
448,192,125225,128,0,125302:0:0:0:0:
192,192,125302,1,0,0:0:0:0:
64,192,125302,128,0,125380:0:0:0:0:
320,192,125380,1,0,0:0:0:0:
64,192,125457,1,0,0:0:0:0:
192,192,125457,128,0,125534:0:0:0:0:
448,192,125457,128,0,125534:0:0:0:0:
320,192,125534,1,0,0:0:0:0:
64,192,125614,1,0,0:0:0:0:
448,192,125614,1,0,0:0:0:0:
192,192,125614,1,0,0:0:0:0:
192,192,126160,1,0,0:0:0:0:
64,192,126160,1,0,0:0:0:0:
448,192,126160,1,0,0:0:0:0:
320,192,126705,1,0,0:0:0:0:
192,192,126705,1,0,0:0:0:0:
64,192,126705,1,0,0:0:0:0:
320,192,127250,1,0,0:0:0:0:
448,192,127250,1,0,0:0:0:0:
192,192,127319,1,0,0:0:0:0:
64,192,127319,1,0,0:0:0:0:
320,192,127387,1,0,0:0:0:0:
448,192,127387,1,0,0:0:0:0:
192,192,127455,1,0,0:0:0:0:
64,192,127455,1,0,0:0:0:0:
320,192,127523,1,0,0:0:0:0:
448,192,127523,1,0,0:0:0:0:
192,192,127591,1,0,0:0:0:0:
64,192,127591,1,0,0:0:0:0:
448,192,127660,1,0,0:0:0:0:
320,192,127660,1,0,0:0:0:0:
192,192,127728,1,0,0:0:0:0:
64,192,127728,1,0,0:0:0:0:
320,192,127796,1,0,0:0:0:0:
448,192,127796,1,0,0:0:0:0:
192,192,128341,1,0,0:0:0:0:
320,192,128341,1,0,0:0:0:0:
448,192,128341,1,0,0:0:0:0:
320,192,128887,1,0,0:0:0:0:
192,192,128887,1,0,0:0:0:0:
64,192,128887,1,0,0:0:0:0:
320,192,129160,1,0,0:0:0:0:
192,192,129432,1,0,0:0:0:0:
64,192,129432,1,0,0:0:0:0:
320,192,129500,1,0,0:0:0:0:
448,192,129500,1,0,0:0:0:0:
192,192,129569,1,0,0:0:0:0:
64,192,129569,1,0,0:0:0:0:
320,192,129637,1,0,0:0:0:0:
448,192,129637,1,0,0:0:0:0:
192,192,129705,1,0,0:0:0:0:
64,192,129705,1,0,0:0:0:0:
320,192,129773,1,0,0:0:0:0:
448,192,129773,1,0,0:0:0:0:
192,192,129841,1,0,0:0:0:0:
64,192,129841,1,0,0:0:0:0:
320,192,129910,1,0,0:0:0:0:
448,192,129910,1,0,0:0:0:0:
192,192,129978,1,0,0:0:0:0:
64,192,129978,1,0,0:0:0:0:
192,192,130523,1,0,0:0:0:0:
64,192,130523,1,0,0:0:0:0:
320,192,130523,1,0,0:0:0:0:
192,192,131069,1,0,0:0:0:0:
64,192,131069,1,0,0:0:0:0:
320,192,131069,1,0,0:0:0:0:
320,192,131614,1,0,0:0:0:0:
448,192,131614,1,0,0:0:0:0:
192,192,131682,1,0,0:0:0:0:
64,192,131682,1,0,0:0:0:0:
448,192,131750,1,0,0:0:0:0:
320,192,131750,1,0,0:0:0:0:
192,192,131819,1,0,0:0:0:0:
64,192,131819,1,0,0:0:0:0:
320,192,131887,1,0,0:0:0:0:
448,192,131887,1,0,0:0:0:0:
192,192,131955,1,0,0:0:0:0:
64,192,131955,1,0,0:0:0:0:
320,192,132023,1,0,0:0:0:0:
448,192,132023,1,0,0:0:0:0:
192,192,132091,1,0,0:0:0:0:
64,192,132091,1,0,0:0:0:0:
320,192,132160,1,0,0:0:0:0:
448,192,132160,1,0,0:0:0:0:
192,192,132705,1,0,0:0:0:0:
320,192,132705,1,0,0:0:0:0:
448,192,132705,1,0,0:0:0:0:
192,192,133250,1,0,0:0:0:0:
320,192,133250,1,0,0:0:0:0:
64,192,133250,1,0,0:0:0:0:
64,192,133523,1,0,0:0:0:0:
320,192,133523,1,0,0:0:0:0:
448,192,133523,1,0,0:0:0:0:
192,192,133796,1,0,0:0:0:0:
64,192,133796,1,0,0:0:0:0:
320,192,134069,1,0,0:0:0:0:
448,192,134069,1,0,0:0:0:0:
192,192,134137,1,0,0:0:0:0:
64,192,134137,1,0,0:0:0:0:
320,192,134205,1,0,0:0:0:0:
448,192,134205,1,0,0:0:0:0:
192,192,134273,1,0,0:0:0:0:
64,192,134273,1,0,0:0:0:0:
320,192,134341,1,0,0:0:0:0:
448,192,134341,1,0,0:0:0:0:
320,192,136523,1,0,0:0:0:0:
192,192,136523,1,0,0:0:0:0:
448,192,136523,1,0,0:0:0:0:
192,192,138160,1,0,0:0:0:0:
64,192,138160,1,0,0:0:0:0:
320,192,138228,1,0,0:0:0:0:
448,192,138228,1,0,0:0:0:0:
192,192,138296,1,0,0:0:0:0:
64,192,138296,1,0,0:0:0:0:
320,192,138364,1,0,0:0:0:0:
448,192,138364,1,0,0:0:0:0:
192,192,138432,1,0,0:0:0:0:
64,192,138432,1,0,0:0:0:0:
320,192,138500,1,0,0:0:0:0:
448,192,138500,1,0,0:0:0:0:
192,192,138569,1,0,0:0:0:0:
64,192,138569,1,0,0:0:0:0:
320,192,138637,1,0,0:0:0:0:
448,192,138637,1,0,0:0:0:0:
192,192,138705,1,0,0:0:0:0:
64,192,138773,1,0,0:0:0:0:
448,192,138978,1,0,0:0:0:0:
320,192,139046,1,0,0:0:0:0:
192,192,139114,1,0,0:0:0:0:
