osu file format v14

[General]
AudioFilename: audio.mp3
AudioLeadIn: 0
PreviewTime: 28271
Countdown: 0
SampleSet: Soft
StackLeniency: 0.7
Mode: 0
LetterboxInBreaks: 0
WidescreenStoryboard: 1

[Editor]
DistanceSpacing: 0.8
BeatDivisor: 4
GridSize: 4
TimelineZoom: 1.9

[Metadata]
Title:nevermore
TitleUnicode:ネヴァモア
Artist:sasalasa
ArtistUnicode:sasalasa
Creator:DeviousPanda
Version:PandaHero's Expert
Source:
Tags:sasakure.uk lasah LINNE pandahero ambi amb1d3x hishiro chizuru agatsu japanese pop lasse brasse deviousblunda
BeatmapID:3558556
BeatmapSetID:1740698

[Difficulty]
HPDrainRate:6
CircleSize:4
OverallDifficulty:8
ApproachRate:9
SliderMultiplier:1.6
SliderTickRate:1

[Events]
//Background and Video events
0,0,"chrome_2022-02-02_13-32-35.png",0,0
//Break Periods
2,65729,69574
//Storyboard Layer 0 (Background)
//Storyboard Layer 1 (Fail)
//Storyboard Layer 2 (Pass)
//Storyboard Layer 3 (Foreground)
//Storyboard Layer 4 (Overlay)
//Storyboard Sound Samples

[TimingPoints]
497,387.096774193548,6,2,0,60,1,0
9787,-100,6,2,0,50,0,0
19077,-100,6,2,0,60,0,0
27206,-133.333333333333,6,2,0,60,0,0
27496,-100,6,2,0,60,0,0
27787,-83.3333333333333,6,2,0,60,0,0
28367,-83.3333333333333,6,2,0,70,0,0
46948,-83.3333333333333,6,2,0,60,0,0
56238,-100,6,2,0,60,0,0
70174,-133.333333333333,6,2,0,40,0,0
74819,-100,6,2,0,60,0,0
93400,-83.3333333333333,6,2,0,75,0,0
111980,-83.3333333333333,6,2,0,60,0,0
113142,-166.666666666667,6,2,0,60,0,0
115464,-83.3333333333333,6,2,0,60,0,0
116819,-166.666666666667,6,2,0,60,0,0
120013,-83.3333333333334,6,2,0,60,0,0
121271,-83.3333333333334,6,2,0,70,0,0
131335,387.096774193548,6,2,0,45,1,0
131335,-133.333333333333,6,2,0,45,0,0
140625,-133.333333333333,6,2,0,65,0,0
149141,-133.333333333333,6,2,0,70,0,0
149334,-133.333333333333,6,2,0,75,0,0
149528,-133.333333333333,6,2,0,80,0,0
149722,-133.333333333333,6,2,0,85,0,0
149915,-71.4285714285714,6,2,0,90,0,1
168496,-100,6,2,0,60,0,0

[Colours]
Combo1 : 117,241,251
Combo2 : 201,190,184
Combo3 : 232,219,219
Combo4 : 6,185,200

[HitObjects]
37,126,497,6,0,P|107:149|130:217,1,120,6|2,3:2|0:0,0:0:0:0:
131,218,884,1,0,3:0:0:0:
51,327,1077,1,2,0:0:0:0:
51,327,1174,1,2,0:0:0:0:
6,235,1367,1,2,0:0:0:0:
6,235,1464,1,2,0:0:0:0:
236,220,1658,6,0,B|302:211|276:248|389:247,1,120,0|2,3:0|0:0,0:0:0:0:
382,251,2045,2,0,P|394:190|374:157,1,80,0|2,3:0|0:0,0:0:0:0:
473,39,2432,1,0,3:0:0:0:
470,58,2529,1,2,0:0:0:0:
470,78,2626,1,2,0:0:0:0:
473,97,2722,1,2,0:0:0:0:
476,116,2819,38,0,P|486:194|503:268,1,120,2|2,3:2|0:0,0:0:0:0:
464,246,3206,2,0,P|444:313|445:348,1,80,0|2,3:0|0:0,0:0:0:0:
414,336,3496,1,2,0:0:0:0:
298,264,3690,1,2,0:0:0:0:
298,264,3787,1,2,0:0:0:0:
342,157,3980,6,0,L|325:87,2,40,0|2|2,3:0|0:0|0:0,0:0:0:0:
206,114,4367,1,0,3:0:0:0:
204,94,4464,1,2,0:0:0:0:
205,74,4561,1,2,0:0:0:0:
206,54,4658,1,2,0:0:0:0:
211,34,4755,2,0,L|259:2,1,40,2|2,3:2|0:0,0:0:0:0:
123,47,4948,2,0,L|116:94,1,40,2|0,0:0|0:0,0:0:0:0:
46,123,5142,38,0,P|12:173|-11:248,1,120,6|2,3:2|0:0,0:0:0:0:
8,256,5529,1,0,3:0:0:0:
98,316,5722,1,2,0:0:0:0:
98,316,5819,1,2,0:0:0:0:
170,241,6013,1,2,0:0:0:0:
170,241,6109,1,2,0:0:0:0:
98,178,6303,1,2,3:2:0:0:
98,178,6496,5,2,0:0:0:0:
98,178,6593,2,0,P|136:127|157:78,1,80,2|2,0:0|0:0,0:0:0:0:
140,80,6884,2,0,P|193:49|234:47,1,80,2|0,0:0|3:0,0:0:0:0:
231,22,7174,2,0,L|255:84,1,40,2|2,0:0|0:0,0:0:0:0:
276,135,7367,37,2,0:0:0:0:
276,135,7464,2,0,P|336:127|414:120,1,120,2|2,3:2|0:0,0:0:0:0:
423,135,7851,1,0,3:0:0:0:
463,230,8045,1,2,0:0:0:0:
463,230,8142,1,2,0:0:0:0:
317,217,8335,1,0,3:2:0:0:
297,222,8432,1,0,3:2:0:0:
282,235,8529,1,0,3:2:0:0:
269,250,8626,2,0,L|243:315,1,40,2|0,3:2|0:0,0:0:0:0:
282,363,8819,6,0,P|284:304|252:144,1,200,2|0,3:0|0:0,0:0:0:0:
201,117,9400,1,2,0:3:0:0:
169,119,9496,1,2,0:0:0:0:
138,128,9593,1,2,3:2:0:0:
108,141,9690,1,2,0:0:0:0:
77,151,9787,37,6,1:2:0:0:
11,108,9980,1,2,0:3:0:0:
59,45,10174,1,0,3:0:0:0:
10,208,10367,5,2,0:3:0:0:
10,208,10464,1,0,3:0:0:0:
10,208,10561,1,0,3:0:0:0:
63,264,10755,1,2,0:3:0:0:
10,320,10948,1,0,3:0:0:0:
126,198,11142,37,2,0:3:0:0:
126,198,11238,1,0,3:0:0:0:
126,198,11335,2,0,L|150:289,1,80,0|2,3:0|0:3,0:0:0:0:
230,358,11722,2,0,L|250:256,1,80,0|2,3:0|0:3,0:0:0:0:
306,122,12109,1,0,3:0:0:0:
225,168,12303,1,2,0:3:0:0:
316,208,12496,1,0,3:0:0:0:
378,68,12690,6,0,L|351:23,1,40,2|0,0:3|0:0,0:0:0:0:
431,133,12884,2,0,L|457:77,1,40,0|0,3:0|0:0,0:0:0:0:
446,277,13077,2,0,P|465:221|485:188,1,80,2|0,0:3|3:0,0:0:0:0:
272,197,13464,38,0,L|245:238,1,40,2|0,0:3|0:0,0:0:0:0:
173,302,13658,22,0,L|156:270,2,26.6666666666667,0|2|2,3:0|3:2|3:2,0:0:0:0:
117,352,13851,1,2,3:3:0:0:
36,179,14045,6,0,L|19:211,2,26.6666666666667,0|2|2,3:0|3:2|3:2,0:0:0:0:
83,240,14238,1,2,3:3:0:0:
131,147,14432,21,6,1:2:0:0:
98,80,14626,1,2,0:3:0:0:
78,75,14722,1,2,0:0:0:0:
58,80,14819,1,0,3:0:0:0:
39,87,14916,1,2,0:0:0:0:
24,101,15013,1,2,0:3:0:0:
173,32,15206,37,0,3:0:0:0:
242,84,15400,1,2,0:3:0:0:
242,84,15496,1,2,0:0:0:0:
242,84,15593,1,0,3:0:0:0:
204,150,15787,1,2,0:3:0:0:
239,216,15980,1,0,3:0:0:0:
312,239,16174,1,2,0:3:0:0:
359,177,16367,1,0,3:0:0:0:
439,184,16561,5,2,0:3:0:0:
439,184,16658,1,0,0:0:0:0:
439,184,16755,2,0,L|453:272,1,80,0|2,3:0|0:3,0:0:0:0:
321,348,17142,1,0,3:0:0:0:
243,213,17335,38,0,L|223:162,1,40,2|0,0:3|0:0,0:0:0:0:
172,124,17529,2,0,L|188:59,1,40,0|0,3:0|0:0,0:0:0:0:
252,1,17722,2,0,P|266:73|271:106,1,80,2|0,0:3|3:3,0:0:0:0:
155,208,18109,6,0,L|103:226,1,40,2|0,0:3|0:0,0:0:0:0:
52,154,18303,6,0,L|35:122,2,26.6666666666667,0|2|2,3:0|3:2|3:2,0:0:0:0:
30,226,18496,1,2,3:0:0:0:
67,341,18690,6,0,L|84:373,2,26.6666666666667,0|2|2,3:0|3:2|3:2,0:0:0:0:
130,306,18884,21,2,3:0:0:0:
159,294,18980,1,2,3:2:0:0:
190,287,19077,38,0,P|260:298|337:316,1,120,6|2,1:2|0:0,0:0:0:0:
339,314,19464,2,0,L|361:362,1,40,2|0,3:2|0:0,0:0:0:0:
495,241,19658,1,2,0:3:0:0:
495,241,19755,2,0,P|469:152|466:137,1,80,2|2,3:2|0:2,0:0:0:0:
461,134,20045,2,0,L|433:228,1,80,2|0,0:3|1:0,0:0:0:0:
423,239,20335,5,2,3:2:0:0:
318,190,20529,1,2,0:0:0:0:
318,190,20626,1,0,1:0:0:0:
354,86,20819,1,2,0:3:0:0:
221,25,21013,1,0,1:0:0:0:
215,44,21109,1,2,0:0:0:0:
210,63,21206,1,2,0:3:0:0:
205,82,21303,1,0,0:0:0:0:
200,101,21400,38,0,P|119:131|64:125,1,120,2|2,1:2|0:0,0:0:0:0:
60,148,21787,2,0,L|41:84,1,40,0|0,1:0|0:0,0:0:0:0:
7,238,21980,2,0,L|-1:180,1,40,2|0,0:3|0:0,0:0:0:0:
99,246,22174,1,0,1:0:0:0:
105,264,22271,1,0,0:0:0:0:
113,281,22367,1,2,0:3:0:0:
120,299,22464,1,0,0:0:0:0:
127,317,22561,6,0,P|206:291|259:286,2,120,0|2|2,1:0|0:0|3:3,0:0:0:0:
24,349,23335,2,0,P|48:280|63:201,1,120,0|0,1:0|0:0,0:0:0:0:
47,203,23722,37,6,1:2:0:0:
122,70,23916,1,2,0:3:0:0:
122,70,24013,1,2,0:0:0:0:
208,107,24206,1,2,0:0:0:0:
208,107,24303,1,2,0:3:0:0:
158,184,24496,2,0,L|121:163,2,40,0|0|2,1:0|0:0|0:3,0:0:0:0:
240,280,24884,6,0,B|308:233|321:289|390:244,1,120,0|2,1:0|0:0,0:0:0:0:
386,267,25271,2,0,L|412:324,1,40,0|0,1:0|0:0,0:0:0:0:
480,307,25464,2,0,L|465:355,1,40,2|2,0:3|0:0,0:0:0:0:
456,231,25658,2,0,P|452:173|452:115,1,80,0|2,1:0|0:3,0:0:0:0:
373,64,26045,37,0,1:0:0:0:
279,85,26238,1,2,0:3:0:0:
279,85,26335,1,0,0:0:0:0:
279,85,26432,1,0,1:0:0:0:
351,47,26626,1,2,0:3:0:0:
120,160,26819,5,0,1:0:0:0:
279,213,27013,1,2,0:3:0:0:
21,374,27206,38,0,L|8:299,1,60.0000022888184,0|0,1:0|0:0,0:0:0:0:
97,337,27496,6,0,L|91:240,1,80,2|0,0:0|0:0,0:0:0:0:
182,324,27787,38,0,L|196:208,1,95.9999970703126,2|0,0:3|3:2,0:0:0:0:
276,183,28077,5,0,3:0:0:0:
314,186,28174,1,2,0:3:0:0:
350,197,28271,1,0,3:0:0:0:
417,233,28367,38,0,P|452:189|432:96,1,143.999995605469,6|0,1:2|0:0,0:0:0:0:
404,39,28755,6,0,L|331:50,1,47.9999985351563,8|0,1:0|0:0,0:0:0:0:
277,48,28948,2,0,L|248:100,1,47.9999985351563,2|0,3:0|0:0,0:0:0:0:
299,169,29142,38,0,L|322:127,1,47.9999985351563,0|0,1:0|0:0,0:0:0:0:
402,126,29335,2,0,L|449:118,1,47.9999985351563,2|0,3:0|0:0,0:0:0:0:
364,237,29529,6,0,L|291:248,1,47.9999985351563,0|0,1:0|0:0,0:0:0:0:
237,246,29722,2,0,L|208:298,1,47.9999985351563,2|0,3:0|0:0,0:0:0:0:
281,349,29916,38,0,P|267:271|208:189,1,143.999995605469,0|0,1:0|0:0,0:0:0:0:
160,187,30303,1,0,1:0:0:0:
27,332,30496,5,2,3:0:0:0:
65,326,30593,1,2,3:2:0:0:
94,301,30690,1,6,1:2:0:0:
77,227,30884,1,2,3:0:0:0:
0,217,31077,1,0,1:0:0:0:
24,288,31271,1,2,3:0:0:0:
163,239,31464,2,0,P|223:225|268:224,1,95.9999970703126,0|2,1:0|3:0,0:0:0:0:
448,309,31851,38,0,L|386:324,1,47.9999985351563,0|0,1:0|0:0,0:0:0:0:
299,344,32045,2,0,L|329:280,1,47.9999985351563,2|0,3:0|0:0,0:0:0:0:
399,151,32238,2,0,P|384:226|379:253,1,95.9999970703126,0|2,1:0|3:0,0:0:0:0:
415,228,32529,1,2,3:2:0:0:
441,199,32626,2,0,P|458:122|467:88,1,95.9999970703126,4|8,1:3|1:3,0:0:0:0:
366,34,33013,5,6,1:2:0:0:
299,78,33206,1,2,3:0:0:0:
290,6,33400,1,8,1:0:0:0:
375,45,33593,1,2,3:0:0:0:
252,168,33787,37,0,1:2:0:0:
212,102,33980,1,2,3:0:0:0:
212,102,34077,1,2,3:2:0:0:
212,102,34174,1,6,1:2:0:0:
289,97,34367,1,2,3:0:0:0:
207,261,34561,5,0,1:0:0:0:
99,206,34755,1,2,3:0:0:0:
28,312,34948,1,0,1:0:0:0:
141,357,35142,1,2,3:0:0:0:
119,281,35335,38,0,L|95:139,1,143.999995605469,6|0,1:2|0:0,0:0:0:0:
45,77,35722,2,0,L|0:109,1,47.9999985351563,2|0,1:2|0:0,0:0:0:0:
95,7,35916,2,0,P|160:22|237:58,1,143.999995605469,2|0,3:0|0:0,0:0:0:0:
278,107,36303,1,2,3:0:0:0:
457,62,36496,1,6,1:2:0:0:
371,25,36690,1,2,3:2:0:0:
371,25,36787,1,2,3:2:0:0:
371,25,36884,2,0,P|360:91|354:130,1,95.9999970703126,2|2,1:2|3:0,0:0:0:0:
443,350,37271,2,0,P|454:284|460:245,1,95.9999970703126,2|2,1:2|3:0,0:0:0:0:
294,185,37658,6,0,B|204:169|241:224|120:212,1,143.999995605469,6|0,1:0|0:0,0:0:0:0:
84,220,38045,2,0,P|68:182|65:159,1,47.9999985351563,8|0,1:0|0:0,0:0:0:0:
31,299,38238,2,0,P|15:274|3:245,1,47.9999985351563,2|0,3:0|0:0,0:0:0:0:
8,31,38432,1,0,1:2:0:0:
46,28,38529,1,0,3:0:0:0:
84,33,38626,1,2,3:0:0:0:
118,49,38722,1,0,3:0:0:0:
143,83,38819,38,0,P|138:102|132:138,1,47.9999985351563,0|0,1:2|0:0,0:0:0:0:
216,211,39013,2,0,P|215:187|212:163,1,47.9999985351563,2|0,3:0|0:0,0:0:0:0:
293,29,39206,2,0,P|296:89|302:140,1,95.9999970703126,0|2,1:0|3:0,0:0:0:0:
347,313,39593,1,0,1:0:0:0:
380,331,39690,1,2,0:0:0:0:
417,337,39787,1,2,3:0:0:0:
455,338,39884,1,2,0:0:0:0:
488,320,39980,6,0,L|467:257,1,47.9999985351563,6|0,1:2|0:0,0:0:0:0:
429,207,40174,2,0,L|366:197,1,47.9999985351563,2|0,3:0|0:0,0:0:0:0:
506,282,40367,38,0,L|485:219,1,47.9999985351563,0|0,1:0|0:0,0:0:0:0:
447,169,40561,2,0,L|384:159,1,47.9999985351563,2|0,3:0|0:0,0:0:0:0:
321,140,40755,5,0,1:0:0:0:
285,155,40851,1,2,0:0:0:0:
264,187,40948,1,2,3:0:0:0:
244,220,41045,1,2,3:2:0:0:
207,232,41142,2,0,P|128:228|95:204,1,95.9999970703126,0|2,1:0|3:0,0:0:0:0:
76,224,41432,1,2,3:2:0:0:
39,236,41529,2,0,P|65:157|76:117,1,95.9999970703126,0|2,1:0|3:0,0:0:0:0:
117,6,41916,2,0,P|130:63|142:113,1,95.9999970703126,4|8,1:3|3:0,0:0:0:0:
207,364,42303,38,0,P|222:291|246:201,2,143.999995605469,6|2|2,1:2|0:0|3:0,0:0:0:0:
330,209,43077,2,0,P|312:155|296:102,1,95.9999970703126,6|0,1:2|3:0,0:0:0:0:
264,103,43367,1,2,3:2:0:0:
270,65,43464,6,0,P|330:55|436:26,2,143.999995605469,6|2|2,1:2|0:2|3:0,0:0:0:0:
403,130,44238,1,0,1:0:0:0:
478,107,44432,1,2,3:0:0:0:
481,216,44626,37,6,1:2:0:0:
296,153,44819,1,2,3:0:0:0:
202,260,45013,1,0,1:0:0:0:
232,282,45109,1,0,3:0:0:0:
261,306,45206,1,2,3:0:0:0:
290,330,45303,1,0,3:0:0:0:
312,361,45400,2,0,P|306:300|302:258,1,95.9999970703126,0|2,1:0|3:0,0:0:0:0:
152,184,45787,5,0,1:0:0:0:
115,195,45884,1,0,3:0:0:0:
88,222,45980,1,2,3:0:0:0:
74,258,46077,1,2,3:2:0:0:
48,286,46174,37,0,1:0:0:0:
27,253,46271,1,2,3:2:0:0:
8,219,46367,1,2,3:0:0:0:
0,181,46464,1,2,3:2:0:0:
13,119,46561,5,0,1:0:0:0:
70,144,46658,1,2,3:2:0:0:
128,120,46755,1,2,3:0:0:0:
145,60,46851,1,0,3:0:0:0:
98,18,46948,2,0,P|34:31|32:31,1,47.9999985351563,6|0,1:2|0:0,0:0:0:0:
219,136,47142,37,2,0:0:0:0:
247,130,47238,1,2,0:0:0:0:
271,113,47335,1,2,0:0:0:0:
290,92,47432,1,2,0:0:0:0:
301,65,47529,2,0,L|292:15,1,47.9999985351563,6|2,3:2|0:0,0:0:0:0:
289,210,47722,5,2,0:0:0:0:
317,213,47819,1,2,0:0:0:0:
345,219,47916,1,2,0:0:0:0:
371,231,48013,1,2,0:0:0:0:
385,255,48109,2,0,L|368:326,1,47.9999985351563,6|2,3:2|0:0,0:0:0:0:
477,203,48303,37,2,0:0:0:0:
449,169,48400,1,2,0:0:0:0:
465,129,48496,1,2,0:0:0:0:
441,92,48593,1,2,0:0:0:0:
456,51,48690,6,0,L|494:93,1,47.9999985351563,6|0,3:2|0:0,0:0:0:0:
352,33,48884,2,0,L|387:77,1,47.9999985351563,2|0,0:0|0:0,0:0:0:0:
315,137,49077,1,2,0:0:0:0:
274,122,49174,1,2,0:0:0:0:
241,93,49271,2,0,L|225:31,1,47.9999985351563,6|2,3:2|0:0,0:0:0:0:
90,180,49464,37,2,0:0:0:0:
61,183,49561,1,2,0:0:0:0:
34,194,49658,1,2,0:0:0:0:
13,213,49755,1,2,0:0:0:0:
0,238,49851,2,0,L|12:298,1,47.9999985351563,6|2,3:2|0:0,0:0:0:0:
179,198,50045,5,2,0:0:0:0:
181,169,50142,1,2,0:0:0:0:
171,142,50238,1,2,0:0:0:0:
154,118,50335,1,2,0:0:0:0:
133,97,50432,2,0,L|72:60,1,47.9999985351563,6|2,3:2|0:0,0:0:0:0:
224,268,50626,37,2,0:0:0:0:
261,288,50722,1,2,0:0:0:0:
299,268,50819,1,2,0:0:0:0:
334,292,50916,1,2,0:0:0:0:
376,286,51013,22,0,L|420:292,2,31.9999990234375,6|2|2,3:2|0:0|0:0,0:0:0:0:
468,358,51206,37,2,0:0:0:0:
492,322,51303,1,2,0:0:0:0:
494,278,51400,1,2,0:0:0:0:
478,237,51496,1,2,0:0:0:0:
459,197,51593,2,0,L|413:142,1,47.9999985351563,6|2,3:2|0:0,0:0:0:0:
308,34,51787,37,2,0:0:0:0:
317,62,51884,1,2,0:0:0:0:
327,88,51980,1,2,0:0:0:0:
336,115,52077,1,2,0:0:0:0:
340,143,52174,2,0,L|323:206,1,47.9999985351563,6|2,3:2|0:0,0:0:0:0:
241,253,52367,5,2,0:0:0:0:
229,226,52464,1,2,0:0:0:0:
221,198,52561,1,2,0:0:0:0:
212,170,52658,1,2,0:0:0:0:
206,141,52755,2,0,L|213:78,1,47.9999985351563,6|2,3:2|0:0,0:0:0:0:
109,162,52948,37,2,0:0:0:0:
92,196,53045,1,2,0:0:0:0:
104,232,53142,1,2,0:0:0:0:
85,265,53238,1,2,0:0:0:0:
101,299,53335,2,0,L|113:353,1,47.9999985351563,6|0,3:2|0:0,0:0:0:0:
203,344,53529,38,0,L|213:307,2,31.9999990234375,2|2|2,0:0|0:0|0:0,0:0:0:0:
270,375,53722,21,2,0:0:0:0:
304,349,53819,1,2,0:0:0:0:
324,310,53916,2,0,L|323:238,1,47.9999985351563,6|2,3:2|0:0,0:0:0:0:
366,47,54109,37,2,0:0:0:0:
386,67,54206,1,2,0:0:0:0:
407,86,54303,1,2,0:0:0:0:
428,105,54400,1,2,0:0:0:0:
451,121,54496,2,0,L|514:115,1,47.9999985351563,6|2,3:2|0:0,0:0:0:0:
261,160,54690,5,2,0:0:0:0:
289,164,54787,1,2,0:0:0:0:
317,167,54884,1,2,0:0:0:0:
345,171,54980,1,2,0:0:0:0:
373,174,55077,2,0,L|433:215,1,47.9999985351563,6|2,3:2|0:0,0:0:0:0:
205,234,55271,37,2,0:0:0:0:
169,219,55367,1,2,0:0:0:0:
135,238,55464,1,2,0:0:0:0:
100,221,55561,1,2,0:0:0:0:
64,236,55658,22,0,L|60:270,2,31.9999990234375,6|2|2,3:2|0:0|0:0,0:0:0:0:
48,149,55851,37,2,0:0:0:0:
17,94,55948,1,2,0:0:0:0:
37,34,56045,1,2,0:0:0:0:
95,11,56142,1,2,0:0:0:0:
152,33,56238,38,0,L|123:172,1,120,6|0,1:2|0:0,0:0:0:0:
95,154,56626,2,0,L|112:258,1,80,2|2,1:2|0:3,0:0:0:0:
86,256,56916,1,2,0:0:0:0:
162,352,57109,1,2,0:0:0:0:
181,326,57206,1,2,0:3:0:0:
273,228,57400,5,6,1:2:0:0:
304,234,57496,1,0,0:0:0:0:
331,250,57593,1,2,0:3:0:0:
352,273,57690,1,2,0:0:0:0:
363,302,57787,2,0,L|355:359,3,40,0|2|2|2,1:0|0:0|0:3|0:0,0:0:0:0:
434,360,58174,22,0,L|437:326,2,26.6666666666667,2|2|2,1:2|3:2|3:2,0:0:0:0:
492,277,58367,5,2,3:3:0:0:
484,245,58464,1,2,0:0:0:0:
475,214,58561,6,0,P|448:158|427:70,1,120,6|2,1:2|0:0,0:0:0:0:
399,102,58948,2,0,P|419:29|430:-8,1,80,0|2,1:0|0:3,0:0:0:0:
390,37,59238,1,2,0:0:0:0:
359,46,59335,2,0,L|269:49,1,80,0|2,1:0|0:3,0:0:0:0:
127,112,59722,37,6,1:2:0:0:
157,122,59819,1,2,0:0:0:0:
180,143,59916,1,2,0:3:0:0:
188,173,60013,1,2,0:0:0:0:
188,204,60109,2,0,L|160:255,3,40,0|2|2|0,1:0|0:0|3:0|0:0,0:0:0:0:
86,237,60496,22,0,L|103:199,2,26.6666666666667,2|2|2,1:2|0:0|0:0,0:0:0:0:
17,281,60690,37,2,0:3:0:0:
34,308,60787,1,2,0:0:0:0:
57,329,60884,38,0,P|121:337|185:349,1,120,6|0,1:2|0:0,0:0:0:0:
207,342,61271,1,0,1:0:0:0:
279,258,61464,1,2,0:3:0:0:
250,243,61561,1,2,0:0:0:0:
199,105,61755,1,2,0:0:0:0:
229,113,61851,1,2,0:3:0:0:
259,121,61948,1,2,0:0:0:0:
290,127,62045,2,0,L|270:59,3,40,6|2|2|2,1:2|0:0|0:3|0:0,0:0:0:0:
337,24,62432,5,0,1:0:0:0:
368,19,62529,1,2,0:0:0:0:
398,27,62626,1,2,0:3:0:0:
424,44,62722,1,2,0:0:0:0:
444,68,62819,22,0,L|432:107,2,26.6666666666667,2|2|2,1:2|3:2|3:2,0:0:0:0:
394,157,63013,5,2,3:3:0:0:
410,183,63109,1,2,0:0:0:0:
429,208,63206,6,0,L|437:299,1,80,6|2,1:2|0:3,0:0:0:0:
441,319,63496,1,2,0:0:0:0:
464,340,63593,2,0,L|483:237,1,80,0|2,1:0|0:3,0:0:0:0:
317,198,63980,1,0,1:0:0:0:
277,206,64077,1,2,0:0:0:0:
244,229,64174,1,2,0:3:0:0:
220,261,64271,1,2,0:0:0:0:
217,300,64367,38,0,L|236:358,1,40,6|2,1:2|0:0,0:0:0:0:
314,351,64561,2,0,L|292:292,1,40,2|2,0:3|0:0,0:0:0:0:
145,208,64755,1,0,1:0:0:0:
120,227,64851,1,2,0:0:0:0:
99,251,64948,1,2,3:0:0:0:
85,279,65045,1,2,0:0:0:0:
42,315,65142,5,2,1:2:0:0:
30,260,65238,1,2,0:0:0:0:
21,204,65335,1,2,1:3:0:0:
14,148,65432,1,2,3:2:0:0:
6,92,65529,37,6,1:2:0:0:
207,34,70174,6,0,P|197:89|181:170,1,120.000004577637,2|0,3:0|0:0,0:0:0:0:
262,269,70755,2,0,P|271:213|288:133,1,120.000004577637,2|2,3:0|0:0,0:0:0:0:
377,96,71335,2,0,L|380:169,1,60.0000022888184,2|0,3:0|0:0,0:0:0:0:
471,228,71722,38,0,L|486:313,2,60.0000022888184,2|0|0,3:0|0:0|0:0,0:0:0:0:
322,228,72303,2,0,P|270:290|277:347,1,120.000004577637,2|0,3:0|0:0,0:0:0:0:
394,264,72884,1,2,3:0:0:0:
277,151,73077,1,2,0:0:0:0:
256,192,73174,12,0,74626,0:0:0:0:
277,151,74819,6,0,P|213:159|149:191,1,120,6|2,1:2|0:0,0:0:0:0:
145,208,75206,2,0,P|75:219|37:205,1,80,0|2,1:0|0:3,0:0:0:0:
0,149,75593,1,0,1:0:0:0:
0,149,75690,1,2,0:0:0:0:
94,52,75884,1,0,3:0:0:0:
94,52,75980,2,0,P|167:31|223:26,2,120,0|2|2,1:0|0:0|0:3,0:0:0:0:
0,149,76755,1,0,1:0:0:0:
0,182,76851,1,2,0:0:0:0:
2,213,76948,1,2,0:3:0:0:
138,336,77142,38,0,P|153:274|167:233,1,80,0|2,1:0|0:3,0:0:0:0:
170,229,77432,2,0,P|232:235|266:265,1,80,2|0,0:0|0:0,0:0:0:0:
275,256,77722,2,0,L|287:188,1,40,2|0,0:3|0:0,0:0:0:0:
306,140,77916,1,0,1:0:0:0:
337,145,78013,1,0,0:0:0:0:
364,160,78109,1,2,0:3:0:0:
381,240,78303,1,0,1:0:0:0:
460,177,78496,5,2,0:3:0:0:
483,101,78690,6,0,L|474:55,2,26.6666666666667,2|2|2,1:2|3:2|3:2,0:0:0:0:
406,120,78884,1,2,3:0:0:0:
501,257,79077,6,0,L|492:303,2,26.6666666666667,2|2|2,1:2|3:2|3:2,0:0:0:0:
448,206,79271,5,2,3:0:0:0:
418,218,79367,1,2,0:0:0:0:
391,236,79464,6,0,P|341:287|337:357,1,120,6|2,1:2|0:0,0:0:0:0:
352,358,79851,2,0,L|245:336,1,80,0|2,1:0|0:3,0:0:0:0:
122,301,80238,1,0,1:0:0:0:
122,301,80335,1,0,0:0:0:0:
222,236,80529,1,0,0:0:0:0:
222,236,80626,2,0,L|215:147,1,80,0|2,1:0|0:3,0:0:0:0:
114,120,81013,2,0,L|118:210,1,80,0|2,1:0|0:3,0:0:0:0:
17,112,81400,1,0,1:0:0:0:
21,92,81496,1,2,0:0:0:0:
25,72,81593,1,2,0:3:0:0:
31,52,81690,1,0,0:0:0:0:
34,32,81787,38,0,P|138:30|180:24,2,120,0|2|2,1:0|0:0|0:3,0:0:0:0:
168,127,82561,1,2,1:2:0:0:
200,125,82658,1,2,3:2:0:0:
230,114,82755,1,2,3:0:0:0:
250,89,82851,1,2,3:2:0:0:
266,61,82948,1,0,1:0:0:0:
196,13,83142,1,2,3:0:0:0:
340,135,83335,22,0,L|383:139,2,26.6666666666667,2|2|2,1:2|3:2|3:2,0:0:0:0:
276,172,83529,1,2,3:0:0:0:
445,224,83722,6,0,L|494:232,2,26.6666666666667,2|2|2,1:2|3:2|3:2,0:0:0:0:
376,250,83916,21,2,3:0:0:0:
370,281,84013,1,2,0:0:0:0:
383,309,84109,1,6,1:2:0:0:
454,363,84303,37,2,0:3:0:0:
302,343,84496,1,0,1:0:0:0:
280,267,84690,1,2,0:3:0:0:
318,196,84884,1,0,1:0:0:0:
432,163,85077,1,2,0:3:0:0:
432,163,85174,1,0,0:0:0:0:
432,163,85271,6,0,L|407:247,1,80,2|2,1:2|0:3,0:0:0:0:
381,256,85561,1,2,0:0:0:0:
351,268,85658,1,0,1:0:0:0:
221,179,85851,1,2,0:3:0:0:
283,113,86045,1,0,1:0:0:0:
287,93,86142,1,2,0:0:0:0:
288,73,86238,1,2,0:3:0:0:
290,53,86335,1,0,0:0:0:0:
291,32,86432,38,0,P|234:35|190:35,1,80,0|2,1:0|0:3,0:0:0:0:
183,51,86722,1,2,0:0:0:0:
154,65,86819,2,0,L|124:113,1,40,0|0,1:0|0:0,0:0:0:0:
58,117,87013,2,0,L|63:166,1,40,2|0,0:3|0:0,0:0:0:0:
130,240,87206,1,0,1:0:0:0:
146,212,87303,1,0,0:0:0:0:
159,182,87400,1,2,0:3:0:0:
30,303,87593,6,0,P|82:330|155:345,2,120,2|2|2,1:2|0:0|3:0,0:0:0:0:
212,244,88367,1,2,1:2:0:0:
237,262,88464,1,2,0:0:0:0:
254,288,88561,1,2,3:0:0:0:
262,318,88658,1,2,0:0:0:0:
258,349,88755,1,6,1:2:0:0:
258,349,89142,38,0,P|235:295|226:255,1,80,0|2,1:0|0:3,0:0:0:0:
328,201,89529,2,0,P|352:262|359:298,1,80,0|2,1:0|0:3,0:0:0:0:
360,307,89819,1,0,0:0:0:0:
367,338,89916,5,0,1:0:0:0:
461,319,90109,1,2,0:3:0:0:
462,286,90206,1,2,0:0:0:0:
459,254,90303,1,0,1:0:0:0:
414,160,90496,1,2,0:3:0:0:
482,95,90690,1,0,1:0:0:0:
473,64,90787,1,2,0:0:0:0:
474,31,90884,1,2,0:3:0:0:
286,83,91077,38,0,P|346:95|381:98,1,80,0|2,1:0|0:3,0:0:0:0:
227,23,91464,1,2,1:2:0:0:
178,161,91658,1,2,0:3:0:0:
178,161,91755,1,2,0:0:0:0:
178,161,91851,2,0,P|234:203|254:228,1,80,2|2,1:2|0:3,0:0:0:0:
40,119,92238,5,2,1:2:0:0:
0,285,92529,37,2,3:2:0:0:
188,341,92819,5,2,3:0:0:0:
120,269,93013,6,0,L|119:224,3,26.6666666666667,2|2|2|2,0:0|0:0|0:0|3:0,0:0:0:0:
227,27,93400,21,6,1:0:0:0:
227,27,93787,2,0,L|288:51,1,47.9999985351563,8|0,1:0|0:0,0:0:0:0:
348,32,93980,2,0,L|373:82,1,47.9999985351563,2|0,0:3|0:0,0:0:0:0:
467,148,94174,6,0,L|406:172,1,47.9999985351563,0|2,1:0|0:0,0:0:0:0:
346,153,94367,2,0,L|321:203,1,47.9999985351563,2|0,3:0|0:0,0:0:0:0:
261,294,94561,38,0,L|322:318,1,47.9999985351563,0|0,1:0|0:0,0:0:0:0:
382,300,94754,2,0,L|407:350,1,47.9999985351563,2|0,3:3|0:0,0:0:0:0:
498,352,94948,2,0,P|471:285|455:221,1,95.9999970703126,0|2,1:0|3:0,0:0:0:0:
450,226,95238,1,0,0:0:0:0:
444,187,95335,1,2,1:2:0:0:
224,213,95529,1,2,3:0:0:0:
150,261,95722,5,6,1:2:0:0:
281,301,95916,1,2,3:0:0:0:
320,190,96109,1,2,1:2:0:0:
195,129,96303,1,2,3:0:0:0:
224,213,96496,37,2,1:2:0:0:
137,347,96690,1,2,3:0:0:0:
0,274,96884,1,0,1:0:0:0:
94,150,97077,1,2,3:0:0:0:
94,150,97174,1,0,0:0:0:0:
94,150,97271,2,0,L|62:262,1,95.9999970703126,0|2,1:0|3:0,0:0:0:0:
176,147,97658,2,0,P|161:96|132:3,1,143.999995605469,4|2,1:3|3:2,0:0:0:0:
101,68,98045,5,6,1:2:0:0:
271,119,98238,1,2,3:0:0:0:
309,51,98432,1,8,1:0:0:0:
237,20,98626,1,2,3:0:0:0:
181,196,98819,37,0,1:0:0:0:
250,237,99013,1,2,3:0:0:0:
206,303,99206,1,2,1:2:0:0:
61,226,99400,1,2,3:0:0:0:
155,236,99593,5,0,1:0:0:0:
343,234,99787,1,2,3:0:0:0:
343,234,99884,1,2,0:0:0:0:
343,234,99980,1,0,1:0:0:0:
401,328,100174,1,2,3:0:0:0:
307,357,100367,38,0,P|332:293|377:204,1,143.999995605469,6|0,1:2|0:0,0:0:0:0:
417,169,100755,2,0,P|442:186|474:213,1,47.9999985351563,0|0,1:0|0:0,0:0:0:0:
363,85,100948,2,0,P|305:123|248:186,1,143.999995605469,6|2,3:2|0:0,0:0:0:0:
185,204,101335,2,0,L|165:144,1,47.9999985351563,2|0,3:0|0:0,0:0:0:0:
85,134,101529,6,0,P|114:73|115:20,1,95.9999970703126,6|0,1:2|0:0,0:0:0:0:
91,16,101819,1,0,0:0:0:0:
91,16,101916,2,0,L|14:32,1,47.9999985351563,2|2,1:2|3:2,0:0:0:0:
9,116,102109,2,0,L|65:101,1,47.9999985351563,2|2,3:0|3:2,0:0:0:0:
161,179,102303,37,2,1:2:0:0:
182,210,102400,1,2,3:2:0:0:
179,248,102496,1,2,3:0:0:0:
164,283,102593,1,2,3:2:0:0:
138,311,102690,6,0,P|63:313|18:365,1,143.999995605469,6|0,1:0|0:0,0:0:0:0:
8,263,103077,38,0,L|-7:175,1,47.9999985351563,8|0,1:0|0:0,0:0:0:0:
72,152,103271,2,0,L|79:199,1,47.9999985351563,2|0,3:0|0:0,0:0:0:0:
131,75,103464,6,0,L|143:27,1,47.9999985351563,0|2,1:0|0:0,0:0:0:0:
211,86,103658,2,0,L|198:138,1,47.9999985351563,2|0,3:0|0:0,0:0:0:0:
270,323,103851,38,0,L|227:289,1,47.9999985351563,0|0,1:0|0:0,0:0:0:0:
322,248,104045,2,0,L|303:205,1,47.9999985351563,2|0,3:0|0:0,0:0:0:0:
364,91,104238,2,0,P|383:167|400:215,1,95.9999970703126,0|2,1:0|3:0,0:0:0:0:
405,218,104529,1,0,0:0:0:0:
425,250,104626,1,0,1:0:0:0:
462,138,104819,1,2,3:0:0:0:
346,33,105013,6,0,L|262:45,1,47.9999985351563,6|0,1:2|0:0,0:0:0:0:
245,95,105206,2,0,L|189:92,1,47.9999985351563,2|0,3:0|0:0,0:0:0:0:
48,164,105400,1,2,1:2:0:0:
83,177,105496,1,0,3:0:0:0:
106,207,105593,1,2,3:0:0:0:
120,242,105690,1,0,3:0:0:0:
121,280,105787,2,0,L|91:338,1,47.9999985351563,0|2,1:0|0:0,0:0:0:0:
9,332,105980,2,0,L|38:277,1,47.9999985351563,2|0,3:0|0:0,0:0:0:0:
201,201,106174,37,0,1:0:0:0:
235,217,106271,1,0,3:0:0:0:
261,243,106367,1,2,3:0:0:0:
272,279,106464,1,0,3:0:0:0:
285,315,106561,2,0,P|347:334|391:313,1,95.9999970703126,6|2,1:2|3:0,0:0:0:0:
440,283,106851,1,2,3:2:0:0:
440,283,106948,2,0,L|406:215,1,47.9999985351563,4|0,1:3|0:0,0:0:0:0:
328,198,107142,2,0,L|350:250,1,47.9999985351563,10|2,3:0|0:0,0:0:0:0:
427,151,107335,6,0,P|446:86|453:-1,2,143.999995605469,6|2|2,1:2|0:2|3:0,0:0:0:0:
239,247,108109,2,0,P|259:195|276:123,1,95.9999970703126,6|0,1:2|3:0,0:0:0:0:
259,118,108400,1,2,3:2:0:0:
274,82,108496,38,0,P|193:103|150:103,1,95.9999970703126,0|2,1:0|3:0,0:0:0:0:
132,48,108787,2,0,P|70:65|44:125,1,95.9999970703126,2|0,0:0|0:0,0:0:0:0:
24,165,109077,2,0,P|93:162|172:189,1,143.999995605469,2|2,3:0|0:0,0:0:0:0:
192,255,109464,1,2,3:0:0:0:
206,290,109561,1,0,0:0:0:0:
191,325,109658,5,6,1:2:0:0:
117,342,109851,1,2,3:0:0:0:
273,241,110045,37,0,1:0:0:0:
349,263,110238,1,2,3:0:0:0:
220,127,110432,5,2,1:2:0:0:
182,137,110529,1,2,3:2:0:0:
145,147,110626,1,2,3:0:0:0:
107,155,110722,1,2,3:2:0:0:
47,174,110819,37,2,1:2:0:0:
59,137,110916,1,2,3:0:0:0:
67,99,111013,1,2,3:0:0:0:
75,61,111109,1,2,3:2:0:0:
112,10,111206,5,2,1:2:0:0:
148,21,111303,1,2,3:2:0:0:
185,28,111400,1,2,3:0:0:0:
222,36,111496,1,2,3:2:0:0:
284,37,111593,37,2,1:2:0:0:
334,74,111690,1,2,3:2:0:0:
365,128,111787,1,2,3:0:0:0:
419,159,111884,1,2,3:2:0:0:
479,147,111980,5,6,1:0:0:0:
483,70,112174,1,2,0:3:0:0:
417,34,112367,1,0,1:0:0:0:
356,80,112561,1,2,3:0:0:0:
338,114,112658,1,2,0:0:0:0:
317,146,112755,1,2,1:2:0:0:
251,186,112948,1,2,3:0:0:0:
187,143,113142,38,0,P|186:91|186:29,1,95.9999970703126,6|0,1:2|1:0,0:0:0:0:
23,145,113722,1,2,3:0:0:0:
23,145,113819,1,2,3:2:0:0:
23,145,113916,1,0,1:0:0:0:
82,191,114109,1,2,3:0:0:0:
35,253,114303,6,0,P|36:309|34:354,1,95.9999970703126,6|0,1:2|1:0,0:0:0:0:
175,231,114884,1,2,3:0:0:0:
175,231,114980,1,2,3:2:0:0:
175,231,115077,1,2,1:2:0:0:
248,204,115271,1,2,3:0:0:0:
328,258,115464,37,6,1:2:0:0:
245,118,115658,1,2,3:0:0:0:
421,284,115851,22,0,L|436:253,2,31.9999990234375,2|2|2,1:2|3:2|3:2,0:0:0:0:
379,351,116045,1,2,3:0:0:0:
377,188,116238,6,0,L|363:159,2,31.9999990234375,2|2|2,1:2|3:2|3:2,0:0:0:0:
442,132,116432,21,2,3:0:0:0:
447,93,116529,1,2,3:2:0:0:
426,60,116626,1,6,1:2:0:0:
351,44,116819,38,0,P|272:53|229:56,1,95.9999970703126,2|2,3:0|3:0,0:0:0:0:
51,142,117400,1,2,1:2:0:0:
119,169,117593,1,2,3:0:0:0:
46,317,117787,6,0,P|48:271|49:217,1,95.9999970703126,6|0,1:2|1:0,0:0:0:0:
203,142,118367,1,0,3:0:0:0:
203,142,118464,1,2,3:2:0:0:
203,142,118561,1,2,1:2:0:0:
143,78,118755,1,2,3:0:0:0:
276,89,118948,38,0,P|302:128|296:191,1,95.9999970703126,6|0,1:2|1:0,0:0:0:0:
376,346,119529,2,0,P|376:298|402:259,1,95.9999970703126,6|0,1:2|1:0,0:0:0:0:
426,229,120013,1,2,3:2:0:0:
463,232,120109,5,2,1:2:0:0:
390,100,120303,1,2,3:0:0:0:
228,215,120496,5,2,1:2:0:0:
218,218,120561,1,2,3:2:0:0:
208,220,120626,1,2,3:2:0:0:
198,221,120690,2,0,L|137:215,1,47.9999985351563,2|0,3:0|0:0,0:0:0:0:
93,143,120884,1,2,1:2:0:0:
103,140,120949,1,2,3:2:0:0:
113,138,121014,1,2,3:2:0:0:
123,137,121078,2,0,L|184:143,1,47.9999985351563,2|0,3:0|0:0,0:0:0:0:
203,66,121271,21,6,1:2:0:0:
136,27,121464,1,2,3:0:0:0:
279,124,121658,2,0,P|278:75|276:16,1,95.9999970703126,0|2,1:0|3:0,0:0:0:0:
326,209,122045,2,0,P|357:150|377:107,1,95.9999970703126,2|2,1:2|3:0,0:0:0:0:
367,330,122432,5,6,1:2:0:0:
281,284,122626,1,2,3:0:0:0:
190,334,122819,1,6,1:2:0:0:
197,342,122916,1,2,3:2:0:0:
197,342,123013,1,2,3:0:0:0:
286,375,123206,1,2,1:2:0:0:
159,221,123400,1,2,3:0:0:0:
123,233,123496,1,2,3:2:0:0:
85,242,123593,37,6,1:2:0:0:
11,144,123787,1,2,3:0:0:0:
109,81,123980,1,2,1:2:0:0:
109,81,124077,1,2,3:2:0:0:
109,81,124174,1,2,3:0:0:0:
293,26,124367,5,0,1:0:0:0:
375,135,124561,1,2,3:0:0:0:
464,255,124755,2,0,P|479:184|495:125,1,95.9999970703126,6|2,1:2|3:0,0:0:0:0:
269,240,125142,6,0,L|285:277,2,31.9999990234375,2|2|2,1:2|3:2|3:2,0:0:0:0:
203,206,125335,1,2,3:0:0:0:
157,338,125529,6,0,L|196:353,2,31.9999990234375,2|2|2,1:2|3:2|3:2,0:0:0:0:
79,324,125722,5,2,3:0:0:0:
42,334,125819,1,2,3:2:0:0:
23,367,125916,6,0,P|39:275|49:198,2,143.999995605469,6|2|2,1:2|3:2|3:0,0:0:0:0:
139,216,126690,2,0,P|119:159|106:118,1,95.9999970703126,2|2,3:2|3:0,0:0:0:0:
214,24,127077,38,0,P|268:35|388:67,1,143.999995605469,6|0,1:2|0:0,0:0:0:0:
390,70,127464,1,2,1:2:0:0:
485,158,127658,1,2,3:0:0:0:
376,231,127851,1,2,1:2:0:0:
453,341,128045,1,2,3:0:0:0:
453,341,128142,1,2,3:2:0:0:
453,341,128238,6,0,P|464:276|473:231,1,95.9999970703126,6|2,1:2|3:0,0:0:0:0:
293,191,128626,1,0,1:0:0:0:
286,228,128722,1,2,3:2:0:0:
279,265,128819,1,2,3:0:0:0:
376,231,129013,1,2,1:2:0:0:
234,106,129206,1,2,3:0:0:0:
234,106,129303,1,2,3:2:0:0:
234,106,129400,2,0,P|163:124|99:135,1,95.9999970703126,6|2,1:2|3:0,0:0:0:0:
30,226,129787,5,2,1:2:0:0:
39,228,129851,1,2,3:2:0:0:
48,230,129916,1,2,3:2:0:0:
57,231,129980,2,0,L|69:296,1,47.9999985351563,2|0,3:0|0:0,0:0:0:0:
185,348,130174,1,2,1:2:0:0:
176,346,130238,1,2,3:2:0:0:
167,344,130303,1,2,3:2:0:0:
158,343,130367,2,0,L|146:278,1,47.9999985351563,2|0,3:0|0:0,0:0:0:0:
90,40,131335,37,6,3:2:0:0:
90,40,131915,1,6,3:2:0:0:
364,362,132496,37,6,3:2:0:0:
364,362,133076,1,6,3:2:0:0:
294,103,133657,5,6,3:2:0:0:
294,103,134237,1,6,3:2:0:0:
202,230,134818,37,6,3:2:0:0:
202,230,135398,1,6,3:2:0:0:
219,35,135980,5,6,3:2:0:0:
219,35,136560,1,6,3:2:0:0:
467,221,137141,37,6,3:2:0:0:
467,221,137721,1,6,3:2:0:0:
412,78,138302,5,6,3:2:0:0:
412,78,138882,1,6,3:2:0:0:
170,347,139464,37,6,3:2:0:0:
170,347,140044,1,6,3:2:0:0:
170,347,140625,6,0,P|186:278|195:245,1,90.0000034332277,6|2,3:2|0:0,0:0:0:0:
204,239,141012,2,0,L|192:157,1,60.0000022888184,2|6,3:2|3:2,0:0:0:0:
286,271,141399,2,0,L|290:202,1,60.0000022888184,2|2,3:2|3:2,0:0:0:0:
368,302,141786,2,0,L|349:375,2,60.0000022888184,6|2|2,3:2|3:2|3:2,0:0:0:0:
475,185,142560,38,0,L|458:108,1,60.0000022888184,2|2,3:2|3:2,0:0:0:0:
390,89,142947,2,0,P|325:112|263:132,1,120.000004577637,6|2,3:2|3:2,0:0:0:0:
185,82,143528,1,6,3:2:0:0:
185,82,143722,2,0,L|221:29,1,60.0000022888184,2|2,3:2|3:2,0:0:0:0:
96,114,144109,2,0,L|113:176,2,60.0000022888184,6|2|2,3:2|3:2|3:2,0:0:0:0:
28,228,144689,1,6,3:2:0:0:
28,228,144883,2,0,L|46:299,1,60.0000022888184,2|2,3:2|3:2,0:0:0:0:
121,354,145270,6,0,P|148:293|168:254,2,90.0000034332277,6|2|6,3:2|0:0|3:2,0:0:0:0:
147,188,146044,2,0,P|199:177|261:185,1,90.0000034332277,2|2,3:2|0:0,0:0:0:0:
258,171,146431,38,0,P|323:190|370:197,2,90.0000034332277,6|2|6,3:2|0:0|3:2,0:0:0:0:
388,268,147205,2,0,P|436:262|465:244,1,60.0000022888184,2|2,3:2|3:2,0:0:0:0:
473,148,147593,5,6,3:2:0:0:
473,148,147980,1,2,3:2:0:0:
390,97,148173,1,6,3:2:0:0:
383,189,148367,1,2,3:2:0:0:
469,241,148560,1,2,3:2:0:0:
388,57,148754,37,6,3:2:0:0:
368,70,148851,1,2,3:2:0:0:
347,82,148947,1,2,3:2:0:0:
326,95,149044,1,2,3:2:0:0:
293,125,149141,5,2,3:2:0:0:
264,114,149238,1,2,3:2:0:0:
235,103,149334,1,6,3:2:0:0:
206,92,149431,1,2,3:2:0:0:
170,63,149528,37,2,3:2:0:0:
125,68,149625,1,2,3:2:0:0:
80,76,149722,1,2,3:2:0:0:
36,84,149818,1,2,3:2:0:0:
26,159,149915,6,2,P|46:223|52:277,1,111.999996582031,6|2,1:0|3:2,0:1:0:0:
118,313,150205,1,2,3:2:0:0:
118,313,150302,2,0,P|132:276|146:255,1,55.9999982910157,8|0,1:0|0:0,0:0:0:0:
185,199,150496,2,0,P|212:205|256:221,1,55.9999982910157,6|2,3:2|3:2,0:0:0:0:
482,298,150689,1,2,1:2:0:0:
437,298,150786,1,2,3:2:0:0:
394,311,150883,1,2,3:0:0:0:
367,347,150980,1,2,3:2:0:0:
325,363,151076,38,0,L|290:301,1,55.9999982910157,6|0,1:2|0:0,0:0:0:0:
322,188,151270,2,0,L|359:251,1,55.9999982910157,2|2,3:0|3:2,0:0:0:0:
453,219,151464,2,0,P|421:159|404:101,1,111.999996582031,2|6,1:2|3:2,0:0:0:0:
366,51,151754,5,2,3:2:0:0:
366,51,151851,2,0,L|401:2,1,55.9999982910157,2|2,1:2|3:2,0:0:0:0:
288,91,152044,2,0,L|276:37,1,55.9999982910157,2|0,3:0|0:0,0:0:0:0:
194,37,152238,37,6,1:0:0:0:
22,132,152431,1,2,3:0:0:0:
179,186,152625,1,2,1:2:0:0:
127,104,152818,1,6,3:2:0:0:
39,233,153012,5,2,1:2:0:0:
39,233,153109,1,2,3:2:0:0:
39,233,153205,1,2,3:0:0:0:
272,227,153399,1,6,1:2:0:0:
290,319,153593,1,2,3:0:0:0:
168,363,153786,37,2,1:2:0:0:
157,331,153883,1,2,3:2:0:0:
152,297,153980,1,6,3:2:0:0:
184,178,154173,1,4,1:3:0:0:
297,118,154367,1,10,3:0:0:0:
478,214,154560,5,6,1:0:0:0:
365,243,154754,1,2,3:0:0:0:
365,243,154851,1,2,3:2:0:0:
365,243,154947,1,8,1:0:0:0:
350,363,155141,1,6,3:2:0:0:
466,296,155334,37,2,1:2:0:0:
275,204,155528,1,2,3:0:0:0:
275,204,155625,1,2,3:2:0:0:
275,204,155722,1,6,1:2:0:0:
213,287,155915,1,2,3:0:0:0:
298,288,156109,5,2,1:2:0:0:
128,347,156302,1,6,3:2:0:0:
128,347,156399,1,2,3:2:0:0:
128,347,156496,1,2,1:2:0:0:
41,270,156689,1,2,3:0:0:0:
126,137,156883,38,2,P|120:75|108:0,1,111.999996582031,6|2,1:0|3:2,0:1:0:0:
35,35,157173,1,2,3:2:0:0:
35,35,157270,2,0,L|15:109,1,55.9999982910157,2|0,1:2|0:0,0:0:0:0:
122,226,157464,2,2,P|197:201|289:184,1,167.999994873047,6|0,3:2|0:0,0:1:0:0:
482,134,157851,5,2,3:2:0:0:
438,130,157947,1,2,3:2:0:0:
396,116,158044,2,2,L|354:56,1,55.9999982910157,6|0,1:2|0:0,0:1:0:0:
432,216,158238,37,2,3:2:0:0:
388,225,158334,1,2,3:2:0:0:
345,242,158431,2,0,L|314:301,1,55.9999982910157,2|2,1:2|3:2,0:0:0:0:
376,358,158625,2,0,L|407:299,1,55.9999982910157,2|2,3:2|3:2,0:0:0:0:
145,177,158818,6,0,L|155:248,1,55.9999982910157,2|2,3:2|3:2,0:0:0:0:
236,266,159012,2,0,L|229:199,1,55.9999982910157,2|2,3:2|3:2,0:0:0:0:
211,45,159205,38,2,B|122:43|146:96|22:81,1,167.999994873047,6|0,1:0|0:0,0:1:0:0:
23,153,159593,2,0,L|33:218,1,55.9999982910157,8|0,1:0|0:0,0:0:0:0:
84,273,159786,2,0,L|73:335,1,55.9999982910157,6|2,3:2|3:2,0:0:0:0:
172,203,159980,1,2,1:2:0:0:
216,200,160076,1,2,3:2:0:0:
256,218,160173,1,2,3:0:0:0:
292,244,160270,1,2,3:2:0:0:
336,247,160367,6,0,L|315:162,1,55.9999982910157,6|2,1:2|3:2,0:0:0:0:
462,258,160560,2,0,L|395:306,1,55.9999982910157,2|0,3:0|0:0,0:0:0:0:
402,143,160754,2,0,L|462:163,3,55.9999982910157,2|2|6|2,1:2|3:2|3:2|3:2,0:0:0:0:
281,25,161141,38,0,L|361:17,1,55.9999982910157,2|0,1:2|0:0,0:0:0:0:
220,110,161334,2,0,L|296:103,1,55.9999982910157,2|0,3:0|0:0,0:0:0:0:
158,187,161528,5,6,1:0:0:0:
113,186,161625,1,2,3:2:0:0:
71,168,161722,1,2,3:0:0:0:
46,131,161818,1,2,3:2:0:0:
32,88,161915,2,0,L|63:25,3,55.9999982910157,2|2|6|2,1:2|3:2|3:2|3:2,0:0:0:0:
30,164,162302,37,2,1:2:0:0:
61,196,162399,1,2,3:2:0:0:
71,239,162496,1,2,3:0:0:0:
68,283,162593,1,2,3:2:0:0:
58,326,162689,2,0,L|25:386,3,55.9999982910157,6|2|2|2,1:2|3:2|3:0|3:2,0:0:0:0:
159,262,163076,5,2,1:2:0:0:
198,240,163173,1,2,3:2:0:0:
242,236,163270,1,6,3:2:0:0:
286,243,163367,1,2,3:2:0:0:
319,272,163464,1,4,1:3:0:0:
353,300,163560,1,2,3:2:0:0:
388,327,163657,1,10,3:0:0:0:
432,334,163754,1,2,3:2:0:0:
473,316,163851,38,0,L|450:157,1,111.999996582031,6|2,1:0|3:0,0:0:0:0:
488,343,164141,6,0,L|512:217,1,111.999996582031,2|0,3:2|0:0,0:0:0:0:
471,372,164431,38,0,L|461:284,1,55.9999982910157,6|0,3:2|0:0,0:0:0:0:
398,10,164625,5,2,1:2:0:0:
390,54,164722,1,2,3:2:0:0:
384,98,164818,1,2,3:0:0:0:
376,142,164915,1,2,3:2:0:0:
361,184,165012,38,0,L|206:157,1,111.999996582031,6|2,1:2|3:0,0:0:0:0:
198,19,165302,6,0,L|252:166,1,111.999996582031,2|0,3:2|0:0,0:0:0:0:
149,254,165593,38,0,L|226:164,1,111.999996582031,6|2,3:2|1:2,0:0:0:0:
52,260,165980,5,2,3:0:0:0:
36,301,166076,1,2,3:2:0:0:
18,342,166173,1,6,1:0:0:0:
18,342,166560,38,0,L|1:263,1,55.9999982910157,2|2,1:2|3:2,0:0:0:0:
16,212,166754,2,0,P|51:206|83:207,1,55.9999982910157,6|0,3:2|0:0,0:0:0:0:
181,117,166947,6,0,L|164:196,1,55.9999982910157,2|2,1:2|3:2,0:0:0:0:
179,247,167141,2,0,P|214:253|246:252,1,55.9999982910157,2|2,3:0|3:2,0:0:0:0:
336,40,167334,37,6,1:2:0:0:
379,27,167431,1,2,3:2:0:0:
423,33,167528,1,2,3:0:0:0:
462,54,167625,1,2,3:2:0:0:
496,112,167722,5,2,1:2:0:0:
453,124,167818,1,2,3:2:0:0:
411,141,167915,1,6,3:2:0:0:
387,179,168012,1,2,3:2:0:0:
336,223,168109,37,2,1:2:0:0:
401,237,168205,1,2,3:2:0:0:
445,287,168302,1,2,3:0:0:0:
434,353,168399,1,2,3:2:0:0:
374,378,168496,6,0,L|361:297,1,80,6|2,1:2|3:0,0:0:0:0:
332,285,168786,1,2,3:2:0:0:
332,285,168883,2,0,L|245:300,1,80,2|2,1:2|3:0,0:0:0:0:
149,249,169270,1,2,1:2:0:0:
205,196,169464,1,2,3:0:0:0:
131,112,169657,37,6,1:2:0:0:
73,161,169851,1,2,3:0:0:0:
73,161,169947,1,2,3:2:0:0:
73,161,170044,1,2,1:2:0:0:
27,95,170238,1,2,3:0:0:0:
72,33,170431,1,2,1:2:0:0:
92,32,170528,1,2,3:2:0:0:
111,29,170625,1,2,3:0:0:0:
130,26,170722,1,2,3:2:0:0:
149,26,170818,6,0,L|177:107,1,80,6|2,1:2|3:0,0:0:0:0:
202,119,171109,1,2,3:2:0:0:
229,135,171205,2,0,L|212:222,1,80,2|2,1:2|3:0,0:0:0:0:
264,292,171593,1,2,1:2:0:0:
336,258,171786,1,2,3:0:0:0:
345,180,171980,1,6,1:2:0:0:
403,124,172173,1,2,3:2:0:0:
469,159,172367,6,0,L|460:200,3,26.6666666666667,2|2|2|2,1:2|3:2|3:2|3:0,0:0:0:0:
413,249,172754,2,0,L|426:290,3,26.6666666666667,2|2|2|2,1:2|3:2|3:2|3:0,0:0:0:0:
335,347,173141,22,0,P|270:295|258:254,1,120,6|2,1:2|3:2,0:0:0:0:
256,230,173528,2,0,L|179:260,1,80,2|2,1:2|3:0,0:0:0:0:
39,225,173915,2,0,L|116:195,1,80,2|2,1:2|3:0,0:0:0:0:
190,137,174302,5,6,1:2:0:0:
182,64,174496,1,2,3:0:0:0:
182,64,174593,1,2,3:2:0:0:
182,64,174689,1,2,1:2:0:0:
101,35,174883,1,2,3:0:0:0:
111,117,175076,1,2,1:2:0:0:
111,117,175173,1,2,3:2:0:0:
111,117,175270,1,2,3:0:0:0:
271,81,175464,38,0,P|313:76|372:78,1,80,6|2,1:2|3:0,0:0:0:0:
374,97,175754,1,2,3:2:0:0:
395,120,175851,1,2,1:2:0:0:
487,107,176044,1,2,3:0:0:0:
440,28,176238,1,2,1:2:0:0:
343,206,176431,1,2,3:0:0:0:
426,256,176625,5,6,1:2:0:0:
243,148,176915,37,2,3:2:0:0:
104,324,177205,5,2,3:0:0:0:
263,284,177496,37,2,3:2:0:0:
263,284,177593,1,2,3:0:0:0:
