osu file format v14

[General]
AudioFilename: audio.mp3
AudioLeadIn: 0
PreviewTime: 28271
Countdown: 0
SampleSet: Soft
StackLeniency: 0.7
Mode: 0
LetterboxInBreaks: 0
WidescreenStoryboard: 1

[Editor]
DistanceSpacing: 1
BeatDivisor: 4
GridSize: 4
TimelineZoom: 1.9

[Metadata]
Title:nevermore
TitleUnicode:ネヴァモア
Artist:sasalasa
ArtistUnicode:sasalasa
Creator:DeviousPanda
Version:Normal
Source:
Tags:sasakure.uk lasah LINNE pandahero ambi amb1d3x hishiro chizuru agatsu japanese pop lasse brasse deviousblunda
BeatmapID:3559913
BeatmapSetID:1740698

[Difficulty]
HPDrainRate:4
CircleSize:3
OverallDifficulty:4
ApproachRate:5.5
SliderMultiplier:1.2
SliderTickRate:1

[Events]
//Background and Video events
0,0,"chrome_2022-02-02_13-32-35.png",0,0
//Break Periods
2,47148,54918
2,65729,73499
2,131535,139305
//Storyboard Layer 0 (Background)
//Storyboard Layer 1 (Fail)
//Storyboard Layer 2 (Pass)
//Storyboard Layer 3 (Foreground)
//Storyboard Layer 4 (Overlay)
//Storyboard Sound Samples

[TimingPoints]
497,387.096774193548,6,2,0,60,1,0
9787,-100,6,2,0,50,0,0
19077,-100,6,2,0,60,0,0
28367,-90.9090909090909,6,2,0,70,0,1
46948,-100,6,2,0,60,0,0
93400,-90.9090909090909,6,2,0,75,0,1
111980,-100,6,2,0,60,0,0
121271,-100,6,2,0,70,0,0
131335,387.096774193548,6,2,0,45,1,0
140625,-100,6,2,0,65,0,0
149141,-100,6,2,0,70,0,0
149334,-100,6,2,0,75,0,0
149528,-100,6,2,0,80,0,0
149722,-100,6,2,0,85,0,0
149915,-86.9565217391304,6,2,0,90,0,1
168496,-100,6,2,0,60,0,0

[Colours]
Combo1 : 117,241,251
Combo2 : 201,190,184
Combo3 : 232,219,219
Combo4 : 6,185,200

[HitObjects]
68,6,497,6,0,B|127:25|101:61|164:82,1,120,6|0,3:2|3:0,0:0:0:0:
214,59,1077,1,2,0:0:0:0:
250,106,1271,2,0,P|233:146|221:238,1,120,0|0,3:0|3:0,0:0:0:0:
119,285,2045,6,0,P|113:228|104:205,2,60,0|2|0,3:0|0:0|3:0,0:0:0:0:
99,342,2626,1,2,0:0:0:0:
150,372,2819,2,0,B|211:361|188:328|254:314,1,120,2|0,3:2|3:0,0:0:0:0:
326,220,3593,2,0,B|392:236|352:264|425:290,1,120,0|0,3:0|3:0,0:0:0:0:
473,260,4174,1,2,0:0:0:0:
449,205,4367,2,0,P|444:169|446:141,1,60,0|2,3:0|0:0,0:0:0:0:
484,99,4755,1,2,3:2:0:0:
402,11,5142,38,0,P|354:23|328:90,1,120,6|0,3:2|3:0,0:0:0:0:
289,130,5722,1,2,0:0:0:0:
331,173,5916,2,0,L|348:246,1,60,0|0,3:0|0:0,0:0:0:0:
309,280,6303,2,0,B|254:298|254:298|191:251,2,120,2|0|0,3:2|3:0|3:0,0:0:0:0:
379,377,7464,6,0,B|441:356|405:328|473:303,1,120,2|0,3:2|3:0,0:0:0:0:
510,259,8045,1,2,0:0:0:0:
485,204,8238,2,0,P|477:157|480:125,1,60,0|0,1:0|3:2,0:0:0:0:
500,89,8626,1,2,3:2:0:0:
400,21,9013,1,2,3:2:0:0:
307,97,9400,1,2,0:3:0:0:
203,36,9787,38,0,P|149:43|110:116,1,120,6|0,1:2|3:0,0:0:0:0:
139,151,10367,1,2,0:3:0:0:
139,151,10561,1,0,3:0:0:0:
57,238,10948,1,0,3:0:0:0:
165,290,11335,2,0,P|220:273|293:266,1,120,0|0,3:0|3:0,0:0:0:0:
321,221,11916,1,2,0:3:0:0:
321,221,12109,1,0,3:0:0:0:
413,297,12496,1,0,3:0:0:0:
455,184,12884,2,0,P|459:138|479:58,1,120,0|0,3:0|3:0,0:0:0:0:
433,23,13464,1,2,0:3:0:0:
373,32,13658,2,0,P|351:54|340:86,1,60,0|2,3:0|3:3,0:0:0:0:
293,117,14045,2,0,P|251:106|236:86,1,60,0|2,3:0|3:3,0:0:0:0:
199,51,14432,6,0,P|129:57|108:116,1,120,6|0,1:2|3:0,0:0:0:0:
132,150,15013,1,2,0:3:0:0:
132,150,15206,2,0,B|160:200|160:200|145:267,1,120,0|0,3:0|3:0,0:0:0:0:
228,348,15980,2,0,L|345:307,1,120,0|0,3:0|3:0,0:0:0:0:
394,337,16561,1,2,0:3:0:0:
394,337,16755,1,0,3:0:0:0:
490,265,17142,2,0,P|496:215|466:146,1,120,0|0,3:0|3:0,0:0:0:0:
420,118,17722,1,2,0:3:0:0:
363,139,17916,2,0,P|337:107|336:82,1,60,0|2,3:3|0:3,0:0:0:0:
360,34,18303,1,0,3:0:0:0:
476,4,18690,1,0,3:0:0:0:
502,121,19077,38,0,L|480:248,1,120,6|0,1:2|1:0,0:0:0:0:
435,276,19658,1,2,0:3:0:0:
435,276,19851,2,0,L|356:299,1,60,0|2,1:0|0:3,0:0:0:0:
331,331,20238,2,0,L|202:298,1,120,0|0,1:0|1:0,0:0:0:0:
177,253,20819,1,2,0:3:0:0:
177,253,21013,1,0,1:0:0:0:
57,264,21400,6,0,P|25:214|29:129,1,120,2|0,1:2|1:0,0:0:0:0:
61,110,21980,1,2,0:3:0:0:
61,110,22174,2,0,L|129:122,1,60,0|2,1:0|0:3,0:0:0:0:
168,156,22561,2,0,B|233:139|195:112|267:93,1,120,0|0,1:0|1:0,0:0:0:0:
319,121,23142,1,2,3:3:0:0:
319,121,23335,1,0,1:0:0:0:
437,104,23722,38,0,B|470:155|470:155|443:226,1,120,6|0,1:2|1:0,0:0:0:0:
410,257,24303,1,2,0:3:0:0:
410,257,24496,2,0,L|420:322,1,60,0|2,1:0|0:3,0:0:0:0:
367,347,24884,2,0,L|304:331,1,60,0|2,1:0|0:3,0:0:0:0:
252,353,25271,1,0,1:0:0:0:
161,274,25658,5,0,1:0:0:0:
161,274,25851,1,2,0:3:0:0:
161,274,26045,2,0,B|219:250|192:225|268:199,1,120,0|0,1:0|1:0,0:0:0:0:
292,155,26626,1,2,0:3:0:0:
259,104,26819,2,0,P|248:49|253:27,2,60,0|2|0,1:0|0:3|1:0,0:0:0:0:
512,206,28367,6,0,P|434:241|410:308,1,132.00000402832,6|8,1:2|1:0,0:0:0:0:
364,323,28948,1,2,3:0:0:0:
309,285,29142,2,0,P|299:243|279:214,1,66.0000020141602,0|2,1:0|3:0,0:0:0:0:
221,226,29529,2,0,P|203:272|206:307,1,66.0000020141602,0|2,1:0|3:0,0:0:0:0:
152,330,29916,2,0,B|74:304|113:277|36:254,1,132.00000402832,0|0,1:0|1:0,0:0:0:0:
8,130,30690,6,0,P|25:86|99:43,1,132.00000402832,6|0,1:2|1:0,0:0:0:0:
147,3,31271,1,2,3:0:0:0:
147,3,31464,2,0,P|171:22|211:33,1,66.0000020141602,0|2,1:0|3:0,0:0:0:0:
252,78,31851,1,0,1:0:0:0:
305,39,32045,1,2,3:0:0:0:
347,88,32238,2,0,L|318:231,1,132.00000402832,0|4,1:0|1:3,0:0:0:0:
389,330,33013,38,0,B|450:309|417:269|499:249,1,132.00000402832,6|8,1:2|1:0,0:0:0:0:
512,192,33593,1,2,3:0:0:0:
512,192,33787,2,0,B|451:171|484:131|402:111,1,132.00000402832,0|6,1:2|1:2,0:0:0:0:
353,145,34367,1,2,3:0:0:0:
296,110,34561,2,0,P|289:75|297:41,2,66.0000020141602,0|2|0,1:0|3:0|1:0,0:0:0:0:
248,233,35335,6,0,P|188:248|111:300,1,132.00000402832,6|2,1:2|1:2,0:0:0:0:
64,302,35916,2,0,P|97:245|114:164,1,132.00000402832,2|2,3:0|3:0,0:0:0:0:
79,124,36496,1,6,1:2:0:0:
147,10,36884,38,0,P|188:20|204:46,1,66.0000020141602,2|2,1:2|3:0,0:0:0:0:
262,62,37271,2,0,P|265:102|249:131,1,66.0000020141602,2|2,1:2|3:0,0:0:0:0:
296,175,37658,2,0,L|442:127,1,132.00000402832,6|8,1:0|1:0,0:0:0:0:
480,173,38238,1,2,3:0:0:0:
480,173,38432,2,0,B|490:202|490:202|463:241,1,66.0000020141602,0|2,1:2|3:0,0:0:0:0:
405,246,38819,2,0,B|389:278|389:278|411:315,1,66.0000020141602,0|2,1:2|3:0,0:0:0:0:
465,330,39206,1,0,1:0:0:0:
351,384,39593,5,0,1:0:0:0:
351,384,39787,1,2,3:0:0:0:
351,384,39980,2,0,B|284:364|314:331|235:308,1,132.00000402832,6|0,1:2|1:0,0:0:0:0:
198,262,40561,1,2,3:0:0:0:
141,296,40755,2,0,P|127:347|130:370,2,66.0000020141602,0|2|0,1:0|3:0|1:0,0:0:0:0:
199,177,41529,1,0,1:0:0:0:
237,123,41722,1,2,3:0:0:0:
196,70,41916,1,4,1:3:0:0:
71,114,42303,38,0,L|35:248,1,132.00000402832,6|8,1:2|1:0,0:0:0:0:
83,287,42884,1,2,3:0:0:0:
83,287,43077,2,0,P|142:292|205:340,2,132.00000402832,6|6|0,1:2|1:2|1:0,0:0:0:0:
41,339,44045,1,2,3:0:0:0:
41,339,44238,1,0,1:0:0:0:
8,210,44626,6,0,B|-11:147|-11:147|35:88,1,132.00000402832,6|0,1:2|1:0,0:0:0:0:
72,45,45206,1,2,3:0:0:0:
72,45,45400,2,0,L|140:67,1,66.0000020141602,0|2,1:0|3:0,0:0:0:0:
168,122,45787,2,0,L|242:98,1,66.0000020141602,0|2,1:0|3:0,0:0:0:0:
264,44,46174,1,0,1:0:0:0:
325,67,46367,1,2,3:0:0:0:
369,17,46561,1,0,1:0:0:0:
470,80,46948,5,6,1:2:0:0:
256,384,56238,6,0,P|251:332|229:262,1,120,6|2,1:2|1:2,0:0:0:0:
256,212,56819,1,2,0:3:0:0:
256,212,57013,2,0,P|299:219|314:243,1,60,0|2,1:0|0:3,0:0:0:0:
352,270,57400,2,0,B|418:249|378:228|459:206,1,120,6|0,1:2|1:0,0:0:0:0:
492,164,57980,1,2,0:3:0:0:
456,115,58174,1,2,1:2:0:0:
509,17,58561,38,0,L|372:-1,1,120,6|0,1:2|1:0,0:0:0:0:
337,30,59142,1,2,0:3:0:0:
363,83,59335,1,0,1:0:0:0:
278,168,59722,6,0,B|221:151|221:151|158:197,1,120,6|0,1:2|1:0,0:0:0:0:
141,238,60303,1,2,3:0:0:0:
88,208,60496,2,0,L|77:136,1,60,2|2,1:2|0:3,0:0:0:0:
38,103,60884,38,0,P|62:56|141:42,1,120,6|0,1:2|1:0,0:0:0:0:
179,18,61464,1,2,0:3:0:0:
179,18,61658,2,0,P|211:47|238:46,1,60,0|2,1:0|0:3,0:0:0:0:
285,40,62045,2,0,L|252:175,2,120,6|0|2,1:2|1:0|1:2,0:0:0:0:
400,7,63206,6,0,B|460:27|428:46|496:79,1,120,6|0,1:2|1:0,0:0:0:0:
508,136,63787,1,2,0:3:0:0:
508,136,63980,2,0,P|494:167|470:186,1,60,0|2,1:0|0:3,0:0:0:0:
415,169,64367,2,0,P|359:201|354:261,1,120,6|0,1:2|1:0,0:0:0:0:
395,292,64948,1,2,3:0:0:0:
395,292,65142,1,2,1:2:0:0:
316,383,65529,5,6,1:2:0:0:
0,101,74819,22,0,P|50:90|103:44,1,120,6|0,1:2|1:0,0:0:0:0:
152,15,75400,1,2,0:3:0:0:
191,59,75593,2,0,L|173:129,1,60,0|2,1:0|0:3,0:0:0:0:
204,170,75980,2,0,B|262:186|262:186|335:142,1,120,0|0,1:0|1:0,0:0:0:0:
359,44,76755,1,0,1:0:0:0:
412,18,76948,1,2,0:3:0:0:
462,49,77142,2,0,L|483:170,1,120,0|0,1:0|1:0,0:0:0:0:
452,220,77722,1,2,0:3:0:0:
452,220,77916,1,0,1:0:0:0:
503,328,78303,1,0,1:0:0:0:
391,373,78690,2,0,L|329:357,1,60,2|2,1:2|3:0,0:0:0:0:
300,307,79077,2,0,L|232:329,1,60,2|2,1:2|3:0,0:0:0:0:
197,364,79464,6,0,B|131:335|166:311|100:290,1,120,6|0,1:2|1:0,0:0:0:0:
47,311,80045,1,2,0:3:0:0:
47,311,80238,1,0,1:0:0:0:
6,197,80626,2,0,P|13:142|50:61,1,120,0|0,1:0|1:0,0:0:0:0:
91,59,81206,1,2,0:3:0:0:
139,93,81400,2,0,P|153:130|155:162,1,60,0|2,1:0|0:3,0:0:0:0:
209,175,81787,2,0,P|255:154|272:74,1,120,0|0,1:0|1:0,0:0:0:0:
238,45,82367,1,2,0:3:0:0:
238,45,82561,1,2,1:2:0:0:
351,5,82948,2,0,P|394:23|407:96,1,120,0|2,1:0|1:2,0:0:0:0:
376,141,83529,1,2,3:0:0:0:
376,141,83722,2,0,L|389:220,1,60,2|2,1:2|3:0,0:0:0:0:
433,236,84109,38,0,B|369:262|402:287|339:308,1,120,6|0,1:2|1:0,0:0:0:0:
292,344,84690,1,2,0:3:0:0:
246,304,84884,2,0,P|232:268|240:234,2,60,0|2|2,1:0|0:3|1:2,0:0:0:0:
215,356,85464,1,2,0:3:0:0:
215,356,85658,2,0,B|157:377|157:377|104:336,1,120,0|0,1:0|1:0,0:0:0:0:
105,286,86238,1,2,0:3:0:0:
105,286,86432,1,0,1:0:0:0:
10,211,86819,1,0,1:0:0:0:
101,133,87206,2,0,L|166:152,1,60,0|2,1:0|0:3,0:0:0:0:
209,182,87593,6,0,B|261:167|241:135|314:117,1,120,2|2,1:2|1:2,0:0:0:0:
360,158,88174,1,2,3:0:0:0:
360,158,88367,2,0,L|441:142,1,60,2|2,1:2|3:0,0:0:0:0:
477,161,88755,38,0,B|506:105|506:105|449:47,1,120,6|0,1:2|1:0,0:0:0:0:
430,23,89335,1,2,0:3:0:0:
430,23,89529,2,0,L|370:7,2,60,0|2|0,1:0|0:3|1:0,0:0:0:0:
359,120,90303,6,0,P|301:134|245:174,1,120,0|0,1:0|1:0,0:0:0:0:
199,149,90884,1,2,0:3:0:0:
199,149,91077,2,0,P|174:115|177:75,1,60,0|2,1:0|0:3,0:0:0:0:
201,46,91464,2,0,B|231:43|231:43|263:57,2,60,2|2|2,1:2|0:3|1:2,0:0:0:0:
87,84,92238,1,2,1:2:0:0:
386,343,93400,6,0,P|396:281|431:215,1,132.00000402832,6|8,1:0|1:0,0:0:0:0:
459,162,93980,1,2,0:3:0:0:
423,106,94174,2,0,P|388:82|351:91,1,66.0000020141602,0|2,1:0|3:0,0:0:0:0:
315,126,94561,2,0,L|330:213,1,66.0000020141602,0|2,1:0|3:3,0:0:0:0:
302,252,94948,1,0,1:0:0:0:
189,182,95335,5,2,1:2:0:0:
189,182,95529,1,2,3:0:0:0:
189,182,95722,2,0,B|104:203|145:233|65:252,1,132.00000402832,6|2,1:2|1:2,0:0:0:0:
16,224,96303,1,2,3:0:0:0:
38,162,96496,2,0,L|27:86,1,66.0000020141602,2|2,1:2|3:0,0:0:0:0:
71,45,96884,2,0,L|148:70,1,66.0000020141602,0|2,1:0|3:0,0:0:0:0:
190,99,97271,2,0,P|237:61|318:37,1,132.00000402832,0|4,1:0|1:3,0:0:0:0:
426,87,98045,38,0,B|460:148|460:148|412:228,1,132.00000402832,6|8,1:2|1:0,0:0:0:0:
367,220,98626,1,2,3:0:0:0:
367,220,98819,2,0,L|297:197,1,66.0000020141602,0|2,1:0|3:0,0:0:0:0:
253,242,99206,2,0,P|244:281|251:307,1,66.0000020141602,2|2,1:2|3:0,0:0:0:0:
308,337,99593,2,0,L|458:302,2,132.00000402832,0|0|6,1:0|1:0|1:2,0:0:0:0:
182,368,100755,5,0,1:0:0:0:
182,368,100948,2,0,B|110:353|150:312|64:294,1,132.00000402832,6|2,3:2|3:0,0:0:0:0:
38,242,101529,2,0,P|83:225|104:207,1,66.0000020141602,6|0,1:2|0:0,0:0:0:0:
157,239,101916,2,0,L|139:99,1,132.00000402832,2|2,1:2|1:2,0:0:0:0:
225,7,102690,38,0,P|289:20|317:84,1,132.00000402832,6|8,1:0|1:0,0:0:0:0:
364,121,103271,1,2,3:0:0:0:
364,121,103464,2,0,L|346:199,1,66.0000020141602,0|2,1:0|3:0,0:0:0:0:
381,243,103851,2,0,B|413:254|413:254|448:230,2,66.0000020141602,0|2|0,1:0|3:0|1:0,0:0:0:0:
279,328,104626,5,0,1:0:0:0:
279,328,104819,1,2,3:0:0:0:
279,328,105013,2,0,L|123:360,1,132.00000402832,6|2,1:2|1:2,0:0:0:0:
98,313,105593,1,2,3:0:0:0:
143,264,105787,2,0,B|156:235|156:235|128:187,1,66.0000020141602,0|2,1:0|3:0,0:0:0:0:
168,146,106174,2,0,L|101:128,1,66.0000020141602,0|2,1:0|3:0,0:0:0:0:
47,162,106561,1,6,1:2:0:0:
259,5,107335,38,0,B|331:27|282:56|367:83,1,132.00000402832,6|8,1:2|1:0,0:0:0:0:
423,57,107916,1,2,3:0:0:0:
461,110,108109,2,0,P|443:155|441:198,1,66.0000020141602,6|0,1:2|0:0,0:0:0:0:
389,212,108496,1,0,1:0:0:0:
389,212,108690,2,0,P|403:259|404:288,1,66.0000020141602,2|0,3:0|1:0,0:0:0:0:
360,325,109077,2,0,P|290:318|269:256,1,132.00000402832,2|2,3:0|3:0,0:0:0:0:
291,205,109658,1,6,1:2:0:0:
208,101,110045,5,0,1:0:0:0:
148,73,110238,1,2,3:0:0:0:
96,114,110432,2,0,P|99:154|111:181,1,66.0000020141602,2|2,1:2|3:0,0:0:0:0:
166,210,110819,2,0,P|165:252|148:280,1,66.0000020141602,2|2,1:2|3:0,0:0:0:0:
111,323,111206,2,0,L|42:341,2,66.0000020141602,2|2|2,1:2|3:0|1:2,0:0:0:0:
171,362,111787,1,2,3:0:0:0:
171,362,111980,5,6,1:0:0:0:
215,321,112174,2,0,B|279:332|261:360|322:375,1,120,2|2,0:3|3:0,0:0:0:0:
369,339,112755,1,2,1:2:0:0:
316,231,113142,2,0,P|304:172|306:98,1,120,6|0,1:2|1:0,0:0:0:0:
337,62,113722,1,2,3:0:0:0:
337,62,113916,1,0,1:0:0:0:
230,6,114303,2,0,B|153:28|198:51|120:69,1,120,6|0,1:2|1:0,0:0:0:0:
74,42,114884,1,2,3:0:0:0:
74,42,115077,1,2,1:2:0:0:
20,149,115464,2,0,P|35:188|38:216,1,60,6|2,1:2|3:0,0:0:0:0:
90,234,115851,2,0,L|148:201,1,60,2|2,1:2|3:0,0:0:0:0:
161,147,116238,2,0,L|226:169,1,60,2|2,1:2|3:0,0:0:0:0:
264,213,116626,5,6,1:2:0:0:
264,213,116819,2,0,P|295:264|291:336,1,120,2|2,3:0|3:0,0:0:0:0:
245,355,117400,2,0,P|210:341|189:315,2,60,2|2|6,1:2|3:0|1:2,0:0:0:0:
417,303,118367,1,0,3:0:0:0:
454,256,118561,2,0,P|458:218|470:187,1,60,2|2,1:2|3:0,0:0:0:0:
427,150,118948,2,0,P|367:159|344:221,1,120,6|0,1:2|1:0,0:0:0:0:
288,234,119529,2,0,P|314:279|322:351,1,120,6|0,1:2|1:0,0:0:0:0:
272,379,120109,1,2,1:2:0:0:
173,310,120496,1,2,1:2:0:0:
66,366,120884,1,2,1:2:0:0:
16,256,121271,38,0,B|32:199|59:220|68:148,1,120,6|0,1:2|1:0,0:0:0:0:
38,98,121851,1,2,3:0:0:0:
38,98,122045,1,2,1:2:0:0:
123,14,122432,2,0,P|172:27|205:100,1,120,6|6,1:2|1:2,0:0:0:0:
251,130,123013,1,2,3:0:0:0:
251,130,123206,2,0,L|236:201,1,60,2|2,1:2|3:0,0:0:0:0:
289,221,123593,2,0,L|355:194,1,60,6|2,1:2|3:0,0:0:0:0:
365,141,123980,1,2,1:2:0:0:
425,141,124174,2,0,P|461:163|471:256,1,120,2|2,3:0|3:0,0:0:0:0:
433,272,124755,1,6,1:2:0:0:
353,362,125142,6,0,L|287:337,1,60,2|2,1:2|3:0,0:0:0:0:
262,291,125529,2,0,L|203:310,1,60,2|2,1:2|3:0,0:0:0:0:
155,343,125916,2,0,P|122:294|125:225,1,120,6|0,1:2|1:0,0:0:0:0:
155,185,126496,1,2,3:0:0:0:
107,74,126884,1,2,3:0:0:0:
149,33,127077,2,0,L|211:50,1,60,6|2,1:2|3:0,0:0:0:0:
251,88,127464,2,0,B|274:143|274:143|229:203,2,120,2|2|6,1:2|1:2|1:2,0:0:0:0:
273,32,128432,1,2,3:0:0:0:
273,32,128626,1,0,1:0:0:0:
390,7,129013,1,2,1:2:0:0:
486,77,129400,1,6,1:2:0:0:
418,176,129787,38,0,P|402:227|398:257,1,60,2|2,1:2|3:0,0:0:0:0:
352,268,130174,2,0,P|346:231|336:204,1,60,2|2,1:2|3:0,0:0:0:0:
109,16,131335,5,6,3:2:0:0:
75,354,140625,38,0,P|116:328|196:303,1,120,6|2,3:2|3:2,0:0:0:0:
207,250,141205,2,0,P|255:275|338:289,1,120,6|2,3:2|3:2,0:0:0:0:
319,288,141786,1,6,3:2:0:0:
467,187,142367,2,0,P|460:143|381:104,1,120,6|2,3:2|3:2,0:0:0:0:
358,61,142947,2,0,P|338:75|299:89,2,60,6|2|2,3:2|3:2|3:2,0:0:0:0:
383,6,143528,1,6,3:2:0:0:
383,6,143722,1,2,3:2:0:0:
492,55,144109,2,0,P|478:83|466:191,1,120,6|2,3:2|3:2,0:0:0:0:
414,204,144689,1,6,3:2:0:0:
414,204,144883,1,2,3:2:0:0:
494,293,145270,6,0,B|428:307|458:339|380:346,1,120,6|2,3:2|3:2,0:0:0:0:
338,312,145851,1,6,3:2:0:0:
338,312,146044,1,2,3:2:0:0:
230,364,146431,2,0,P|179:339|171:263,1,120,6|0,3:2|0:0,0:0:0:0:
202,234,147012,1,6,3:2:0:0:
202,234,147205,1,2,3:2:0:0:
130,137,147593,2,0,B|63:112|102:94|31:72,1,120,6|2,3:2|3:2,0:0:0:0:
4,19,148173,1,6,3:2:0:0:
4,19,148367,2,0,P|52:8|74:-5,1,60,2|2,3:2|3:2,0:0:0:0:
120,15,148754,2,0,P|159:27|180:41,1,60,6|2,3:2|3:2,0:0:0:0:
235,14,149141,1,2,3:2:0:0:
235,14,149334,1,6,3:2:0:0:
235,14,149528,1,2,3:2:0:0:
341,101,149915,6,2,P|316:174|304:246,1,138.000002632141,6|8,1:0|1:0,0:1:0:0:
251,276,150496,1,6,3:2:0:0:
286,335,150689,2,0,P|338:326|364:300,1,69.0000013160706,2|2,1:2|3:0,0:0:0:0:
419,319,151076,2,0,P|431:275|419:235,1,69.0000013160706,6|2,1:2|3:0,0:0:0:0:
386,196,151464,1,2,1:2:0:0:
304,99,151851,5,2,1:2:0:0:
304,99,152044,1,2,3:0:0:0:
304,99,152238,2,0,B|299:61|299:61|323:35,1,69.0000013160706,6|2,1:0|3:0,0:0:0:0:
381,8,152625,2,0,L|449:24,1,69.0000013160706,2|6,1:2|3:2,0:0:0:0:
496,72,153012,1,2,1:2:0:0:
496,72,153205,1,2,3:0:0:0:
458,129,153399,2,0,L|386:143,1,69.0000013160706,6|2,1:2|3:0,0:0:0:0:
334,182,153786,2,0,B|261:161|295:131|203:112,1,138.000002632141,2|4,1:2|1:3,0:0:0:0:
87,65,154560,38,0,P|59:114|53:212,1,138.000002632141,6|8,1:0|1:0,0:0:0:0:
102,238,155141,1,6,3:2:0:0:
102,238,155334,2,0,P|117:283|115:309,1,69.0000013160706,2|2,1:2|3:0,0:0:0:0:
170,346,155722,2,0,B|200:325|200:325|251:336,1,69.0000013160706,6|2,1:2|3:0,0:0:0:0:
296,379,156109,1,2,1:2:0:0:
296,379,156302,1,6,3:2:0:0:
296,379,156496,2,0,L|324:287,1,69.0000013160706,2|2,1:2|3:0,0:0:0:0:
284,251,156883,5,6,1:0:0:0:
376,148,157270,1,2,1:2:0:0:
376,148,157464,1,6,3:2:0:0:
507,205,157851,1,2,3:0:0:0:
507,205,158044,1,6,1:2:0:0:
422,313,158431,1,2,1:2:0:0:
191,160,159205,38,2,P|186:96|144:16,1,138.000002632141,6|8,1:0|1:0,0:1:0:0:
86,19,159786,1,6,3:2:0:0:
33,64,159980,2,0,P|36:113|69:133,1,69.0000013160706,2|2,1:2|3:0,0:0:0:0:
45,201,160367,1,6,1:2:0:0:
45,201,160560,1,2,3:0:0:0:
45,201,160754,2,0,L|181:151,1,138.000002632141,2|2,1:2|1:2,0:0:0:0:
291,79,161528,6,0,P|324:88|353:114,1,69.0000013160706,6|2,1:0|3:0,0:0:0:0:
413,138,161915,2,0,P|414:179|395:206,1,69.0000013160706,2|6,1:2|3:2,0:0:0:0:
340,224,162302,1,2,1:2:0:0:
340,224,162496,1,2,3:0:0:0:
340,224,162689,2,0,B|297:232|317:249|271:261,1,69.0000013160706,6|2,1:2|3:0,0:0:0:0:
230,304,163076,2,0,B|312:324|267:350|350:371,1,138.000002632141,2|4,1:2|1:3,0:0:0:0:
469,305,163851,38,0,P|486:257|474:161,1,138.000002632141,6|2,1:0|1:2,0:0:0:0:
427,133,164431,1,6,3:2:0:0:
427,133,164625,2,0,P|416:98|422:63,1,69.0000013160706,2|2,1:2|3:0,0:0:0:0:
371,18,165012,2,0,B|301:3|301:3|237:75,1,138.000002632141,6|2,1:2|1:2,0:0:0:0:
191,30,165593,2,0,L|226:167,1,138.000002632141,6|2,3:2|3:0,0:0:0:0:
225,163,166173,1,6,1:0:0:0:
360,187,166560,5,2,1:2:0:0:
409,138,166754,1,6,3:2:0:0:
382,74,166947,2,0,L|310:97,1,69.0000013160706,2|2,1:2|3:0,0:0:0:0:
275,150,167334,2,0,L|199:123,1,69.0000013160706,6|2,1:2|3:0,0:0:0:0:
175,72,167722,1,2,1:2:0:0:
175,72,167915,1,6,3:2:0:0:
115,106,168109,2,0,B|90:133|90:133|108:181,1,69.0000013160706,2|2,1:2|3:0,0:0:0:0:
143,205,168496,6,0,P|158:249|157:333,1,120,6|2,1:2|1:2,0:0:0:0:
203,370,169076,1,2,3:0:0:0:
203,370,169270,1,2,1:2:0:0:
282,281,169657,1,6,1:2:0:0:
377,363,170044,1,2,1:2:0:0:
377,363,170238,1,2,3:0:0:0:
433,342,170431,2,0,P|458:310|458:280,1,60,2|2,1:2|3:0,0:0:0:0:
429,239,170818,2,0,B|365:211|404:194|325:166,1,120,6|2,1:2|1:2,0:0:0:0:
276,188,171399,1,2,3:0:0:0:
276,188,171593,1,2,1:2:0:0:
198,96,171980,1,6,1:2:0:0:
287,15,172367,2,0,L|351:31,1,60,2|2,1:2|3:0,0:0:0:0:
381,77,172754,2,0,L|458:51,1,60,2|2,1:2|3:0,0:0:0:0:
487,91,173141,6,0,P|502:142|464:224,1,120,6|2,1:2|1:2,0:0:0:0:
425,223,173722,1,2,3:0:0:0:
425,223,173915,1,2,1:2:0:0:
485,326,174302,1,6,1:2:0:0:
378,381,174689,2,0,L|315:363,1,60,2|2,1:2|3:0,0:0:0:0:
289,312,175076,2,0,L|221:335,1,60,2|2,1:2|3:0,0:0:0:0:
186,370,175464,2,0,P|144:328|151:252,1,120,6|2,1:2|1:2,0:0:0:0:
185,228,176044,1,2,3:0:0:0:
185,228,176238,1,2,1:2:0:0:
99,143,176625,1,6,1:2:0:0:
175,50,177012,38,0,L|236:71,1,60,2|2,1:2|3:0,0:0:0:0:
279,106,177399,2,0,L|210:128,1,60,2|2,1:2|3:0,0:0:0:0:
