osu file format v14

[General]
AudioFilename: audio.mp3
AudioLeadIn: 0
PreviewTime: 28271
Countdown: 0
SampleSet: Soft
StackLeniency: 0.7
Mode: 0
LetterboxInBreaks: 0
WidescreenStoryboard: 1

[Editor]
DistanceSpacing: 1
BeatDivisor: 4
GridSize: 4
TimelineZoom: 1.9

[Metadata]
Title:nevermore
TitleUnicode:ネヴァモア
Artist:sasalasa
ArtistUnicode:sasalasa
Creator:DeviousPanda
Version:Hard
Source:
Tags:sasakure.uk lasah LINNE pandahero ambi amb1d3x hishiro chizuru agatsu japanese pop lasse brasse deviousblunda
BeatmapID:3563547
BeatmapSetID:1740698

[Difficulty]
HPDrainRate:4
CircleSize:3.5
OverallDifficulty:5
ApproachRate:7
SliderMultiplier:1.6
SliderTickRate:1

[Events]
//Background and Video events
0,0,"chrome_2022-02-02_13-32-35.png",0,0
//Break Periods
2,47148,55338
2,65729,73919
2,112180,120371
//Storyboard Layer 0 (Background)
//Storyboard Layer 1 (Fail)
//Storyboard Layer 2 (Pass)
//Storyboard Layer 3 (Foreground)
//Storyboard Layer 4 (Overlay)
//Storyboard Sound Samples

[TimingPoints]
497,387.096774193548,6,2,0,60,1,0
9787,-133.333333333333,6,2,0,50,0,0
19077,-100,6,2,0,60,0,0
28367,-86.9565217391304,6,2,0,70,0,1
46948,-100,6,2,0,60,0,0
93400,-86.9565217391304,6,2,0,75,0,1
111980,-100,6,2,0,60,0,0
121271,-100,6,2,0,70,0,0
131335,387.096774193548,6,2,0,45,1,0
131335,-133.333333333333,6,2,0,45,0,0
140625,-125,6,2,0,65,0,0
147593,-100,6,2,0,65,0,0
149141,-100,6,2,0,70,0,0
149334,-100,6,2,0,75,0,0
149528,-100,6,2,0,80,0,0
149722,-100,6,2,0,85,0,0
149915,-83.3333333333333,6,2,0,90,0,1
168496,-100,6,2,0,60,0,0

[Colours]
Combo1 : 117,241,251
Combo2 : 201,190,184
Combo3 : 232,219,219
Combo4 : 6,185,200

[HitObjects]
7,52,497,6,0,P|60:27|140:20,1,120,6|2,3:2|0:0,0:0:0:0:
146,48,884,1,0,3:0:0:0:
209,0,1077,1,2,0:0:0:0:
271,66,1271,1,0,3:0:0:0:
271,66,1367,1,2,0:0:0:0:
271,66,1464,1,2,0:0:0:0:
268,146,1658,6,0,B|313:185|313:185|383:170,2,120,0|2|2,3:0|0:0|0:0,0:0:0:0:
209,198,2432,1,0,3:0:0:0:
209,198,2529,1,2,0:0:0:0:
209,198,2626,1,2,0:0:0:0:
234,273,2819,38,0,B|142:287|182:321|86:341,1,160,2|0,3:2|3:0,0:0:0:0:
60,315,3303,1,2,0:0:0:0:
60,315,3400,1,2,0:0:0:0:
83,238,3593,2,0,P|79:216|58:184,2,40,0|2|0,3:0|0:0|0:0,0:0:0:0:
157,290,3980,5,0,3:0:0:0:
157,290,4077,1,2,0:0:0:0:
157,290,4174,2,0,L|209:303,1,40,2|0,0:0|0:0,0:0:0:0:
227,323,4367,2,0,L|277:304,2,40,0|2|2,3:0|0:0|0:0,0:0:0:0:
167,377,4755,2,0,L|137:389,4,20,2|2|2|2|2,3:2|0:0|0:0|0:0|0:0,0:0:0:0:
195,299,5142,38,0,P|204:236|236:175,1,120,6|2,3:2|0:0,0:0:0:0:
214,147,5529,1,0,3:0:0:0:
281,104,5722,1,2,0:0:0:0:
341,156,5916,2,0,L|393:134,2,40,0|2|0,3:0|0:0|0:0,0:0:0:0:
330,232,6303,6,0,B|266:241|287:274|220:281,2,120,2|2|2,3:2|0:0|0:0,0:0:0:0:
405,282,7077,1,0,3:0:0:0:
405,282,7174,1,2,0:0:0:0:
405,282,7271,1,2,0:0:0:0:
465,229,7464,38,0,P|475:188|475:71,1,160,2|0,3:2|3:0,0:0:0:0:
414,18,8045,1,2,0:0:0:0:
343,54,8238,1,0,1:0:0:0:
329,51,8335,1,0,3:2:0:0:
316,48,8432,1,0,3:2:0:0:
244,84,8626,2,0,B|190:57|190:57|111:73,2,120,2|2|2,3:2|3:2|3:2,0:0:0:0:
297,157,9400,1,2,0:3:0:0:
297,157,9496,1,2,0:0:0:0:
297,157,9593,1,2,3:2:0:0:
235,208,9787,6,0,P|175:224|109:258,1,120.000004577637,6|0,1:2|3:0,0:0:0:0:
123,249,10367,1,2,0:3:0:0:
55,219,10561,2,0,P|54:189|73:155,1,60.0000022888185,0|2,3:0|0:3,0:0:0:0:
131,119,10948,1,0,3:0:0:0:
131,119,11142,1,2,0:3:0:0:
44,81,11335,2,0,L|174:42,1,120.000004577637,0|0,3:0|3:0,0:0:0:0:
223,0,11916,1,2,0:3:0:0:
223,0,12109,1,0,3:0:0:0:
286,48,12303,1,2,0:3:0:0:
417,35,12690,38,0,P|402:70|397:97,1,60.0000022888184,2|0,0:3|3:0,0:0:0:0:
337,137,13077,1,2,0:3:0:0:
337,137,13271,1,0,3:0:0:0:
389,195,13464,1,2,0:3:0:0:
303,234,13658,22,0,L|276:228,3,20.0000007629395,0|2|2|2,3:0|3:2|3:2|3:3,0:0:0:0:
364,312,14045,6,0,L|391:318,3,20.0000007629395,0|2|2|2,3:0|3:2|3:2|3:3,0:0:0:0:
263,343,14432,22,0,B|197:330|219:307|150:296,1,120.000004577637,6|0,1:2|3:0,0:0:0:0:
90,342,15013,1,2,0:3:0:0:
90,342,15206,1,0,3:0:0:0:
37,282,15400,2,0,P|32:244|19:210,1,60.0000022888184,2|0,0:3|3:0,0:0:0:0:
74,164,15787,1,2,0:3:0:0:
74,164,15980,1,0,3:0:0:0:
204,60,16367,38,0,P|243:72|260:110,1,60.0000022888184,0|2,3:0|0:3,0:0:0:0:
254,86,16755,1,0,3:0:0:0:
335,83,16948,2,0,P|290:115|258:195,1,120.000004577637,2|2,0:3|0:3,0:0:0:0:
260,171,17529,1,0,3:0:0:0:
319,232,17722,1,2,0:3:0:0:
268,294,17916,2,0,P|226:304|204:317,1,60.0000022888184,0|2,3:3|0:3,0:0:0:0:
157,237,18303,22,0,L|166:202,3,20.0000007629395,0|2|2|2,3:0|3:2|3:2|3:0,0:0:0:0:
103,325,18690,6,0,L|112:360,3,20.0000007629395,0|2|2|2,3:0|3:2|3:2|3:0,0:0:0:0:
29,250,19077,22,0,P|23:196|3:124,1,120,6|2,1:2|0:0,0:0:0:0:
31,101,19464,1,0,1:0:0:0:
105,131,19658,1,2,0:3:0:0:
163,76,19851,2,0,B|199:56|199:56|246:74,1,80,0|2,1:0|0:3,0:0:0:0:
258,109,20142,1,0,0:0:0:0:
258,109,20238,1,0,1:0:0:0:
332,78,20432,2,0,L|346:-2,1,80,2|0,0:3|1:0,0:0:0:0:
419,31,20819,2,0,L|437:122,1,80,2|0,0:3|1:0,0:0:0:0:
500,172,21206,37,2,0:3:0:0:
500,172,21303,1,0,0:0:0:0:
500,172,21400,2,0,B|413:184|442:237|352:249,1,160,2|0,1:2|1:0,0:0:0:0:
286,226,21980,1,2,0:3:0:0:
307,303,22174,2,0,P|321:234|362:140,1,160,0|0,1:0|1:0,0:0:0:0:
358,18,22948,22,0,L|328:11,3,26.6666666666667,0|2|2|2,1:0|3:2|3:2|3:3,0:0:0:0:
421,87,23335,6,0,L|451:94,3,26.6666666666667,0|2|2|2,1:0|3:2|3:2|3:3,0:0:0:0:
282,103,23722,22,0,B|190:128|239:167|143:189,1,160,6|0,1:2|1:0,0:0:0:0:
82,145,24303,1,2,0:3:0:0:
24,200,24496,2,0,B|12:238|12:238|41:276,1,80,0|2,1:0|0:3,0:0:0:0:
56,348,24884,2,0,L|152:312,1,80,0|2,1:0|0:3,0:0:0:0:
171,340,25174,1,2,0:0:0:0:
171,340,25271,1,0,1:0:0:0:
218,275,25464,1,2,0:3:0:0:
272,333,25658,2,0,L|262:379,2,40,0|0|2,1:0|0:0|0:3,0:0:0:0:
336,284,26045,38,0,P|323:228|328:149,1,120,0|0,1:0|0:0,0:0:0:0:
353,138,26432,1,0,1:0:0:0:
305,73,26626,1,2,0:3:0:0:
378,41,26819,2,0,L|458:74,1,80,0|2,1:0|0:3,0:0:0:0:
451,71,27109,1,2,0:0:0:0:
450,71,27206,1,0,1:0:0:0:
494,195,27593,22,0,L|502:156,3,26.6666666666667,2|2|2|2,3:2|3:2|3:2|0:3,0:0:0:0:
429,270,27980,6,0,L|421:231,3,26.6666666666667,0|2|2|2,3:2|3:2|3:2|0:3,0:0:0:0:
393,350,28367,22,0,B|311:322|359:301|269:275,1,138.000002632141,6|0,1:2|0:0,0:0:0:0:
242,307,28755,2,0,L|212:188,1,92.0000017547608,8|2,1:0|3:0,0:0:0:0:
240,176,29045,1,2,3:2:0:0:
240,176,29142,1,0,1:0:0:0:
198,94,29335,1,2,3:0:0:0:
263,28,29529,2,0,P|306:42|354:49,1,92.0000017547608,0|2,1:0|3:0,0:0:0:0:
438,79,29916,38,0,P|367:94|279:136,1,138.000002632141,0|0,1:0|0:0,0:0:0:0:
306,119,30303,1,0,1:0:0:0:
349,200,30496,1,2,3:0:0:0:
267,242,30690,2,0,P|213:224|167:219,1,92.0000017547608,6|2,1:2|3:0,0:0:0:0:
147,185,30980,1,2,3:2:0:0:
147,185,31077,1,0,1:0:0:0:
71,237,31271,1,2,3:0:0:0:
25,157,31464,2,0,P|20:109|2:61,1,92.0000017547608,0|2,1:0|3:0,0:0:0:0:
34,31,31755,1,2,3:2:0:0:
34,30,31851,2,0,P|78:34|114:86,1,92.0000017547608,0|2,1:0|3:0,0:0:0:0:
163,142,32238,2,0,B|264:117|202:64|316:35,1,184.000003509522,0|4,1:0|1:3,0:0:0:0:
386,102,32819,5,8,1:3:0:0:
386,102,32916,1,2,3:2:0:0:
386,102,33013,2,0,L|362:195,1,92.0000017547608,6|2,1:2|3:0,0:0:0:0:
398,275,33400,2,0,L|341:295,1,46.0000008773804,8|0,1:0|0:0,0:0:0:0:
315,266,33593,1,2,3:0:0:0:
244,325,33787,2,0,P|184:305|138:307,1,92.0000017547608,0|2,1:2|3:0,0:0:0:0:
116,329,34077,1,2,3:2:0:0:
116,329,34174,1,6,1:2:0:0:
47,267,34367,1,2,3:0:0:0:
120,211,34561,2,0,L|175:226,2,46.0000008773804,0|2|2,1:0|0:0|3:0,0:0:0:0:
65,136,34948,2,0,P|61:84|45:31,1,92.0000017547608,0|2,1:0|3:0,0:0:0:0:
135,10,35335,38,0,P|203:26|254:109,1,138.000002632141,6|0,1:2|0:0,0:0:0:0:
245,76,35722,1,2,1:2:0:0:
337,72,35916,2,0,P|267:122|236:200,1,138.000002632141,2|0,3:0|0:0,0:0:0:0:
243,166,36303,1,2,3:0:0:0:
292,243,36496,2,0,P|357:221|372:189,1,92.0000017547608,6|0,1:2|0:0,0:0:0:0:
448,155,36884,6,0,L|505:169,3,46.0000008773804,2|2|2|2,1:2|0:0|3:0|0:0,0:0:0:0:
434,130,37271,2,0,L|377:116,3,46.0000008773804,2|2|2|2,1:2|0:0|3:0|0:0,0:0:0:0:
447,237,37658,38,0,P|476:286|471:381,1,138.000002632141,6|0,1:0|0:0,0:0:0:0:
433,380,38045,1,8,1:0:0:0:
364,319,38238,1,2,3:0:0:0:
284,364,38432,2,0,B|237:372|237:372|199:337,1,92.0000017547608,0|2,1:2|3:0,0:0:0:0:
202,300,38722,1,2,3:2:0:0:
202,300,38819,1,0,1:2:0:0:
270,237,39013,1,2,3:0:0:0:
190,191,39206,2,0,P|175:125|151:84,1,92.0000017547608,0|2,1:0|3:0,0:0:0:0:
192,68,39496,1,2,3:2:0:0:
192,68,39593,2,0,B|238:84|222:107|274:121,1,92.0000017547608,0|2,1:0|3:0,0:0:0:0:
330,47,39980,5,6,1:2:0:0:
416,15,40174,1,2,3:0:0:0:
475,84,40367,1,0,1:0:0:0:
389,119,40561,1,2,3:0:0:0:
453,184,40755,38,0,P|469:241|462:301,1,92.0000017547608,0|2,1:0|3:0,0:0:0:0:
440,310,41045,1,2,3:2:0:0:
440,310,41142,1,0,1:0:0:0:
365,256,41335,1,2,3:0:0:0:
300,321,41529,2,0,B|227:302|264:264|188:247,1,138.000002632141,0|0,1:0|0:0,0:0:0:0:
151,274,41916,1,4,1:3:0:0:
77,218,42109,1,8,3:0:0:0:
135,146,42303,6,0,L|154:39,1,92.0000017547608,6|2,1:2|3:0,0:0:0:0:
179,19,42593,1,2,0:0:0:0:
179,19,42690,1,8,1:0:0:0:
239,88,42884,1,2,3:0:0:0:
312,33,43077,2,0,B|388:52|347:81|426:112,1,138.000002632141,6|0,1:2|0:0,0:0:0:0:
466,97,43464,37,6,1:2:0:0:
366,192,43755,1,2,0:2:0:0:
472,279,44045,1,2,3:0:0:0:
395,330,44238,2,0,P|349:313|279:307,1,92.0000017547608,0|2,1:0|3:0,0:0:0:0:
250,232,44626,6,0,B|172:258|205:285|125:307,1,138.000002632141,6|2,1:2|0:0,0:0:0:0:
94,281,45013,1,0,1:0:0:0:
131,197,45206,1,2,3:0:0:0:
64,133,45400,38,0,L|7:118,2,46.0000008773804,0|2|2,1:0|3:2|3:0,0:0:0:0:
105,113,45690,1,2,3:2:0:0:
105,113,45787,2,0,B|136:77|136:77|122:15,1,92.0000017547608,0|2,1:0|3:0,0:0:0:0:
47,9,46174,1,0,1:0:0:0:
47,9,46271,1,2,3:2:0:0:
47,9,46367,1,2,3:0:0:0:
7,92,46561,2,0,P|17:129|28:208,2,92.0000017547608,0|2|6,1:0|3:0|1:2,0:0:0:0:
92,275,56238,6,0,P|145:251|192:243,1,80,6|2,1:2|3:3,0:0:0:0:
208,262,56529,1,0,0:0:0:0:
208,262,56626,1,2,1:2:0:0:
260,201,56819,1,2,0:3:0:0:
324,248,57013,2,0,P|378:290|446:293,1,120,0|2,1:0|0:0,0:0:0:0:
460,273,57400,1,6,1:2:0:0:
504,351,57593,1,2,0:3:0:0:
504,351,57690,1,2,0:0:0:0:
504,351,57787,2,0,L|418:382,1,80,0|2,1:0|0:3,0:0:0:0:
347,349,58174,6,0,L|358:308,3,26.6666666666667,2|2|2|2,1:2|3:2|3:2|3:3,0:0:0:0:
248,384,58561,22,0,B|180:360|218:337|148:313,1,120,6|2,1:2|0:0,0:0:0:0:
116,330,58948,1,0,1:0:0:0:
50,370,59142,1,2,0:3:0:0:
50,370,59238,1,2,0:0:0:0:
50,370,59335,2,0,B|26:339|26:339|43:300,1,80,0|2,1:0|0:3,0:0:0:0:
100,246,59722,2,0,L|70:105,1,120,6|2,1:2|0:0,0:0:0:0:
43,103,60109,1,0,1:0:0:0:
101,48,60303,38,0,L|108:14,3,26.6666666666667,2|2|2|2,3:0|3:2|3:2|1:2,0:0:0:0:
156,111,60690,21,2,0:3:0:0:
223,68,60884,2,0,B|284:88|250:117|318:137,1,120,6|0,1:2|0:0,0:0:0:0:
355,126,61271,1,0,1:0:0:0:
372,212,61464,1,2,0:3:0:0:
372,212,61561,1,2,0:0:0:0:
372,212,61658,2,0,P|358:265|353:313,1,80,0|2,1:0|0:3,0:0:0:0:
372,331,61948,1,2,0:0:0:0:
372,331,62045,2,0,B|426:355|426:355|487:321,2,120,6|2|2,1:2|0:0|0:3,0:0:0:0:
285,358,62819,6,0,L|292:391,3,26.6666666666667,2|2|2|2,1:2|3:2|3:2|3:3,0:0:0:0:
218,274,63206,22,0,P|149:284|108:342,1,120,6|2,1:2|0:0,0:0:0:0:
79,334,63593,2,0,P|72:286|55:251,1,80,0|2,1:0|0:3,0:0:0:0:
31,235,63884,1,2,0:0:0:0:
31,235,63980,1,0,1:0:0:0:
92,183,64174,1,2,0:3:0:0:
40,121,64367,2,0,L|20:38,1,80,6|2,1:2|0:3,0:0:0:0:
41,10,64658,1,2,0:0:0:0:
41,10,64755,1,0,1:0:0:0:
124,64,64948,38,0,L|113:110,3,26.6666666666667,2|2|2|2,3:0|3:2|3:2|1:2,0:0:0:0:
208,0,65335,5,2,1:3:0:0:
208,0,65432,1,2,3:2:0:0:
208,0,65529,1,6,1:2:0:0:
240,375,74819,6,0,P|242:315|264:240,1,120,6|2,1:2|0:0,0:0:0:0:
231,226,75206,1,0,1:0:0:0:
292,175,75400,1,2,0:3:0:0:
350,229,75593,2,0,B|390:211|370:198|419:181,1,80,0|2,1:0|0:3,0:0:0:0:
453,206,75884,1,0,0:0:0:0:
453,206,75980,1,0,1:0:0:0:
511,151,76174,1,2,0:3:0:0:
452,96,76367,2,0,L|351:77,1,80,0|2,1:0|0:3,0:0:0:0:
347,157,76755,38,0,L|357:206,2,40,0|2|2,1:0|0:0|0:3,0:0:0:0:
295,95,77142,2,0,P|219:110|196:174,1,120,0|2,1:0|0:0,0:0:0:0:
212,180,77529,1,0,1:0:0:0:
144,221,77722,2,0,L|52:197,1,80,2|0,0:3|1:0,0:0:0:0:
42,168,78013,1,2,0:2:0:0:
42,168,78109,1,2,0:3:0:0:
101,113,78303,2,0,P|121:82|113:27,1,80,0|2,1:0|0:3,0:0:0:0:
26,8,78690,22,0,L|-6:16,3,26.6666666666667,2|2|2|2,1:2|3:2|3:2|3:0,0:0:0:0:
71,102,79077,6,0,L|96:108,3,26.6666666666667,2|2|2|2,1:2|3:2|3:2|3:0,0:0:0:0:
0,181,79464,6,0,P|-9:238|36:318,1,120,6|2,1:2|0:0,0:0:0:0:
52,291,79851,1,0,1:0:0:0:
53,378,80045,1,2,0:3:0:0:
53,378,80142,1,2,0:0:0:0:
53,378,80238,2,0,P|90:364|138:363,1,80,0|2,1:0|0:3,0:0:0:0:
194,312,80626,2,0,B|222:283|222:283|202:227,1,80,0|2,1:0|0:3,0:0:0:0:
178,229,80916,1,2,0:0:0:0:
178,229,81013,1,0,1:0:0:0:
224,164,81206,1,2,0:3:0:0:
163,111,81400,2,0,L|114:101,2,40,0|2|2,1:0|0:0|0:3,0:0:0:0:
223,58,81787,6,0,P|281:73|322:115,1,120,0|2,1:0|0:0,0:0:0:0:
327,154,82174,1,0,1:0:0:0:
401,124,82367,2,0,P|413:73|433:41,2,80,2|2|2,0:3|1:2|3:0,0:0:0:0:
446,190,82948,2,0,P|460:238|453:276,1,80,0|2,1:0|3:0,0:0:0:0:
351,325,83335,6,0,L|343:375,3,26.6666666666667,2|2|2|2,1:2|3:2|3:2|3:0,0:0:0:0:
281,256,83722,6,0,L|273:206,3,26.6666666666667,2|2|2|2,1:2|3:2|3:2|3:0,0:0:0:0:
212,316,84109,6,0,B|143:297|175:269|101:248,1,120,6|2,1:2|0:0,0:0:0:0:
77,269,84496,2,0,P|67:222|48:180,1,80,0|2,1:0|0:3,0:0:0:0:
73,156,84787,1,2,0:0:0:0:
73,156,84884,1,0,1:0:0:0:
148,181,85077,1,2,0:3:0:0:
207,127,85271,2,0,B|225:91|225:91|198:36,2,80,2|2|0,1:2|0:3|1:0,0:0:0:0:
231,212,85851,1,2,0:3:0:0:
231,212,85948,1,2,0:0:0:0:
231,212,86045,2,0,B|273:226|258:242|296:256,1,80,0|2,1:0|0:3,0:0:0:0:
324,330,86432,6,0,P|346:263|405:204,1,120,0|2,1:0|0:0,0:0:0:0:
416,220,86819,1,0,1:0:0:0:
380,148,87013,1,2,0:3:0:0:
450,111,87206,2,0,L|498:128,2,40,0|0|2,1:0|0:0|0:3,0:0:0:0:
402,46,87593,2,0,P|333:69|248:71,1,120,2|2,1:2|0:0,0:0:0:0:
262,48,87980,6,0,L|267:11,3,26.6666666666667,2|2|2|2,1:2|3:2|3:2|3:0,0:0:0:0:
196,122,88367,6,0,L|202:159,3,26.6666666666667,2|2|2|2,1:2|3:2|3:2|3:0,0:0:0:0:
126,63,88755,6,0,B|57:82|87:105|16:121,1,120,6|2,1:2|0:0,0:0:0:0:
7,156,89142,2,0,P|5:205|25:252,1,80,0|2,1:0|0:3,0:0:0:0:
61,298,89529,2,0,L|40:340,2,40,0|2|2,1:0|0:0|0:3,0:0:0:0:
141,296,89916,2,0,B|158:261|158:261|141:221,1,80,0|2,1:0|0:3,0:0:0:0:
123,198,90206,1,2,0:0:0:0:
123,198,90303,1,0,1:0:0:0:
177,139,90496,1,2,0:3:0:0:
238,191,90690,2,0,P|268:215|322:229,1,80,0|2,1:0|0:3,0:0:0:0:
331,265,90980,5,2,0:0:0:0:
331,265,91077,2,0,P|375:233|447:214,1,120,0|0,1:0|0:0,0:0:0:0:
468,188,91464,1,2,1:2:0:0:
414,128,91658,1,2,0:3:0:0:
482,83,91851,1,2,1:2:0:0:
482,83,91948,1,2,0:2:0:0:
482,83,92045,1,2,0:3:0:0:
434,4,92238,37,2,1:2:0:0:
434,4,93400,6,0,B|349:17|385:52|297:63,1,138.000002632141,6|0,1:0|0:3,0:0:0:0:
291,102,93787,2,0,P|242:82|191:79,1,92.0000017547608,8|2,1:0|0:3,0:0:0:0:
169,46,94077,1,2,3:2:0:0:
169,46,94174,1,0,1:0:0:0:
96,102,94367,1,2,3:0:0:0:
175,148,94561,1,0,1:0:0:0:
108,212,94755,1,2,3:3:0:0:
190,253,94948,2,0,P|209:177|263:126,1,138.000002632141,0|0,1:0|0:0,0:0:0:0:
275,97,95335,2,0,L|385:127,1,92.0000017547608,2|2,1:2|3:0,0:0:0:0:
383,210,95722,37,6,1:2:0:0:
471,184,95916,1,2,3:0:0:0:
501,270,96109,1,2,1:2:0:0:
414,301,96303,1,2,3:0:0:0:
341,357,96496,6,0,P|285:336|243:329,1,92.0000017547608,2|2,1:2|3:0,0:0:0:0:
229,297,96787,1,2,3:2:0:0:
229,297,96884,1,0,1:0:0:0:
157,354,97077,1,2,3:0:0:0:
83,298,97271,2,0,P|70:247|113:190,1,92.0000017547608,0|2,1:0|3:0,0:0:0:0:
131,200,97561,1,2,3:2:0:0:
131,200,97658,1,4,1:3:0:0:
60,140,97851,1,10,3:3:0:0:
135,87,98045,37,6,1:2:0:0:
205,27,98238,1,2,3:0:0:0:
205,27,98335,1,2,3:2:0:0:
205,27,98432,2,0,B|256:42|228:56|286:77,1,92.0000017547608,8|2,1:0|3:0,0:0:0:0:
347,142,98819,2,0,L|400:123,2,46.0000008773804,0|2|2,1:0|0:0|3:0,0:0:0:0:
280,206,99206,2,0,P|256:258|258:303,1,92.0000017547608,2|2,1:2|3:0,0:0:0:0:
336,336,99593,5,0,1:0:0:0:
427,325,99787,1,2,3:0:0:0:
375,248,99980,1,0,1:0:0:0:
465,229,100174,1,2,3:0:0:0:
411,154,100367,38,0,P|395:95|404:40,1,92.0000017547608,6|0,1:2|0:0,0:0:0:0:
373,30,100658,1,2,3:2:0:0:
373,30,100755,1,0,1:0:0:0:
304,90,100948,2,0,B|225:67|270:39|184:20,1,138.000002632141,6|2,3:2|0:0,0:0:0:0:
153,51,101335,1,2,3:0:0:0:
71,8,101529,2,0,L|39:157,1,138.000002632141,6|0,1:2|0:0,0:0:0:0:
87,208,101916,6,0,P|119:193|133:180,3,46.0000008773804,2|2|2|2,1:2|3:2|3:0|3:2,0:0:0:0:
67,243,102303,2,0,P|48:229|27:221,3,46.0000008773804,2|2|2|2,1:2|3:2|3:0|3:2,0:0:0:0:
122,310,102690,38,0,B|195:287|152:258|240:237,1,138.000002632141,6|0,1:0|0:0,0:0:0:0:
262,200,103077,2,0,L|360:225,1,92.0000017547608,8|2,1:0|3:0,0:0:0:0:
379,265,103367,1,2,3:2:0:0:
379,265,103464,1,0,1:0:0:0:
447,203,103658,1,2,3:0:0:0:
389,131,103851,2,0,B|371:87|371:87|396:47,1,92.0000017547608,0|2,1:0|3:0,0:0:0:0:
486,19,104238,1,0,1:0:0:0:
486,19,104335,1,2,0:0:0:0:
486,19,104432,1,2,3:0:0:0:
505,109,104626,2,0,L|475:208,1,92.0000017547608,0|2,1:0|3:0,0:0:0:0:
406,255,105013,5,6,1:2:0:0:
330,202,105206,1,2,3:0:0:0:
246,242,105400,1,2,1:2:0:0:
321,294,105593,1,2,3:0:0:0:
248,350,105787,38,0,P|193:329|135:325,1,92.0000017547608,0|2,1:0|3:0,0:0:0:0:
125,353,106077,1,2,3:2:0:0:
125,353,106174,1,0,1:0:0:0:
65,283,106367,1,2,3:0:0:0:
138,227,106561,2,0,P|136:169|87:127,1,92.0000017547608,6|2,1:2|3:0,0:0:0:0:
77,131,106851,1,2,3:2:0:0:
77,131,106948,1,4,1:3:0:0:
131,56,107142,1,10,3:0:0:0:
207,107,107335,6,0,B|260:120|230:137|292:155,1,92.0000017547608,6|2,1:2|3:0,0:0:0:0:
315,194,107626,1,2,0:2:0:0:
315,194,107722,2,0,P|347:178|375:178,1,46.0000008773804,8|0,1:0|0:0,0:0:0:0:
384,139,107916,1,2,3:0:0:0:
441,210,108109,2,0,P|417:281|410:365,1,138.000002632141,6|0,1:2|0:0,0:0:0:0:
377,375,108496,37,0,1:0:0:0:
287,352,108690,2,0,B|268:310|268:310|304:259,1,92.0000017547608,2|0,3:0|1:0,0:0:0:0:
381,241,109077,2,0,B|452:213|409:191|491:161,1,138.000002632141,2|2,3:0|0:0,0:0:0:0:
498,115,109464,1,2,3:0:0:0:
428,54,109658,2,0,P|377:69|352:127,1,92.0000017547608,6|2,1:2|3:0,0:0:0:0:
369,144,109948,1,2,0:0:0:0:
369,144,110045,1,0,1:0:0:0:
286,183,110238,1,2,3:0:0:0:
223,131,110432,5,2,1:2:0:0:
223,131,110529,1,2,3:2:0:0:
223,131,110626,2,0,P|228:89|242:67,1,46.0000008773804,2|2,3:0|3:2,0:0:0:0:
200,50,110819,2,0,B|144:55|163:76|110:89,1,92.0000017547608,2|2,1:2|3:0,0:0:0:0:
76,66,111109,1,2,3:2:0:0:
76,66,111206,1,2,1:2:0:0:
10,131,111400,1,2,3:0:0:0:
78,192,111593,2,0,P|93:243|92:292,2,92.0000017547608,2|2|6,1:2|3:0|1:0,0:0:0:0:
256,192,121271,37,6,1:2:0:0:
256,192,121464,12,2,130367,3:0:0:0:
67,351,131335,6,0,P|109:325|188:300,1,120.000004577637,6|0,3:2|0:0,0:0:0:0:
230,278,131915,2,0,P|162:260|101:216,1,120.000004577637,6|0,3:2|0:0,0:0:0:0:
120,233,132496,1,6,3:2:0:0:
225,88,133076,1,6,3:2:0:0:
377,184,133657,38,0,P|405:232|411:303,1,120.000004577637,6|2,3:2|0:0,0:0:0:0:
444,345,134238,2,0,P|463:277|503:232,1,120.000004577637,6|2,3:2|0:0,0:0:0:0:
493,239,134818,1,6,3:2:0:0:
390,91,135399,1,6,3:2:0:0:
254,210,135980,6,0,B|188:186|226:174|149:148,1,120.000004577637,6|2,3:2|0:0,0:0:0:0:
125,101,136560,1,6,3:2:0:0:
125,101,136754,2,0,L|200:75,1,60.0000022888184,2|2,0:2|0:0,0:0:0:0:
195,22,137141,2,0,L|268:42,1,60.0000022888184,6|2,3:2|0:2,0:0:0:0:
300,91,137528,1,2,0:0:0:0:
300,91,137722,1,6,3:2:0:0:
300,91,137915,2,0,B|310:121|310:121|286:160,1,60.0000022888184,2|2,0:0|0:2,0:0:0:0:
254,189,138302,1,6,3:2:0:0:
338,281,138689,1,2,0:0:0:0:
338,281,138883,1,6,3:2:0:0:
458,256,139270,1,2,0:0:0:0:
458,256,139464,1,6,3:2:0:0:
367,177,139851,1,2,0:0:0:0:
149,365,140625,38,0,B|81:348|111:311|34:297,1,128,6|2,3:2|3:2,0:0:0:0:
6,246,141205,1,6,3:2:0:0:
39,191,141399,2,0,B|52:164|52:164|31:114,2,64,2|2|6,3:2|3:2|3:2,0:0:0:0:
153,248,142173,6,0,L|278:212,1,128,2|2,3:2|3:2,0:0:0:0:
316,163,142754,1,2,3:2:0:0:
316,163,142947,1,6,3:2:0:0:
414,245,143335,1,2,3:2:0:0:
330,341,143722,2,0,L|254:323,1,64,2|2,3:2|3:2,0:0:0:0:
219,368,144109,1,6,3:2:0:0:
219,368,144302,1,2,3:2:0:0:
172,323,144496,2,0,B|157:264|157:264|210:205,1,128,2|2,3:2|3:2,0:0:0:0:
307,141,145270,38,0,L|328:33,2,96,6|2|6,3:2|0:0|3:2,0:0:0:0:
345,192,146044,1,2,3:2:0:0:
472,204,146431,6,0,B|493:161|493:161|454:98,2,96,6|2|6,3:2|0:0|3:2,0:0:0:0:
423,246,147205,1,2,3:2:0:0:
466,292,147399,1,2,3:2:0:0:
403,342,147593,38,0,L|245:303,1,160,6|2,3:2|3:2,0:0:0:0:
208,233,148173,1,6,3:2:0:0:
155,294,148367,1,2,3:2:0:0:
155,294,148464,1,2,3:2:0:0:
155,294,148560,2,0,P|168:340|162:377,2,80,2|6|2,3:2|3:2|3:2,0:0:0:0:
114,224,149141,2,0,P|63:208|39:178,1,80,2|6,3:2|3:2,0:0:0:0:
41,149,149431,1,2,0:0:0:0:
41,149,149528,1,2,3:2:0:0:
95,90,149722,1,2,3:2:0:0:
176,140,149915,6,2,B|257:106|199:91|295:52,1,143.999995605469,6|0,1:0|0:0,0:1:0:0:
331,75,150302,2,0,P|352:120|342:179,1,95.9999970703126,8|6,1:0|3:2,0:0:0:0:
310,195,150593,1,2,3:2:0:0:
310,195,150689,1,2,1:2:0:0:
369,270,150883,1,2,3:0:0:0:
446,214,151076,1,6,1:2:0:0:
446,214,151173,1,2,3:2:0:0:
446,214,151270,2,0,P|451:184|468:145,1,47.9999985351563,2|2,3:0|3:2,0:0:0:0:
481,125,151464,2,0,B|431:101|459:82|395:64,1,95.9999970703126,2|6,1:2|3:2,0:0:0:0:
384,30,151754,1,2,3:2:0:0:
384,30,151851,1,2,1:2:0:0:
311,91,152044,1,2,3:0:0:0:
239,26,152238,38,0,L|138:11,1,95.9999970703126,6|2,1:0|3:0,0:0:0:0:
85,88,152625,2,0,L|186:103,1,95.9999970703126,2|6,1:2|3:2,0:0:0:0:
213,143,152915,1,2,3:2:0:0:
213,143,153012,1,2,1:2:0:0:
152,217,153205,1,2,3:0:0:0:
229,273,153399,2,0,B|273:289|273:289|331:250,1,95.9999970703126,6|2,1:2|3:0,0:0:0:0:
414,245,153786,5,2,1:2:0:0:
414,245,153883,1,2,3:2:0:0:
414,245,153980,2,0,L|399:304,1,47.9999985351563,6|0,3:2|0:0,0:0:0:0:
428,332,154173,1,4,1:3:0:0:
340,371,154367,1,10,3:0:0:0:
265,310,154560,38,0,L|234:188,1,95.9999970703126,6|2,1:0|3:0,0:0:0:0:
199,192,154851,1,2,3:2:0:0:
199,192,154947,1,8,1:0:0:0:
259,117,155141,1,6,3:2:0:0:
192,64,155334,1,2,1:2:0:0:
192,64,155431,1,2,3:2:0:0:
192,64,155528,2,0,L|132:50,1,47.9999985351563,2|0,3:0|0:0,0:0:0:0:
101,74,155722,2,0,P|69:124|73:167,1,95.9999970703126,6|2,1:2|3:0,0:0:0:0:
108,196,156012,1,2,3:2:0:0:
108,196,156109,1,2,1:2:0:0:
30,251,156302,1,6,3:2:0:0:
79,333,156496,2,0,B|127:315|99:297|165:275,1,95.9999970703126,2|2,1:2|3:0,0:0:0:0:
239,325,156883,6,2,P|316:296|349:205,1,143.999995605469,6|0,1:0|0:0,0:1:0:0:
327,200,157270,1,2,1:2:0:0:
422,208,157464,38,2,P|357:185|327:85,1,143.999995605469,6|0,3:2|0:0,0:1:0:0:
341,76,157851,1,2,3:0:0:0:
422,25,158044,2,2,P|439:74|431:128,1,95.9999970703126,6|0,1:2|0:0,0:1:0:0:
427,213,158431,6,0,L|474:196,3,47.9999985351563,2|2|2|2,1:2|3:2|3:2|3:2,0:0:0:0:
405,260,158818,1,2,3:2:0:0:
405,260,158915,1,2,3:2:0:0:
405,260,159012,1,2,3:2:0:0:
331,320,159205,38,2,B|265:298|289:259|211:244,1,143.999995605469,6|0,1:0|0:0,0:1:0:0:
176,277,159593,2,0,L|149:161,1,95.9999970703126,8|6,1:0|3:2,0:0:0:0:
189,150,159883,1,2,3:2:0:0:
189,150,159980,1,2,1:2:0:0:
101,110,160173,1,2,3:0:0:0:
41,186,160367,1,6,1:2:0:0:
41,186,160464,1,2,3:2:0:0:
41,186,160560,1,2,3:0:0:0:
126,229,160754,2,0,P|143:283|137:353,1,95.9999970703126,2|6,1:2|3:2,0:0:0:0:
112,359,161044,1,2,3:2:0:0:
112,359,161141,1,2,1:2:0:0:
204,382,161334,1,2,3:0:0:0:
276,319,161528,6,0,L|309:193,1,95.9999970703126,6|2,1:0|3:0,0:0:0:0:
278,189,161818,1,2,3:2:0:0:
278,189,161915,1,2,1:2:0:0:
364,147,162109,1,6,3:2:0:0:
428,217,162302,2,0,L|444:283,2,47.9999985351563,2|2|2,1:2|3:2|3:0,0:0:0:0:
480,136,162689,2,0,P|487:77|512:34,1,95.9999970703126,6|2,1:2|3:0,0:0:0:0:
478,4,162980,1,2,3:2:0:0:
478,4,163076,2,0,B|402:21|425:54|349:63,1,143.999995605469,2|0,1:2|0:0,0:0:0:0:
312,95,163464,2,0,P|266:75|213:72,1,95.9999970703126,4|10,1:3|3:0,0:0:0:0:
192,39,163754,1,2,3:2:0:0:
192,39,163851,1,6,1:0:0:0:
134,116,164044,37,2,3:0:0:0:
134,116,164141,1,2,3:2:0:0:
134,116,164238,2,0,P|121:177|123:251,2,95.9999970703126,2|6|2,1:2|3:2|1:2,0:0:0:0:
69,44,164818,1,2,3:0:0:0:
6,117,165012,1,6,1:2:0:0:
50,201,165205,2,0,P|68:258|70:355,1,143.999995605469,2|0,3:0|0:0,0:0:0:0:
107,374,165593,1,6,3:2:0:0:
181,313,165786,1,2,1:2:0:0:
181,313,165883,1,2,3:2:0:0:
181,313,165980,2,0,P|217:296|246:298,1,47.9999985351563,2|0,3:0|0:0,0:0:0:0:
255,258,166173,6,0,B|339:283|285:313|366:343,1,143.999995605469,6|0,1:0|0:0,0:0:0:0:
403,313,166560,1,2,1:2:0:0:
363,225,166754,1,6,3:2:0:0:
466,229,166947,1,2,1:2:0:0:
466,229,167044,1,2,3:2:0:0:
466,229,167141,2,0,L|526:209,1,47.9999985351563,2|2,3:0|3:2,0:0:0:0:
488,171,167334,2,0,L|369:146,1,95.9999970703126,6|2,1:2|3:0,0:0:0:0:
364,120,167625,1,2,3:2:0:0:
364,120,167722,1,2,1:2:0:0:
277,162,167915,1,6,3:2:0:0:
214,88,168109,2,0,B|211:40|211:40|261:7,1,95.9999970703126,2|2,1:2|3:0,0:0:0:0:
330,26,168496,38,0,L|464:-1,1,120,6|2,1:2|3:2,0:0:0:0:
479,26,168883,2,0,B|499:61|499:61|473:104,1,80,2|2,1:2|3:0,0:0:0:0:
409,136,169270,1,2,1:2:0:0:
458,198,169464,1,2,3:0:0:0:
389,238,169657,6,0,L|285:206,1,80,6|2,1:2|3:0,0:0:0:0:
279,234,169947,1,2,3:2:0:0:
279,234,170044,1,2,1:2:0:0:
226,173,170238,1,2,3:0:0:0:
160,218,170431,2,0,L|170:275,2,40,2|2|2,1:2|3:2|3:0,0:0:0:0:
94,171,170818,38,0,P|77:129|91:52,1,120,6|2,1:2|3:2,0:0:0:0:
121,34,171205,1,2,1:2:0:0:
187,78,171399,1,2,3:0:0:0:
249,26,171593,1,2,1:2:0:0:
249,26,171689,1,2,3:2:0:0:
249,26,171786,1,2,3:0:0:0:
299,88,171980,2,0,B|368:113|321:129|391:160,1,120,6|0,1:2|0:0,0:0:0:0:
417,149,172367,22,0,L|429:108,3,26.6666666666667,2|2|2|2,1:2|3:2|3:2|3:0,0:0:0:0:
473,229,172754,6,0,L|485:270,3,26.6666666666667,2|2|2|2,1:2|3:2|3:2|3:0,0:0:0:0:
371,247,173141,6,0,P|316:260|269:301,1,120,6|2,1:2|3:2,0:0:0:0:
275,340,173528,1,2,1:2:0:0:
202,374,173722,1,2,3:0:0:0:
136,327,173915,2,0,B|124:289|124:289|154:251,1,80,2|2,1:2|3:0,0:0:0:0:
214,211,174302,2,0,L|192:104,1,80,6|2,1:2|3:0,0:0:0:0:
163,111,174593,1,2,3:2:0:0:
163,111,174689,1,2,1:2:0:0:
206,43,174883,1,2,3:0:0:0:
286,83,175076,1,2,1:2:0:0:
286,83,175173,1,2,3:2:0:0:
286,83,175270,1,2,3:0:0:0:
343,26,175464,6,0,P|405:51|420:116,1,120,6|2,1:2|3:2,0:0:0:0:
394,126,175851,1,2,1:2:0:0:
443,188,176044,1,2,3:0:0:0:
369,219,176238,2,0,L|315:200,2,40,2|2|2,1:2|3:2|3:0,0:0:0:0:
392,257,176528,1,2,3:2:0:0:
392,257,176625,1,6,1:2:0:0:
487,325,177012,6,0,L|516:317,3,26.6666666666667,2|2|2|2,1:2|3:2|3:2|3:0,0:0:0:0:
397,384,177399,6,0,L|366:375,3,26.6666666666667,2|2|2|2,1:2|3:2|3:2|3:0,0:0:0:0:
