osu file format v14

[General]
AudioFilename: audio.mp3
AudioLeadIn: 0
PreviewTime: 28271
Countdown: 0
SampleSet: Soft
StackLeniency: 0.7
Mode: 0
LetterboxInBreaks: 0
WidescreenStoryboard: 0

[Editor]
DistanceSpacing: 0.8
BeatDivisor: 6
GridSize: 32
TimelineZoom: 1.9

[Metadata]
Title:nevermore
TitleUnicode:ネヴァモア
Artist:sasalasa
ArtistUnicode:sasalasa
Creator:DeviousPanda
Version:1st Act: Origin
Source:
Tags:sasakure.uk lasah LINNE pandahero ambi amb1d3x hishiro chizuru agatsu japanese pop lasse brasse deviousblunda
BeatmapID:3558555
BeatmapSetID:1740698

[Difficulty]
HPDrainRate:4
CircleSize:4
OverallDifficulty:9
ApproachRate:9
SliderMultiplier:2.4
SliderTickRate:1

[Events]
//Background and Video events
0,0,"chrome_2022-02-02_13-32-35.png",0,0
//Break Periods
2,65729,73271
//Storyboard Layer 0 (Background)
//Storyboard Layer 1 (Fail)
//Storyboard Layer 2 (Pass)
//Storyboard Layer 3 (Foreground)
//Storyboard Layer 4 (Overlay)
//Storyboard Sound Samples

[TimingPoints]
497,387.096774193548,6,2,0,60,1,0
497,-125,6,2,0,60,0,0
9787,-142.857142857143,6,2,0,50,0,0
19077,-125,6,2,0,60,0,0
28367,-100,6,2,0,70,0,1
46948,-125,6,2,0,60,0,0
56238,-111.111111111111,6,2,0,60,0,0
93400,-95.2380952380952,6,2,0,75,0,1
111980,-125,6,2,0,60,0,0
121271,-111.111111111111,6,2,0,70,0,0
131335,387.096774193548,6,2,0,60,1,0
131335,-200,6,2,0,45,0,0
140625,-125,6,2,0,65,0,0
149141,-111.111111111111,6,2,0,70,0,0
149334,-100,6,2,0,75,0,0
149528,-90.9090909090909,6,2,0,80,0,0
149722,-83.3333333333333,6,2,0,85,0,0
149915,-76.9230769230769,6,2,0,90,0,1
168496,-125,6,2,0,60,0,0

[Colours]
Combo1 : 117,241,251
Combo2 : 201,190,184
Combo3 : 232,219,219
Combo4 : 6,185,200

[HitObjects]
190,266,497,6,0,P|213:231|274:207,1,96,6|0,3:2|0:0,0:0:0:0:
309,152,787,1,2,0:0:0:0:
309,152,884,1,0,3:0:0:0:
165,111,1077,6,0,P|203:145|234:152,1,48,2|0,0:0|0:0,0:0:0:0:
327,251,1271,1,0,3:0:0:0:
327,251,1367,2,0,P|352:223|380:211,1,48,2|0,0:0|0:0,0:0:0:0:
343,65,1561,37,2,0:0:0:0:
343,65,1658,2,0,P|323:109|312:160,1,96,0|0,3:0|0:0,0:0:0:0:
369,315,1948,5,2,0:0:0:0:
387,333,2045,1,0,3:0:0:0:
393,358,2142,1,2,0:0:0:0:
365,384,2238,38,0,P|294:368|238:367,1,96,2|0,0:0|3:0,0:0:0:0:
218,316,2529,1,2,0:0:0:0:
218,316,2626,1,2,0:0:0:0:
47,320,2819,6,0,P|1:288|23:228,1,96,2|0,3:2|0:0,0:0:0:0:
55,201,3109,1,2,0:0:0:0:
55,201,3206,1,0,3:0:0:0:
123,384,3400,38,0,P|130:347|146:315,1,48,2|0,0:0|0:0,0:0:0:0:
199,227,3593,1,0,3:0:0:0:
199,227,3690,2,0,P|209:194|219:123,1,96,2|0,0:0|0:0,0:0:0:0:
341,261,3980,5,0,3:0:0:0:
336,272,4077,1,2,0:0:0:0:
325,276,4174,2,0,P|286:259|271:226,1,48,2|0,0:0|0:0,0:0:0:0:
123,245,4367,37,0,3:0:0:0:
110,246,4464,1,2,0:0:0:0:
102,238,4561,2,0,P|97:195|118:166,1,48,2|0,0:0|0:0,0:0:0:0:
238,325,4755,6,0,L|242:355,2,24,2|2|2,3:2|0:0|0:0,0:0:0:0:
218,133,4948,2,0,L|212:67,1,48,2|0,0:0|0:0,0:0:0:0:
79,370,5142,38,0,P|109:337|162:317,1,96,6|0,3:2|0:0,0:0:0:0:
192,249,5432,1,2,0:0:0:0:
205,253,5529,2,0,P|236:234|250:212,1,48,0|0,3:0|0:0,0:0:0:0:
319,372,5722,6,0,P|278:339|203:322,1,96,2|0,0:0|3:0,0:0:0:0:
95,257,6013,2,0,P|53:237|13:196,1,96,2|0,0:0|0:0,0:0:0:0:
234,62,6303,38,0,P|232:111|213:163,1,96,2|0,3:2|0:0,0:0:0:0:
242,225,6593,1,2,0:0:0:0:
257,249,6690,1,0,3:0:0:0:
283,255,6787,1,2,0:0:0:0:
351,225,6884,6,0,P|352:174|296:158,1,96,2|0,0:0|3:0,0:0:0:0:
155,198,7174,1,2,0:0:0:0:
143,200,7271,2,0,P|113:183|107:144,1,48,2|0,0:0|0:0,0:0:0:0:
345,301,7464,38,0,P|394:324|431:379,1,96,2|0,3:2|0:0,0:0:0:0:
492,341,7755,1,2,0:0:0:0:
499,331,7851,2,0,P|493:295|472:267,1,48,0|0,3:0|0:0,0:0:0:0:
433,233,8045,2,0,P|438:195|460:165,1,48,2|0,0:0|0:0,0:0:0:0:
510,3,8238,5,0,1:0:0:0:
507,11,8335,1,0,3:2:0:0:
503,17,8432,1,0,3:2:0:0:
500,25,8529,1,0,3:2:0:0:
512,99,8626,38,0,L|426:115,1,48,2|0,3:2|0:0,0:0:0:0:
194,77,8819,5,2,3:0:0:0:
249,25,8916,2,0,L|378:46,1,96,2|0,3:2|0:0,0:0:0:0:
462,111,9206,38,0,L|452:184,1,48,2|0,3:2|0:0,0:0:0:0:
274,220,9400,1,2,0:3:0:0:
274,220,9496,1,2,0:0:0:0:
274,220,9593,2,0,L|259:144,1,48,2|0,3:2|0:0,0:0:0:0:
512,384,9787,5,6,1:2:0:0:
476,321,9980,1,2,0:3:0:0:
407,294,10174,1,0,3:0:0:0:
334,289,10367,1,2,0:3:0:0:
272,326,10561,1,0,3:0:0:0:
238,343,10658,1,2,0:0:0:0:
200,342,10755,1,2,0:3:0:0:
131,317,10948,1,0,3:0:0:0:
97,254,11142,1,2,0:3:0:0:
187,165,11335,37,0,3:0:0:0:
187,165,11432,1,2,0:0:0:0:
187,165,11529,2,0,P|211:141|235:133,1,41.9999987182618,2|0,0:3|0:0,0:0:0:0:
100,251,11722,1,0,3:0:0:0:
111,216,11819,1,2,0:0:0:0:
106,182,11916,1,2,0:3:0:0:
85,154,12013,1,2,0:0:0:0:
51,142,12109,1,0,3:0:0:0:
2,216,12303,5,2,0:3:0:0:
2,216,12400,1,2,0:0:0:0:
2,216,12496,2,0,P|13:256|14:283,1,41.9999987182618,0|0,3:0|0:0,0:0:0:0:
0,375,12690,37,2,0:3:0:0:
195,249,12884,1,0,3:0:0:0:
0,375,13077,1,2,0:3:0:0:
275,341,13271,6,0,L|207:317,1,41.9999987182618,0|0,3:0|0:0,0:0:0:0:
17,260,13464,2,0,L|85:284,1,41.9999987182618,2|0,0:3|0:0,0:0:0:0:
174,380,13658,5,0,3:0:0:0:
168,373,13722,1,2,3:2:0:0:
171,367,13787,1,2,3:2:0:0:
166,363,13851,1,2,3:3:0:0:
120,236,14045,5,0,3:0:0:0:
126,229,14109,1,2,3:2:0:0:
123,223,14174,1,2,3:2:0:0:
128,219,14238,1,2,3:3:0:0:
270,87,14432,5,6,1:2:0:0:
307,20,14626,1,2,0:3:0:0:
339,9,14722,1,2,0:0:0:0:
372,15,14819,1,0,3:0:0:0:
399,36,14916,1,2,0:0:0:0:
412,67,15013,1,2,0:3:0:0:
411,101,15109,1,2,0:0:0:0:
392,128,15206,1,0,3:0:0:0:
317,186,15400,5,2,0:3:0:0:
321,218,15496,1,2,0:0:0:0:
351,239,15593,1,0,3:0:0:0:
398,323,15787,37,2,0:3:0:0:
430,326,15884,1,2,0:0:0:0:
453,299,15980,1,0,3:0:0:0:
443,220,16174,5,2,0:3:0:0:
443,220,16271,1,2,0:0:0:0:
443,220,16367,2,0,P|448:186|463:157,1,41.9999987182618,0|0,3:0|0:0,0:0:0:0:
322,317,16561,2,0,P|317:351|302:380,1,41.9999987182618,2|0,0:3|0:0,0:0:0:0:
457,303,16755,37,0,3:0:0:0:
255,205,16948,1,2,0:3:0:0:
255,205,17045,1,2,0:0:0:0:
255,205,17142,2,0,P|215:216|191:228,1,41.9999987182618,0|0,3:0|0:0,0:0:0:0:
458,187,17335,5,2,0:3:0:0:
206,320,17529,1,0,3:0:0:0:
458,187,17722,2,0,P|467:149|482:125,1,41.9999987182618,2|0,0:3|0:0,0:0:0:0:
253,93,17916,38,0,L|282:149,1,41.9999987182618,0|0,3:3|0:0,0:0:0:0:
413,384,18109,2,0,L|384:328,1,41.9999987182618,2|0,0:3|0:0,0:0:0:0:
338,167,18303,21,0,3:0:0:0:
344,164,18367,1,2,3:2:0:0:
343,157,18432,1,2,3:2:0:0:
348,154,18496,1,2,3:0:0:0:
402,241,18690,5,0,3:0:0:0:
408,244,18754,1,2,3:2:0:0:
407,251,18819,1,2,3:2:0:0:
412,254,18883,1,2,3:0:0:0:
210,324,19077,6,0,P|243:298|284:290,1,48,6|0,1:2|0:0,0:0:0:0:
405,343,19271,1,2,0:3:0:0:
393,346,19367,2,0,P|346:318|321:259,1,96,2|0,0:0|0:0,0:0:0:0:
217,226,19658,6,0,P|225:197|252:172,1,48,2|0,0:3|0:0,0:0:0:0:
432,170,19851,37,0,1:0:0:0:
432,170,19948,1,2,0:2:0:0:
432,170,20045,1,2,0:3:0:0:
276,367,20238,1,0,1:0:0:0:
106,181,20432,1,2,0:3:0:0:
106,181,20529,1,2,0:0:0:0:
106,181,20626,2,0,P|96:113|68:52,1,96,0|2,1:0|0:3,0:0:0:0:
163,15,21013,5,0,1:0:0:0:
196,21,21109,1,2,0:0:0:0:
210,49,21206,1,2,0:3:0:0:
41,241,21400,38,0,P|3:292|16:332,1,96,2|2,1:2|0:3,0:0:0:0:
86,326,21690,1,2,0:0:0:0:
86,326,21787,2,0,P|119:311|158:305,1,48,0|0,1:0|0:0,0:0:0:0:
342,303,21980,5,2,0:3:0:0:
123,231,22174,1,0,1:0:0:0:
342,303,22367,1,2,0:3:0:0:
192,384,22561,38,0,P|209:331|243:282,1,96,0|2,1:0|0:3,0:0:0:0:
288,244,22851,1,2,0:0:0:0:
301,217,22948,22,0,P|295:195|279:169,3,32,0|2|2|2,1:0|3:2|3:2|3:3,0:0:0:0:
227,293,23335,6,0,P|210:309|196:336,3,32,0|2|2|2,1:0|3:2|3:2|3:3,0:0:0:0:
445,351,23722,6,0,P|496:335|510:275,1,96,6|2,1:2|0:3,0:0:0:0:
487,231,24013,1,2,0:0:0:0:
487,231,24109,1,0,1:0:0:0:
351,384,24303,5,2,0:3:0:0:
351,384,24400,1,2,0:0:0:0:
351,384,24496,2,0,P|344:351|324:321,1,48,0|0,1:0|0:0,0:0:0:0:
224,290,24690,1,2,0:3:0:0:
424,164,24884,38,0,P|394:184|372:221,1,48,0|0,1:0|0:0,0:0:0:0:
248,364,25077,1,2,0:3:0:0:
205,373,25174,1,2,0:0:0:0:
173,350,25271,1,0,1:0:0:0:
174,153,25464,5,2,0:3:0:0:
174,153,25561,1,2,0:0:0:0:
174,153,25658,2,0,L|228:184,1,48,0|0,1:0|0:0,0:0:0:0:
349,265,25851,2,0,L|382:285,2,24,2|2|2,0:3|0:0|0:0,0:0:0:0:
310,161,26045,38,0,P|302:133|304:94,1,48,0|0,1:0|0:0,0:0:0:0:
227,291,26238,2,0,P|257:266|302:249,1,48,2|0,0:3|0:0,0:0:0:0:
458,102,26432,6,0,P|416:87|387:60,1,48,0|0,1:0|0:0,0:0:0:0:
125,219,26626,2,0,P|136:256|133:304,1,48,2|0,0:3|0:0,0:0:0:0:
442,384,26819,38,0,P|454:321|478:266,1,96,0|2,1:0|0:3,0:0:0:0:
431,225,27109,1,2,0:0:0:0:
431,225,27206,1,0,1:0:0:0:
276,14,27496,21,2,0:0:0:0:
300,35,27593,2,0,P|327:27|336:19,2,32,2|2|2,3:2|3:2|3:2,0:0:0:0:
234,74,27787,2,0,P|218:101|213:123,1,48,2|0,0:3|0:0,0:0:0:0:
310,161,27980,5,0,3:2:0:0:
317,165,28045,1,2,3:2:0:0:
314,173,28109,1,2,3:2:0:0:
319,178,28174,1,2,0:3:0:0:
174,346,28368,6,0,P|235:337|217:227,1,200,6|0,1:2|0:0,0:0:0:0:
162,177,28755,2,0,P|128:185|87:186,1,60,8|0,1:0|0:0,0:0:0:0:
331,309,28948,5,2,3:0:0:0:
100,183,29142,2,0,P|110:147|139:106,1,60,0|0,1:0|0:0,0:0:0:0:
26,316,29335,38,0,P|53:303|94:292,1,60,2|0,3:0|0:0,0:0:0:0:
343,170,29529,2,0,P|331:101|298:26,1,120,0|2,1:0|3:0,0:0:0:0:
178,337,29916,5,0,1:0:0:0:
178,337,30013,1,2,0:0:0:0:
178,337,30109,2,0,P|181:288|201:246,1,60,2|0,3:0|0:0,0:0:0:0:
183,85,30303,37,0,1:0:0:0:
171,57,30400,1,2,0:0:0:0:
137,45,30497,1,2,3:0:0:0:
60,140,30690,5,6,1:2:0:0:
176,209,30884,1,2,3:0:0:0:
304,161,31077,1,0,1:0:0:0:
179,89,31271,1,2,3:0:0:0:
11,262,31464,37,0,1:0:0:0:
11,262,31561,1,2,0:0:0:0:
11,262,31658,1,2,3:0:0:0:
126,17,31851,1,0,1:0:0:0:
371,132,32045,1,2,3:0:0:0:
266,384,32239,1,0,1:0:0:0:
266,384,32335,1,2,0:0:0:0:
266,384,32432,2,0,P|255:338|257:295,1,60,2|0,3:0|0:0,0:0:0:0:
376,135,32626,6,0,P|397:98|433:69,1,60,4|0,1:3|0:0,0:0:0:0:
151,215,32819,38,0,P|193:214|236:231,1,60,8|0,1:3|0:0,0:0:0:0:
440,328,33013,5,6,1:2:0:0:
509,379,33206,1,2,3:0:0:0:
509,379,33303,1,2,0:0:0:0:
509,379,33400,1,8,1:0:0:0:
370,220,33593,37,2,3:0:0:0:
175,382,33787,5,0,1:2:0:0:
175,382,33884,1,2,0:0:0:0:
175,382,33980,1,2,3:0:0:0:
433,116,34174,38,0,P|381:135|354:168,1,60,6|0,1:2|0:0,0:0:0:0:
259,258,34368,2,0,P|219:245|194:222,1,60,2|0,3:0|0:0,0:0:0:0:
244,40,34561,5,0,1:0:0:0:
280,54,34658,1,2,0:0:0:0:
292,87,34755,1,2,3:0:0:0:
314,364,34948,37,0,1:0:0:0:
321,327,35045,1,2,0:0:0:0:
355,307,35142,2,0,P|397:312|428:341,1,60,2|0,3:0|0:0,0:0:0:0:
232,140,35335,6,0,P|329:111|393:33,1,180,6|0,1:2|0:0,0:0:0:0:
106,179,35722,2,0,P|155:179|197:202,1,60,2|0,1:2|0:0,0:0:0:0:
317,367,35916,38,0,P|288:269|209:205,1,180,2|0,3:0|0:0,0:0:0:0:
46,128,36303,2,0,P|11:101|-12:72,1,60,2|0,3:0|0:0,0:0:0:0:
296,52,36497,6,0,P|258:111|235:264,1,180,6|0,1:2|0:0,0:0:0:0:
170,260,36884,37,2,1:2:0:0:
159,272,36980,1,2,0:0:0:0:
141,279,37077,1,2,3:0:0:0:
122,279,37174,1,2,0:0:0:0:
56,326,37271,5,2,1:2:0:0:
17,305,37368,1,2,0:0:0:0:
52,308,37464,1,2,3:0:0:0:
20,326,37561,1,2,0:0:0:0:
101,384,37658,38,0,P|89:303|39:187,1,180,6|0,1:0|0:0,0:0:0:0:
92,145,38045,2,0,P|132:165|130:229,1,60,8|0,1:0|0:0,0:0:0:0:
17,329,38238,5,2,3:0:0:0:
245,217,38432,2,0,P|252:180|281:123,1,60,0|0,1:2|0:0,0:0:0:0:
0,85,38626,38,0,P|11:122|14:167,1,60,2|0,3:0|0:0,0:0:0:0:
101,384,38819,2,0,P|166:348|171:296,1,120,0|2,1:2|3:0,0:0:0:0:
107,0,39206,5,0,1:0:0:0:
107,0,39303,1,2,0:0:0:0:
107,0,39400,2,0,P|77:33|75:72,1,60,2|0,3:0|0:0,0:0:0:0:
178,311,39593,37,0,1:0:0:0:
212,310,39690,1,2,0:0:0:0:
245,289,39787,1,2,3:0:0:0:
256,255,39884,1,2,0:0:0:0:
245,217,39980,5,6,1:2:0:0:
70,145,40174,1,2,3:0:0:0:
73,46,40367,37,0,1:0:0:0:
212,310,40561,1,2,3:0:0:0:
108,384,40755,5,0,1:0:0:0:
108,384,40851,1,2,0:0:0:0:
108,384,40948,1,2,3:0:0:0:
160,187,41142,1,0,1:0:0:0:
211,0,41335,1,2,3:0:0:0:
17,164,41529,37,0,1:0:0:0:
17,164,41626,1,2,0:0:0:0:
17,164,41722,2,0,P|47:182|71:226,1,60,2|0,3:0|0:0,0:0:0:0:
294,53,41916,6,0,P|259:84|244:121,1,60,4|0,1:3|0:0,0:0:0:0:
226,367,42109,38,0,P|216:317|186:281,1,60,8|0,3:0|0:0,0:0:0:0:
71,0,42303,6,0,P|118:83|122:136,1,120,6|2,1:2|3:0,0:0:0:0:
378,129,42593,37,2,0:0:0:0:
378,129,42690,2,0,P|309:145|284:163,1,60,8|0,1:0|0:0,0:0:0:0:
121,300,42884,5,2,3:0:0:0:
311,0,43077,2,0,P|246:67|210:196,1,180,6|0,1:2|0:0,0:0:0:0:
58,345,43464,38,0,P|0:321|16:236,1,120,6|0,1:2|0:0,0:0:0:0:
218,150,43755,2,0,P|226:212|144:240,1,120,2|0,0:2|0:0,0:0:0:0:
94,217,44045,2,0,P|52:199|11:195,1,60,2|0,3:0|0:0,0:0:0:0:
295,274,44238,5,0,1:0:0:0:
62,349,44432,2,0,P|103:338|152:342,1,60,2|0,3:0|0:0,0:0:0:0:
399,280,44626,38,0,P|453:248|434:171,1,120,6|2,1:2|3:0,0:0:0:0:
393,153,44916,1,2,0:0:0:0:
393,153,45013,2,0,L|315:182,1,60,0|0,1:0|0:0,0:0:0:0:
185,245,45206,2,0,L|95:219,1,60,2|0,3:0|0:0,0:0:0:0:
187,369,45400,5,0,1:0:0:0:
197,377,45496,1,2,3:2:0:0:
207,384,45593,2,0,L|231:305,1,60,2|0,3:0|0:0,0:0:0:0:
309,81,45787,2,0,L|328:14,1,60,0|0,1:0|0:0,0:0:0:0:
123,29,45980,37,2,3:0:0:0:
122,39,46077,1,2,3:2:0:0:
121,48,46174,2,0,L|196:124,1,60,0|2,1:0|3:2,0:0:0:0:
406,384,46367,1,2,3:0:0:0:
407,374,46464,1,2,3:2:0:0:
408,365,46561,2,0,L|333:289,1,60,0|2,1:0|3:2,0:0:0:0:
258,201,46755,5,2,3:0:0:0:
258,201,46948,1,6,1:2:0:0:
177,277,47142,5,2,0:0:0:0:
174,287,47206,1,2,0:0:0:0:
180,296,47271,1,2,0:0:0:0:
190,297,47335,2,0,P|215:285|243:277,1,48,2|2,0:0|0:0,0:0:0:0:
321,157,47529,21,6,3:2:0:0:
345,153,47626,1,2,0:0:0:0:
368,157,47722,1,2,0:0:0:0:
388,167,47819,1,2,0:0:0:0:
405,184,47916,1,2,0:0:0:0:
415,205,48013,1,2,0:0:0:0:
485,239,48109,5,6,3:2:0:0:
452,230,48206,1,2,0:0:0:0:
417,235,48303,1,2,0:0:0:0:
385,250,48400,1,2,0:0:0:0:
358,271,48496,1,2,0:0:0:0:
343,303,48593,1,2,0:0:0:0:
282,261,48690,38,0,P|275:229|260:203,1,48,6|0,3:2|0:0,0:0:0:0:
328,112,48884,37,2,0:0:0:0:
337,111,48948,1,2,0:0:0:0:
344,114,49013,1,2,0:0:0:0:
348,120,49077,2,0,P|328:150|308:157,1,48,2|2,0:0|0:0,0:0:0:0:
190,222,49271,5,6,3:2:0:0:
153,224,49367,1,2,0:0:0:0:
120,211,49464,1,2,0:0:0:0:
98,186,49561,1,2,0:0:0:0:
87,152,49658,1,2,0:0:0:0:
90,115,49755,1,2,0:0:0:0:
107,38,49851,5,6,3:2:0:0:
100,62,49948,1,2,0:0:0:0:
86,83,50045,1,2,0:0:0:0:
70,99,50142,1,2,0:0:0:0:
52,111,50238,1,2,0:0:0:0:
31,119,50335,1,2,0:0:0:0:
53,194,50432,38,0,P|79:203|111:230,1,48,6|2,3:2|0:0,0:0:0:0:
179,154,50626,2,0,P|215:144|241:126,1,48,2|2,0:0|0:0,0:0:0:0:
144,308,50819,2,0,P|155:267|168:245,1,48,2|2,0:0|0:0,0:0:0:0:
100,62,51013,21,6,3:2:0:0:
104,54,51077,1,2,0:0:0:0:
95,49,51142,1,2,0:0:0:0:
98,43,51206,21,2,0:0:0:0:
117,12,51303,1,2,0:0:0:0:
155,8,51400,2,0,P|183:21|197:48,1,48,2|2,0:0|0:0,0:0:0:0:
300,72,51593,5,6,3:2:0:0:
314,92,51690,1,2,0:0:0:0:
331,106,51787,1,2,0:0:0:0:
354,115,51884,1,2,0:0:0:0:
375,121,51980,1,2,0:0:0:0:
397,120,52077,1,2,0:0:0:0:
488,161,52174,37,6,3:2:0:0:
454,168,52271,1,2,0:0:0:0:
424,188,52367,1,2,0:0:0:0:
398,214,52464,1,2,0:0:0:0:
378,246,52561,1,2,0:0:0:0:
368,283,52658,1,2,0:0:0:0:
307,336,52755,6,0,P|318:363|324:398,1,48,6|2,3:2|0:0,0:0:0:0:
469,305,52948,2,0,P|439:327|425:349,1,48,2|2,0:0|0:0,0:0:0:0:
237,231,53142,2,0,P|269:242|296:271,1,48,2|2,0:0|0:0,0:0:0:0:
512,384,53335,37,6,3:2:0:0:
411,184,53529,37,2,0:0:0:0:
422,174,53593,1,2,0:0:0:0:
414,170,53658,1,2,0:0:0:0:
417,162,53722,2,0,P|405:132|391:112,1,48,2|2,0:0|0:0,0:0:0:0:
332,6,53916,5,6,3:2:0:0:
299,0,54013,1,2,0:0:0:0:
266,5,54109,1,2,0:0:0:0:
236,21,54206,1,2,0:0:0:0:
216,46,54303,1,2,0:0:0:0:
207,77,54400,1,2,0:0:0:0:
117,122,54496,5,6,3:2:0:0:
152,127,54593,1,2,0:0:0:0:
181,149,54690,1,2,0:0:0:0:
204,186,54787,1,2,0:0:0:0:
216,224,54884,1,2,0:0:0:0:
213,264,54980,1,2,0:0:0:0:
155,316,55077,38,0,P|120:304|97:285,1,48,6|2,3:2|0:0,0:0:0:0:
262,349,55271,2,0,P|292:336|327:330,1,48,2|2,0:0|0:0,0:0:0:0:
98,303,55464,2,0,P|67:266|61:242,1,48,2|2,0:0|0:0,0:0:0:0:
347,267,55658,21,6,3:2:0:0:
364,270,55722,1,2,0:0:0:0:
365,280,55787,1,2,0:0:0:0:
373,283,55851,2,0,P|402:306|420:333,1,48,2|2,0:0|0:0,0:0:0:0:
197,384,56045,21,2,0:0:0:0:
197,384,56142,1,2,0:0:0:0:
155,316,56238,2,0,P|167:281|189:251,1,53.9999983520508,6|2,1:2|0:0,0:0:0:0:
277,194,56432,37,2,3:3:0:0:
290,188,56496,1,2,3:2:0:0:
283,183,56561,1,2,3:2:0:0:
286,177,56626,2,0,P|277:141|259:115,1,53.9999983520508,2|2,1:2|0:0,0:0:0:0:
190,61,56819,5,2,0:3:0:0:
145,58,56916,1,2,0:0:0:0:
123,27,57013,1,0,1:0:0:0:
47,41,57109,5,2,0:0:0:0:
21,46,57206,1,2,0:3:0:0:
8,65,57303,1,2,0:0:0:0:
44,135,57400,38,0,P|78:130|104:109,1,53.9999983520508,6|0,1:2|0:0,0:0:0:0:
266,23,57593,1,2,0:3:0:0:
313,0,57690,1,2,0:0:0:0:
369,3,57787,1,0,1:0:0:0:
406,44,57884,1,2,0:0:0:0:
413,98,57980,1,2,0:3:0:0:
388,146,58077,1,2,0:0:0:0:
312,162,58174,21,2,1:2:0:0:
308,146,58238,1,2,3:2:0:0:
299,150,58303,1,2,3:2:0:0:
294,145,58367,2,0,P|256:127|239:125,1,53.9999983520508,2|2,3:3|0:0,0:0:0:0:
135,4,58561,22,0,P|142:30|144:57,1,53.9999983520508,6|2,1:2|0:0,0:0:0:0:
200,236,58755,1,2,0:3:0:0:
200,236,58851,2,0,P|191:208|187:180,1,53.9999983520508,2|0,0:0|1:0,0:0:0:0:
60,34,59045,5,2,0:0:0:0:
60,34,59142,1,2,0:3:0:0:
12,58,59238,1,2,0:0:0:0:
0,107,59335,1,0,1:0:0:0:
28,153,59432,1,2,0:0:0:0:
86,163,59529,1,2,0:3:0:0:
125,136,59626,1,2,0:0:0:0:
221,26,59722,37,6,1:2:0:0:
291,6,59819,1,2,0:0:0:0:
359,30,59916,1,2,0:3:0:0:
393,96,60013,1,2,0:0:0:0:
388,169,60109,1,0,1:0:0:0:
339,224,60206,1,2,0:0:0:0:
265,225,60303,37,2,3:0:0:0:
265,211,60367,1,2,3:2:0:0:
255,210,60432,1,2,3:2:0:0:
256,203,60496,2,0,P|237:168|224:150,1,53.9999983520508,2|2,1:2|0:0,0:0:0:0:
64,38,60690,6,0,P|82:72|95:90,1,53.9999983520508,2|2,0:3|0:0,0:0:0:0:
9,243,60884,6,0,P|36:201|51:190,1,53.9999983520508,6|2,1:2|0:0,0:0:0:0:
188,96,61077,5,2,3:0:0:0:
180,79,61142,1,2,3:2:0:0:
191,80,61206,1,2,3:2:0:0:
190,69,61271,2,0,P|208:49|220:25,1,53.9999983520508,0|2,1:0|0:0,0:0:0:0:
337,0,61464,21,2,0:3:0:0:
378,10,61561,1,2,0:0:0:0:
394,49,61658,1,0,1:0:0:0:
453,116,61755,5,2,0:0:0:0:
424,118,61851,1,2,0:3:0:0:
401,136,61948,1,2,0:0:0:0:
322,150,62045,38,0,P|328:106|350:88,1,53.9999983520508,6|2,1:2|0:0,0:0:0:0:
512,9,62238,1,2,0:3:0:0:
512,9,62335,2,0,P|485:35|457:44,1,53.9999983520508,2|0,0:0|1:0,0:0:0:0:
259,60,62529,1,2,0:0:0:0:
259,60,62626,2,0,P|228:38|214:12,1,53.9999983520508,2|2,0:3|0:0,0:0:0:0:
455,192,62819,37,2,1:2:0:0:
463,200,62884,1,2,3:2:0:0:
469,211,62948,1,2,3:2:0:0:
470,221,63013,2,0,P|430:240|403:240,1,53.9999983520508,2|2,3:3|0:0,0:0:0:0:
316,348,63206,5,6,1:2:0:0:
303,322,63303,1,2,0:0:0:0:
282,299,63400,1,2,0:3:0:0:
258,284,63496,1,2,0:0:0:0:
234,273,63593,1,0,1:0:0:0:
207,270,63690,1,2,0:0:0:0:
145,225,63787,5,2,0:3:0:0:
108,238,63884,1,2,0:0:0:0:
70,231,63980,1,0,1:0:0:0:
42,204,64077,1,2,0:0:0:0:
35,168,64174,1,2,0:3:0:0:
48,131,64271,1,2,0:0:0:0:
121,97,64367,38,0,P|155:87|208:52,1,53.9999983520508,6|2,1:2|0:0,0:0:0:0:
282,200,64561,1,2,0:3:0:0:
282,200,64658,2,0,P|242:185|201:181,1,53.9999983520508,2|0,0:0|1:0,0:0:0:0:
55,50,64851,5,2,3:2:0:0:
3,41,64948,5,2,3:0:0:0:
1,30,65013,1,2,3:2:0:0:
6,20,65077,1,2,3:2:0:0:
16,16,65142,2,0,P|47:34|65:58,1,53.9999983520508,2|2,1:2|0:0,0:0:0:0:
351,159,65335,37,2,1:3:0:0:
423,144,65432,1,2,3:2:0:0:
462,81,65529,1,6,1:2:0:0:
87,323,74819,38,0,P|124:298|190:278,1,107.999996704102,6|2,1:2|0:3,0:0:0:0:
266,298,75109,1,2,0:0:0:0:
266,298,75206,2,0,P|299:270|308:237,1,53.9999983520508,0|0,1:0|0:0,0:0:0:0:
128,178,75400,6,0,P|175:200|192:217,1,53.9999983520508,2|0,0:3|0:0,0:0:0:0:
320,384,75593,1,0,1:0:0:0:
320,384,75690,1,2,0:0:0:0:
320,384,75787,1,2,0:3:0:0:
71,381,75980,38,0,P|84:338|107:313,1,53.9999983520508,0|0,1:0|0:0,0:0:0:0:
263,194,76174,1,2,0:3:0:0:
292,184,76271,1,2,0:0:0:0:
309,153,76367,1,0,1:0:0:0:
216,60,76561,5,2,0:3:0:0:
174,332,76755,1,0,1:0:0:0:
174,332,76851,1,2,0:0:0:0:
174,332,76948,2,0,L|184:278,1,53.9999983520508,2|0,0:3|0:0,0:0:0:0:
108,77,77142,38,0,P|130:106|137:154,1,53.9999983520508,0|0,1:0|0:0,0:0:0:0:
270,273,77335,1,2,0:3:0:0:
270,273,77432,1,2,0:0:0:0:
270,273,77529,2,0,P|280:297|297:318,1,53.9999983520508,0|0,1:0|0:0,0:0:0:0:
85,234,77722,5,2,0:3:0:0:
325,149,77916,1,0,1:0:0:0:
85,234,78109,1,2,0:3:0:0:
399,246,78303,38,0,L|317:223,1,53.9999983520508,0|0,1:0|0:0,0:0:0:0:
2,144,78496,2,0,L|84:167,1,53.9999983520508,2|0,0:3|0:0,0:0:0:0:
270,273,78690,21,2,1:2:0:0:
270,288,78755,1,2,3:2:0:0:
280,286,78819,1,2,3:2:0:0:
281,295,78884,1,2,3:0:0:0:
130,141,79077,5,2,1:2:0:0:
135,126,79142,1,2,3:2:0:0:
143,132,79206,1,2,3:2:0:0:
147,124,79271,1,2,3:0:0:0:
503,105,79464,6,0,P|440:120|392:163,1,107.999996704102,6|2,1:2|0:3,0:0:0:0:
374,215,79755,1,2,0:0:0:0:
374,215,79851,1,0,1:0:0:0:
306,63,80045,5,2,0:3:0:0:
306,63,80142,1,2,0:0:0:0:
306,63,80238,2,0,P|323:85|327:136,1,53.9999983520508,0|0,1:0|0:0,0:0:0:0:
295,235,80432,1,2,0:3:0:0:
449,11,80626,38,0,P|423:30|396:85,1,53.9999983520508,0|0,1:0|0:0,0:0:0:0:
291,239,80819,1,2,0:3:0:0:
255,255,80916,1,2,0:0:0:0:
219,244,81013,2,0,P|197:218|189:170,1,53.9999983520508,0|0,1:0|0:0,0:0:0:0:
363,295,81206,5,2,0:3:0:0:
206,109,81400,1,0,1:0:0:0:
167,88,81496,1,2,0:0:0:0:
119,102,81593,2,0,P|99:142|107:193,1,53.9999983520508,2|0,0:3|0:0,0:0:0:0:
155,381,81787,37,0,1:0:0:0:
141,311,81980,1,2,0:3:0:0:
141,311,82077,1,2,0:0:0:0:
141,311,82174,1,0,1:0:0:0:
0,216,82367,5,2,0:3:0:0:
224,334,82561,1,2,1:2:0:0:
258,319,82658,1,2,3:2:0:0:
295,303,82755,1,2,3:0:0:0:
330,288,82851,1,2,3:2:0:0:
365,220,82948,38,0,B|364:194|364:194|340:170,1,53.9999983520508,0|0,1:0|0:0,0:0:0:0:
196,224,83142,2,0,L|298:253,1,53.9999983520508,2|0,3:0|0:0,0:0:0:0:
408,289,83335,21,2,1:2:0:0:
421,286,83400,1,2,3:2:0:0:
422,294,83464,1,2,3:2:0:0:
429,296,83529,2,0,P|437:326|440:371,1,53.9999983520508,2|2,3:0|0:0,0:0:0:0:
497,113,83722,5,2,1:2:0:0:
484,116,83787,1,2,3:2:0:0:
483,108,83851,1,2,3:2:0:0:
476,106,83916,2,0,P|468:76|465:31,1,53.9999983520508,2|2,3:0|0:0,0:0:0:0:
512,227,84109,6,0,P|447:192|366:171,1,107.999996704102,6|2,1:2|0:3,0:0:0:0:
380,114,84400,1,2,0:0:0:0:
380,114,84496,1,0,1:0:0:0:
252,273,84690,6,0,P|266:244|305:208,1,53.9999983520508,2|0,0:3|0:0,0:0:0:0:
465,53,84884,1,0,1:0:0:0:
486,31,84980,1,2,0:0:0:0:
486,0,85077,1,2,0:3:0:0:
217,33,85271,38,0,P|279:74|316:129,1,107.999996704102,2|2,1:2|0:3,0:0:0:0:
372,261,85561,1,2,0:0:0:0:
372,261,85658,2,0,P|395:293|444:324,1,53.9999983520508,0|0,1:0|0:0,0:0:0:0:
347,185,85851,5,2,0:3:0:0:
347,185,85948,1,2,0:0:0:0:
347,185,86045,1,0,1:0:0:0:
347,185,86142,1,2,0:0:0:0:
347,185,86238,2,0,P|400:174|425:163,1,53.9999983520508,2|0,0:3|0:0,0:0:0:0:
174,235,86432,2,0,P|111:251|51:279,1,107.999996704102,0|2,1:0|0:3,0:0:0:0:
7,222,86722,37,2,0:0:0:0:
7,222,86819,2,0,P|19:181|54:169,1,53.9999983520508,0|0,1:0|0:0,0:0:0:0:
260,205,87013,1,2,0:3:0:0:
512,0,87206,6,0,P|443:0|408:19,1,107.999996704102,0|2,1:0|0:3,0:0:0:0:
263,208,87496,1,2,0:0:0:0:
290,234,87593,2,0,P|309:281|325:364,1,107.999996704102,2|0,1:2|0:0,0:0:0:0:
144,143,87884,37,2,0:0:0:0:
171,162,87980,21,2,1:2:0:0:
188,155,88045,1,2,3:2:0:0:
183,144,88109,1,2,3:2:0:0:
190,141,88174,2,0,P|200:103|197:62,1,53.9999983520508,2|2,3:0|0:0,0:0:0:0:
195,262,88367,5,2,1:2:0:0:
180,250,88432,1,2,3:2:0:0:
173,260,88496,1,2,3:2:0:0:
167,256,88561,2,0,P|129:265|95:289,1,53.9999983520508,2|2,3:0|0:0,0:0:0:0:
304,136,88755,6,0,P|368:175|429:190,1,107.999996704102,6|2,1:2|0:3,0:0:0:0:
446,253,89045,1,2,0:0:0:0:
446,253,89142,2,0,P|462:223|506:186,1,53.9999983520508,0|0,1:0|0:0,0:0:0:0:
506,82,89335,5,2,0:3:0:0:
502,42,89432,1,2,0:0:0:0:
473,18,89529,1,0,1:0:0:0:
434,12,89626,1,2,0:0:0:0:
401,28,89722,1,2,0:3:0:0:
294,224,89916,38,0,P|355:194|407:187,1,107.999996704102,0|2,1:0|0:3,0:0:0:0:
455,135,90206,1,2,0:0:0:0:
455,135,90303,1,0,1:0:0:0:
512,380,90496,6,0,P|496:343|464:317,1,53.9999983520508,2|0,0:3|0:0,0:0:0:0:
291,227,90690,1,0,1:0:0:0:
251,210,90787,1,2,0:0:0:0:
239,167,90884,1,2,0:3:0:0:
446,0,91077,37,0,1:0:0:0:
446,0,91174,1,2,0:0:0:0:
446,0,91271,2,0,P|428:37|419:79,1,53.9999983520508,2|0,0:3|0:0,0:0:0:0:
402,355,91464,5,2,1:2:0:0:
395,324,91561,1,2,0:2:0:0:
389,295,91658,1,2,0:3:0:0:
384,266,91755,1,2,0:0:0:0:
437,206,91851,37,2,1:2:0:0:
444,199,91948,1,2,0:2:0:0:
451,193,92045,2,0,L|467:126,1,53.9999983520508,2|0,0:3|0:0,0:0:0:0:
317,15,92238,5,2,1:2:0:0:
487,384,92529,37,2,3:2:0:0:
508,359,92626,21,2,0:0:0:0:
504,342,92690,1,2,0:0:0:0:
490,341,92755,1,2,0:0:0:0:
487,333,92819,1,2,3:0:0:0:
356,180,93013,5,2,0:0:0:0:
360,163,93077,1,2,0:0:0:0:
374,162,93142,1,2,0:0:0:0:
377,154,93206,1,2,3:0:0:0:
512,240,93400,6,0,P|431:256|319:333,1,188.999994232178,6|0,1:0|0:3,0:0:0:0:
238,255,93787,2,0,P|275:251|331:228,1,62.9999980773926,8|0,1:0|0:0,0:0:0:0:
443,117,93980,5,2,0:3:0:0:
236,384,94174,1,0,1:0:0:0:
236,384,94271,1,2,0:0:0:0:
236,384,94367,2,0,P|259:334|305:307,1,62.9999980773926,2|0,3:0|0:0,0:0:0:0:
265,140,94561,38,0,P|238:104|228:55,1,62.9999980773926,0|0,1:0|0:0,0:0:0:0:
398,335,94755,2,0,P|371:319|341:311,1,62.9999980773926,2|0,3:3|0:0,0:0:0:0:
45,313,94948,5,0,1:0:0:0:
89,317,95045,1,2,0:0:0:0:
122,282,95142,1,2,3:0:0:0:
256,15,95335,37,2,1:2:0:0:
308,0,95432,1,2,0:0:0:0:
356,23,95529,1,2,3:0:0:0:
375,75,95626,1,2,0:0:0:0:
357,128,95722,5,6,1:2:0:0:
201,170,95916,1,2,3:0:0:0:
43,92,96109,38,0,L|131:109,1,62.9999980773926,2|0,1:2|0:0,0:0:0:0:
451,175,96303,1,2,3:0:0:0:
288,22,96496,5,2,1:2:0:0:
288,22,96593,1,2,0:0:0:0:
288,22,96690,1,2,3:0:0:0:
122,179,96884,1,0,1:0:0:0:
219,383,97077,1,2,3:0:0:0:
364,208,97271,37,0,1:0:0:0:
364,208,97367,1,2,0:0:0:0:
364,208,97464,2,0,P|311:190|277:169,1,62.9999980773926,2|0,3:0|0:0,0:0:0:0:
99,56,97658,6,0,P|144:71|196:112,1,62.9999980773926,4|0,1:3|0:0,0:0:0:0:
418,271,97851,1,10,3:3:0:0:
441,310,97948,1,2,3:2:0:0:
424,347,98045,37,6,1:2:0:0:
352,372,98238,1,2,3:0:0:0:
327,302,98432,1,8,1:0:0:0:
512,0,98626,5,2,3:0:0:0:
491,77,98819,1,0,1:0:0:0:
491,77,98916,1,2,0:0:0:0:
491,77,99013,1,2,3:0:0:0:
0,190,99206,37,2,1:2:0:0:
0,190,99303,1,2,0:0:0:0:
0,190,99400,1,2,3:0:0:0:
30,258,99593,1,0,1:0:0:0:
67,269,99690,1,2,0:0:0:0:
103,281,99787,1,2,3:0:0:0:
139,292,99884,1,2,0:0:0:0:
193,233,99980,5,0,1:0:0:0:
205,229,100077,1,2,0:0:0:0:
216,224,100174,1,2,3:0:0:0:
227,220,100271,1,2,0:0:0:0:
298,210,100367,38,0,P|247:300|233:414,1,188.999994232178,6|0,1:2|0:0,0:0:0:0:
154,98,100755,2,0,P|191:128|216:169,1,62.9999980773926,0|0,1:0|0:0,0:0:0:0:
478,332,100948,6,0,P|416:288|343:280,1,125.999996154785,6|0,3:2|0:0,0:0:0:0:
98,382,101238,1,2,0:0:0:0:
98,382,101335,2,0,P|135:354|161:318,1,62.9999980773926,2|0,3:0|0:0,0:0:0:0:
274,22,101529,38,0,L|303:257,1,188.999994232178,6|0,1:2|0:0,0:0:0:0:
367,279,101916,5,2,1:2:0:0:
402,273,102013,1,2,3:2:0:0:
424,246,102109,1,2,3:0:0:0:
423,207,102206,1,2,3:2:0:0:
455,138,102303,37,2,1:2:0:0:
423,119,102400,1,2,3:2:0:0:
459,126,102496,1,2,3:0:0:0:
417,131,102593,1,2,3:2:0:0:
322,116,102690,6,0,P|420:94|513:31,1,188.999994232178,6|0,1:0|0:0,0:0:0:0:
239,184,103077,2,0,P|288:203|318:227,1,62.9999980773926,8|0,1:0|0:0,0:0:0:0:
449,335,103271,38,0,P|425:266|427:236,1,62.9999980773926,2|0,3:0|0:0,0:0:0:0:
419,53,103464,1,0,1:0:0:0:
419,53,103561,1,2,0:0:0:0:
419,53,103658,1,2,3:0:0:0:
216,263,103851,5,0,1:0:0:0:
512,152,104045,1,2,3:0:0:0:
216,263,104238,1,0,1:0:0:0:
175,251,104335,1,2,0:0:0:0:
159,211,104432,1,2,3:0:0:0:
426,276,104626,37,0,1:0:0:0:
391,245,104722,1,2,0:0:0:0:
341,246,104819,1,2,3:0:0:0:
307,282,104916,1,2,0:0:0:0:
304,329,105013,5,6,1:2:0:0:
392,360,105206,1,2,3:0:0:0:
123,32,105400,37,2,1:2:0:0:
212,0,105593,1,2,3:0:0:0:
480,93,105787,5,0,1:0:0:0:
480,93,105884,1,2,0:0:0:0:
480,93,105980,1,2,3:0:0:0:
389,357,106174,1,0,1:0:0:0:
125,266,106367,1,2,3:0:0:0:
216,2,106561,38,0,P|228:45|229:95,1,62.9999980773926,6|0,1:2|0:0,0:0:0:0:
185,352,106755,2,0,P|200:310|229:269,1,62.9999980773926,2|0,3:0|0:0,0:0:0:0:
415,87,106948,2,0,P|377:111|330:128,1,62.9999980773926,4|0,1:3|0:0,0:0:0:0:
0,146,107142,5,10,3:0:0:0:
0,146,107238,1,2,0:0:0:0:
0,146,107335,2,0,P|44:147|156:187,1,125.999996154785,6|2,1:2|3:0,0:0:0:0:
285,31,107626,37,2,0:2:0:0:
285,31,107722,2,0,P|246:50|222:83,1,62.9999980773926,8|0,1:0|0:0,0:0:0:0:
201,356,107916,6,0,P|209:295|194:252,1,62.9999980773926,2|0,3:0|0:0,0:0:0:0:
88,26,108109,38,0,P|126:109|234:187,1,188.999994232178,6|0,1:2|0:0,0:0:0:0:
339,186,108496,5,0,1:0:0:0:
50,313,108690,1,2,3:0:0:0:
50,313,108787,1,2,0:0:0:0:
50,313,108884,2,0,P|83:282|118:267,1,62.9999980773926,0|0,1:0|0:0,0:0:0:0:
383,384,109077,38,0,P|336:363|301:325,1,62.9999980773926,2|0,3:0|0:0,0:0:0:0:
198,171,109271,1,0,1:0:0:0:
174,128,109367,1,2,0:0:0:0:
128,111,109464,1,2,3:0:0:0:
201,356,109658,6,0,P|222:279|252:224,1,125.999996154785,6|2,1:2|3:0,0:0:0:0:
278,172,109948,1,2,0:0:0:0:
278,172,110045,2,0,P|321:162|365:128,1,62.9999980773926,0|0,1:0|0:0,0:0:0:0:
42,247,110238,38,0,P|89:266|119:306,1,62.9999980773926,2|0,3:0|0:0,0:0:0:0:
322,384,110432,1,2,1:2:0:0:
382,382,110529,1,2,3:2:0:0:
416,337,110626,1,2,3:0:0:0:
412,281,110722,1,2,3:2:0:0:
346,245,110819,5,2,1:2:0:0:
346,245,110916,1,2,3:0:0:0:
346,245,111013,2,0,P|299:257|262:281,1,62.9999980773926,2|0,3:0|0:0,0:0:0:0:
77,380,111206,37,2,1:2:0:0:
42,384,111303,1,2,3:2:0:0:
9,363,111400,1,2,3:0:0:0:
0,327,111496,1,2,3:2:0:0:
37,258,111593,6,0,P|53:261|100:302,1,62.9999980773926,2|2,1:2|3:2,0:0:0:0:
204,384,111787,37,2,3:0:0:0:
154,0,111980,5,6,1:0:0:0:
154,0,112174,1,2,0:3:0:0:
18,12,112367,37,0,1:0:0:0:
47,16,112464,1,2,0:0:0:0:
71,30,112561,1,2,3:0:0:0:
84,56,112658,1,2,0:0:0:0:
96,140,112755,22,0,P|125:145|155:131,1,64,2|0,1:2|3:0,0:0:0:0:
162,126,112948,2,0,P|174:83|184:64,1,48,2|0,3:0|0:0,0:0:0:0:
21,172,113142,6,0,P|37:209|43:254,1,64,6|0,1:2|3:0,0:0:0:0:
52,237,113335,2,0,P|80:229|101:202,1,48,0|2,3:0|0:0,0:0:0:0:
236,39,113529,38,0,P|259:55|278:98,1,64,0|2,1:0|3:2,0:0:0:0:
279,99,113722,21,2,3:0:0:0:
318,108,113819,1,2,3:2:0:0:
349,79,113916,2,0,P|356:46|372:9,1,48,0|0,1:0|0:0,0:0:0:0:
230,226,114109,6,0,P|235:237|242:292,1,48,2|0,3:0|0:0,0:0:0:0:
199,348,114303,6,0,P|244:365|277:390,1,64,6|0,1:2|3:0,0:0:0:0:
269,377,114496,2,0,P|302:368|327:352,1,48,0|0,3:0|0:0,0:0:0:0:
398,302,114690,38,0,P|365:288|332:270,1,48,0|0,1:0|0:0,0:0:0:0:
164,165,114884,1,2,3:0:0:0:
126,178,114980,1,2,3:2:0:0:
115,220,115077,22,0,P|125:250|170:278,1,64,2|0,1:2|3:0,0:0:0:0:
148,279,115271,2,0,P|117:295|103:308,1,48,2|0,3:0|0:0,0:0:0:0:
2,384,115464,5,6,1:2:0:0:
347,203,115658,1,2,3:0:0:0:
37,313,115851,21,2,1:2:0:0:
21,312,115916,1,2,3:2:0:0:
18,302,115980,1,2,3:2:0:0:
10,302,116045,2,0,P|2:265|-11:229,1,48,2|0,3:0|0:0,0:0:0:0:
307,136,116238,5,2,1:2:0:0:
291,137,116303,1,2,3:2:0:0:
288,147,116367,1,2,3:2:0:0:
280,147,116432,2,0,P|272:184|259:220,1,48,2|0,3:0|0:0,0:0:0:0:
170,382,116626,6,0,P|164:320|151:266,1,96,6|2,1:2|3:0,0:0:0:0:
105,228,116916,1,2,3:2:0:0:
80,208,117013,2,0,P|71:171|73:136,1,48,0|0,1:0|0:0,0:0:0:0:
19,384,117206,5,2,3:0:0:0:
17,341,117303,1,2,3:2:0:0:
54,316,117400,6,0,P|94:310|135:330,1,64,2|0,1:2|3:0,0:0:0:0:
123,318,117593,2,0,P|149:300|160:269,1,48,2|0,3:0|0:0,0:0:0:0:
203,138,117787,6,0,P|187:187|190:226,1,64,6|0,1:2|3:0,0:0:0:0:
192,207,117980,2,0,P|213:223|257:227,1,48,2|0,3:0|0:0,0:0:0:0:
263,322,118174,2,0,P|307:300|342:296,1,64,0|0,1:0|3:0,0:0:0:0:
325,288,118367,5,0,3:0:0:0:
366,265,118464,1,2,3:2:0:0:
402,287,118561,2,0,P|399:314|380:349,1,48,2|0,1:2|0:0,0:0:0:0:
150,353,118755,5,2,3:0:0:0:
103,369,118851,1,2,3:2:0:0:
63,342,118948,2,0,P|69:274|132:119,1,192,6|0,1:2|1:0,0:0:0:0:
467,200,119529,2,0,P|501:289|512:384,1,192,6|0,1:2|1:0,0:0:0:0:
512,384,120013,1,2,3:2:0:0:
512,384,120109,1,2,1:2:0:0:
307,32,120303,37,2,3:0:0:0:
167,210,120496,21,2,1:2:0:0:
181,211,120561,1,2,3:2:0:0:
184,204,120626,1,2,3:2:0:0:
191,204,120690,1,2,3:0:0:0:
401,234,120884,5,2,1:2:0:0:
387,230,120949,1,2,3:2:0:0:
387,222,121014,1,2,3:2:0:0:
380,220,121078,1,2,3:0:0:0:
319,384,121271,38,0,P|316:345|300:301,1,71.9999978027344,6|0,1:2|0:0,0:0:0:0:
315,299,121464,2,0,P|301:267|270:233,1,71.9999978027344,2|0,3:0|0:0,0:0:0:0:
186,220,121658,6,0,P|170:191|165:143,1,71.9999978027344,0|0,1:0|3:0,0:0:0:0:
157,151,121851,2,0,P|159:108|173:85,1,53.9999983520508,2|2,3:0|3:2,0:0:0:0:
237,31,122045,37,2,1:2:0:0:
241,16,122109,1,2,3:2:0:0:
252,21,122174,1,2,3:2:0:0:
257,15,122238,1,2,3:0:0:0:
320,143,122432,38,0,P|283:128|261:98,1,53.9999983520508,6|2,1:2|0:0,0:0:0:0:
146,18,122626,2,0,P|114:30|94:50,1,53.9999983520508,2|2,3:0|0:0,0:0:0:0:
0,81,122819,37,6,1:2:0:0:
0,117,122916,1,2,3:2:0:0:
17,149,123013,1,2,3:0:0:0:
44,171,123109,1,2,3:2:0:0:
79,183,123206,1,2,1:2:0:0:
115,173,123303,1,2,3:2:0:0:
145,149,123400,1,2,3:0:0:0:
162,117,123496,1,2,3:2:0:0:
237,36,123593,5,6,1:2:0:0:
302,1,123690,1,2,3:2:0:0:
372,16,123787,1,2,3:0:0:0:
411,79,123884,1,2,3:2:0:0:
400,151,123980,1,2,1:2:0:0:
341,195,124077,1,2,3:2:0:0:
282,278,124174,38,0,P|274:309|276:363,1,53.9999983520508,2|0,3:0|0:0,0:0:0:0:
231,92,124367,2,0,P|239:61|237:7,1,53.9999983520508,0|0,1:0|0:0,0:0:0:0:
138,369,124561,5,2,3:0:0:0:
372,16,124755,2,0,P|427:29|443:88,1,107.999996704102,6|2,1:2|3:0,0:0:0:0:
146,257,125142,5,2,1:2:0:0:
130,256,125206,1,2,3:2:0:0:
126,246,125271,1,2,3:2:0:0:
119,246,125335,1,2,3:0:0:0:
256,161,125529,5,2,1:2:0:0:
272,160,125593,1,2,3:2:0:0:
276,150,125658,1,2,3:2:0:0:
283,150,125722,1,2,3:0:0:0:
474,317,125916,6,0,P|410:290|355:279,1,107.999996704102,6|2,1:2|3:0,0:0:0:0:
310,235,126206,1,2,3:2:0:0:
284,268,126303,2,0,P|261:274|202:270,1,53.9999983520508,0|0,1:0|0:0,0:0:0:0:
299,384,126496,6,0,P|312:319|412:194,1,215.999993408203,2|2,3:0|3:0,0:0:0:0:
26,125,127077,37,6,1:2:0:0:
26,125,127174,1,2,3:2:0:0:
26,125,127271,2,0,P|57:137|85:175,1,53.9999983520508,2|0,3:0|0:0,0:0:0:0:
198,188,127464,22,0,P|155:155|147:125,1,71.9999978027344,2|0,1:2|3:0,0:0:0:0:
147,133,127658,2,0,P|164:120|188:77,1,53.9999983520508,2|0,3:0|0:0,0:0:0:0:
126,320,127851,38,0,P|119:255|96:187,1,107.999996704102,2|2,1:2|3:0,0:0:0:0:
90,77,128142,1,2,3:2:0:0:
59,54,128238,2,0,P|50:22|49:-9,1,53.9999983520508,6|0,1:2|0:0,0:0:0:0:
0,264,128432,38,0,P|11:238|42:208,1,53.9999983520508,2|0,3:0|0:0,0:0:0:0:
242,148,128626,1,0,1:0:0:0:
286,124,128722,1,2,3:2:0:0:
296,73,128819,1,2,3:0:0:0:
0,109,129013,5,2,1:2:0:0:
50,88,129110,1,2,3:2:0:0:
101,110,129206,1,2,3:0:0:0:
120,160,129303,1,2,3:2:0:0:
107,214,129400,2,0,P|88:291|85:359,1,107.999996704102,6|2,1:2|3:0,0:0:0:0:
166,43,129787,5,2,1:2:0:0:
181,36,129851,1,2,3:2:0:0:
178,29,129916,1,2,3:2:0:0:
184,26,129980,1,2,3:0:0:0:
22,212,130174,5,2,1:2:0:0:
7,205,130238,1,2,3:2:0:0:
10,198,130303,1,2,3:2:0:0:
4,195,130367,1,2,3:0:0:0:
509,379,131335,6,0,P|460:340|397:319,1,120,6|0,3:2|0:0,0:0:0:0:
332,307,131915,2,0,P|398:284|443:230,1,120,6|0,3:2|0:0,0:0:0:0:
512,150,132496,2,0,P|499:196|502:233,1,60,6|0,3:2|0:0,0:0:0:0:
498,207,132883,1,2,0:0:0:0:
309,376,133076,5,6,3:2:0:0:
278,365,133270,1,2,0:0:0:0:
266,338,133464,1,2,0:0:0:0:
366,174,133657,38,0,P|360:140|342:106,1,60,6|2,3:2|0:0,0:0:0:0:
283,81,134044,1,2,0:0:0:0:
156,190,134238,6,0,P|188:201|226:203,1,60,6|2,3:2|0:0,0:0:0:0:
278,164,134625,1,2,0:0:0:0:
248,0,134818,38,0,P|221:22|201:54,1,60,6|2,3:2|0:0,0:0:0:0:
208,118,135205,1,2,0:0:0:0:
512,384,135399,6,0,P|498:329|453:264,1,120,6|2,3:2|0:0,0:0:0:0:
442,201,135980,37,6,3:2:0:0:
427,183,136173,1,2,0:0:0:0:
404,184,136367,1,2,0:0:0:0:
415,203,136560,1,6,3:2:0:0:
315,304,136754,5,2,0:2:0:0:
323,292,136947,1,2,0:0:0:0:
337,294,137141,1,6,3:2:0:0:
330,305,137334,1,2,0:2:0:0:
395,384,137528,38,0,P|401:347|411:323,1,60,2|6,0:0|3:2,0:0:0:0:
320,199,137915,2,0,P|314:162|304:138,1,60,2|2,0:0|0:2,0:0:0:0:
389,1,138302,6,0,P|448:12|451:87,1,120,6|2,3:2|0:0,0:0:0:0:
234,178,138883,2,0,P|214:121|277:81,1,120,6|2,3:2|0:0,0:0:0:0:
417,184,139464,2,0,P|399:232|399:255,1,60,6|0,3:2|0:0,0:0:0:0:
398,240,139851,1,2,0:0:0:0:
189,346,140044,37,6,3:2:0:0:
156,354,140238,1,2,0:0:0:0:
130,375,140431,1,2,0:0:0:0:
11,240,140625,6,0,P|60:250|109:293,1,96,6|0,3:2|3:0,0:0:0:0:
96,276,140915,1,2,0:0:0:0:
96,276,141012,1,2,3:2:0:0:
198,124,141205,38,0,P|175:136|148:182,1,48,6|0,3:2|0:0,0:0:0:0:
49,347,141399,1,2,3:2:0:0:
49,347,141593,1,2,3:2:0:0:
293,384,141786,6,0,P|276:349|241:320,1,48,6|0,3:2|0:0,0:0:0:0:
42,163,141980,1,2,3:2:0:0:
42,163,142173,1,2,3:2:0:0:
363,146,142367,38,0,P|401:135|430:116,1,48,6|0,3:2|0:0,0:0:0:0:
312,204,142560,2,0,P|283:175|252:160,1,48,2|0,3:2|0:0,0:0:0:0:
386,223,142754,2,0,P|375:261|378:296,1,48,2|0,3:2|0:0,0:0:0:0:
160,151,142947,6,0,P|155:102|134:39,1,96,6|2,3:2|3:2,0:0:0:0:
142,57,143238,1,2,0:0:0:0:
142,57,143335,1,2,3:2:0:0:
228,0,143528,38,0,P|252:18|252:60,1,48,6|0,3:2|0:0,0:0:0:0:
119,223,143722,1,2,3:2:0:0:
119,223,143915,1,2,3:2:0:0:
319,163,144109,6,0,P|291:174|255:153,1,48,6|0,3:2|0:0,0:0:0:0:
0,0,144303,1,2,3:2:0:0:
0,0,144496,1,2,3:2:0:0:
27,216,144689,38,0,P|30:186|66:165,1,48,6|0,3:2|0:0,0:0:0:0:
398,21,144883,1,2,3:2:0:0:
398,21,145076,1,2,3:2:0:0:
0,0,145270,6,0,P|51:23|97:78,1,96,6|0,3:2|3:0,0:0:0:0:
171,33,145560,1,2,0:0:0:0:
165,70,145657,2,0,P|177:100|211:133,1,48,2|0,3:2|0:0,0:0:0:0:
9,206,145851,38,0,P|21:185|59:170,1,48,6|0,3:2|0:0,0:0:0:0:
244,62,146044,2,0,P|286:99|274:152,1,96,2|2,3:2|3:2,0:0:0:0:
164,353,146335,5,2,0:0:0:0:
164,353,146431,2,0,P|163:314|134:193,2,144,6|2|6,3:2|0:0|3:2,0:0:0:0:
0,108,147205,2,0,P|4:63|24:4,1,96,2|2,3:2|3:2,0:0:0:0:
466,216,147593,38,0,P|397:178|315:163,1,144,6|0,3:2|0:0,0:0:0:0:
333,164,147980,1,2,3:2:0:0:
271,204,148173,1,6,3:2:0:0:
182,156,148367,5,2,3:2:0:0:
165,127,148464,1,2,3:2:0:0:
120,120,148560,1,2,3:2:0:0:
73,158,148657,1,2,3:2:0:0:
82,230,148754,2,0,P|92:264|92:308,1,48,6|0,3:2|0:0,0:0:0:0:
289,90,148947,37,2,3:2:0:0:
289,90,149044,1,2,3:2:0:0:
289,90,149141,2,0,P|269:110|257:171,1,53.9999983520508,2|0,3:2|0:0,0:0:0:0:
5,14,149334,6,0,P|29:34|49:96,1,60,6|0,3:2|0:0,0:0:0:0:
470,209,149528,38,0,P|426:217|388:243,1,66.0000020141602,2|0,3:2|0:0,0:0:0:0:
0,384,149722,6,0,P|23:349|74:309,1,71.9999978027344,2|0,3:2|0:0,0:0:0:0:
448,68,149915,38,2,P|378:190|346:316,1,233.999989288331,6|0,1:0|0:0,0:1:0:0:
512,384,150302,2,0,P|495:343|435:303,1,77.9999964294435,8|0,1:0|0:0,0:0:0:0:
228,287,150496,5,6,3:2:0:0:
183,279,150593,1,2,3:2:0:0:
154,236,150689,2,0,P|172:184|235:167,1,77.9999964294435,2|0,1:2|0:0,0:0:0:0:
386,110,150883,2,0,P|446:80|450:33,1,77.9999964294435,2|0,3:0|0:0,0:0:0:0:
99,21,151076,38,0,P|187:35|185:142,1,155.999992858887,6|2,1:2|3:0,0:0:0:0:
271,216,151367,1,2,3:2:0:0:
271,216,151464,2,0,P|287:146|325:105,1,77.9999964294435,2|0,1:2|0:0,0:0:0:0:
511,3,151657,5,6,3:2:0:0:
124,207,151851,1,2,1:2:0:0:
124,207,151947,1,2,3:2:0:0:
124,207,152044,2,0,P|166:195|192:167,1,77.9999964294435,2|0,3:0|0:0,0:0:0:0:
406,3,152238,37,6,1:0:0:0:
491,274,152431,1,2,3:0:0:0:
219,359,152625,1,2,1:2:0:0:
133,87,152818,1,6,3:2:0:0:
432,184,153012,5,2,1:2:0:0:
432,184,153109,1,2,3:2:0:0:
432,184,153205,2,0,P|375:176|331:157,1,77.9999964294435,2|0,3:0|0:0,0:0:0:0:
47,192,153399,2,0,P|104:200|148:219,1,77.9999964294435,6|0,1:2|0:0,0:0:0:0:
512,323,153593,38,0,P|466:287|438:249,1,77.9999964294435,2|0,3:0|0:0,0:0:0:0:
0,64,153786,1,2,1:2:0:0:
0,64,153883,1,2,3:2:0:0:
0,64,153980,2,0,P|45:99|73:137,1,77.9999964294435,6|0,3:2|0:0,0:0:0:0:
247,384,154173,5,4,1:3:0:0:
272,0,154367,37,10,3:0:0:0:
247,384,154560,6,0,P|251:332|262:287,1,77.9999964294435,6|0,1:0|0:0,0:0:0:0:
442,43,154754,1,2,3:0:0:0:
481,54,154851,1,2,3:2:0:0:
488,95,154947,2,0,P|459:126|390:132,1,77.9999964294435,8|0,1:0|0:0,0:0:0:0:
118,39,155141,38,0,P|151:59|171:101,1,77.9999964294435,6|0,3:2|0:0,0:0:0:0:
339,325,155334,1,2,1:2:0:0:
381,313,155431,1,2,3:2:0:0:
389,271,155528,2,0,P|355:241|302:235,1,77.9999964294435,2|0,3:0|0:0,0:0:0:0:
0,314,155722,5,6,1:2:0:0:
24,340,155818,1,2,3:2:0:0:
57,336,155915,2,0,P|92:284|133:254,1,77.9999964294435,2|0,3:0|0:0,0:0:0:0:
364,38,156109,37,2,1:2:0:0:
373,78,156205,1,2,3:2:0:0:
344,112,156302,2,0,P|292:93|269:67,1,77.9999964294435,6|0,3:2|0:0,0:0:0:0:
1,44,156496,6,0,P|36:23|86:18,1,77.9999964294435,2|0,1:2|0:0,0:0:0:0:
459,74,156689,37,2,3:0:0:0:
487,120,156786,1,2,3:2:0:0:
442,147,156883,2,2,P|346:157|308:309,1,233.999989288331,6|0,1:0|0:0,0:1:0:0:
463,70,157270,2,0,P|403:48|369:5,1,77.9999964294435,2|0,1:2|0:0,0:0:0:0:
150,372,157464,6,2,P|244:324|391:303,1,233.999989288331,6|0,3:2|0:0,0:1:0:0:
410,241,157851,2,0,P|453:264|487:310,1,77.9999964294435,2|0,3:0|0:0,0:0:0:0:
495,374,158044,38,2,P|413:297|348:177,1,233.999989288331,6|0,1:2|0:0,0:1:0:0:
150,372,158431,5,2,1:2:0:0:
214,338,158528,37,2,3:2:0:0:
286,316,158625,5,2,3:2:0:0:
369,302,158722,37,2,3:2:0:0:
512,222,158818,5,2,3:2:0:0:
436,217,158915,37,2,3:2:0:0:
353,192,159012,5,2,3:2:0:0:
269,136,159109,37,2,3:2:0:0:
286,316,159205,6,2,P|313:220|415:71,1,233.999989288331,6|0,1:0|0:0,0:1:0:0:
505,0,159593,2,0,P|494:55|453:97,1,77.9999964294435,8|0,1:0|0:0,0:0:0:0:
160,205,159786,37,6,3:2:0:0:
159,247,159883,1,2,3:2:0:0:
196,266,159980,2,0,P|242:252|287:207,1,77.9999964294435,2|0,1:2|0:0,0:0:0:0:
391,16,160173,2,0,P|337:34|292:90,1,77.9999964294435,2|0,3:0|0:0,0:0:0:0:
286,316,160367,5,6,1:2:0:0:
329,338,160464,1,2,3:2:0:0:
375,322,160560,2,0,P|375:272|346:216,1,77.9999964294435,2|0,3:0|0:0,0:0:0:0:
127,61,160754,37,2,1:2:0:0:
78,53,160851,1,2,3:2:0:0:
49,13,160947,1,6,3:2:0:0:
382,105,161141,5,2,1:2:0:0:
144,322,161334,37,2,3:0:0:0:
247,0,161528,5,6,1:0:0:0:
247,0,161625,1,2,3:2:0:0:
247,0,161722,1,2,3:0:0:0:
257,192,161915,1,2,1:2:0:0:
273,384,162109,1,6,3:2:0:0:
508,143,162302,37,2,1:2:0:0:
508,143,162399,1,2,3:2:0:0:
508,143,162496,1,2,3:0:0:0:
257,192,162689,1,6,1:2:0:0:
0,254,162883,1,2,3:0:0:0:
18,90,163076,5,2,1:2:0:0:
36,54,163173,1,2,3:2:0:0:
77,49,163270,2,0,P|114:72|132:145,1,77.9999964294435,6|0,3:2|0:0,0:0:0:0:
360,296,163464,37,4,1:3:0:0:
385,320,163561,1,2,3:2:0:0:
424,321,163658,2,0,P|461:297|479:224,1,77.9999964294435,10|0,3:0|0:0,0:0:0:0:
257,192,163851,6,0,P|238:258|227:391,1,155.999992858887,6|2,1:0|3:0,0:0:0:0:
223,87,164141,1,2,3:2:0:0:
223,87,164238,2,0,P|242:26|247:-2,1,77.9999964294435,2|0,1:2|0:0,0:0:0:0:
133,175,164431,38,0,P|94:193|56:227,1,77.9999964294435,6|0,3:2|0:0,0:0:0:0:
339,119,164625,2,0,P|420:79|482:7,1,155.999992858887,2|2,1:2|3:0,0:0:0:0:
465,32,164915,1,2,3:2:0:0:
465,32,165012,1,6,1:2:0:0:
268,202,165205,5,2,3:0:0:0:
268,202,165302,1,2,3:2:0:0:
268,202,165399,1,2,1:2:0:0:
0,57,165593,37,6,3:2:0:0:
18,17,165690,1,2,3:2:0:0:
63,1,165786,1,2,1:2:0:0:
108,15,165883,1,2,3:2:0:0:
126,55,165980,2,0,P|116:99|77:153,1,77.9999964294435,2|0,3:0|0:0,0:0:0:0:
0,384,166173,6,0,P|69:320|242:236,1,233.999989288331,6|0,1:0|0:0,0:0:0:0:
407,177,166560,1,2,1:2:0:0:
440,138,166657,1,2,3:2:0:0:
428,89,166754,2,0,P|383:71|337:77,1,77.9999964294435,6|0,3:2|0:0,0:0:0:0:
191,252,166947,37,2,1:2:0:0:
137,269,167044,1,2,3:2:0:0:
87,238,167141,1,2,3:0:0:0:
73,181,167238,1,2,3:2:0:0:
101,129,167334,2,0,P|151:145|188:192,1,77.9999964294435,6|0,1:2|0:0,0:0:0:0:
385,327,167528,5,2,3:0:0:0:
337,384,167625,1,2,3:2:0:0:
264,375,167722,2,0,P|271:306|303:240,1,77.9999964294435,2|0,1:2|0:0,0:0:0:0:
277,0,167915,38,0,P|270:69|238:135,1,77.9999964294435,6|0,3:2|0:0,0:0:0:0:
0,290,168109,5,2,1:2:0:0:
96,268,168205,37,2,3:2:0:0:
195,247,168302,5,2,3:0:0:0:
297,222,168399,37,2,3:2:0:0:
435,191,168496,6,0,P|446:135|468:82,1,96,6|2,1:2|3:0,0:0:0:0:
424,35,168786,1,2,3:2:0:0:
424,35,168883,1,2,1:2:0:0:
297,222,169076,37,2,3:0:0:0:
334,225,169173,1,2,3:2:0:0:
364,236,169270,1,2,1:2:0:0:
391,258,169367,1,2,3:2:0:0:
409,287,169464,1,2,3:0:0:0:
318,384,169657,6,0,P|305:346|309:315,1,48,6|0,1:2|0:0,0:0:0:0:
435,191,169851,1,2,3:0:0:0:
472,180,169947,1,2,3:2:0:0:
497,148,170044,1,2,1:2:0:0:
509,111,170141,1,2,3:2:0:0:
504,72,170238,1,2,3:0:0:0:
392,10,170431,37,2,1:2:0:0:
392,10,170528,1,2,3:2:0:0:
392,10,170625,2,0,P|400:50|426:83,1,48,2|0,3:0|0:0,0:0:0:0:
510,247,170818,6,0,P|473:210|421:187,1,96,6|2,1:2|3:0,0:0:0:0:
392,130,171109,1,2,3:2:0:0:
392,130,171205,1,2,1:2:0:0:
309,179,171399,1,2,3:0:0:0:
434,384,171593,37,2,1:2:0:0:
434,384,171689,1,2,3:2:0:0:
434,384,171786,2,0,P|451:348|456:310,1,48,2|0,3:0|0:0,0:0:0:0:
326,78,171980,6,0,P|279:29|195:4,1,144,6|0,1:2|0:0,0:0:0:0:
472,98,172367,5,2,1:2:0:0:
486,89,172431,1,2,3:2:0:0:
482,82,172496,1,2,3:2:0:0:
488,78,172560,1,2,3:0:0:0:
374,288,172754,5,2,1:2:0:0:
359,279,172818,1,2,3:2:0:0:
363,272,172883,1,2,3:2:0:0:
357,268,172947,1,2,3:0:0:0:
512,240,173141,6,0,P|450:212|414:180,1,96,6|2,1:2|3:0,0:0:0:0:
352,190,173431,1,2,3:2:0:0:
352,190,173528,2,0,P|322:195|291:223,1,48,2|0,1:2|0:0,0:0:0:0:
411,78,173722,2,0,P|398:109|392:151,1,48,2|0,3:0|0:0,0:0:0:0:
247,263,173915,5,2,1:2:0:0:
213,271,174012,1,2,3:2:0:0:
176,263,174109,1,2,3:0:0:0:
154,236,174205,1,2,3:2:0:0:
149,199,174302,1,6,1:2:0:0:
205,124,174496,37,2,3:0:0:0:
205,124,174593,1,2,3:2:0:0:
205,124,174689,1,2,1:2:0:0:
225,88,174786,1,2,3:2:0:0:
225,45,174883,1,2,3:0:0:0:
191,12,174980,1,2,3:2:0:0:
150,0,175076,1,2,1:2:0:0:
109,12,175173,1,2,3:2:0:0:
88,42,175270,1,2,3:0:0:0:
0,153,175464,6,0,P|45:133|103:125,1,96,6|2,1:2|3:0,0:0:0:0:
156,82,175754,1,2,3:2:0:0:
156,82,175851,2,0,P|176:95|213:103,1,48,2|0,1:2|0:0,0:0:0:0:
184,263,176044,2,0,P|181:239|163:205,1,48,2|0,3:0|0:0,0:0:0:0:
0,22,176238,37,2,1:2:0:0:
0,22,176334,1,2,3:2:0:0:
0,22,176431,2,0,P|15:57|33:80,1,48,2|0,3:0|0:0,0:0:0:0:
449,260,176625,6,0,P|379:216|283:191,1,144,6|0,1:2|0:0,0:0:0:0:
71,255,177012,5,2,1:2:0:0:
54,260,177076,1,2,3:2:0:0:
58,269,177141,1,2,3:2:0:0:
52,273,177205,1,2,3:0:0:0:
218,120,177399,5,2,1:2:0:0:
201,115,177463,1,2,3:2:0:0:
205,106,177528,1,2,3:2:0:0:
199,102,177592,1,2,3:0:0:0:
