osu file format v14

[General]
AudioFilename: audio.mp3
AudioLeadIn: 0
PreviewTime: 28122
Countdown: 0
SampleSet: Soft
StackLeniency: 0.3
Mode: 0
LetterboxInBreaks: 0
WidescreenStoryboard: 1

[Editor]
Bookmarks: 9590,28170,46751,56041,65332,74622,93060,111783,121074,131138,149718,168299
DistanceSpacing: 0.6
BeatDivisor: 4
GridSize: 16
TimelineZoom: 2.1

[Metadata]
Title:nevermore
TitleUnicode:ネヴァモア
Artist:sasalasa
ArtistUnicode:sasalasa
Creator:Chills
Version:hard {recognition}
Source:
Tags:sasakure.UK lasah electronic pop english LINNE first 1st album the raven edgar allan poe
BeatmapID:3521995
BeatmapSetID:1723321

[Difficulty]
HPDrainRate:3.5
CircleSize:3.8
OverallDifficulty:6
ApproachRate:7.5
SliderMultiplier:1.4
SliderTickRate:1

[Events]
//Background and Video events
0,0,"nevamo.png",0,0
//Break Periods
2,65532,69152
2,131138,139603
//Storyboard Layer 0 (Background)
//Storyboard Layer 1 (Fail)
//Storyboard Layer 2 (Pass)
//Storyboard Layer 3 (Foreground)
//Storyboard Layer 4 (Overlay)
//Storyboard Sound Samples

[TimingPoints]
300,387.096774193548,3,2,1,60,1,0
8429,-100,3,2,1,65,0,0
9590,-100,3,2,1,55,0,0
13557,-100,3,2,1,60,0,0
13654,-100,3,2,1,55,0,0
13944,-100,3,2,1,60,0,0
14041,-100,3,2,1,55,0,0
18880,-100,3,2,1,60,0,0
27299,-117.647058823529,3,2,1,60,0,0
28170,-86.9565217391304,3,2,2,70,0,0
32719,-86.9565217391304,3,2,2,60,0,0
32816,-86.9565217391304,3,2,2,70,0,0
42589,-86.9565217391304,3,2,2,60,0,0
42687,-86.9565217391304,3,2,2,70,0,0
43750,-86.9565217391304,3,2,2,60,0,0
43848,-86.9565217391304,3,2,2,70,0,0
45299,-86.9565217391304,3,2,3,70,0,0
45590,-86.9565217391304,3,2,2,70,0,0
45783,-86.9565217391304,3,2,1,70,0,0
45977,-86.9565217391304,3,2,2,70,0,0
46074,-86.9565217391304,3,2,1,70,0,0
46364,-86.9565217391304,3,2,2,70,0,0
46558,-86.9565217391304,3,2,1,70,0,0
46751,-90.9090909090909,3,2,4,70,0,0
56041,-83.3333333333333,3,2,4,75,0,1
65332,-83.3333333333333,3,2,4,55,0,0
69977,-105.263157894737,3,2,1,40,0,0
72105,-105.263157894737,3,2,5,40,0,0
72299,-105.263157894737,3,2,1,40,0,0
74622,-100,3,2,1,60,0,0
82751,-100,3,2,1,65,0,0
82944,-100,3,2,3,65,0,0
83138,-100,3,2,1,65,0,0
83718,-100,3,2,3,65,0,0
83912,-100,3,2,1,60,0,0
92332,-117.647058823529,3,2,1,60,0,0
93203,-86.9565217391304,3,2,2,70,0,0
97751,-86.9565217391304,3,2,2,60,0,0
97848,-86.9565217391304,3,2,2,70,0,0
107622,-86.9565217391304,3,2,2,60,0,0
107719,-86.9565217391304,3,2,2,70,0,0
110331,-86.9565217391304,3,2,3,70,0,0
110622,-86.9565217391304,3,2,2,70,0,0
110815,-86.9565217391304,3,2,1,70,0,0
111009,-86.9565217391304,3,2,2,70,0,0
111106,-86.9565217391304,3,2,1,70,0,0
111396,-86.9565217391304,3,2,2,70,0,0
111590,-86.9565217391304,3,2,1,70,0,0
111783,-83.3333333333333,3,2,4,70,0,0
112461,-83.3333333333333,3,2,4,60,0,0
112558,-83.3333333333333,3,2,4,70,0,0
115945,-83.3333333333333,3,2,4,60,0,0
116041,-83.3333333333333,3,2,4,70,0,0
120105,-83.3333333333333,3,2,1,70,0,0
120687,-83.3333333333333,3,2,4,70,0,0
120880,-83.3333333333333,3,2,1,70,0,0
121074,-80,3,2,4,75,0,1
125912,-80,3,2,4,60,0,1
126009,-80,3,2,4,75,0,1
127945,-80,3,2,4,60,0,1
128041,-80,3,2,4,75,0,1
130364,-71.4285714285714,3,2,4,5,0,0
131138,387.096774193548,3,2,0,60,1,0
140428,-105.263157894737,3,2,1,60,0,0
148363,-105.263157894737,3,2,3,60,0,0
148557,-105.263157894737,3,2,1,60,0,0
149718,-86.9565217391304,3,2,2,70,0,1
154267,-86.9565217391304,3,2,2,60,0,1
154363,-86.9565217391304,3,2,2,70,0,1
164137,-86.9565217391304,3,2,2,60,0,1
164234,-86.9565217391304,3,2,2,70,0,1
165686,-86.9565217391304,3,2,2,60,0,1
165783,-86.9565217391304,3,2,2,70,0,1
166846,-86.9565217391304,3,2,3,70,0,1
167137,-86.9565217391304,3,2,2,70,0,1
167330,-86.9565217391304,3,2,1,70,0,1
167525,-86.9565217391304,3,2,2,70,0,1
167622,-86.9565217391304,3,2,1,70,0,1
167912,-86.9565217391304,3,2,2,70,0,1
168105,-86.9565217391304,3,2,1,70,0,1
168299,-100,3,2,1,60,0,0

[Colours]
Combo1 : 239,118,118
Combo2 : 250,211,133
Combo3 : 236,223,179
Combo4 : 172,223,199
Combo5 : 193,220,227
Combo6 : 158,189,226
Combo7 : 206,181,238
Combo8 : 255,176,176

[HitObjects]
0,45,300,6,0,P|27:20|79:21,1,70,6|0,1:2|0:0,0:0:0:0:
103,26,590,2,0,P|128:53|127:105,1,70,2|0,0:0|0:0,0:0:0:0:
108,106,880,1,2,0:0:0:0:
206,160,1074,1,0,1:0:0:0:
210,150,1170,2,0,L|228:73,1,70,2|0,0:0|0:0,0:0:0:0:
211,36,1461,6,0,L|332:10,2,105,2|2|2,1:2|0:0|0:0,0:0:0:0:
302,199,2332,1,2,0:0:0:0:
317,192,2429,1,2,0:0:0:0:
364,109,2622,102,0,P|381:136|419:149,1,70,2|0,1:2|0:0,0:0:0:0:
458,144,2912,2,0,P|489:157|509:185,1,70,2|0,0:0|0:0,0:0:0:0:
495,217,3203,1,2,0:0:0:0:
507,324,3396,1,0,1:0:0:0:
493,320,3493,2,0,L|421:295,1,70,2|0,0:0|0:0,0:0:0:0:
385,266,3783,6,0,L|305:290,1,70,2|2,1:2|0:3,0:0:0:0:
254,360,4170,1,0,1:0:0:0:
234,364,4267,1,2,0:3:0:0:
130,340,4461,2,0,B|108:310|108:310|118:262,1,70,0|0,3:0|3:0,0:0:0:0:
130,257,4751,1,2,0:3:0:0:
43,202,4945,102,0,L|25:127,1,70,6|0,1:2|0:0,0:0:0:0:
0,92,5235,2,0,P|20:65|58:54,1,70,2|0,0:0|0:0,0:0:0:0:
84,65,5525,1,2,0:0:0:0:
203,137,5719,1,0,1:0:0:0:
200,124,5816,2,0,L|184:46,1,70,2|0,0:0|0:0,0:0:0:0:
224,26,6106,6,0,P|252:68|318:62,2,105,2|2|2,1:2|0:0|0:0,0:0:0:0:
362,181,6977,1,2,0:0:0:0:
378,173,7074,1,2,0:0:0:0:
440,102,7267,102,0,P|472:109|499:136,1,70,2|0,1:2|0:0,0:0:0:0:
512,176,7558,2,0,L|497:246,1,70,2|0,0:0|0:0,0:0:0:0:
477,257,7848,1,2,0:0:0:0:
460,363,8041,2,2,L|493:353,3,35,0|2|2|2,1:0|0:0|0:0|0:0,0:0:0:0:
408,367,8429,6,2,P|376:345|339:337,1,70
255,334,8816,1,2,0:0:0:0:
245,231,9009,1,2,0:0:0:0:
245,231,9106,1,2,0:0:0:0:
245,231,9203,2,2,P|213:253|176:261,1,70
100,315,9590,22,0,L|82:233,1,70,4|2,1:2|0:0,0:0:0:0:
7,198,9977,1,0,1:0:0:0:
51,118,10170,2,0,P|93:74|168:99,1,140,2|2,0:0|0:0,0:0:0:0:
258,24,10751,6,0,L|189:10,2,70,0|2|0,1:0|0:0|1:0,0:0:0:0:
305,182,11525,2,0,L|373:168,1,70,0|2,1:0|0:0,0:0:0:0:
458,133,11912,1,0,1:0:0:0:
505,215,12106,2,0,P|518:267|450:329,1,140,2|2,0:0|0:0,0:0:0:0:
379,305,12687,101,0,1:0:0:0:
379,305,12880,1,2,0:0:0:0:
160,289,13267,1,2,0:0:0:0:
98,228,13461,2,0,L|106:187,3,23.3333333333333,0|2|2|2,1:0|0:0|0:0|0:0,0:0:0:0:
41,124,13848,2,0,L|49:83,3,23.3333333333333,0|2|2|2,1:0|0:0|0:0|0:0,0:0:0:0:
116,23,14235,6,0,P|143:4|185:3,2,70,4|2|0,1:2|0:0|1:0,0:0:0:0:
141,110,14816,2,0,P|212:107|253:53,1,140,2|2,0:0|0:0,0:0:0:0:
328,7,15396,2,0,P|362:9|391:28,1,70,0|2,1:0|0:0,0:0:0:0:
488,22,15783,102,0,P|465:74|438:169,1,140,0|0,1:0|1:0,0:0:0:0:
495,233,16364,2,0,P|467:260|425:259,1,70,2|0,0:0|1:0,0:0:0:0:
382,333,16751,1,2,0:0:0:0:
243,204,17138,5,2,0:0:0:0:
243,204,17332,1,0,1:0:0:0:
177,270,17525,2,0,B|105:259|120:330|21:303,1,140,2|2,0:0|0:0,0:0:0:0:
0,231,18106,1,0,1:0:0:0:
75,178,18299,2,0,P|100:113|50:63,1,140,2|2,0:0|0:0,0:0:0:0:
139,5,18880,85,6,1:2:0:0:
139,5,19074,2,0,L|233:29,1,70,0|0,0:0|1:0,0:0:0:0:
305,44,19461,1,2,0:0:0:0:
305,44,19654,2,0,P|335:19|378:12,2,70,0|0|2,1:0|0:0|1:2,0:0:0:0:
300,136,20235,6,0,P|323:160|356:171,1,70,0|0,0:0|1:0,0:0:0:0:
449,189,20622,2,0,L|468:275,1,70,2|2,0:0|1:2,0:0:0:0:
476,269,20912,1,2,0:0:0:0:
486,280,21009,1,2,0:0:0:0:
397,351,21203,102,0,P|369:324|334:310,1,70,2|0,1:2|0:0,0:0:0:0:
254,248,21590,2,0,P|216:258|186:282,1,70,0|2,1:0|0:0,0:0:0:0:
103,350,21977,2,0,P|94:300|66:232,1,105,0|0,1:0|0:0,0:0:0:0:
40,230,22364,22,0,P|5:201|40:145,1,105,0|2,1:0|0:0,0:0:0:0:
53,136,22751,1,0,1:0:0:0:
0,56,22945,1,2,0:3:0:0:
13,52,23041,2,0,L|100:30,1,70,0|0,1:0|3:0,0:0:0:0:
113,0,23332,1,2,1:3:0:0:
182,79,23525,85,6,1:2:0:0:
182,79,23719,2,0,P|212:52|252:47,2,70,0|0|2,0:0|1:0|0:0,0:0:0:0:
229,161,24299,1,0,1:0:0:0:
229,161,24493,2,0,L|306:139,1,70,0|2,0:0|1:2,0:0:0:0:
371,72,24880,5,0,0:0:0:0:
371,72,25074,1,0,1:0:0:0:
442,143,25267,2,0,P|448:176|426:216,1,70,2|2,0:0|1:2,0:0:0:0:
421,218,25558,1,2,0:0:0:0:
408,223,25654,1,2,0:0:0:0:
360,313,25848,102,0,P|392:324|420:347,2,70,2|0|0,1:2|0:0|1:0,0:0:0:0:
287,229,26429,1,2,0:0:0:0:
287,229,26622,2,0,L|172:255,1,105,0|0,1:0|0:0,0:0:0:0:
159,277,27009,21,4,1:2:0:0:
30,201,27299,2,0,L|14:294,1,89.2500017023087,2|2,0:0|0:0,0:0:0:0:
14,288,28170,6,0,P|48:350|155:340,1,161.000003070831,6|0,1:2|1:2,0:0:0:0:
196,283,28751,1,2,0:0:0:0:
118,224,28945,2,0,B|130:138,1,80.5000015354157,8|2,1:2|0:3,0:0:0:0:
216,98,29332,86,0,P|182:62|131:57,1,80.5000015354157,2|2,1:2|0:3,0:0:0:0:
312,46,29719,2,0,P|346:4|467:15,1,161.000003070831,0|8,1:0|1:2,0:0:0:0:
475,86,30299,1,2,0:3:0:0:
404,153,30493,21,2,1:2:0:0:
404,153,30687,2,0,L|299:129,2,80.5000015354157,2|2|2,0:3|1:2|0:3,0:0:0:0:
428,248,31267,2,0,L|516:268,2,80.5000015354157,8|2|2,1:2|0:3|1:2,0:0:0:0:
362,321,31848,101,2,0:3:0:0:
278,285,32041,1,2,1:2:0:0:
278,285,32235,2,0,P|229:288|198:321,1,80.5000015354157,2|8,0:3|1:2,0:0:0:0:
121,362,32622,1,2,0:3:0:0:
121,362,32719,1,0,0:0:0:0:
121,362,32816,6,0,L|98:270,1,80.5000015354157,2|2,1:2|0:3,0:0:0:0:
31,220,33203,1,2,1:2:0:0:
31,220,33396,1,2,0:3:0:0:
88,146,33590,2,0,P|117:178|178:176,1,80.5000015354157,8|2,1:2|0:3,0:0:0:0:
238,143,33977,85,2,1:2:0:0:
238,143,34170,1,2,0:3:0:0:
204,59,34364,2,0,P|175:27|114:29,2,80.5000015354157,2|2|8,1:2|0:3|1:2,0:0:0:0:
301,24,34945,1,2,0:3:0:0:
301,24,35138,22,0,L|488:67,1,161.000003070831,2|2,1:2|1:2,0:0:0:0:
377,134,35719,2,0,B|349:211|349:211|424:294,1,161.000003070831,2|2,0:3|0:3,0:0:0:0:
314,330,36299,102,0,L|211:301,1,80.5000015354157,2|2,1:2|0:3,0:0:0:0:
133,338,36687,2,0,L|149:400,2,40.2500007677078,2|2|2,1:2|0:3|0:3,0:0:0:0:
19,287,37074,2,0,L|35:349,3,40.2500007677078,8|2|2|2,1:2|0:3|0:3|0:3,0:0:0:0:
38,237,37461,6,0,P|84:186|31:100,1,161.000003070831,6|2,1:2|1:0,0:0:0:0:
28,26,38041,1,2,0:3:0:0:
121,3,38235,2,0,L|225:35,1,80.5000015354157,10|2,1:0|0:3,0:0:0:0:
256,105,38622,86,0,P|261:148|226:185,1,80.5000015354157,2|2,1:0|0:3,0:0:0:0:
171,279,39009,2,0,P|209:241|336:241,1,161.000003070831,2|10,1:0|1:0,0:0:0:0:
381,304,39589,1,2,0:1:0:0:
477,275,39783,21,2,1:0:0:0:
477,275,39977,2,0,B|506:243|506:243|499:177,2,80.5000015354157,2|2|2,0:3|1:0|0:3,0:0:0:0:
399,201,40558,2,0,B|392:157|392:157|424:123,2,80.5000015354157,10|2|2,1:0|0:3|1:0,0:0:0:0:
499,85,41138,101,2,0:1:0:0:
425,20,41332,2,0,L|317:50,1,80.5000015354157,2|2,1:0|0:3,0:0:0:0:
252,27,41719,1,10,1:0:0:0:
252,27,41912,1,2,0:1:0:0:
179,101,42106,6,0,P|152:63|99:63,1,80.5000015354157,2|2,1:0|0:3,0:0:0:0:
78,69,42396,2,0,P|40:97|43:150,1,80.5000015354157,2|0,0:0|0:0,0:0:0:0:
54,154,42687,1,2,0:0:0:0:
112,234,42880,2,0,L|93:328,1,80.5000015354157,10|2,1:0|0:3,0:0:0:0:
188,333,43267,86,0,P|212:367|260:367,1,80.5000015354157,2|2,1:0|0:3,0:0:0:0:
288,364,43557,2,0,P|325:346|333:298,1,80.5000015354157,2|0,0:0|0:0,0:0:0:0:
309,284,43848,1,2,0:0:0:0:
265,190,44041,1,10,1:0:0:0:
364,162,44235,1,2,0:1:0:0:
364,162,44429,22,0,B|413:206|413:206|498:190,1,120.750002303124,2|2,1:0|0:0,0:0:0:0:
495,166,44816,2,0,L|517:68,1,80.5000015354157,2|2,1:0|0:0,0:0:0:0:
409,21,45203,2,0,L|453:7,3,40.2500007677078,2|2|2|2,1:0|0:3|0:3|0:3,0:0:0:0:
365,47,45590,102,0,L|265:15,1,80.5000015354157,2|2,1:0|0:3,0:0:0:0:
204,81,45977,1,2,1:0:0:0:
189,74,46074,1,2,3:0:0:0:
108,141,46267,1,2,0:3:0:0:
97,132,46364,2,0,B|56:129|56:129|20:165,1,80.5000015354157,10|2,1:1|3:0,0:0:0:0:
62,248,46751,70,0,P|74:314|153:328,1,154.000004699707,4|2,1:0|0:0,0:0:0:0:
249,292,47332,2,0,P|246:335|278:369,2,77.0000023498536,6|2|2,1:2|0:0|0:0,0:0:0:0:
257,275,47816,1,2,0:0:0:0:
275,264,47912,22,0,P|315:258|349:281,1,77.0000023498536,6|2,1:2|0:0,0:0:0:0:
456,350,48299,1,2,0:0:0:0:
456,350,48396,1,2,0:0:0:0:
456,350,48493,2,0,L|434:245,1,77.0000023498536,6|2,1:2|0:0,0:0:0:0:
448,263,48783,1,2,0:0:0:0:
458,254,48880,1,2,0:0:0:0:
465,157,49074,86,0,L|521:172,2,38.5000011749268,6|2|2,1:2|0:0|0:0,0:0:0:0:
370,137,49461,1,2,0:0:0:0:
446,56,49654,2,0,L|502:71,2,38.5000011749268,6|2|2,1:2|0:0|0:0,0:0:0:0:
350,36,50041,1,2,0:0:0:0:
255,10,50235,22,0,P|232:46|186:59,1,77.0000023498536,6|2,1:2|0:0,0:0:0:0:
182,53,50525,1,2,0:0:0:0:
167,44,50622,1,2,0:0:0:0:
68,55,50816,2,0,L|58:15,3,25.6666674499512,6|2|2|2,1:2|0:0|0:0|0:0,0:0:0:0:
7,131,51203,1,2,0:0:0:0:
96,174,51396,86,0,B|123:212|123:212|82:344,1,154.000004699707,4|2,1:0|0:0,0:0:0:0:
198,308,51977,2,0,L|227:402,2,77.0000023498536,6|2|2,1:2|0:0|0:0,0:0:0:0:
213,293,52461,1,2,0:0:0:0:
225,278,52558,22,0,L|200:197,1,77.0000023498536,6|2,1:2|0:0,0:0:0:0:
149,109,52945,1,2,0:0:0:0:
149,109,53041,1,2,0:0:0:0:
149,109,53138,2,0,P|187:113|223:84,1,77.0000023498536,6|2,1:2|0:0,0:0:0:0:
227,74,53429,1,2,0:0:0:0:
229,59,53525,1,2,0:0:0:0:
319,40,53719,86,0,L|334:-16,2,38.5000011749268,6|2|2,1:2|0:0|0:0,0:0:0:0:
361,121,54106,1,2,0:0:0:0:
452,76,54299,2,0,L|467:20,2,38.5000011749268,6|2|2,1:2|0:0|0:0,0:0:0:0:
502,162,54687,1,2,0:0:0:0:
409,213,54880,22,0,L|435:308,1,77.0000023498536,6|2,1:2|0:0,0:0:0:0:
441,303,55170,1,2,0:0:0:0:
452,312,55267,1,2,0:0:0:0:
324,363,55461,2,0,L|364:373,3,25.6666674499512,6|2|2|2,1:2|0:0|0:0|0:0,0:0:0:0:
227,341,55848,1,2,0:0:0:0:
127,384,56041,70,0,B|101:349|101:349|105:293,1,83.9999974365235,4|2,1:0|0:0,0:0:0:0:
128,281,56332,2,0,L|100:183,1,83.9999974365235,10|2,0:0|0:0,0:0:0:0:
84,186,56622,1,10,0:0:0:0:
30,87,56816,1,2,1:2:0:0:
41,77,56912,2,0,P|85:72|120:101,1,83.9999974365235,10|2,0:0|0:0,0:0:0:0:
146,81,57203,54,0,P|141:37|170:2,1,83.9999974365235,10|2,1:2|0:0,0:0:0:0:
190,13,57493,1,10,0:0:0:0:
265,142,57783,1,10,0:0:0:0:
329,81,57977,2,0,L|412:102,1,83.9999974365235,2|2,1:2|0:0,0:0:0:0:
427,90,58267,1,2,0:0:0:0:
444,79,58364,54,0,B|473:114|473:114|461:161,1,83.9999974365235,8|2,1:2|0:0,0:0:0:0:
402,224,58751,1,2,1:2:0:0:
470,288,58945,2,0,L|530:274,2,41.9999987182618,10|2|2,0:0|0:0|1:2,0:0:0:0:
389,343,59332,1,2,0:0:0:0:
298,296,59525,54,0,P|275:332|235:344,1,83.9999974365235,10|2,1:2|0:0,0:0:0:0:
202,336,59816,2,0,P|166:313|154:273,1,83.9999974365235,10|2,0:0|0:0,0:0:0:0:
170,258,60106,1,10,0:0:0:0:
68,310,60299,1,2,1:2:0:0:
68,310,60396,1,10,0:0:0:0:
68,310,60493,1,2,0:0:0:0:
9,228,60687,54,0,P|6:189|43:150,1,83.9999974365235,4|2,1:0|0:0,0:0:0:0:
75,155,60977,2,0,L|55:65,1,83.9999974365235,10|2,0:0|0:0,0:0:0:0:
27,55,61267,1,10,0:0:0:0:
135,0,61461,1,2,1:2:0:0:
131,11,61558,2,0,P|151:47|192:57,1,83.9999974365235,10|2,0:0|0:0,0:0:0:0:
231,46,61848,54,0,P|270:56|290:92,1,83.9999974365235,10|2,1:2|0:0,0:0:0:0:
274,117,62138,1,10,0:0:0:0:
402,9,62429,1,10,0:0:0:0:
467,66,62622,2,0,B|476:107|476:107|443:147,1,83.9999974365235,2|2,1:2|0:0,0:0:0:0:
434,144,62912,1,2,0:0:0:0:
420,149,63009,54,0,L|444:244,1,83.9999974365235,8|2,1:2|0:0,0:0:0:0:
479,318,63396,1,2,1:2:0:0:
377,343,63590,2,0,L|362:393,2,41.9999987182618,10|2|2,0:0|0:0|1:2,0:0:0:0:
316,260,63977,1,2,0:0:0:0:
229,316,64170,54,0,P|200:284|138:276,1,83.9999974365235,10|2,1:2|0:0,0:0:0:0:
124,282,64461,2,0,P|92:311|84:373,1,83.9999974365235,10|2,0:0|0:0,0:0:0:0:
103,382,64751,1,10,0:0:0:0:
0,304,64945,1,2,1:2:0:0:
7,275,65041,1,10,1:2:0:0:
14,247,65138,1,2,1:2:0:0:
22,218,65235,1,2,1:2:0:0:
29,190,65332,85,4,1:0:0:0:
444,25,69977,118,0,L|540:2,2,66.4999982242585,6|2|2,1:2|0:0|0:0,0:0:0:0:
499,95,70558,2,0,L|343:60,1,132.999996448517,2|8,1:2|0:0,0:0:0:0:
367,147,71138,22,0,L|298:163,1,66.4999982242585,2|2,1:2|0:0,0:0:0:0:
235,113,71525,1,2,0:0:0:0:
127,251,71912,86,0,L|195:267,2,66.4999982242585,2|0|2,0:0|0:0|1:2,0:0:0:0:
136,334,72493,2,0,L|-2:367,1,132.999996448517,2|2,0:0|1:2,0:0:0:0:
512,342,74622,86,0,L|433:361,1,70,6|0,1:2|0:0,0:0:0:0:
399,338,74912,2,0,L|320:357,1,70,2|0,0:0|0:0,0:0:0:0:
310,379,75203,1,2,0:0:0:0:
261,283,75396,1,0,1:0:0:0:
257,269,75493,2,0,P|264:237|298:209,1,70,2|0,0:0|0:0,0:0:0:0:
327,200,75783,6,0,P|383:208|416:250,2,105,2|2|2,1:2|0:0|0:0,0:0:0:0:
249,119,76558,1,0,1:0:0:0:
235,123,76654,1,2,0:0:0:0:
219,128,76751,1,2,0:0:0:0:
140,36,76945,102,0,B|144:66|144:66|120:97,1,70,2|0,1:2|0:0,0:0:0:0:
87,129,77235,2,0,B|63:160|63:160|67:190,1,70,2|0,0:0|0:0,0:0:0:0:
84,207,77525,1,2,0:0:0:0:
13,292,77719,1,0,1:0:0:0:
27,298,77816,2,0,L|93:320,1,70,2|0,0:0|0:0,0:0:0:0:
139,296,78106,6,0,P|159:332|224:339,1,105,2|2,1:2|0:0,0:0:0:0:
265,350,78493,2,0,L|308:337,3,23.3333333333333,0|2|2|2,1:0|0:0|0:0|0:0,0:0:0:0:
306,249,78880,2,0,L|349:236,3,23.3333333333333,0|2|2|2,1:0|0:0|0:0|0:0,0:0:0:0:
435,285,79267,102,0,P|474:279|497:260,1,70,6|0,1:2|0:0,0:0:0:0:
512,213,79558,2,0,P|506:174|487:151,1,70,2|0,0:0|0:0,0:0:0:0:
450,143,79848,1,2,0:0:0:0:
502,35,80041,1,0,1:0:0:0:
490,36,80138,2,0,L|421:52,1,70,2|0,0:0|0:0,0:0:0:0:
375,60,80429,6,0,P|340:22|276:22,2,105,2|2|2,1:2|0:0|0:0,0:0:0:0:
299,129,81203,1,0,1:0:0:0:
306,146,81299,1,2,0:0:0:0:
312,163,81396,1,2,0:0:0:0:
368,250,81590,102,0,P|343:280|335:322,1,70,2|0,1:2|0:0,0:0:0:0:
292,320,81880,2,0,P|261:295|219:287,1,70,2|0,0:0|0:0,0:0:0:0:
200,295,82170,1,2,0:0:0:0:
113,351,82363,2,2,L|123:384,3,35,0|2|2|2,1:0|0:0|0:0|0:0,0:0:0:0:
78,323,82751,6,2,P|78:292|49:248,1,70,0|2,1:0|0:3,0:0:0:0:
0,190,83138,1,2,1:2:0:0:
70,112,83332,1,2,0:0:0:0:
70,112,83429,1,2,0:0:0:0:
70,112,83525,2,2,P|52:80|58:30,1,70,0|2,1:0|0:3,0:0:0:0:
149,63,83912,102,0,L|266:33,1,105,6|2,1:2|0:0,0:0:0:0:
283,49,84299,2,0,L|400:19,1,105,2|0,1:0|0:0,0:0:0:0:
406,33,84687,1,2,1:0:0:0:
485,94,84880,38,0,P|508:67|512:33,2,70,0|2|0,0:0|1:2|0:0,0:0:0:0:
499,189,85461,1,0,1:0:0:0:
499,189,85654,2,0,L|514:265,1,70,2|2,0:0|1:2,0:0:0:0:
500,271,85945,1,2,0:0:0:0:
488,282,86041,1,2,0:0:0:0:
441,372,86235,70,0,P|412:342|348:328,1,105,2|2,1:2|0:0,0:0:0:0:
325,295,86622,2,0,P|283:294|228:329,1,105,2|0,1:0|0:0,0:0:0:0:
211,357,87009,2,0,L|128:376,1,70,2|0,1:0|0:0,0:0:0:0:
65,315,87396,54,0,P|51:267|93:225,1,105,2|0,1:2|0:0,0:0:0:0:
113,216,87783,1,0,1:0:0:0:
12,143,87977,1,2,3:0:0:0:
28,139,88074,2,0,P|55:114|52:60,1,70,0|0,3:0|3:0,0:0:0:0:
46,64,88364,1,2,0:3:0:0:
157,11,88558,54,0,B|168:57|168:57|166:63|166:63|183:132,1,105,6|2,1:2|0:0,0:0:0:0:
204,133,88945,2,0,B|215:180|215:180|213:185|213:185|230:254,1,105,2|0,1:0|0:0,0:0:0:0:
247,252,89332,1,2,1:0:0:0:
316,168,89525,37,0,0:0:0:0:
316,168,89719,2,0,P|345:145|392:143,1,70,2|0,1:2|0:0,0:0:0:0:
464,75,90106,1,0,1:0:0:0:
464,75,90299,2,0,P|435:52|388:50,2,70,2|0|2,0:0|1:0|0:0,0:0:0:0:
512,159,90880,69,2,1:2:0:0:
512,159,91074,2,0,L|495:241,1,70,2|2,0:3|1:0,0:0:0:0:
447,323,91461,1,0,0:0:0:0:
447,323,91654,2,0,P|409:284|334:271,1,105,2|0,1:0|0:0,0:0:0:0:
335,281,92041,53,4,1:2:0:0:
209,194,92332,2,0,P|247:165|303:167,1,89.2500017023087,2|2,0:0|0:0,0:0:0:0:
288,163,93203,6,0,P|252:230|232:330,1,161.000003070831,6|0,1:2|1:2,0:0:0:0:
159,377,93783,1,2,0:0:0:0:
67,329,93977,2,0,P|51:290|45:244,1,80.5000015354157,8|2,1:2|0:3,0:0:0:0:
60,129,94364,54,0,P|34:164|-14:172,1,80.5000015354157,2|2,1:2|0:3,0:0:0:0:
88,18,94751,2,0,P|136:74|232:66,1,161.000003070831,0|8,1:0|1:2,0:0:0:0:
299,21,95331,1,2,0:3:0:0:
372,93,95525,53,2,1:2:0:0:
372,93,95719,2,0,P|413:68|452:66,2,80.5000015354157,2|2|2,0:3|1:2|0:3,0:0:0:0:
441,175,96299,2,0,P|487:186|516:212,2,80.5000015354157,8|2|2,1:2|0:3|1:2,0:0:0:0:
364,235,96880,37,2,0:3:0:0:
409,321,97073,1,2,1:2:0:0:
409,321,97267,2,0,L|312:345,1,80.5000015354157,2|8,0:3|1:2,0:0:0:0:
223,351,97654,1,2,0:3:0:0:
223,351,97751,1,0,0:0:0:0:
223,351,97848,70,0,P|198:314|207:269,1,80.5000015354157,2|2,1:2|0:3,0:0:0:0:
113,264,98235,1,2,1:2:0:0:
113,264,98429,1,2,0:3:0:0:
77,180,98622,2,0,P|96:140|139:125,1,80.5000015354157,8|2,1:2|0:3,0:0:0:0:
100,44,99009,53,2,1:2:0:0:
100,44,99203,1,2,0:3:0:0:
191,5,99396,2,0,P|235:2|269:32,2,80.5000015354157,2|2|8,1:2|0:3|1:2,0:0:0:0:
221,109,99977,1,2,0:3:0:0:
221,109,100170,54,0,P|259:142|332:131,1,120.750002303124,2|2,1:2|0:0,0:0:0:0:
475,30,100751,2,0,P|443:92|421:183,1,161.000003070831,2|2,0:0|0:0,0:0:0:0:
344,242,101332,38,0,P|382:254|414:286,1,80.5000015354157,2|2,1:2|0:3,0:0:0:0:
459,374,101719,2,0,L|420:384,2,40.2500007677078,2|2|2,1:2|0:3|0:3,0:0:0:0:
324,345,102106,2,0,L|285:355,3,40.2500007677078,8|2|2|2,1:2|0:3|0:3|0:3,0:0:0:0:
238,361,102493,70,0,B|156:374|166:293|70:329,1,161.000003070831,6|2,1:2|1:0,0:0:0:0:
7,275,103073,1,2,0:3:0:0:
58,201,103267,2,0,P|33:171|38:126,1,80.5000015354157,10|2,1:0|0:3,0:0:0:0:
77,53,103654,54,0,P|107:28|152:33,1,80.5000015354157,2|2,1:0|0:3,0:0:0:0:
207,106,104041,2,0,L|372:67,1,161.000003070831,2|10,1:0|1:0,0:0:0:0:
458,40,104621,1,2,0:1:0:0:
495,135,104816,53,2,1:0:0:0:
495,135,105009,2,0,P|456:154|442:187,2,80.5000015354157,2|2|2,0:3|1:0|0:3,0:0:0:0:
376,256,105590,2,0,P|349:226|349:187,2,80.5000015354157,10|2|2,1:0|0:3|1:0,0:0:0:0:
424,346,106170,37,2,0:1:0:0:
336,384,106364,2,0,L|245:357,1,80.5000015354157,2|2,1:0|0:3,0:0:0:0:
186,304,106751,1,10,1:0:0:0:
186,304,106944,1,2,0:1:0:0:
77,384,107138,70,0,P|51:351|62:305,1,80.5000015354157,2|2,1:0|0:3,0:0:0:0:
81,282,107429,2,0,P|84:242|59:212,1,80.5000015354157,2|0,0:0|0:0,0:0:0:0:
24,205,107719,1,2,0:0:0:0:
0,113,107912,2,0,L|21:29,1,80.5000015354157,10|2,1:0|0:3,0:0:0:0:
119,12,108299,53,2,1:0:0:0:
119,12,108493,2,0,P|137:45|186:65,1,80.5000015354157,2|2,0:0|1:0,0:0:0:0:
175,157,108880,2,0,P|246:140|299:62,1,161.000003070831,2|2,0:0|0:1,0:0:0:0:
413,15,109461,54,0,L|381:146,1,120.750002303124,2|2,1:0|0:0,0:0:0:0:
409,153,109848,2,0,P|439:187|436:230,1,80.5000015354157,2|2,1:0|0:0,0:0:0:0:
459,321,110235,2,0,L|497:333,3,40.2500007677078,2|2|2|2,1:0|0:3|0:3|0:3,0:0:0:0:
416,356,110622,38,0,L|321:381,1,80.5000015354157,2|2,1:0|0:3,0:0:0:0:
263,317,111009,1,2,1:0:0:0:
247,322,111106,1,2,3:0:0:0:
143,384,111299,1,2,0:3:0:0:
146,372,111396,2,0,P|122:336|70:321,1,80.5000015354157,10|2,1:1|3:0,0:0:0:0:
0,277,111783,38,0,B|-5:234|-5:234|27:195,1,83.9999974365235,4|2,1:0|3:2,0:0:0:0:
38,110,112170,2,0,P|81:106|122:151,1,83.9999974365235,0|2,3:0|0:0,0:0:0:0:
119,143,112461,1,0,0:0:0:0:
126,159,112558,1,2,3:2:0:0:
166,246,112751,1,2,0:0:0:0:
256,206,112945,38,0,P|282:168|236:54,1,167.999994873047,2|0,1:2|3:0,0:0:0:0:
337,6,113525,1,2,0:0:0:0:
347,18,113622,1,2,0:0:0:0:
359,29,113719,2,0,P|387:57|441:58,1,83.9999974365235,2|2,3:2|0:0,0:0:0:0:
501,153,114106,70,0,P|424:181|400:258,1,167.999994873047,2|2,1:2|0:3,0:0:0:0:
449,361,114687,1,2,0:0:0:0:
432,368,114783,1,2,0:0:0:0:
417,373,114880,2,0,L|320:350,1,83.9999974365235,0|2,3:0|0:0,0:0:0:0:
210,369,115267,38,0,P|161:371|125:336,1,83.9999974365235,2|2,1:2|0:0,0:0:0:0:
128,259,115654,2,0,P|164:229|210:234,1,83.9999974365235,2|2,3:2|3:2,0:0:0:0:
213,238,115945,1,0,0:0:0:0:
222,249,116041,1,2,3:2:0:0:
313,277,116235,1,2,3:2:0:0:
382,212,116429,5,4,1:0:0:0:
382,212,116622,54,0,B|421:129|421:129|354:44,1,167.999994873047,2|2,0:0|0:0,0:0:0:0:
281,34,117203,2,0,P|239:31|203:71,1,83.9999974365235,2|2,3:2|0:0,0:0:0:0:
307,123,117590,38,0,P|255:170|154:137,1,167.999994873047,2|0,1:2|3:0,0:0:0:0:
53,188,118170,1,2,0:0:0:0:
66,194,118267,1,2,0:0:0:0:
79,200,118364,2,0,P|113:230|112:276,1,83.9999974365235,2|2,3:2|0:0,0:0:0:0:
11,345,118751,70,0,B|86:362|86:362|116:352|116:352|195:368,1,167.999994873047,2|0,1:2|3:0,0:0:0:0:
260,311,119332,2,0,B|273:277|273:277|362:248|362:248|407:272,1,167.999994873047,2|2,0:0|0:0,0:0:0:0:
416,279,119816,1,2,0:0:0:0:
432,291,119912,38,0,L|461:181,1,83.9999974365235,2|2,1:2|0:3,0:0:0:0:
506,127,120299,1,0,3:0:0:0:
512,110,120396,1,2,0:3:0:0:
435,36,120590,1,2,3:0:0:0:
427,49,120687,2,0,B|401:79|401:79|344:73,1,83.9999974365235,2|2,3:0|3:0,0:0:0:0:
254,32,121074,5,4,1:0:0:0:
183,107,121267,1,2,0:0:0:0:
183,107,121461,2,0,B|193:152|193:152|160:199,1,87.5,6|2,1:2|3:2,0:0:0:0:
81,205,121848,1,6,1:2:0:0:
38,278,122041,1,2,3:2:0:0:
90,352,122235,102,0,P|126:324|194:323,1,87.5,6|2,1:2|0:0,0:0:0:0:
256,261,122622,1,6,1:2:0:0:
256,261,122719,1,2,0:0:0:0:
256,261,122816,2,0,P|295:290|361:289,1,87.5,2|6,3:2|1:2,0:0:0:0:
438,243,123203,1,2,0:0:0:0:
438,243,123300,1,2,0:0:0:0:
438,243,123397,6,0,P|468:203|466:138,1,87.5,6|2,1:2|0:0,0:0:0:0:
502,62,123783,2,0,L|436:44,1,43.75,6|2,1:2|0:0,0:0:0:0:
412,20,123977,2,0,L|300:40,2,87.5,2|6|2,3:2|1:2|3:2,0:0:0:0:
364,147,124558,102,0,B|278:129,1,87.5,6|2,1:2|0:0,0:0:0:0:
249,141,124848,1,2,0:0:0:0:
210,49,125041,1,2,0:0:0:0:
197,58,125138,2,0,B|161:77|161:77|111:63,1,87.5,2|6,3:2|1:2,0:0:0:0:
93,40,125429,1,2,0:0:0:0:
31,114,125622,1,2,0:0:0:0:
40,124,125719,6,0,L|64:230,1,87.5,6|0,1:2|0:0,0:0:0:0:
97,232,126009,2,0,P|120:280|78:325,1,87.5,2|2,0:0|0:3,0:0:0:0:
92,356,126299,2,0,P|44:378|-2:347,2,87.5,2|6|0,3:2|1:2|3:2,0:0:0:0:
202,361,126880,102,0,L|309:387,1,87.5,6|0,1:2|3:2,0:0:0:0:
382,343,127267,2,0,B|396:297|396:297|361:250,1,87.5,6|0,1:2|3:2,0:0:0:0:
442,198,127654,1,6,1:2:0:0:
512,133,127848,1,0,3:2:0:0:
512,133,127945,1,0,0:0:0:0:
512,133,128041,6,0,P|482:91|424:84,1,87.5,4|0,1:0|3:2,0:0:0:0:
365,30,128429,2,0,P|339:69|292:82,1,87.5,6|0,1:2|3:2,0:0:0:0:
231,23,128816,1,6,1:2:0:0:
169,92,129009,1,0,3:2:0:0:
61,71,129203,102,0,L|90:177,1,87.5,6|0,1:2|3:2,0:0:0:0:
54,249,129590,2,0,L|3:233,3,29.1666666666667,6|2|2|2,1:2|0:3|3:2|0:0,0:0:0:0:
101,341,129977,2,0,L|152:357,3,29.1666666666667,6|2|2|2,1:2|0:3|3:2|0:0,0:0:0:0:
1,68,140428,54,0,P|42:20|117:29,1,132.999996448517,6|2,1:2|1:2,0:0:0:0:
154,105,141008,1,2,0:0:0:0:
154,105,141202,2,0,P|129:133|92:139,1,66.4999982242585,2|2,1:2|0:0,0:0:0:0:
46,200,141589,22,0,L|67:281,2,66.4999982242585,0|2|2,1:2|0:0|1:2,0:0:0:0:
243,219,142363,2,0,L|264:300,1,66.4999982242585,0|2,1:2|0:0,0:0:0:0:
212,353,142750,86,0,P|178:344|152:307,2,66.4999982242585,0|2|0,1:2|0:0|1:2,0:0:0:0:
297,375,143331,1,2,0:0:0:0:
297,375,143525,2,0,L|368:355,1,66.4999982242585,0|2,1:2|0:0,0:0:0:0:
444,384,143912,21,0,1:2:0:0:
494,319,144105,2,0,L|510:242,2,66.4999982242585,2|0|0,0:0|1:2|0:0,0:0:0:0:
415,271,144686,1,0,1:2:0:0:
415,271,144879,1,0,0:0:0:0:
415,271,145073,86,0,P|407:219|371:163,2,99.7499973363877,0|2|2,1:2|0:0|0:0,0:0:0:0:
306,242,145847,1,2,1:2:0:0:
306,242,146234,22,0,P|264:211|198:196,2,99.7499973363877,0|2|2,1:2|0:0|0:0,0:0:0:0:
152,321,147202,1,2,0:0:0:0:
152,321,147396,86,0,P|100:328|24:392,1,132.999996448517,2|0,1:2|1:2,0:0:0:0:
10,278,147976,1,2,0:0:0:0:
10,278,148170,2,0,L|25:197,1,66.4999982242585,2|2,1:2|0:3,0:0:0:0:
79,146,148557,22,0,P|56:120|13:109,2,66.4999982242585,2|2|2,1:2|0:3|1:2,0:0:0:0:
145,85,149137,1,2,0:0:0:0:
145,85,149331,2,0,L|217:67,1,66.4999982242585,2|2,1:2|0:3,0:0:0:0:
286,5,149718,6,0,B|365:-6|348:71|461:52,1,161.000003070831,6|2,1:2|1:0,0:0:0:0:
494,136,150299,1,2,0:3:0:0:
442,220,150492,2,0,P|401:227|367:268,1,80.5000015354157,10|2,1:0|0:3,0:0:0:0:
468,348,150879,6,0,P|428:353|392:336,1,80.5000015354157,2|2,1:0|0:3,0:0:0:0:
312,378,151267,2,0,P|257:335|162:298,1,161.000003070831,2|10,1:0|1:0,0:0:0:0:
72,330,151847,1,2,0:1:0:0:
32,246,152041,101,2,1:0:0:0:
32,246,152234,2,0,P|21:203|-1:148,2,80.5000015354157,2|2|2,0:3|1:0|0:3,0:0:0:0:
140,191,152815,2,0,P|149:151|163:114,2,80.5000015354157,10|2|2,1:0|0:3|1:0,0:0:0:0:
68,100,153396,21,2,0:1:0:0:
131,28,153589,2,0,P|161:7|223:6,1,80.5000015354157,2|2,1:0|0:3,0:0:0:0:
278,49,153976,1,10,1:0:0:0:
367,107,154170,1,2,0:1:0:0:
367,107,154267,1,0,0:0:0:0:
367,107,154363,86,0,P|406:102|439:80,1,80.5000015354157,6|2,1:2|0:3,0:0:0:0:
456,194,154751,1,2,1:0:0:0:
456,194,154945,1,2,0:3:0:0:
375,230,155137,2,0,P|398:262|434:279,1,80.5000015354157,10|2,1:0|0:3,0:0:0:0:
347,344,155525,5,2,1:0:0:0:
347,344,155718,1,2,0:3:0:0:
270,295,155912,2,0,P|254:331|256:371,2,80.5000015354157,2|2|10,1:0|0:3|1:0,0:0:0:0:
173,336,156493,1,2,0:1:0:0:
173,336,156686,102,0,P|139:290|37:292,1,161.000003070831,6|2,1:2|1:0,0:0:0:0:
0,199,157267,2,0,P|34:153|136:155,1,161.000003070831,2|2,0:3|0:3,0:0:0:0:
206,97,157847,22,0,P|202:57|231:23,1,80.5000015354157,2|2,1:0|0:1,0:0:0:0:
325,38,158235,2,0,L|341:-24,2,40.2500007677078,2|2|2,1:0|0:3|0:3,0:0:0:0:
410,110,158621,2,0,L|426:48,3,40.2500007677078,10|2|2|2,1:0|0:3|0:1|0:3,0:0:0:0:
441,153,159008,86,0,P|471:200|389:272,1,161.000003070831,6|2,1:2|1:0,0:0:0:0:
438,366,159589,1,2,0:3:0:0:
341,383,159783,2,0,P|309:358|273:341,1,80.5000015354157,10|2,1:0|0:3,0:0:0:0:
193,283,160170,6,0,P|161:308|125:325,1,80.5000015354157,2|2,1:0|0:3,0:0:0:0:
31,285,160557,2,0,B|3:241|3:241|47:133,1,161.000003070831,2|10,1:0|1:0,0:0:0:0:
0,56,161137,1,2,0:1:0:0:
93,14,161332,101,2,1:0:0:0:
93,14,161525,2,0,P|131:10|173:51,2,80.5000015354157,2|2|2,0:3|1:0|0:3,0:0:0:0:
259,21,162105,2,0,P|281:51|266:108,2,80.5000015354157,10|2|2,1:0|0:3|1:0,0:0:0:0:
195,117,162686,21,2,0:1:0:0:
118,171,162879,2,0,L|137:253,1,80.5000015354157,2|2,1:0|0:3,0:0:0:0:
219,314,163267,1,10,1:0:0:0:
219,314,163460,1,2,0:1:0:0:
306,367,163654,86,0,L|391:347,1,80.5000015354157,6|2,1:2|0:3,0:0:0:0:
429,364,163944,2,0,L|447:285,1,80.5000015354157,2|0,0:0|0:0,0:0:0:0:
418,253,164234,1,2,0:0:0:0:
495,186,164428,2,0,L|513:107,1,80.5000015354157,10|2,1:0|0:3,0:0:0:0:
458,35,164815,5,2,1:0:0:0:
458,35,165008,2,0,P|420:34|378:66,1,80.5000015354157,2|2,0:0|1:0,0:0:0:0:
304,9,165396,2,0,P|267:41|249:119,1,120.750002303124,2|0,0:0|0:0,0:0:0:0:
266,131,165783,1,2,0:1:0:0:
315,256,165976,102,0,P|274:230|185:210,1,120.750002303124,6|2,1:2|0:0,0:0:0:0:
175,242,166363,2,0,L|198:327,1,80.5000015354157,2|2,1:0|0:0,0:0:0:0:
81,346,166750,2,0,L|71:385,3,40.2500007677078,2|2|2|2,1:0|0:3|0:3|0:3,0:0:0:0:
36,316,167137,22,0,P|11:283|21:229,1,80.5000015354157,2|2,1:0|0:3,0:0:0:0:
79,174,167525,1,2,1:0:0:0:
73,159,167622,1,2,3:0:0:0:
153,100,167815,1,2,0:3:0:0:
164,90,167912,2,0,P|164:50|139:19,1,80.5000015354157,10|2,1:0|3:0,0:0:0:0:
265,54,168299,6,0,P|291:32|343:22,1,70,6|0,1:2|0:0,0:0:0:0:
369,26,168589,2,0,P|397:43|424:89,1,70,2|0,0:0|0:0,0:0:0:0:
410,104,168879,1,2,0:0:0:0:
361,218,169073,1,0,1:0:0:0:
376,214,169170,2,0,L|460:196,1,70,2|0,0:0|0:0,0:0:0:0:
487,215,169460,6,0,L|513:113,2,105,2|2|2,1:2|0:0|0:0,0:0:0:0:
507,361,170331,1,2,0:0:0:0:
489,365,170428,1,2,0:0:0:0:
398,321,170621,102,0,L|322:340,1,70,2|0,1:2|0:0,0:0:0:0:
298,367,170912,2,0,L|222:386,1,70,2|0,0:0|0:0,0:0:0:0:
192,366,171202,1,2,0:0:0:0:
74,336,171396,1,0,1:0:0:0:
85,328,171492,2,0,P|101:297|103:246,1,70,2|0,0:0|0:0,0:0:0:0:
142,230,171783,6,0,P|120:187|57:162,1,105,2|2,1:2|0:0,0:0:0:0:
20,167,172170,2,0,L|10:127,3,23.3333333333333,0|2|2|2,1:0|0:0|0:0|0:0,0:0:0:0:
60,61,172557,2,0,L|50:18,3,23.3333333333333,0|2|2|2,1:0|0:0|0:0|0:0,0:0:0:0:
157,2,172944,102,0,L|232:17,1,70,6|0,1:2|0:0,0:0:0:0:
266,44,173234,2,0,L|341:59,1,70,2|0,0:0|0:0,0:0:0:0:
367,29,173525,1,2,0:0:0:0:
438,107,173718,1,0,1:0:0:0:
441,122,173815,2,0,L|461:203,1,70,2|0,0:0|0:0,0:0:0:0:
428,233,174105,6,0,P|481:239|513:282,2,105,2|2|2,1:2|0:0|0:0,0:0:0:0:
267,176,174976,1,2,0:0:0:0:
246,180,175073,1,2,0:0:0:0:
176,249,175267,102,0,P|193:284|229:302,1,70,2|0,1:2|0:0,0:0:0:0:
259,333,175557,2,0,L|336:317,1,70,2|0,0:0|0:0,0:0:0:0:
343,298,175847,1,2,0:0:0:0:
372,203,176041,1,0,1:0:0:0:
386,206,176137,2,0,L|460:223,1,70,2|0,0:0|0:0,0:0:0:0:
494,198,176428,5,4,1:2:0:0:
499,32,176815,2,0,L|491:70,3,23.3333333333333,2|2|2|2,0:0|0:0|0:0|0:0,0:0:0:0:
405,15,177202,2,0,L|397:53,3,23.3333333333333,2|2|2|2,0:0|0:0|0:0|0:0,0:0:0:0:
