osu file format v14

[General]
AudioFilename: wa.ogg
AudioLeadIn: 0
PreviewTime: 72108
Countdown: 0
SampleSet: Normal
StackLeniency: 0.7
Mode: 1
LetterboxInBreaks: 0
WidescreenStoryboard: 1

[Editor]
DistanceSpacing: 0.8
BeatDivisor: 4
GridSize: 32
TimelineZoom: 2.899999

[Metadata]
Title:World Ender
TitleUnicode:魔王
Artist:sasakure.UK x TJ.hangneil
ArtistUnicode:sasakure.‌UK × TJ.hangneil
Creator:MTNTWarz
Version:Muzukashii
Source:Arcaea
Tags:taikoseania [zeth] irone osu aorimiku chapter 6 final verdict axiom of the end video game instrumental electronic breakcore maou
BeatmapID:3702504
BeatmapSetID:1803208

[Difficulty]
HPDrainRate:6
CircleSize:5
OverallDifficulty:5
ApproachRate:5
SliderMultiplier:1.3
SliderTickRate:1

[Events]
//Background and Video events
0,0,"uktj.jpg",0,40
//Break Periods
2,22327,26069
2,135141,138883
//Storyboard Layer 0 (Background)
//Storyboard Layer 1 (Fail)
//Storyboard Layer 2 (Pass)
//Storyboard Layer 3 (Foreground)
//Storyboard Layer 4 (Overlay)
//Storyboard Sound Samples

[TimingPoints]
643,222.222222222222,6,1,0,60,1,0
643,-96.1538461538461,6,1,0,60,0,0
11309,222.222222222222,5,1,0,50,1,0
11309,-96.1538461538461,5,1,0,50,0,0
19086,240,6,1,0,50,1,0
19086,-89.2857142857143,6,1,0,50,0,0
19326,266.666666666667,6,1,0,50,1,8
19326,-80,6,1,0,50,0,8
19592,375,6,1,0,50,1,8
19592,-57.1428571428571,6,1,0,50,0,8
19967,500,6,1,0,50,1,8
19967,-42.7350427350427,6,1,0,50,0,8
20467,664.267921394963,6,1,0,50,1,8
20467,-32.4675324675325,6,1,0,50,0,8
22127,214.285714285714,6,1,0,30,1,0
27269,-111.111111111111,6,1,0,30,0,0
32412,214.285714285714,8,1,0,100,1,8
34126,214.285714285714,6,1,0,70,1,0
44411,-100,6,1,0,70,0,1
54697,214.285714285714,5,1,0,60,1,0
54697,-117.647058823529,5,1,0,60,0,0
63268,315.789473684211,7,1,0,50,1,0
63268,-83.6820083682008,7,1,0,50,0,0
63899,-100,7,1,0,50,0,0
72110,315.789473684211,4,1,0,80,1,1
74636,315.789473684211,6,1,0,80,1,1
76530,315.789473684211,4,1,0,80,1,1
79056,315.789473684211,6,1,0,80,1,1
80950,315.789473684211,6,1,0,80,1,0
80950,-90.9090909090909,6,1,0,80,0,0
88528,300,6,1,0,80,1,1
88528,-95.2380952380952,6,1,0,80,0,1
95128,300,7,1,0,100,1,0
95128,-95.2380952380952,7,1,0,100,0,0
97228,214.285714285714,8,1,0,40,1,0
98942,214.285714285714,4,1,0,60,1,0
98942,-125,4,1,0,60,0,0
112656,-100,4,1,0,80,0,1
126370,214.285714285714,5,1,0,70,1,0
126691,-125,5,1,0,70,0,0
130655,-111.111111111111,5,1,0,70,0,0
134941,214.285714285714,6,1,0,30,1,0
140083,-100,6,1,0,70,0,0

[HitObjects]
256,192,643,5,12,0:0:0:0:
256,192,1976,1,0,0:0:0:0:
256,192,3309,1,8,0:0:0:0:
256,192,5976,1,12,0:0:0:0:
256,192,7309,1,0,0:0:0:0:
256,192,7976,1,8,0:0:0:0:
256,192,8642,1,8,0:0:0:0:
256,192,10642,1,8,0:0:0:0:
256,192,10865,1,8,0:0:0:0:
256,192,11087,1,8,0:0:0:0:
256,192,11309,1,0,0:0:0:0:
256,192,11642,1,8,0:0:0:0:
256,192,11975,1,8,0:0:0:0:
256,192,12197,1,8,0:0:0:0:
256,192,12420,1,0,0:0:0:0:
256,192,12753,1,8,0:0:0:0:
256,192,13086,1,8,0:0:0:0:
256,192,13308,1,0,0:0:0:0:
256,192,13531,1,0,0:0:0:0:
256,192,13864,1,8,0:0:0:0:
256,192,14197,1,8,0:0:0:0:
256,192,14420,1,0,0:0:0:0:
256,192,14642,1,8,0:0:0:0:
256,192,14864,1,8,0:0:0:0:
256,192,15086,1,8,0:0:0:0:
256,192,15308,1,0,0:0:0:0:
256,192,15531,1,8,0:0:0:0:
256,192,15753,1,0,0:0:0:0:
256,192,16086,1,8,0:0:0:0:
256,192,16420,1,8,0:0:0:0:
256,192,16642,1,8,0:0:0:0:
256,192,16864,1,0,0:0:0:0:
256,192,17197,1,8,0:0:0:0:
256,192,17531,1,8,0:0:0:0:
256,192,17753,1,0,0:0:0:0:
256,192,17975,1,0,0:0:0:0:
256,192,18308,1,8,0:0:0:0:
256,192,18642,1,8,0:0:0:0:
256,192,18864,1,0,0:0:0:0:
256,192,19086,1,8,0:0:0:0:
256,192,19326,1,8,0:0:0:0:
256,192,19592,1,8,0:0:0:0:
256,192,19967,1,0,0:0:0:0:
256,192,20467,8,8,21795,0:0:0:0:
256,192,22127,5,4,0:0:0:0:
256,192,27269,5,0,0:0:0:0:
256,192,27376,1,0,0:0:0:0:
256,192,27484,1,8,0:0:0:0:
256,192,27698,1,8,0:0:0:0:
256,192,27805,1,8,0:0:0:0:
256,192,27912,1,0,0:0:0:0:
256,192,28019,1,0,0:0:0:0:
256,192,28126,1,8,0:0:0:0:
256,192,28448,1,8,0:0:0:0:
256,192,28555,1,0,0:0:0:0:
256,192,28662,1,0,0:0:0:0:
256,192,28769,1,8,0:0:0:0:
256,192,28984,1,8,0:0:0:0:
256,192,29037,1,8,0:0:0:0:
256,192,29091,1,8,0:0:0:0:
256,192,29198,1,0,0:0:0:0:
256,192,29305,1,0,0:0:0:0:
256,192,29412,1,8,0:0:0:0:
256,192,29519,1,8,0:0:0:0:
256,192,29734,1,8,0:0:0:0:
256,192,29841,1,0,0:0:0:0:
256,192,29948,1,0,0:0:0:0:
256,192,30055,1,8,0:0:0:0:
256,192,30269,1,8,0:0:0:0:
256,192,30376,1,8,0:0:0:0:
256,192,30484,1,0,0:0:0:0:
256,192,30591,1,0,0:0:0:0:
256,192,30698,1,8,0:0:0:0:
256,192,31019,1,8,0:0:0:0:
256,192,31126,1,0,0:0:0:0:
256,192,31234,1,0,0:0:0:0:
256,192,31341,1,8,0:0:0:0:
256,192,31555,1,8,0:0:0:0:
256,192,31609,1,8,0:0:0:0:
256,192,31662,1,8,0:0:0:0:
256,192,31769,1,0,0:0:0:0:
256,192,31876,1,0,0:0:0:0:
256,192,31984,1,8,0:0:0:0:
256,192,32198,1,8,0:0:0:0:
256,192,32412,2,0,L|320:192,14,65
256,192,34126,1,4,0:0:0:0:
256,192,34554,1,0,0:0:0:0:
256,192,34768,1,8,0:0:0:0:
256,192,34983,1,0,0:0:0:0:
256,192,35197,1,8,0:0:0:0:
256,192,35251,1,8,0:0:0:0:
256,192,35304,1,8,0:0:0:0:
256,192,35411,1,0,0:0:0:0:
256,192,35518,1,8,0:0:0:0:
256,192,35626,1,0,0:0:0:0:
256,192,35840,1,8,0:0:0:0:
256,192,36054,1,0,0:0:0:0:
256,192,36161,1,8,0:0:0:0:
256,192,36268,1,8,0:0:0:0:
256,192,36376,1,0,0:0:0:0:
256,192,36483,1,8,0:0:0:0:
256,192,36697,1,0,0:0:0:0:
256,192,37125,1,0,0:0:0:0:
256,192,37340,1,8,0:0:0:0:
256,192,37554,1,0,0:0:0:0:
256,192,37661,1,0,0:0:0:0:
256,192,37768,1,8,0:0:0:0:
256,192,37875,1,8,0:0:0:0:
256,192,37983,1,8,0:0:0:0:
256,192,38197,1,8,0:0:0:0:
256,192,38304,1,0,0:0:0:0:
256,192,38411,1,8,0:0:0:0:
256,192,38465,1,8,0:0:0:0:
256,192,38518,1,8,0:0:0:0:
256,192,38625,1,0,0:0:0:0:
256,192,38733,1,0,0:0:0:0:
256,192,38840,1,8,0:0:0:0:
256,192,39054,1,8,0:0:0:0:
256,192,39268,1,4,0:0:0:0:
256,192,39697,1,0,0:0:0:0:
256,192,39911,1,8,0:0:0:0:
256,192,40125,1,0,0:0:0:0:
256,192,40340,1,8,0:0:0:0:
256,192,40393,1,8,0:0:0:0:
256,192,40447,1,8,0:0:0:0:
256,192,40554,1,0,0:0:0:0:
256,192,40661,1,8,0:0:0:0:
256,192,40768,1,0,0:0:0:0:
256,192,40983,1,0,0:0:0:0:
256,192,41090,1,0,0:0:0:0:
256,192,41197,1,8,0:0:0:0:
256,192,41304,1,0,0:0:0:0:
256,192,41411,1,8,0:0:0:0:
256,192,41625,1,8,0:0:0:0:
256,192,41840,1,0,0:0:0:0:
256,192,42268,1,0,0:0:0:0:
256,192,42483,1,8,0:0:0:0:
256,192,42697,1,0,0:0:0:0:
256,192,42804,1,0,0:0:0:0:
256,192,42911,1,8,0:0:0:0:
256,192,43018,1,8,0:0:0:0:
256,192,43125,1,8,0:0:0:0:
256,192,43340,1,8,0:0:0:0:
256,192,43447,1,0,0:0:0:0:
256,192,43554,1,8,0:0:0:0:
256,192,43608,1,8,0:0:0:0:
256,192,43661,1,8,0:0:0:0:
256,192,43768,1,0,0:0:0:0:
256,192,43875,1,0,0:0:0:0:
256,192,43983,1,8,0:0:0:0:
256,192,44411,1,12,0:0:0:0:
256,192,44733,1,8,0:0:0:0:
256,192,45054,1,0,0:0:0:0:
256,192,45268,1,8,0:0:0:0:
256,192,45375,1,0,0:0:0:0:
256,192,45483,1,8,0:0:0:0:
256,192,45536,1,8,0:0:0:0:
256,192,45590,1,8,0:0:0:0:
256,192,45697,1,0,0:0:0:0:
256,192,45804,1,8,0:0:0:0:
256,192,45911,1,0,0:0:0:0:
256,192,46125,1,0,0:0:0:0:
256,192,46233,1,0,0:0:0:0:
256,192,46340,1,8,0:0:0:0:
256,192,46447,1,0,0:0:0:0:
256,192,46554,1,8,0:0:0:0:
256,192,46661,1,8,0:0:0:0:
256,192,46768,1,0,0:0:0:0:
256,192,46983,1,12,0:0:0:0:
256,192,47304,1,8,0:0:0:0:
256,192,47625,1,0,0:0:0:0:
256,192,47840,1,8,0:0:0:0:
256,192,47947,1,0,0:0:0:0:
256,192,48161,1,8,0:0:0:0:
256,192,48268,1,8,0:0:0:0:
256,192,48375,1,0,0:0:0:0:
256,192,48483,1,8,0:0:0:0:
256,192,48697,1,8,0:0:0:0:
256,192,48804,1,0,0:0:0:0:
256,192,48911,1,8,0:0:0:0:
256,192,48965,1,8,0:0:0:0:
256,192,49018,1,8,0:0:0:0:
256,192,49125,1,0,0:0:0:0:
256,192,49233,1,0,0:0:0:0:
256,192,49340,1,0,0:0:0:0:
256,192,49554,1,12,0:0:0:0:
256,192,49875,1,8,0:0:0:0:
256,192,50197,1,0,0:0:0:0:
256,192,50411,1,8,0:0:0:0:
256,192,50518,1,0,0:0:0:0:
256,192,50625,1,8,0:0:0:0:
256,192,50679,1,8,0:0:0:0:
256,192,50733,1,8,0:0:0:0:
256,192,50840,1,0,0:0:0:0:
256,192,50947,1,8,0:0:0:0:
256,192,51054,1,0,0:0:0:0:
256,192,51268,1,0,0:0:0:0:
256,192,51375,1,0,0:0:0:0:
256,192,51483,1,8,0:0:0:0:
256,192,51590,1,0,0:0:0:0:
256,192,51697,1,8,0:0:0:0:
256,192,51804,1,8,0:0:0:0:
256,192,51911,1,0,0:0:0:0:
256,192,52125,1,12,0:0:0:0:
256,192,52447,1,8,0:0:0:0:
256,192,52768,1,0,0:0:0:0:
256,192,52983,1,8,0:0:0:0:
256,192,53090,1,0,0:0:0:0:
256,192,53304,1,8,0:0:0:0:
256,192,53411,1,0,0:0:0:0:
256,192,53518,1,0,0:0:0:0:
256,192,53625,1,8,0:0:0:0:
256,192,53733,1,0,0:0:0:0:
256,192,53840,1,8,0:0:0:0:
256,192,54054,1,8,0:0:0:0:
256,192,54161,1,8,0:0:0:0:
256,192,54268,1,8,0:0:0:0:
256,192,54375,1,8,0:0:0:0:
256,192,54483,1,8,0:0:0:0:
256,192,54697,1,0,0:0:0:0:
256,192,55125,1,0,0:0:0:0:
256,192,55339,1,8,0:0:0:0:
256,192,55554,1,8,0:0:0:0:
256,192,55768,1,0,0:0:0:0:
256,192,56197,1,0,0:0:0:0:
256,192,56411,1,0,0:0:0:0:
256,192,56625,1,8,0:0:0:0:
256,192,56839,1,0,0:0:0:0:
256,192,57268,1,0,0:0:0:0:
256,192,57482,1,8,0:0:0:0:
256,192,57696,1,0,0:0:0:0:
256,192,57911,1,8,0:0:0:0:
256,192,58339,1,0,0:0:0:0:
256,192,58554,1,8,0:0:0:0:
256,192,58768,1,8,0:0:0:0:
256,192,58982,1,0,0:0:0:0:
256,192,59411,1,0,0:0:0:0:
256,192,59625,1,8,0:0:0:0:
256,192,59839,1,0,0:0:0:0:
256,192,60054,1,8,0:0:0:0:
256,192,60482,1,8,0:0:0:0:
256,192,60696,1,8,0:0:0:0:
256,192,60911,1,8,0:0:0:0:
256,192,61125,1,0,0:0:0:0:
256,192,61554,1,0,0:0:0:0:
256,192,61768,1,8,0:0:0:0:
256,192,61982,1,8,0:0:0:0:
256,192,62196,1,0,0:0:0:0:
256,192,62411,1,0,0:0:0:0:
256,192,62625,1,8,0:0:0:0:
256,192,62839,1,0,0:0:0:0:
256,192,63054,1,8,0:0:0:0:
256,192,63268,1,0,0:0:0:0:
256,192,63899,1,8,0:0:0:0:
256,192,64531,1,0,0:0:0:0:
256,192,64846,1,8,0:0:0:0:
256,192,65478,1,8,0:0:0:0:
256,192,65794,1,0,0:0:0:0:
256,192,66110,1,0,0:0:0:0:
256,192,66189,1,0,0:0:0:0:
256,192,66268,1,0,0:0:0:0:
256,192,66425,1,8,0:0:0:0:
256,192,67689,1,0,0:0:0:0:
256,192,68320,1,8,0:0:0:0:
256,192,68952,1,0,0:0:0:0:
256,192,69268,1,8,0:0:0:0:
256,192,69899,1,8,0:0:0:0:
256,192,70215,1,0,0:0:0:0:
256,192,70531,1,0,0:0:0:0:
256,192,70610,1,0,0:0:0:0:
256,192,70689,1,0,0:0:0:0:
256,192,70846,1,8,0:0:0:0:
256,192,72110,5,12,0:0:0:0:
256,192,72425,1,0,0:0:0:0:
256,192,72583,1,8,0:0:0:0:
256,192,73057,1,8,0:0:0:0:
256,192,73136,1,8,0:0:0:0:
256,192,73215,1,8,0:0:0:0:
256,192,73373,1,0,0:0:0:0:
256,192,73531,1,8,0:0:0:0:
256,192,73846,1,8,0:0:0:0:
256,192,74004,1,0,0:0:0:0:
256,192,74083,1,0,0:0:0:0:
256,192,74162,1,0,0:0:0:0:
256,192,74320,1,8,0:0:0:0:
256,192,74478,1,0,0:0:0:0:
256,192,74636,1,8,0:0:0:0:
256,192,74951,1,8,0:0:0:0:
256,192,75109,1,0,0:0:0:0:
256,192,75188,1,0,0:0:0:0:
256,192,75267,1,0,0:0:0:0:
256,192,75583,1,8,0:0:0:0:
256,192,75662,1,8,0:0:0:0:
256,192,75741,1,8,0:0:0:0:
256,192,75899,1,8,0:0:0:0:
256,192,76057,1,0,0:0:0:0:
256,192,76214,1,8,0:0:0:0:
256,192,76530,1,8,0:0:0:0:
256,192,76845,1,0,0:0:0:0:
256,192,77003,1,8,0:0:0:0:
256,192,77477,1,8,0:0:0:0:
256,192,77556,1,8,0:0:0:0:
256,192,77635,1,8,0:0:0:0:
256,192,77793,1,0,0:0:0:0:
256,192,77951,1,8,0:0:0:0:
256,192,78266,1,8,0:0:0:0:
256,192,78424,1,0,0:0:0:0:
256,192,78503,1,0,0:0:0:0:
256,192,78582,1,0,0:0:0:0:
256,192,78740,1,8,0:0:0:0:
256,192,78898,1,8,0:0:0:0:
256,192,79056,1,0,0:0:0:0:
256,192,79292,1,0,0:0:0:0:
256,192,79529,1,8,0:0:0:0:
256,192,79766,1,0,0:0:0:0:
256,192,80003,1,8,0:0:0:0:
256,192,80240,1,8,0:0:0:0:
256,192,80477,1,0,0:0:0:0:
256,192,80713,1,0,0:0:0:0:
256,192,80950,1,12,0:0:0:0:
256,192,81424,1,4,0:0:0:0:
256,192,81898,1,12,0:0:0:0:
256,192,82371,1,4,0:0:0:0:
256,192,82845,1,12,0:0:0:0:
256,192,83319,1,12,0:0:0:0:
256,192,83792,1,4,0:0:0:0:
256,192,84266,1,4,0:0:0:0:
256,192,84740,1,4,0:0:0:0:
256,192,85213,1,12,0:0:0:0:
256,192,85687,1,12,0:0:0:0:
256,192,86161,1,4,0:0:0:0:
256,192,86634,1,8,0:0:0:0:
256,192,86871,1,0,0:0:0:0:
256,192,87108,1,8,0:0:0:0:
256,192,87266,1,0,0:0:0:0:
256,192,87345,1,0,0:0:0:0:
256,192,87424,1,0,0:0:0:0:
256,192,87582,1,8,0:0:0:0:
256,192,87819,1,8,0:0:0:0:
256,192,88056,1,8,0:0:0:0:
256,192,88213,1,0,0:0:0:0:
256,192,88292,1,0,0:0:0:0:
256,192,88371,1,0,0:0:0:0:
256,192,88528,1,12,0:0:0:0:
256,192,88753,1,8,0:0:0:0:
256,192,88978,1,4,0:0:0:0:
256,192,89203,1,0,0:0:0:0:
256,192,89428,1,12,0:0:0:0:
256,192,89653,1,8,0:0:0:0:
256,192,89878,1,4,0:0:0:0:
256,192,90328,1,12,0:0:0:0:
256,192,90553,1,0,0:0:0:0:
256,192,90778,1,12,0:0:0:0:
256,192,91003,1,8,0:0:0:0:
256,192,91228,1,4,0:0:0:0:
256,192,91453,1,8,0:0:0:0:
256,192,91678,1,4,0:0:0:0:
256,192,92128,1,12,0:0:0:0:
256,192,92353,1,0,0:0:0:0:
256,192,92578,1,4,0:0:0:0:
256,192,92803,1,8,0:0:0:0:
256,192,93028,1,12,0:0:0:0:
256,192,93253,1,0,0:0:0:0:
256,192,93478,1,12,0:0:0:0:
256,192,93928,1,8,0:0:0:0:
256,192,94078,1,0,0:0:0:0:
256,192,94153,1,0,0:0:0:0:
256,192,94228,1,0,0:0:0:0:
256,192,94378,1,8,0:0:0:0:
256,192,94528,1,0,0:0:0:0:
256,192,94603,1,0,0:0:0:0:
256,192,94678,1,0,0:0:0:0:
256,192,94828,1,8,0:0:0:0:
256,192,94978,1,0,0:0:0:0:
256,192,95128,12,0,97228,0:0:0:0:
256,192,98942,5,0,0:0:0:0:
256,192,99156,1,0,0:0:0:0:
256,192,99370,1,8,0:0:0:0:
256,192,99477,1,8,0:0:0:0:
256,192,99692,1,8,0:0:0:0:
256,192,99799,1,0,0:0:0:0:
256,192,100120,1,0,0:0:0:0:
256,192,100227,1,8,0:0:0:0:
256,192,100334,1,8,0:0:0:0:
256,192,100442,1,0,0:0:0:0:
256,192,100656,1,0,0:0:0:0:
256,192,101084,1,8,0:0:0:0:
256,192,101192,1,0,0:0:0:0:
256,192,101406,1,8,0:0:0:0:
256,192,101513,1,0,0:0:0:0:
256,192,101620,1,8,0:0:0:0:
256,192,101727,1,8,0:0:0:0:
256,192,101942,1,0,0:0:0:0:
256,192,102049,1,0,0:0:0:0:
256,192,102156,1,0,0:0:0:0:
256,192,102370,1,8,0:0:0:0:
256,192,102584,1,0,0:0:0:0:
256,192,102692,1,8,0:0:0:0:
256,192,103013,1,8,0:0:0:0:
256,192,103227,1,8,0:0:0:0:
256,192,103334,1,8,0:0:0:0:
256,192,103442,1,0,0:0:0:0:
256,192,103656,1,8,0:0:0:0:
256,192,103763,1,0,0:0:0:0:
256,192,104084,1,0,0:0:0:0:
256,192,104299,1,8,0:0:0:0:
256,192,104513,1,0,0:0:0:0:
256,192,104620,1,8,0:0:0:0:
256,192,104727,1,8,0:0:0:0:
256,192,104941,1,8,0:0:0:0:
256,192,105049,1,0,0:0:0:0:
256,192,105263,1,0,0:0:0:0:
256,192,105370,1,8,0:0:0:0:
256,192,105477,1,0,0:0:0:0:
256,192,105584,1,8,0:0:0:0:
256,192,105799,1,0,0:0:0:0:
256,192,106013,1,0,0:0:0:0:
256,192,106227,1,8,0:0:0:0:
256,192,106334,1,8,0:0:0:0:
256,192,106549,1,8,0:0:0:0:
256,192,106656,1,0,0:0:0:0:
256,192,106977,1,0,0:0:0:0:
256,192,107084,1,8,0:0:0:0:
256,192,107191,1,8,0:0:0:0:
256,192,107299,1,0,0:0:0:0:
256,192,107513,1,0,0:0:0:0:
256,192,107941,1,8,0:0:0:0:
256,192,108049,1,0,0:0:0:0:
256,192,108263,1,8,0:0:0:0:
256,192,108370,1,0,0:0:0:0:
256,192,108477,1,8,0:0:0:0:
256,192,108584,1,8,0:0:0:0:
256,192,108799,1,0,0:0:0:0:
256,192,108906,1,0,0:0:0:0:
256,192,109013,1,0,0:0:0:0:
256,192,109227,1,8,0:0:0:0:
256,192,109441,1,0,0:0:0:0:
256,192,109549,1,8,0:0:0:0:
256,192,109870,1,8,0:0:0:0:
256,192,110084,1,8,0:0:0:0:
256,192,110191,1,8,0:0:0:0:
256,192,110299,1,0,0:0:0:0:
256,192,110513,1,8,0:0:0:0:
256,192,110620,1,0,0:0:0:0:
256,192,110941,1,0,0:0:0:0:
256,192,111049,1,0,0:0:0:0:
256,192,111156,1,8,0:0:0:0:
256,192,111370,1,0,0:0:0:0:
256,192,111477,1,8,0:0:0:0:
256,192,111584,1,8,0:0:0:0:
256,192,111799,1,8,0:0:0:0:
256,192,111906,1,0,0:0:0:0:
256,192,112120,1,0,0:0:0:0:
256,192,112227,1,8,0:0:0:0:
256,192,112656,1,4,0:0:0:0:
256,192,112977,1,0,0:0:0:0:
256,192,113084,1,8,0:0:0:0:
256,192,113191,1,8,0:0:0:0:
256,192,113299,1,0,0:0:0:0:
256,192,113513,1,8,0:0:0:0:
256,192,113620,1,0,0:0:0:0:
256,192,113727,1,8,0:0:0:0:
256,192,113781,1,8,0:0:0:0:
256,192,113834,1,8,0:0:0:0:
256,192,113941,1,0,0:0:0:0:
256,192,114049,1,8,0:0:0:0:
256,192,114156,1,0,0:0:0:0:
256,192,114370,1,0,0:0:0:0:
256,192,114477,1,0,0:0:0:0:
256,192,114691,1,8,0:0:0:0:
256,192,114799,1,8,0:0:0:0:
256,192,114852,1,8,0:0:0:0:
256,192,114906,1,8,0:0:0:0:
256,192,115013,1,0,0:0:0:0:
256,192,115227,1,0,0:0:0:0:
256,192,115334,1,0,0:0:0:0:
256,192,115441,1,8,0:0:0:0:
256,192,115549,1,8,0:0:0:0:
256,192,115656,1,8,0:0:0:0:
256,192,115763,1,8,0:0:0:0:
256,192,115870,1,0,0:0:0:0:
256,192,116084,1,4,0:0:0:0:
256,192,116406,1,8,0:0:0:0:
256,192,116513,1,0,0:0:0:0:
256,192,116620,1,8,0:0:0:0:
256,192,116727,1,0,0:0:0:0:
256,192,116941,1,0,0:0:0:0:
256,192,117049,1,0,0:0:0:0:
256,192,117156,1,8,0:0:0:0:
256,192,117209,1,8,0:0:0:0:
256,192,117263,1,8,0:0:0:0:
256,192,117370,1,0,0:0:0:0:
256,192,117477,1,8,0:0:0:0:
256,192,117584,1,8,0:0:0:0:
256,192,117799,1,0,0:0:0:0:
256,192,117906,1,0,0:0:0:0:
256,192,118120,1,8,0:0:0:0:
256,192,118227,1,0,0:0:0:0:
256,192,118334,1,8,0:0:0:0:
256,192,118441,1,8,0:0:0:0:
256,192,118656,1,0,0:0:0:0:
256,192,118763,1,0,0:0:0:0:
256,192,118870,1,8,0:0:0:0:
256,192,118977,1,8,0:0:0:0:
256,192,119084,1,8,0:0:0:0:
256,192,119191,1,8,0:0:0:0:
256,192,119299,1,0,0:0:0:0:
256,192,119513,1,4,0:0:0:0:
256,192,119834,1,0,0:0:0:0:
256,192,119941,1,8,0:0:0:0:
256,192,120049,1,8,0:0:0:0:
256,192,120156,1,0,0:0:0:0:
256,192,120370,1,8,0:0:0:0:
256,192,120477,1,0,0:0:0:0:
256,192,120584,1,8,0:0:0:0:
256,192,120638,1,8,0:0:0:0:
256,192,120691,1,8,0:0:0:0:
256,192,120799,1,0,0:0:0:0:
256,192,120906,1,8,0:0:0:0:
256,192,121013,1,0,0:0:0:0:
256,192,121227,1,0,0:0:0:0:
256,192,121334,1,0,0:0:0:0:
256,192,121549,1,8,0:0:0:0:
256,192,121656,1,0,0:0:0:0:
256,192,121763,1,8,0:0:0:0:
256,192,121870,1,8,0:0:0:0:
256,192,122084,1,0,0:0:0:0:
256,192,122191,1,0,0:0:0:0:
256,192,122299,1,8,0:0:0:0:
256,192,122406,1,8,0:0:0:0:
256,192,122513,1,8,0:0:0:0:
256,192,122620,1,8,0:0:0:0:
256,192,122727,1,0,0:0:0:0:
256,192,122941,1,4,0:0:0:0:
256,192,123263,1,8,0:0:0:0:
256,192,123370,1,0,0:0:0:0:
256,192,123477,1,8,0:0:0:0:
256,192,123584,1,0,0:0:0:0:
256,192,123799,1,0,0:0:0:0:
256,192,123906,1,0,0:0:0:0:
256,192,124013,1,8,0:0:0:0:
256,192,124066,1,8,0:0:0:0:
256,192,124120,1,8,0:0:0:0:
256,192,124227,1,0,0:0:0:0:
256,192,124334,1,8,0:0:0:0:
256,192,124441,1,8,0:0:0:0:
256,192,124656,1,0,0:0:0:0:
256,192,124763,1,0,0:0:0:0:
256,192,124977,1,8,0:0:0:0:
256,192,125084,1,0,0:0:0:0:
256,192,125191,1,8,0:0:0:0:
256,192,125299,1,8,0:0:0:0:
256,192,125513,1,0,0:0:0:0:
256,192,125620,1,0,0:0:0:0:
256,192,125727,1,8,0:0:0:0:
256,192,125834,1,8,0:0:0:0:
256,192,125941,1,8,0:0:0:0:
256,192,126049,1,8,0:0:0:0:
256,192,126156,1,0,0:0:0:0:
256,192,126370,1,12,0:0:0:0:
256,192,126691,1,0,0:0:0:0:
256,192,127012,1,0,0:0:0:0:
256,192,127227,1,8,0:0:0:0:
256,192,127441,1,0,0:0:0:0:
256,192,127762,1,8,0:0:0:0:
256,192,128084,1,0,0:0:0:0:
256,192,128298,1,0,0:0:0:0:
256,192,128512,1,8,0:0:0:0:
256,192,128834,1,8,0:0:0:0:
256,192,129155,1,0,0:0:0:0:
256,192,129370,1,0,0:0:0:0:
256,192,129584,1,8,0:0:0:0:
256,192,129798,1,8,0:0:0:0:
256,192,130012,1,8,0:0:0:0:
256,192,130227,1,0,0:0:0:0:
256,192,130441,1,8,0:0:0:0:
256,192,130655,1,4,0:0:0:0:
256,192,130977,1,0,0:0:0:0:
256,192,131298,1,8,0:0:0:0:
256,192,131512,1,8,0:0:0:0:
256,192,131727,1,4,0:0:0:0:
256,192,132048,1,8,0:0:0:0:
256,192,132370,1,0,0:0:0:0:
256,192,132584,1,0,0:0:0:0:
256,192,132798,1,12,0:0:0:0:
256,192,133120,1,8,0:0:0:0:
256,192,133441,1,0,0:0:0:0:
256,192,133655,1,0,0:0:0:0:
256,192,133870,1,8,0:0:0:0:
256,192,134084,1,8,0:0:0:0:
256,192,134191,1,0,0:0:0:0:
256,192,134298,1,8,0:0:0:0:
256,192,134405,1,8,0:0:0:0:
256,192,134512,1,0,0:0:0:0:
256,192,134727,1,8,0:0:0:0:
256,192,134941,1,0,0:0:0:0:
256,192,140083,5,4,0:0:0:0:
256,192,140512,1,8,0:0:0:0:
256,192,140726,1,0,0:0:0:0:
256,192,140941,1,8,0:0:0:0:
256,192,141155,1,8,0:0:0:0:
256,192,141208,1,8,0:0:0:0:
256,192,141262,1,8,0:0:0:0:
256,192,141369,1,0,0:0:0:0:
256,192,141476,1,8,0:0:0:0:
256,192,141583,1,0,0:0:0:0:
256,192,141798,1,8,0:0:0:0:
256,192,142012,1,0,0:0:0:0:
256,192,142119,1,8,0:0:0:0:
256,192,142226,1,8,0:0:0:0:
256,192,142333,1,0,0:0:0:0:
256,192,142441,1,8,0:0:0:0:
256,192,142655,1,0,0:0:0:0:
256,192,143083,1,8,0:0:0:0:
256,192,143298,1,0,0:0:0:0:
256,192,143512,1,8,0:0:0:0:
256,192,143619,1,0,0:0:0:0:
256,192,143726,1,0,0:0:0:0:
256,192,143833,1,8,0:0:0:0:
256,192,143941,1,8,0:0:0:0:
256,192,144048,1,0,0:0:0:0:
256,192,144155,1,8,0:0:0:0:
256,192,144369,1,8,0:0:0:0:
256,192,144423,1,8,0:0:0:0:
256,192,144476,1,8,0:0:0:0:
256,192,144583,1,0,0:0:0:0:
256,192,144691,1,0,0:0:0:0:
256,192,144798,1,8,0:0:0:0:
256,192,145012,1,8,0:0:0:0:
256,192,145226,1,4,0:0:0:0:
256,192,145655,1,8,0:0:0:0:
256,192,145869,1,0,0:0:0:0:
256,192,146083,1,8,0:0:0:0:
256,192,146298,1,8,0:0:0:0:
256,192,146351,1,8,0:0:0:0:
256,192,146405,1,8,0:0:0:0:
256,192,146512,1,0,0:0:0:0:
256,192,146619,1,8,0:0:0:0:
256,192,146726,1,0,0:0:0:0:
256,192,146940,1,0,0:0:0:0:
256,192,147048,1,0,0:0:0:0:
256,192,147155,1,8,0:0:0:0:
256,192,147262,1,0,0:0:0:0:
256,192,147369,1,8,0:0:0:0:
256,192,147798,1,0,0:0:0:0:
256,192,148012,1,8,0:0:0:0:
256,192,148119,1,8,0:0:0:0:
256,192,148226,1,0,0:0:0:0:
256,192,148440,1,8,0:0:0:0:
256,192,148655,1,0,0:0:0:0:
256,192,148762,1,0,0:0:0:0:
256,192,148869,1,8,0:0:0:0:
256,192,148976,1,8,0:0:0:0:
256,192,149083,1,8,0:0:0:0:
256,192,149190,1,0,0:0:0:0:
256,192,149298,1,8,0:0:0:0:
256,192,149512,1,8,0:0:0:0:
256,192,149565,1,8,0:0:0:0:
256,192,149619,1,8,0:0:0:0:
256,192,149726,1,0,0:0:0:0:
256,192,149833,1,0,0:0:0:0:
256,192,149940,1,8,0:0:0:0:
256,192,150155,1,8,0:0:0:0:
256,192,150369,1,4,0:0:0:0:
256,192,150798,1,8,0:0:0:0:
256,192,151012,1,0,0:0:0:0:
256,192,151226,1,8,0:0:0:0:
256,192,151440,1,8,0:0:0:0:
256,192,151494,1,8,0:0:0:0:
256,192,151548,1,8,0:0:0:0:
256,192,151655,1,0,0:0:0:0:
256,192,151762,1,8,0:0:0:0:
256,192,151869,1,0,0:0:0:0:
256,192,152083,1,8,0:0:0:0:
256,192,152298,1,0,0:0:0:0:
256,192,152405,1,8,0:0:0:0:
256,192,152512,1,8,0:0:0:0:
256,192,152619,1,0,0:0:0:0:
256,192,152726,1,8,0:0:0:0:
256,192,152940,1,0,0:0:0:0:
256,192,153369,1,8,0:0:0:0:
256,192,153476,1,0,0:0:0:0:
256,192,153583,1,8,0:0:0:0:
256,192,153690,1,8,0:0:0:0:
256,192,153798,1,0,0:0:0:0:
256,192,154012,1,8,0:0:0:0:
256,192,154119,1,8,0:0:0:0:
256,192,154226,1,0,0:0:0:0:
256,192,154440,1,8,0:0:0:0:
256,192,154548,1,8,0:0:0:0:
256,192,154655,1,8,0:0:0:0:
256,192,154869,1,0,0:0:0:0:
256,192,154976,1,0,0:0:0:0:
256,192,155083,1,8,0:0:0:0:
256,192,155190,1,8,0:0:0:0:
256,192,155298,1,0,0:0:0:0:
256,192,155405,1,8,0:0:0:0:
