osu file format v14

[General]
AudioFilename: audio.mp3
AudioLeadIn: 0
PreviewTime: 649
Countdown: 0
SampleSet: Normal
StackLeniency: 0.7
Mode: 1
LetterboxInBreaks: 0
WidescreenStoryboard: 0

[Editor]
Bookmarks: 31328,46980,60893,107849,121762,135675,149588,224736
DistanceSpacing: 0.6
BeatDivisor: 4
GridSize: 4
TimelineZoom: 1.6

[Metadata]
Title:Snow Song Show
TitleUnicode:Snow Song Show
Artist:sasakure.UK x DECO*27
ArtistUnicode:sasakure.UK×DECO*27
Creator:Senritsu
Version:Kantan
Source:
Tags:hatsune miku vocaloid christmas 初音ミク winter
BeatmapID:1140036
BeatmapSetID:538102

[Difficulty]
HPDrainRate:7
CircleSize:2
OverallDifficulty:4
ApproachRate:5
SliderMultiplier:1.4
SliderTickRate:1

[Events]
//Background and Video events
0,0,"snow.jpg",0,60
//Break Periods
//Storyboard Layer 0 (Background)
//Storyboard Layer 1 (Fail)
//Storyboard Layer 2 (Pass)
//Storyboard Layer 3 (Foreground)
//Storyboard Sound Samples

[TimingPoints]
735,352.941176470588,3,1,0,50,1,0
735,-125,3,1,0,50,0,8
15918,315.789473684211,3,1,0,50,1,8
15918,-112.359550561798,3,1,0,50,0,0
16549,434.782608695652,3,1,0,50,1,8
17418,434.782608695652,4,1,0,75,1,0
78287,-100,4,1,0,75,0,1
92200,-100,4,1,0,75,0,0
172200,326.086956521739,6,1,0,75,1,8
172200,-133.333333333333,6,1,0,75,0,8
179265,352.941176470588,4,1,0,65,1,8
179265,-125,4,1,0,65,0,8
180353,352.941176470588,6,1,0,50,1,8
180353,-125,6,1,0,50,0,8
195176,434.782608695652,4,1,0,75,1,0
196915,-100,4,1,0,75,0,1
210828,-100,4,1,0,75,0,0

[HitObjects]
227,188,735,5,8,0:0:0:0:
221,202,1793,1,0,0:0:0:0:
221,203,2852,1,0,0:0:0:0:
225,193,3911,1,8,0:0:0:0:
225,193,4617,1,0,0:0:0:0:
225,193,4970,1,8,0:0:0:0:
225,193,6029,1,0,0:0:0:0:
225,193,7087,1,8,0:0:0:0:
225,193,7440,1,0,0:0:0:0:
204,188,8146,1,0,0:0:0:0:
204,188,9205,1,8,0:0:0:0:
209,193,10264,1,0,0:0:0:0:
209,193,11323,1,0,0:0:0:0:
209,193,12382,1,8,0:0:0:0:
209,193,13087,1,0,0:0:0:0:
209,193,13440,1,8,0:0:0:0:
209,193,14499,1,0,0:0:0:0:
209,193,15558,1,8,0:0:0:0:
193,158,16549,1,8,0:0:0:0:
172,159,16983,1,8,0:0:0:0:
172,159,17418,1,4,0:0:0:0:
172,159,18287,1,0,0:0:0:0:
172,159,19157,1,0,0:0:0:0:
172,159,19591,1,0,0:0:0:0:
172,159,20026,1,8,0:0:0:0:
172,159,20896,1,8,0:0:0:0:
177,154,21331,1,8,0:0:0:0:
172,159,21765,1,0,0:0:0:0:
172,159,22635,1,8,0:0:0:0:
172,159,24374,1,8,0:0:0:0:
172,159,25244,1,0,0:0:0:0:
172,159,26113,1,0,0:0:0:0:
172,159,26983,1,8,0:0:0:0:
172,159,27417,1,8,0:0:0:0:
172,159,27852,1,0,0:0:0:0:
172,159,28722,1,8,0:0:0:0:
172,159,29591,1,0,0:0:0:0:
161,164,30026,1,0,0:0:0:0:
172,159,30461,1,8,0:0:0:0:
172,159,30896,1,8,0:0:0:0:
172,159,31331,1,4,0:0:0:0:
172,159,33070,1,0,0:0:0:0:
161,151,33939,1,8,0:0:0:0:
161,151,34809,1,0,0:0:0:0:
161,151,36548,1,0,0:0:0:0:
161,151,37417,1,8,0:0:0:0:
161,151,38287,1,8,0:0:0:0:
161,151,40026,1,8,0:0:0:0:
161,151,40896,1,0,0:0:0:0:
161,151,41765,1,8,0:0:0:0:
161,151,42635,1,0,0:0:0:0:
161,151,43070,1,8,0:0:0:0:
161,151,43504,1,12,0:0:0:0:
161,151,45244,1,0,0:0:0:0:
161,151,46983,1,12,0:0:0:0:
161,151,47852,1,8,0:0:0:0:
161,151,48722,1,0,0:0:0:0:
161,151,49591,1,0,0:0:0:0:
161,151,50026,1,0,0:0:0:0:
161,151,50461,1,8,0:0:0:0:
161,151,51331,1,8,0:0:0:0:
161,151,52200,1,8,0:0:0:0:
161,151,53070,1,0,0:0:0:0:
161,151,53504,1,8,0:0:0:0:
161,151,53939,1,0,0:0:0:0:
161,151,54809,1,0,0:0:0:0:
161,151,55678,1,8,0:0:0:0:
154,137,56548,1,0,0:0:0:0:
224,180,56983,1,0,0:0:0:0:
154,137,57417,1,8,0:0:0:0:
154,137,58287,1,8,0:0:0:0:
154,137,59157,1,8,0:0:0:0:
151,115,59591,1,8,0:0:0:0:
154,137,60026,1,0,0:0:0:0:
151,115,60896,1,4,0:0:0:0:
147,108,61983,1,8,0:0:0:0:
151,115,62200,1,8,0:0:0:0:
147,108,62635,1,0,0:0:0:0:
155,100,63722,1,0,0:0:0:0:
155,100,63939,1,0,0:0:0:0:
155,100,64374,1,8,0:0:0:0:
155,100,65461,1,0,0:0:0:0:
155,100,65678,1,0,0:0:0:0:
155,100,66113,1,8,0:0:0:0:
155,100,66983,1,8,0:0:0:0:
155,100,67852,1,0,0:0:0:0:
155,100,68939,1,8,0:0:0:0:
155,100,69157,1,8,0:0:0:0:
155,100,69591,1,0,0:0:0:0:
155,100,70678,1,8,0:0:0:0:
155,100,70896,1,8,0:0:0:0:
155,100,71331,1,4,0:0:0:0:
155,100,72200,1,8,0:0:0:0:
155,100,73070,1,0,0:0:0:0:
155,100,73939,1,8,0:0:0:0:
155,100,74809,1,0,0:0:0:0:
155,100,75678,1,0,0:0:0:0:
155,100,76548,1,12,0:0:0:0:
162,100,78287,1,4,0:0:0:0:
158,162,79157,1,8,0:0:0:0:
240,212,79591,1,0,0:0:0:0:
158,162,80026,1,0,0:0:0:0:
158,162,80896,1,8,0:0:0:0:
158,162,81765,1,8,0:0:0:0:
158,162,82200,1,0,0:0:0:0:
163,166,82635,1,0,0:0:0:0:
163,166,83504,1,8,0:0:0:0:
163,166,84374,1,0,0:0:0:0:
163,166,84809,1,0,0:0:0:0:
163,166,85244,1,8,0:0:0:0:
163,166,86113,1,8,0:0:0:0:
163,166,86548,1,8,0:0:0:0:
163,166,86983,1,0,0:0:0:0:
163,166,87852,1,8,0:0:0:0:
163,166,88722,1,0,0:0:0:0:
151,153,89591,1,0,0:0:0:0:
163,166,90461,1,8,0:0:0:0:
196,164,91331,1,0,0:0:0:0:
155,171,91765,1,8,0:0:0:0:
155,171,92200,1,4,0:0:0:0:
172,159,93939,1,0,0:0:0:0:
161,151,94809,1,8,0:0:0:0:
161,151,95678,1,0,0:0:0:0:
161,151,97417,1,0,0:0:0:0:
161,151,98287,1,8,0:0:0:0:
161,151,98722,1,0,0:0:0:0:
161,151,99157,1,8,0:0:0:0:
161,151,100896,1,8,0:0:0:0:
161,151,101765,1,0,0:0:0:0:
161,151,102635,1,8,0:0:0:0:
161,151,103504,1,0,0:0:0:0:
161,151,103939,1,8,0:0:0:0:
161,151,104374,1,12,0:0:0:0:
161,151,106113,1,0,0:0:0:0:
161,151,107852,1,12,0:0:0:0:
161,151,108721,1,8,0:0:0:0:
161,151,109591,1,0,0:0:0:0:
161,151,110460,1,0,0:0:0:0:
161,151,110895,1,0,0:0:0:0:
161,151,111330,1,8,0:0:0:0:
161,151,112200,1,8,0:0:0:0:
161,151,113069,1,8,0:0:0:0:
161,151,113939,1,0,0:0:0:0:
161,151,114373,1,8,0:0:0:0:
161,151,114808,1,0,0:0:0:0:
161,151,115678,1,0,0:0:0:0:
161,151,116547,1,8,0:0:0:0:
154,137,117417,1,0,0:0:0:0:
224,180,117852,1,0,0:0:0:0:
154,137,118286,1,8,0:0:0:0:
154,137,119156,1,8,0:0:0:0:
154,137,120026,1,8,0:0:0:0:
151,115,120460,1,8,0:0:0:0:
154,137,120895,1,0,0:0:0:0:
151,115,121765,1,4,0:0:0:0:
156,147,123504,1,0,0:0:0:0:
156,147,124374,1,8,0:0:0:0:
156,147,124809,1,8,0:0:0:0:
156,147,125244,1,8,0:0:0:0:
156,147,126983,1,0,0:0:0:0:
156,147,127852,1,8,0:0:0:0:
170,147,128287,1,0,0:0:0:0:
156,147,128722,1,8,0:0:0:0:
156,147,130461,1,8,0:0:0:0:
156,147,131331,1,0,0:0:0:0:
156,147,131765,1,8,0:0:0:0:
156,147,132200,1,0,0:0:0:0:
156,147,133939,1,0,0:0:0:0:
156,147,134809,1,8,0:0:0:0:
155,150,135244,1,8,0:0:0:0:
155,150,135678,1,4,0:0:0:0:
137,143,136548,1,8,0:0:0:0:
137,143,137417,1,8,0:0:0:0:
137,143,138287,1,0,0:0:0:0:
137,143,138722,1,8,0:0:0:0:
137,143,139157,1,0,0:0:0:0:
137,143,140026,1,8,0:0:0:0:
137,143,140896,1,0,0:0:0:0:
137,143,141765,1,8,0:0:0:0:
137,143,142200,1,8,0:0:0:0:
137,143,142635,1,4,0:0:0:0:
137,143,143504,1,8,0:0:0:0:
137,143,144374,1,0,0:0:0:0:
137,143,145244,1,8,0:0:0:0:
260,148,145678,1,0,0:0:0:0:
137,143,146113,1,0,0:0:0:0:
137,143,146983,1,8,0:0:0:0:
137,143,147852,1,0,0:0:0:0:
137,143,149591,1,4,0:0:0:0:
147,108,150678,1,8,0:0:0:0:
151,115,150896,1,8,0:0:0:0:
147,108,151331,1,8,0:0:0:0:
155,100,152417,1,0,0:0:0:0:
155,100,152635,1,0,0:0:0:0:
155,100,153070,1,8,0:0:0:0:
155,100,154157,1,0,0:0:0:0:
155,100,154374,1,0,0:0:0:0:
155,100,154809,1,8,0:0:0:0:
155,100,155678,1,8,0:0:0:0:
155,100,156548,1,0,0:0:0:0:
155,100,157635,1,8,0:0:0:0:
155,100,157852,1,8,0:0:0:0:
155,100,158287,1,0,0:0:0:0:
155,100,159374,1,0,0:0:0:0:
155,100,159591,1,0,0:0:0:0:
155,100,160026,1,4,0:0:0:0:
155,100,161765,1,0,0:0:0:0:
155,100,163504,1,4,0:0:0:0:
155,100,165244,1,8,0:0:0:0:
141,123,166983,1,4,0:0:0:0:
141,123,168722,1,8,0:0:0:0:
141,123,170461,1,4,0:0:0:0:
141,123,172200,1,8,0:0:0:0:
141,123,173178,1,8,0:0:0:0:
141,123,174156,1,8,0:0:0:0:
141,123,175134,1,8,0:0:0:0:
141,123,176113,1,8,0:0:0:0:
256,192,176439,12,8,178884,0:0:0:0:
203,173,179265,5,8,0:0:0:0:
203,173,180323,1,0,0:0:0:0:
209,170,181411,1,8,0:0:0:0:
209,170,182470,1,0,0:0:0:0:
209,170,183529,1,8,0:0:0:0:
148,192,184235,1,0,0:0:0:0:
209,170,184588,1,8,0:0:0:0:
209,170,185647,1,0,0:0:0:0:
209,170,186705,1,8,0:0:0:0:
209,170,187058,1,0,0:0:0:0:
209,170,187764,1,0,0:0:0:0:
209,170,188823,1,0,0:0:0:0:
209,170,189882,1,8,0:0:0:0:
209,170,190941,1,0,0:0:0:0:
209,170,192000,1,8,0:0:0:0:
209,170,192705,1,0,0:0:0:0:
209,170,193058,1,8,0:0:0:0:
209,170,194117,1,8,0:0:0:0:
203,177,195176,1,0,0:0:0:0:
203,177,196045,1,0,0:0:0:0:
207,166,196915,1,4,0:0:0:0:
158,162,197784,1,8,0:0:0:0:
158,162,198654,1,0,0:0:0:0:
112,224,199088,1,0,0:0:0:0:
158,162,199523,1,8,0:0:0:0:
158,162,199958,1,0,0:0:0:0:
158,162,200393,1,8,0:0:0:0:
163,166,201262,1,0,0:0:0:0:
163,166,202132,1,8,0:0:0:0:
163,166,203001,1,0,0:0:0:0:
163,166,203436,1,8,0:0:0:0:
163,166,203871,1,8,0:0:0:0:
163,166,204741,1,8,0:0:0:0:
163,166,205610,1,0,0:0:0:0:
192,248,206045,1,0,0:0:0:0:
163,166,206480,1,8,0:0:0:0:
163,166,206915,1,8,0:0:0:0:
163,166,207349,1,0,0:0:0:0:
166,158,208219,1,0,0:0:0:0:
163,166,209088,1,8,0:0:0:0:
162,147,209958,1,0,0:0:0:0:
155,171,210393,1,8,0:0:0:0:
155,171,210828,1,4,0:0:0:0:
149,176,211697,1,8,0:0:0:0:
149,176,212567,1,8,0:0:0:0:
149,176,213436,1,0,0:0:0:0:
200,192,213871,1,0,0:0:0:0:
149,176,214306,1,8,0:0:0:0:
149,176,215175,1,8,0:0:0:0:
118,181,215610,1,0,0:0:0:0:
149,176,216045,1,8,0:0:0:0:
149,176,216915,1,8,0:0:0:0:
149,176,217784,1,8,0:0:0:0:
149,176,218654,1,8,0:0:0:0:
166,182,219523,1,0,0:0:0:0:
149,176,220393,1,0,0:0:0:0:
152,173,220828,1,8,0:0:0:0:
152,173,221262,1,0,0:0:0:0:
141,162,222132,1,8,0:0:0:0:
141,162,223001,1,8,0:0:0:0:
141,162,223871,1,8,0:0:0:0:
141,162,224306,1,8,0:0:0:0:
141,162,224741,1,4,0:0:0:0:
141,162,226480,1,0,0:0:0:0:
141,162,227349,1,8,0:0:0:0:
141,162,228219,1,0,0:0:0:0:
141,162,229088,1,8,0:0:0:0:
141,162,229523,1,8,0:0:0:0:
141,162,229958,1,0,0:0:0:0:
141,162,230828,1,8,0:0:0:0:
141,162,231697,1,0,0:0:0:0:
141,162,232567,1,0,0:0:0:0:
141,162,233001,1,8,0:0:0:0:
141,162,233436,1,0,0:0:0:0:
141,162,234306,1,0,0:0:0:0:
141,162,235175,1,8,0:0:0:0:
141,162,236045,1,0,0:0:0:0:
141,162,236480,1,8,0:0:0:0:
141,162,236915,1,8,0:0:0:0:
141,162,237784,1,0,0:0:0:0:
141,162,238654,1,0,0:0:0:0:
284,184,239523,1,0,0:0:0:0:
141,162,240393,1,8,0:0:0:0:
284,188,241262,1,0,0:0:0:0:
141,162,242132,1,0,0:0:0:0:
141,162,243001,1,8,0:0:0:0:
141,162,243871,1,0,0:0:0:0:
141,162,244741,1,8,0:0:0:0:
141,162,245610,1,0,0:0:0:0:
145,159,247349,1,8,0:0:0:0:
145,159,249088,1,0,0:0:0:0:
256,192,250828,12,0,259958,0:0:0:0:
