osu file format v14

[General]
AudioFilename: audio.mp3
AudioLeadIn: 0
PreviewTime: 77414
Countdown: 1
SampleSet: Soft
StackLeniency: 0.4
Mode: 0
LetterboxInBreaks: 0
WidescreenStoryboard: 0

[Editor]
Bookmarks: 94371
DistanceSpacing: 1.5
BeatDivisor: 8
GridSize: 4
TimelineZoom: 1

[Metadata]
Title:Snow Song Show
TitleUnicode:Snow Song Show
Artist:sasakure.UK x DECO*27
ArtistUnicode:sasakure.UK x DECO*27
Creator:Lokidoki
Version:Omoidashite
Source:
Tags:christmas xmas santa claus hatsune miku vocaloid ezek rizen
BeatmapID:1124193
BeatmapSetID:530295

[Difficulty]
HPDrainRate:5.5
CircleSize:4.2
OverallDifficulty:7.5
ApproachRate:9
SliderMultiplier:1.8
SliderTickRate:1

[Events]
//Background and Video events
0,0,"Snow.Song.Show.full.1380319.jpg",0,0
//Break Periods
//Storyboard Layer 0 (Background)
//Storyboard Layer 1 (Fail)
//Storyboard Layer 2 (Pass)
//Storyboard Layer 3 (Foreground)
//Storyboard Sound Samples

[TimingPoints]
561,352.941176470588,6,2,0,25,1,0
737,352.941176470588,6,2,0,25,1,0
737,-200,6,2,0,25,0,0
16266,600,4,1,0,40,1,0
16266,-100,4,1,0,10,0,0
16566,434.782608695652,4,1,0,40,1,0
16566,-100,4,3,0,40,0,0
17415,434.782608695652,4,1,0,50,1,0
17415,-100,4,1,0,50,0,0
17435,-100,4,1,0,50,0,0
31328,-100,4,2,0,50,0,0
42632,-100,4,1,0,50,0,0
43936,-100,4,1,0,30,0,0
44371,-100,4,1,0,50,0,0
44806,-100,4,1,0,30,0,0
46980,-100,4,1,0,50,0,0
60893,-100,4,1,0,50,0,0
71328,-200,4,2,0,30,0,0
76545,-100,4,1,0,50,0,0
77414,-133.333333333333,4,1,0,40,0,0
78284,-100,4,1,0,70,0,1
92197,-100,4,1,0,50,0,0
93067,-100,4,1,0,30,0,0
93719,-100,4,1,0,20,0,0
172215,326.086956521739,6,1,0,60,1,0
179290,352.941176470588,7,2,0,40,1,0
180348,352.941176470588,6,2,0,40,1,0
195171,434.782608695652,4,2,0,50,1,0

[Colours]
Combo1 : 37,185,239
Combo2 : 255,203,151

[HitObjects]
120,96,561,5,2,2:2:0:0:
120,96,649,1,2,2:2:0:0:
120,96,737,2,0,L|108:192,1,90,4|0,0:0|0:0,0:0:0:0:
196,300,1442,1,0,0:0:0:0:
316,220,1795,2,0,P|280:180|236:160,1,90,2|0,0:0|0:0,0:0:0:0:
196,300,2501,1,0,0:0:0:0:
380,148,2766,1,2,0:0:0:0:
380,148,2854,6,0,P|340:128|300:88,1,90,2|0,0:0|0:0,0:0:0:0:
307,97,3560,1,2,0:0:0:0:
203,69,3913,1,2,0:0:0:0:
111,125,4266,1,2,0:0:0:0:
119,233,4619,1,2,0:0:0:0:
220,244,4972,6,0,L|160:312,2,90,4|0|4,0:0|0:0|0:0,0:0:0:0:
180,144,6031,1,0,0:0:0:0:
220,244,6384,1,0,0:0:0:0:
300,172,6736,1,0,0:0:0:0:
300,172,6825,1,0,0:0:0:0:
328,248,7089,6,0,L|416:232,2,90,4|0|4,0:0|0:0|0:0,0:0:0:0:
320,356,8148,2,0,L|232:340,2,90,4|0|4,0:0|0:0|0:0,0:0:0:0:
428,352,9031,1,0,0:0:0:0:
428,352,9119,1,0,0:0:0:0:
428,352,9207,6,0,P|464:312|476:268,1,90,4|0,0:0|0:0,0:0:0:0:
452,196,9913,1,0,0:0:0:0:
492,124,10266,2,0,P|476:76|436:40,1,90,4|0,0:0|0:0,0:0:0:0:
388,136,10972,1,0,0:0:0:0:
375,238,11237,1,0,0:0:0:0:
375,238,11325,6,0,P|424:228|460:192,1,90,4|0,0:0|0:0,0:0:0:0:
300,144,12031,1,0,0:0:0:0:
232,228,12384,1,0,0:0:0:0:
208,124,12736,1,0,0:0:0:0:
276,40,13089,1,0,0:0:0:0:
160,184,13442,5,0,0:0:0:0:
396,80,13795,1,0,0:0:0:0:
152,52,14148,1,0,0:0:0:0:
372,216,14501,1,0,0:0:0:0:
372,216,14854,2,0,P|360:264|364:296,1,67.5
372,312,15207,6,0,B|363:375|363:375|319:363,1,90
308,352,15648,1,0,0:0:0:0:
280,356,15736,1,0,0:0:0:0:
252,348,15825,1,0,0:0:0:0:
232,336,15913,2,4,B|180:332|196:348|136:336,1,90,4|0,0:0|0:0,0:0:0:0:
176,148,16566,6,0,P|216:152|256:188,1,90
264,204,16892,2,0,L|360:184,1,90,8|0,0:0|0:0,0:0:0:0:
432,156,17218,1,4,0:0:0:0:
432,156,17326,1,4,0:0:0:0:
416,76,17415,6,0,P|356:72|304:44,1,90,8|0,0:0|0:0,0:0:0:0:
196,80,17849,2,0,P|244:116|296:128,1,90
216,0,18284,2,0,P|144:16|116:56,1,90,8|0,0:0|0:0,0:0:0:0:
164,248,18719,2,0,P|200:192|200:148,1,90
104,96,19154,2,0,P|42:124|16:154,1,90,8|0,0:0|0:0,0:0:0:0:
104,204,19588,2,0,P|79:267|82:307,1,90,8|0,0:0|0:0,0:0:0:0:
196,384,20023,5,8,0:0:0:0:
160,252,20241,1,0,0:0:0:0:
264,340,20458,1,8,0:0:0:0:
132,332,20675,1,0,0:0:0:0:
240,252,20893,1,8,0:0:0:0:
240,252,21110,2,0,P|252:196|284:160,1,90
396,84,21545,1,8,0:0:0:0:
396,84,21762,6,0,P|340:72|304:40,1,90
248,40,22088,2,0,P|196:64|136:64,1,90,4|0,0:0|0:0,0:0:0:0:
100,48,22415,1,8,0:0:0:0:
100,48,22632,2,0,P|72:100|72:164,1,90
84,196,22958,2,2,P|88:252|76:336,1,135,0|0,0:0|0:0,0:0:0:0:
212,320,23501,1,8,0:0:0:0:
344,280,23719,1,0,0:0:0:0:
212,320,23936,1,8,0:0:0:0:
256,192,24154,1,0,0:0:0:0:
380,140,24371,6,0,P|320:136|284:108,1,90,8|0,0:0|0:0,0:0:0:0:
184,44,24806,2,0,P|240:24|288:28,1,90
200,140,25241,2,0,P|200:184|176:248,1,90,8|0,0:0|0:0,0:0:0:0:
152,356,25675,2,0,P|216:372|264:368,1,90
352,352,26110,6,0,P|389:375|434:381,1,90,8|0,0:0|0:0,0:0:0:0:
410,270,26545,2,0,P|371:247|327:239,1,90
272,304,26980,5,8,0:0:0:0:
156,244,27197,1,0,0:0:0:0:
328,240,27414,1,0,0:0:0:0:
80,288,27632,1,8,0:0:0:0:
80,288,27849,6,0,P|68:228|76:168,2,90,0|4|0,0:0|0:0|0:0,0:0:0:0:
156,176,28501,2,0,P|152:112|140:72,2,90,0|4|0,0:0|0:0|0:0,0:0:0:0:
252,80,29154,1,0,0:0:0:0:
372,220,29371,1,0,0:0:0:0:
464,60,29588,1,0,0:0:0:0:
304,144,29806,5,0,0:0:0:0:
276,312,30023,1,0,0:0:0:0:
448,188,30241,5,0,0:0:0:0:
476,356,30458,1,0,0:0:0:0:
276,312,30675,5,0,0:0:0:0:
148,112,30893,1,0,0:0:0:0:
44,296,31110,1,0,0:0:0:0:
44,296,31328,6,8,P|44:232|52:204,1,90,12|8,0:0|0:0,0:0:0:0:
148,112,31762,1,0,0:0:0:0:
32,24,31979,1,0,0:0:0:0:
64,32,32088,1,4,0:0:0:0:
102,41,32197,2,0,P|174:45|214:41,1,90
288,120,32632,1,0,0:0:0:0:
396,40,32849,1,8,0:0:0:0:
396,40,33067,2,0,P|392:88|400:140,1,90,12|0,0:0|0:0,0:0:0:0:
352,256,33501,1,0,0:0:0:0:
228,308,33719,5,0,0:0:0:0:
200,320,33828,1,4,0:0:0:0:
164,328,33936,2,0,P|116:340|76:340,1,90
32,212,34371,1,0,0:0:0:0:
164,184,34588,1,8,0:0:0:0:
164,184,34806,6,0,P|168:140|160:88,1,90,12|0,0:0|0:0,0:0:0:0:
40,32,35241,1,0,0:0:0:0:
172,12,35458,1,0,0:0:0:0:
200,24,35567,1,4,0:0:0:0:
236,32,35675,2,0,P|300:44|352:40,1,90
436,120,36110,1,0,0:0:0:0:
476,28,36328,1,8,0:0:0:0:
340,172,36545,6,0,P|336:232|348:284,1,90,12|0,0:0|0:0,0:0:0:0:
220,324,36980,1,0,0:0:0:0:
84,312,37197,5,0,0:0:0:0:
123,292,37305,1,0,0:0:0:0:
141,252,37414,1,0,0:0:0:0:
128,209,37523,1,0,0:0:0:0:
91,185,37631,1,0,0:0:0:0:
36,64,37849,1,8,0:0:0:0:
8,196,38067,1,8,0:0:0:0:
112,112,38284,2,0,P|140:56|164:32,1,90,12|0,0:0|0:0,0:0:0:0:
292,56,38719,1,0,0:0:0:0:
356,176,38936,5,0,0:0:0:0:
365,132,39044,1,0,0:0:0:0:
400,106,39153,1,0,0:0:0:0:
444,109,39262,1,0,0:0:0:0:
475,139,39370,1,0,0:0:0:0:
436,332,39588,1,8,0:0:0:0:
352,252,39806,1,8,0:0:0:0:
352,252,40023,6,0,P|352:312|336:364,1,90,12|0,0:0|0:0,0:0:0:0:
224,280,40458,1,0,0:0:0:0:
120,196,40676,5,0,0:0:0:0:
140,234,40784,1,0,0:0:0:0:
128,276,40892,1,0,0:0:0:0:
90,298,41001,1,0,0:0:0:0:
47,287,41109,1,0,0:0:0:0:
40,152,41328,1,8,0:0:0:0:
164,96,41545,1,8,0:0:0:0:
232,208,41762,6,0,P|284:172|304:128,1,90,12|0,0:0|0:0,0:0:0:0:
276,16,42197,1,0,0:0:0:0:
384,96,42414,1,0,0:0:0:0:
391,103,42523,1,4,0:0:0:0:
400,112,42632,6,0,L|412:156,3,45
408,196,43067,1,0,0:0:0:0:
406,227,43175,1,0,0:0:0:0:
411,258,43284,1,0,0:0:0:0:
420,288,43393,1,0,0:0:0:0:
435,316,43501,6,2,P|372:308|264:356,1,180,4|4,0:0|0:0,0:0:0:0:
88,152,44371,2,6,P|176:146|255:188,1,180,4|4,0:0|0:0,0:0:0:0:
256,188,45241,1,8,0:0:0:0:
0,272,45675,1,8,0:0:0:0:
300,72,46110,1,8,0:0:0:0:
103,297,46545,2,0,L|108:268,5,30
112,252,46980,6,0,P|112:196|128:152,1,90,8|4,0:0|0:0,0:0:0:0:
184,44,47414,1,0,0:0:0:0:
228,51,47522,1,0,0:0:0:0:
273,51,47631,1,0,0:0:0:0:
317,44,47740,1,0,0:0:0:0:
360,28,47849,2,0,P|368:80|388:112,1,90,0|4,0:0|0:0,0:0:0:0:
448,232,48284,1,8,0:0:0:0:
448,232,48501,2,0,P|384:224|336:236,1,90
244,300,48936,5,4,0:0:0:0:
256,164,49154,1,0,0:0:0:0:
240,176,49262,2,0,L|184:204,4,45
256,164,49806,2,0,P|244:96|248:56,1,90,8|4,0:0|0:0,0:0:0:0:
168,32,50132,2,0,P|176:84|164:140,1,90,4|0,0:0|0:0,0:0:0:0:
116,160,50458,1,4,0:0:0:0:
36,268,50675,1,0,0:0:0:0:
148,344,50893,5,0,0:0:0:0:
192,351,51001,1,0,0:0:0:0:
237,349,51110,1,0,0:0:0:0:
280,337,51219,1,0,0:0:0:0:
320,316,51328,2,0,P|368:328|412:320,1,90,12|0,0:0|0:0,0:0:0:0:
456,276,51654,2,0,P|436:224|448:176,1,90,4|0,0:0|0:0,0:0:0:0:
376,172,51980,1,0,0:0:0:0:
240,172,52197,1,0,0:0:0:0:
44,48,52632,5,8,0:0:0:0:
312,88,53067,1,4,0:0:0:0:
116,272,53501,1,8,0:0:0:0:
196,12,53936,6,0,P|244:24|316:12,1,90,12|0,0:0|0:0,0:0:0:0:
420,24,54371,2,4,L|452:64,3,45
468,124,54806,2,0,P|400:160|384:188,1,90,12|0,0:0|0:0,0:0:0:0:
280,244,55241,1,0,0:0:0:0:
280,244,55458,2,0,P|224:236|164:240,1,90,8|0,0:0|0:0,0:0:0:0:
64,284,55893,1,4,0:0:0:0:
188,336,56110,1,0,0:0:0:0:
232,324,56219,1,0,0:0:0:0:
275,325,56327,1,0,0:0:0:0:
320,332,56436,1,0,0:0:0:0:
360,356,56545,6,0,P|408:372|452:360,1,90,12|0,0:0|0:0,0:0:0:0:
408,300,56871,2,0,P|404:240|424:200,1,90,4|0,0:0|0:0,0:0:0:0:
348,192,57197,2,4,P|288:200|244:188,1,90
128,216,57632,1,8,0:0:0:0:
176,88,57849,1,0,0:0:0:0:
176,88,57958,1,0,0:0:0:0:
176,88,58067,2,0,L|164:36,3,45
100,28,58501,2,0,P|56:40|8:40,1,90,4|0,0:0|0:0,0:0:0:0:
16,112,58828,2,0,P|12:164|20:208,1,90,4|0,0:0|0:0,0:0:0:0:
256,192,59154,12,0,60458,0:0:0:0:
256,240,60893,6,0,P|304:232|344:192,1,90,8|0,0:0|0:0,0:0:0:0:
228,124,61328,1,0,0:0:0:0:
172,248,61545,1,0,0:0:0:0:
172,248,61654,1,0,0:0:0:0:
172,248,61762,2,0,P|144:272|128:312,2,60,8|0|0,0:0|0:0|0:0,0:0:0:0:
152,176,62197,1,0,0:0:0:0:
60,116,62414,1,0,0:0:0:0:
152,40,62632,6,0,P|204:48|256:44,1,90,8|0,0:0|0:0,0:0:0:0:
376,24,63067,1,0,0:0:0:0:
480,112,63284,1,0,0:0:0:0:
480,112,63393,1,0,0:0:0:0:
396,216,63610,1,0,0:0:0:0:
396,216,63719,1,0,0:0:0:0:
448,340,63936,2,0,P|396:356|348:356,1,90,8|0,0:0|0:0,0:0:0:0:
248,280,64371,6,0,P|312:288|368:276,1,90,8|0,0:0|0:0,0:0:0:0:
284,160,64806,1,0,0:0:0:0:
160,208,65023,1,0,0:0:0:0:
188,76,65241,1,8,0:0:0:0:
188,76,65349,1,0,0:0:0:0:
188,76,65458,2,0,P|148:40|104:28,1,90
68,156,65893,1,0,0:0:0:0:
133,244,66110,6,0,L|165:200,3,45,4|0|4|0,0:0|0:0|0:0|0:0,0:0:0:0:
124,280,66545,1,0,0:0:0:0:
148,297,66653,1,0,0:0:0:0:
173,314,66762,1,0,0:0:0:0:
197,331,66871,1,0,0:0:0:0:
236,292,66980,2,0,L|272:240,3,45,4|0|4|0,0:0|0:0|0:0|0:0,0:0:0:0:
276,348,67414,1,0,0:0:0:0:
305,353,67522,1,0,0:0:0:0:
335,358,67631,1,0,0:0:0:0:
364,363,67740,1,0,0:0:0:0:
400,372,67849,6,0,P|428:324|428:284,1,90,8|0,0:0|0:0,0:0:0:0:
292,184,68284,2,0,P|360:180|396:160,1,90
408,160,68610,1,0,0:0:0:0:
439,129,68718,1,0,0:0:0:0:
440,85,68827,1,0,0:0:0:0:
410,53,68936,1,0,0:0:0:0:
324,112,69154,2,0,P|272:108|228:76,1,90
84,132,69588,5,8,0:0:0:0:
84,132,69697,1,0,0:0:0:0:
84,132,69806,2,0,L|72:240,1,90
128,344,70241,1,0,0:0:0:0:
157,337,70349,1,0,0:0:0:0:
187,336,70458,1,8,0:0:0:0:
216,343,70567,1,0,0:0:0:0:
236,356,70675,2,0,P|288:364|332:348,1,90,0|4,0:0|0:0,0:0:0:0:
412,252,71110,1,0,0:0:0:0:
412,252,71219,1,0,0:0:0:0:
412,252,71328,6,0,L|420:188,1,45,4|0,0:0|0:0,0:0:0:0:
404,176,71654,1,0,0:0:0:0:
404,176,71762,2,0,L|408:92,1,67.5,8|0,0:0|0:0,0:0:0:0:
380,88,72197,2,0,P|324:88|276:20,1,135
216,56,73067,6,0,L|204:112,1,45,4|0,0:0|0:0,0:0:0:0:
204,132,73393,1,0,0:0:0:0:
204,132,73501,2,0,L|188:204,1,67.5,8|0,0:0|0:0,0:0:0:0:
180,232,73936,2,0,P|180:292|104:292,1,135
112,236,74806,6,2,P|72:192|80:112,1,135,0|0,0:0|0:0,0:0:0:0:
176,48,75675,2,2,P|181:113|139:163,1,135,0|0,0:0|0:0,0:0:0:0:
132,296,76545,5,8,0:0:0:0:
336,252,76871,1,8,0:0:0:0:
232,344,77197,1,8,0:0:0:0:
310,314,77414,6,0,L|338:246,1,67.5000025749208,4|0,0:0|0:0,0:0:0:0:
384,228,77741,2,0,P|420:208|436:148,1,101.250003862381
500,20,78284,6,0,P|448:32|400:20,1,90,8|0,0:0|0:0,0:0:0:0:
344,144,78719,2,0,L|324:48,1,90
254,55,79154,2,0,L|236:144,1,90,8|0,0:0|0:0,0:0:0:0:
167,25,79589,2,0,P|123:31|80:20,1,90
44,148,80023,2,0,P|32:216|44:252,1,90,8|0,0:0|0:0,0:0:0:0:
164,192,80458,1,0,0:0:0:0:
140,324,80675,5,0,0:0:0:0:
351,292,80893,1,8,0:0:0:0:
164,192,81110,1,0,0:0:0:0:
260,92,81328,1,8,0:0:0:0:
336,204,81545,1,0,0:0:0:0:
336,204,81762,2,0,L|352:296,1,90,8|0,0:0|0:0,0:0:0:0:
492,236,82197,1,0,0:0:0:0:
464,104,82414,1,0,0:0:0:0:
332,96,82632,2,0,P|284:104|236:88,2,90,8|0|0,0:0|0:0|0:0,0:0:0:0:
220,20,83284,6,0,P|184:56|168:96,1,90,0|8,0:0|0:0,0:0:0:0:
263,177,83719,2,0,P|243:137|247:85,1,90,0|8,0:0|0:0,0:0:0:0:
136,180,84154,1,0,0:0:0:0:
224,284,84371,2,0,L|352:264,1,90,8|0,0:0|0:0,0:0:0:0:
132,252,84806,2,0,L|40:268,1,90,8|0,0:0|0:0,0:0:0:0:
176,348,85241,6,0,P|224:364|272:360,1,90
296,360,85567,1,0,0:0:0:0:
328,352,85675,2,0,P|384:340|424:344,1,90,8|0,0:0|0:0,0:0:0:0:
480,308,86110,2,0,L|452:216,1,90,8|0,0:0|0:0,0:0:0:0:
392,184,86545,2,0,L|424:96,1,90
304,60,86980,2,0,L|332:152,1,90,8|0,0:0|0:0,0:0:0:0:
392,184,87415,2,0,L|360:272,1,90
252,348,87849,5,8,0:0:0:0:
96,340,88067,1,0,0:0:0:0:
192,220,88284,1,8,0:0:0:0:
252,348,88501,1,0,0:0:0:0:
252,348,88719,2,0,L|160:328,2,90,12|0|0,0:0|0:0|0:0,0:0:0:0:
376,272,89371,2,0,L|480:296,2,90,4|0|4,0:0|0:0|0:0,0:0:0:0:
360,132,90023,5,0,0:0:0:0:
224,212,90241,1,0,0:0:0:0:
360,132,90458,1,0,0:0:0:0:
224,212,90675,1,0,0:0:0:0:
152,40,90893,5,0,0:0:0:0:
360,272,91110,1,0,0:0:0:0:
152,40,91328,1,0,0:0:0:0:
360,272,91545,1,0,0:0:0:0:
104,152,91762,5,0,0:0:0:0:
328,32,91980,1,0,0:0:0:0:
256,192,92197,12,4,93936,0:0:0:0:
